<?xml version="1.0" standalone="no"?>
<!DOCTYPE svg PUBLIC "-//W3C//DTD SVG 1.1//EN" "http://www.w3.org/Graphics/SVG/1.1/DTD/svg11.dtd" >
<svg xmlns="http://www.w3.org/2000/svg" xmlns:xlink="http://www.w3.org/1999/xlink" version="1.1">
<metadata>
Created by FontForge 20170731 at Fri Mar 29 22:16:03 2013
 By Aleksey,,,
Copyright (c) 1995 ParaGraph Intl., (c) 1998 ParaType Inc., ParaType Ltd. All rights reserved.
</metadata>
<defs>
<font id="FuturaPTCond-MediumObl" horiz-adv-x="500" >
  <font-face 
    font-family="Futura PT Cond Medium Italic"
    font-weight="400"
    font-style="italic"
    font-stretch="condensed"
    units-per-em="1000"
    panose-1="2 11 6 6 2 2 4 9 2 3"
    ascent="763"
    descent="-237"
    x-height="447"
    cap-height="667"
    bbox="-183 -250 758 921"
    underline-thickness="50"
    underline-position="-200"
    slope="-7"
    unicode-range="U+0020-FB02"
  />
<missing-glyph horiz-adv-x="233" 
 />
    <glyph glyph-name="afii10017.var.accented" unicode="&#x410;`" horiz-adv-x="355" 
d="M326 0h-88l-8 130h-131l-40 -130h-86l225 667h69zM120 199h105q-10 176 -10 264q0 49 1 74q-4 -16 -11.5 -46.5t-11.5 -46.5q-21 -83 -73 -245zM166 762l95 122l66 -39l-115 -112z" />
    <glyph glyph-name="afii10022.var.accented" unicode="&#x415;`" horiz-adv-x="316" 
d="M339 667l-9 -76h-146l-26 -212h130l-10 -76h-130l-27 -227h146l-9 -76h-235l81 667h235zM147 762l95 122l66 -39l-115 -112z" />
    <glyph glyph-name="afii10026.var.accented" unicode="&#x418;`" horiz-adv-x="410" 
d="M23 0l82 667h88l-34 -271q-11 -92 -45 -223q52 127 81 191l138 303h80l-82 -667h-88l36 295q14 101 43 205q-40 -107 -71 -177l-148 -323h-80zM194 762l95 122l66 -39l-115 -112z" />
    <glyph glyph-name="afii10032.var.accented" unicode="&#x41e;`" horiz-adv-x="416" 
d="M403 489q0 -176 -41 -323q-23 -81 -64 -128t-116 -47q-141 0 -141 180q0 166 32 305q20 90 63 144.5t125 54.5q142 0 142 -186zM311 495q0 18 -0.5 27.5t-3.5 25.5t-8.5 24.5t-17.5 15t-29 6.5q-51 0 -74 -66q-7 -19 -12 -38t-9.5 -45.5t-6 -37t-5.5 -46t-4 -39.5
q-11 -90 -11 -147q0 -101 59 -101q35 0 52.5 23t28.5 64q17 67 28 164q13 104 13 170zM197 762l95 122l66 -39l-115 -112z" />
    <glyph glyph-name="afii10037.var.accented" unicode="&#x423;`" horiz-adv-x="355" 
d="M50 667h94l34 -168q20 -98 27 -156q21 76 47 153l58 171h90l-238 -667h-88l79 224zM166 762l95 122l66 -39l-115 -112z" />
    <glyph glyph-name="afii10045.var.accented" unicode="&#x42b;`" horiz-adv-x="514" 
d="M517 667l-82 -667h-87l81 667h88zM105 667h88l-35 -285h6q86 0 129 -43q38 -39 38 -116q0 -122 -56 -178q-45 -45 -124 -45h-128zM149 306l-29 -230h4q52 0 77 24q36 34 36 125q0 44 -22 64q-19 17 -64 17h-2zM246 762l95 122l66 -39l-115 -112z" />
    <glyph glyph-name="afii10047.var.accented" unicode="&#x42d;`" horiz-adv-x="374" 
d="M20 26l11 94q34 -41 80 -41q41 0 69 27q56 52 71 204h-153l9 76h152q3 28 3 55q0 95 -37 129q-22 22 -59 22q-43 0 -76 -36l12 95q37 25 84 25q69 0 114 -43q59 -59 59 -194q0 -112 -22 -208q-30 -132 -88 -189q-52 -51 -131 -51q-58 0 -98 35zM160 762l95 122l66 -39
l-115 -112z" />
    <glyph glyph-name="afii10048.var.accented" unicode="&#x42e;`" horiz-adv-x="586" 
d="M431 675q59 0 94 -31q48 -42 48 -157q0 -127 -22 -241q-29 -155 -83 -209q-46 -46 -120 -46q-60 0 -94 36q-41 43 -41 151q0 67 8 147h-70l-40 -325h-88l81 667h89l-34 -266h71q25 167 86 228q45 46 115 46zM422 594q-28 0 -48 -21q-30 -31 -49 -142q-9 -48 -17 -130
t-8 -126q0 -66 22 -87q16 -14 37 -14q27 0 48 19q31 29 50 149q24 153 24 263q0 52 -16 72q-15 17 -43 17zM282 762l95 122l66 -39l-115 -112z" />
    <glyph glyph-name="afii10049.var.accented" unicode="&#x42f;`" horiz-adv-x="374" 
d="M10 0l148 308q-41 13 -66 47q-25 36 -25 96q0 59 19.5 109t50.5 75q26 21 54.5 26.5t71.5 5.5h114l-82 -667h-88l38 304l-136 -304h-99zM280 593h-19q-42 0 -65 -21q-37 -34 -37 -114q0 -44 21 -66q22 -23 67 -23h5zM176 762l95 122l66 -39l-115 -112z" />
    <glyph glyph-name="afii10023.var.accented" unicode="&#x401;`" horiz-adv-x="316" 
d="M339 667l-9 -76h-146l-26 -212h130l-10 -76h-130l-27 -227h146l-9 -76h-235l81 667h235zM173 762l95 122l53 -31l-115 -112zM160 783q0 -19 -14.5 -33t-33.5 -14q-16 0 -26 10.5t-10 26.5q0 19 14 33.5t33 14.5q16 0 26.5 -10.5t10.5 -27.5zM371 783q0 -19 -14 -33
t-33 -14q-16 0 -27 10.5t-11 26.5q0 19 14.5 33.5t34.5 14.5q16 0 26 -10.5t10 -27.5z" />
    <glyph glyph-name="afii10065.var.accented" unicode="&#x430;`" horiz-adv-x="343" 
d="M324 447l-55 -447h-81l7 57q-18 -32 -37.5 -48t-51.5 -16q-83 0 -83 130q0 45 4.5 91.5t17.5 106t43.5 96.5t74.5 37q51 0 74 -58l6 51h81zM224 309q0 70 -38 70q-44 0 -62 -85q-18 -83 -18 -155t41 -72q39 0 57 76q20 83 20 166zM160 542l95 122l66 -39l-115 -112z" />
    <glyph glyph-name="afii10070.var.accented" unicode="&#x435;`" horiz-adv-x="321" 
d="M206 151h76q-9 -57 -28 -90q-18 -32 -49.5 -50t-68.5 -18q-113 0 -113 148q0 82 22 168q38 145 145 145q60 0 84.5 -45t24.5 -110q0 -40 -7 -92h-185q-4 -40 -4 -59q0 -17 1 -27t4.5 -25.5t13 -23.5t24.5 -8q50 0 60 87zM218 300v15q0 69 -38 69q-8 0 -14.5 -2.5
t-12 -8.5t-10 -11.5t-8.5 -15t-6.5 -16t-5 -18t-4 -16.5t-3.5 -16t-2 -13h103q1 11 1 33zM149 542l95 122l66 -39l-115 -112z" />
    <glyph glyph-name="afii10074.var.accented" unicode="&#x438;`" horiz-adv-x="368" 
d="M73 447h82l-27 -219q-2 -12 -13 -81q17 43 38 82l116 218h80l-55 -447h-82l27 218q8 53 13 79q-13 -40 -37 -82l-117 -215h-80zM173 542l95 122l66 -39l-115 -112z" />
    <glyph glyph-name="afii10080.var.accented" unicode="&#x43e;`" horiz-adv-x="336" 
d="M311 306q0 -39 -3.5 -76t-14.5 -82t-29 -77.5t-50.5 -55t-75.5 -22.5q-114 0 -114 151q0 50 6.5 97t23.5 98.5t53.5 83t88.5 31.5q115 0 115 -148zM228 314q0 65 -41 65q-23 0 -38 -23q-19 -28 -29 -98.5t-10 -122.5q0 -65 40 -65q23 0 39 24q19 28 29 98.5t10 121.5z
M157 542l95 122l66 -39l-115 -112z" />
    <glyph glyph-name="afii10085.var.accented" unicode="&#x443;`" horiz-adv-x="322" 
d="M346 447l-259 -635h-85l96 224l-67 411h92l26 -312l114 312h83zM149 542l95 122l66 -39l-115 -112z" />
    <glyph glyph-name="afii10093.var.accented" unicode="&#x44b;`" horiz-adv-x="458" 
d="M439 447l-55 -447h-82l55 447h82zM73 447h82l-21 -171h8q76 0 112 -34q34 -32 34 -89q0 -77 -41 -116q-38 -37 -116 -37h-113zM109 70h12q44 0 62 16q21 20 21 59q0 33 -19 48q-16 13 -53 13h-7zM218 542l95 122l66 -39l-115 -112z" />
    <glyph glyph-name="afii10095.var.accented" unicode="&#x44d;`" horiz-adv-x="287" 
d="M10 23l11 84q10 -16 21 -24q15 -12 36 -12q29 0 45 16q31 27 40 105h-98l9 74h96q0 70 -23 93q-16 16 -41 16q-20 0 -36 -11q-12 -7 -22 -21l10 88q31 23 71 23q55 0 90 -37q43 -46 43 -141q0 -64 -16 -133t-57 -110q-40 -40 -97 -40q-50 0 -82 30zM98 542l95 122l66 -39
l-115 -112z" />
    <glyph glyph-name="afii10096.var.accented" unicode="&#x44e;`" horiz-adv-x="485" 
d="M133 270h53q18 100 63 145q38 39 95 39q50 0 79 -29q37 -36 37 -124q0 -75 -17 -151.5t-59 -117.5q-39 -39 -99 -39q-45 0 -72 27q-38 38 -38 138q0 24 1 37h-52l-24 -195h-82l55 447h82zM336 379q-16 0 -28 -11q-22 -19 -36 -95q-13 -76 -13 -136q0 -43 16 -58
q9 -9 24 -9t28 11q25 22 38 100q12 71 12 131q0 44 -16 58q-9 9 -25 9zM231 542l95 122l66 -39l-115 -112z" />
    <glyph glyph-name="afii10097.var.accented" unicode="&#x44f;`" horiz-adv-x="331" 
d="M6 0l104 184q-28 7 -47 31q-21 27 -21 69q0 80 46 125q39 38 115 38h109l-55 -447h-82l22 183l-96 -183h-95zM204 236l17 139h-18q-36 0 -54 -18q-22 -22 -22 -63q0 -30 15 -44t47 -14h15zM154 542l95 122l66 -39l-115 -112z" />
    <glyph glyph-name="afii10071.var.accented" unicode="&#x451;`" horiz-adv-x="321" 
d="M206 151h76q-9 -57 -28 -90q-18 -32 -49.5 -50t-68.5 -18q-113 0 -113 148q0 82 22 168q38 145 145 145q60 0 84.5 -45t24.5 -110q0 -40 -7 -92h-185q-4 -40 -4 -59q0 -17 1 -27t4.5 -25.5t13 -23.5t24.5 -8q50 0 60 87zM218 300v15q0 69 -38 69q-8 0 -14.5 -2.5
t-12 -8.5t-10 -11.5t-8.5 -15t-6.5 -16t-5 -18t-4 -16.5t-3.5 -16t-2 -13h103q1 11 1 33zM131 542l95 122l52 -29l-115 -112zM128 577q0 -17 -13.5 -30.5t-31.5 -13.5q-16 0 -25.5 10t-9.5 25q0 18 13.5 31.5t32.5 13.5q15 0 24.5 -10t9.5 -26zM331 577q0 -17 -13.5 -30.5
t-32.5 -13.5q-15 0 -25 10t-10 25q0 18 14 31.5t32 13.5q16 0 25.5 -10t9.5 -26z" />
    <glyph glyph-name="fi" unicode="fi" horiz-adv-x="367" 
d="M272 728l-11 -87q-18 11 -33 11q-14 0 -23 -5t-13.5 -17t-6.5 -20t-3.5 -24.5t-2.5 -21.5l-15 -117h69l-8 -66h-69l-47 -381h-81l47 381h-41l8 66h41l19 154q8 67 32 103t84 36q27 0 54 -12zM376 587q0 -25 -19 -43.5t-44 -18.5q-20 0 -34 14.5t-14 34.5q0 25 19 44
t44 19q21 0 34.5 -14.5t13.5 -35.5zM348 447l-55 -447h-81l55 447h81z" />
    <glyph glyph-name="fl" unicode="fl" horiz-adv-x="367" 
d="M272 728l-11 -87q-18 11 -33 11q-14 0 -23 -5t-13.5 -17t-6.5 -20t-3.5 -24.5t-2.5 -21.5l-15 -117h69l-8 -66h-69l-47 -381h-81l47 381h-41l8 66h41l19 154q8 67 32 103t84 36q27 0 54 -12zM382 729l-89 -729h-81l89 729h81z" />
    <glyph glyph-name=".notdef" horiz-adv-x="233" 
 />
    <glyph glyph-name=".null" horiz-adv-x="0" 
 />
    <glyph glyph-name="nonmarkingreturn" horiz-adv-x="333" 
 />
    <glyph glyph-name="space" unicode=" " horiz-adv-x="233" 
 />
    <glyph glyph-name="exclam" unicode="!" horiz-adv-x="243" 
d="M218 667l-60 -487h-86l60 487h86zM152 53q0 -24 -18 -42t-42 -18q-19 0 -32.5 13.5t-13.5 33.5q0 24 18 42t42 18q19 0 32.5 -13.5t13.5 -33.5z" />
    <glyph glyph-name="quotedbl" unicode="&#x22;" horiz-adv-x="339" 
d="M332 667l-14 -268h-59l-15 268h88zM184 667l-14 -268h-59l-15 268h88z" />
    <glyph glyph-name="numbersign" unicode="#" horiz-adv-x="600" 
d="M611 476l-20 -73h-108l-35 -127h109l-20 -72h-109l-56 -204h-82l56 204h-128l-57 -204h-81l57 204h-111l20 72h111l35 127h-110l20 73h110l53 191h81l-53 -191h128l53 191h82l-53 -191h108zM401 403h-128l-35 -127h129z" />
    <glyph glyph-name="dollar" unicode="$" horiz-adv-x="380" 
d="M380 575l-72 -33q-6 62 -68 62q-43 0 -64.5 -34t-21.5 -79q0 -32 22.5 -60t50.5 -45t59 -42.5t43 -51.5q13 -27 13 -67q0 -109 -52 -175q-33 -42 -98 -57l-10 -84h-60l10 84q-46 6 -70 29.5t-35 74.5l76 35q7 -32 22 -45.5t46 -13.5q44 0 64 37.5t20 85.5q0 33 -12 52
q-14 24 -62 52q-59 35 -85 71t-26 99q0 78 38.5 139t107.5 66l9 76h60l-9 -76q90 -11 104 -100z" />
    <glyph glyph-name="percent" unicode="%" horiz-adv-x="470" 
d="M234 557q-8 -228 -120 -228q-77 0 -77 105q0 237 119 237q78 0 78 -114zM461 667l-371 -667h-54l371 667h54zM177 559q0 59 -27 59q-26 0 -38 -47q-17 -79 -17 -139q0 -50 27 -50q10 0 17.5 7t13 21t9.5 27t6.5 34t4 32.5t3 32t1.5 23.5zM403 225q0 59 -27 59
q-26 0 -38 -47q-17 -79 -17 -139q0 -50 27 -50q10 0 17.5 7t13 21t9.5 27t6.5 34t4 32.5t3 32t1.5 23.5zM460 223q-8 -228 -120 -228q-77 0 -77 105q0 237 119 237q78 0 78 -114z" />
    <glyph glyph-name="ampersand" unicode="&#x26;" horiz-adv-x="442" 
d="M396 0h-89l-25 52q-21 -24 -49 -39q-31 -17 -68 -17q-59 0 -94 38q-42 44 -42 113q0 61 38 120q32 50 88 93q-13 24 -24 58q-13 43 -13 81q0 83 44 130q41 46 103 46q48 0 78 -30q30 -31 30 -83q0 -61 -35 -117q-33 -54 -93 -98l71 -169q36 37 64 78l40 -57
q-29 -40 -75 -86zM219 408q32 27 56 66q25 42 25 81q0 27 -10 39q-10 13 -29 13q-23 0 -40 -19q-24 -26 -24 -75q0 -45 22 -105zM253 113l-71 179q-35 -30 -50 -62q-19 -38 -19 -77q0 -35 16 -56q19 -26 50 -26q39 0 74 42z" />
    <glyph glyph-name="quotesingle" unicode="'" horiz-adv-x="191" 
d="M184 667l-14 -268h-59l-15 268h88z" />
    <glyph glyph-name="parenleft" unicode="(" horiz-adv-x="263" 
d="M200 740l84 -21q-145 -319 -145 -599q0 -114 35 -291l-89 -23q-39 176 -39 303q0 307 154 631z" />
    <glyph glyph-name="parenright" unicode=")" horiz-adv-x="263" 
d="M100 717l89 23q39 -175 39 -299q0 -149 -41 -317t-113 -318l-84 21q71 163 108 306.5t37 297.5q0 111 -35 286z" />
    <glyph glyph-name="asterisk" unicode="*" horiz-adv-x="389" 
d="M391 605l-110 -25l59 -87l-55 -34l-47 89l-71 -90l-46 38l80 83l-103 25l24 59l96 -38l10 109l62 -6l-20 -104l101 41z" />
    <glyph glyph-name="plus" unicode="+" 
d="M480 297h-177v-169h-80v169h-177v74h177v169h80v-169h177v-74z" />
    <glyph glyph-name="comma" unicode="," horiz-adv-x="175" 
d="M114 72l-104 -215l-43 13l79 223z" />
    <glyph glyph-name="hyphen" unicode="-" horiz-adv-x="255" 
d="M213 295l-9 -78h-155l9 78h155z" />
    <glyph glyph-name="period" unicode="." horiz-adv-x="184" 
d="M123 53q0 -24 -18 -42t-42 -18q-19 0 -32.5 13.5t-13.5 33.5q0 24 17.5 42t41.5 18q20 0 33.5 -13.5t13.5 -33.5z" />
    <glyph glyph-name="slash" unicode="/" horiz-adv-x="390" 
d="M478 729l-501 -912h-70l503 912h68z" />
    <glyph glyph-name="zero" unicode="0" horiz-adv-x="380" 
d="M364 497q0 -171 -37 -318q-47 -187 -164 -187q-120 0 -120 175q0 155 38 320q44 188 164 188q119 0 119 -178zM276 509q0 86 -42 86q-45 0 -69 -120q-36 -178 -36 -317q0 -88 42 -88q45 0 69 119q36 182 36 320z" />
    <glyph glyph-name="one" unicode="1" horiz-adv-x="380" 
d="M292 667l-82 -667h-85l73 590h-65l9 77h150z" />
    <glyph glyph-name="two" unicode="2" horiz-adv-x="380" 
d="M166 450h-87q4 41 8.5 68t16 59.5t28.5 51.5t47 32.5t70 13.5q65 0 95.5 -31.5t30.5 -97.5q0 -126 -149 -352q-63 -95 -76 -117h163l-9 -77h-289q22 38 64 108.5t53 88.5l25.5 42.5t28.5 48t24 42.5t26.5 49.5t21.5 45.5q28 63 28 109q0 63 -49 63q-20 0 -34 -15.5
t-18 -29.5t-9 -38q-3 -18 -10 -64z" />
    <glyph glyph-name="three" unicode="3" horiz-adv-x="380" 
d="M174 488h-84l2 16q10 82 43.5 126.5t108.5 44.5q120 0 120 -120q0 -67 -17 -124q-11 -36 -27.5 -55t-50.5 -32q36 -12 50.5 -35.5t14.5 -62.5q0 -90 -27 -157q-41 -97 -156 -97q-62 0 -89 32t-27 95q0 16 4 48h83q0 -4 -2 -16t-2 -19q0 -61 48 -61q21 0 38 14
q20 17 30 65.5t10 87.5q0 72 -67 72q-7 0 -23 -2l9 78h14q48 0 70 22q33 33 33 124q0 65 -42 65q-55 0 -64 -109z" />
    <glyph glyph-name="four" unicode="4" horiz-adv-x="380" 
d="M352 667l-52 -430h42l-9 -68h-42l-21 -169h-82l21 169h-180l10 76l231 422h82zM253 521l-150 -284h113z" />
    <glyph glyph-name="five" unicode="5" horiz-adv-x="380" 
d="M379 667l-10 -78h-141l-42 -167q151 0 151 -149q0 -68 -21.5 -130t-72 -106.5t-120.5 -44.5q-47 0 -101 28l32 79q41 -24 73 -24q38 0 65.5 31t38 69t10.5 75q0 101 -94 101q-26 0 -55 -8l78 324h209z" />
    <glyph glyph-name="six" unicode="6" horiz-adv-x="380" 
d="M236 667h94q-9 -17 -77 -129q-39 -65 -86 -158q38 30 75 30q47 0 69.5 -35.5t22.5 -85.5q0 -108 -23 -182q-36 -115 -148 -115q-120 0 -120 140q0 77 13.5 145.5t44.5 139t58 119t77 131.5zM247 260q0 21 -2 33.5t-12.5 23.5t-30.5 11q-28 0 -44 -30q-28 -56 -28 -155
q0 -73 42 -73q23 0 39.5 22t23.5 56.5t9.5 61.5t2.5 50z" />
    <glyph glyph-name="seven" unicode="7" horiz-adv-x="380" 
d="M400 667l-281 -667h-95l256 591h-183l9 76h294z" />
    <glyph glyph-name="eight" unicode="8" horiz-adv-x="380" 
d="M364 552q0 -95 -36 -147q-20 -29 -56 -43q35 -14 48 -38.5t13 -64.5q0 -92 -25 -161q-38 -106 -147 -106q-120 0 -120 137q0 140 48 199q17 21 54 34q-34 15 -45 39.5t-11 66.5q0 68 21 120q19 48 53.5 67.5t89.5 19.5q60 0 86.5 -31t26.5 -92zM275 534q0 63 -39 63
q-24 0 -39 -25.5t-19 -51t-4 -50.5q0 -69 38 -69q33 0 48 45t15 88zM244 245q0 68 -45 68q-21 0 -36.5 -20t-22 -50.5t-9.5 -56t-3 -46.5q0 -69 43 -69q23 0 39 19.5t22.5 51t9 55.5t2.5 48z" />
    <glyph glyph-name="nine" unicode="9" horiz-adv-x="380" 
d="M167 0h-94l83 135q43 70 82 145q-27 -27 -65 -27q-37 0 -63 28q-38 41 -38 123q0 59 17.5 127.5t53.5 104.5q39 39 103 39q53 0 80 -26q38 -35 38 -115q0 -91 -18 -166q-24 -103 -70 -182zM159 405q0 -44 16 -61q11 -11 27 -11q20 0 34 13q19 17 30.5 68.5t11.5 97.5
q0 49 -13 66q-11 15 -30 15q-20 0 -36 -17q-21 -22 -30.5 -73t-9.5 -98z" />
    <glyph glyph-name="colon" unicode=":" horiz-adv-x="184" 
d="M166 406q0 -24 -18 -41.5t-42 -17.5q-20 0 -33 13.5t-13 32.5q0 24 18 42t42 18q19 0 32.5 -13.5t13.5 -33.5zM123 53q0 -24 -18 -42t-42 -18q-19 0 -32.5 13.5t-13.5 33.5q0 24 17.5 42t41.5 18q20 0 33.5 -13.5t13.5 -33.5z" />
    <glyph glyph-name="semicolon" unicode=";" horiz-adv-x="175" 
d="M159 406q0 -24 -18 -41.5t-42 -17.5q-19 0 -32.5 13.5t-13.5 32.5q0 24 18 42t42 18q19 0 32.5 -13.5t13.5 -33.5zM114 72l-104 -215l-43 13l79 223z" />
    <glyph glyph-name="less" unicode="&#x3c;" 
d="M467 91l-434 205v69l434 205v-79l-348 -161l347 -160z" />
    <glyph glyph-name="equal" unicode="=" 
d="M481 384h-434v70h434v-70zM481 229h-434v70h434v-70z" />
    <glyph glyph-name="greater" unicode="&#x3e;" 
d="M492 296l-433 -205v80l347 160l-347 160v79l433 -205v-69z" />
    <glyph glyph-name="question" unicode="?" horiz-adv-x="324" 
d="M151 502h-78q4 35 8 56.5t13.5 46t24 38.5t39.5 23t59 9q56 0 79.5 -31t23.5 -89q0 -155 -45 -221q-14 -21 -30 -28.5t-43 -8.5l-14 -117h-77l22 176q3 0 9 -0.5t9 -0.5q27 0 42.5 9.5t24.5 34.5q20 53 20 142q0 61 -37 61q-12 0 -21 -6.5t-14 -21t-7.5 -23t-5 -28.5
t-2.5 -21zM186 53q0 -24 -18 -42t-42 -18q-19 0 -32.5 13.5t-13.5 33.5q0 24 17.5 42t41.5 18q20 0 33.5 -13.5t13.5 -33.5z" />
    <glyph glyph-name="at" unicode="@" horiz-adv-x="733" 
d="M577 84l9 -52q-106 -45 -225 -45q-142 0 -230 80.5t-88 220.5q0 158 117.5 273t275.5 115q120 0 200.5 -70t80.5 -188q0 -82 -40 -154q-27 -48 -67.5 -83t-87.5 -35q-30 0 -48 17.5t-17 47.5q-53 -70 -133 -70q-57 0 -89.5 39t-32.5 97q0 84 59.5 155t141.5 71t100 -72
l19 60h57l-65 -207q-13 -36 -13 -53q0 -37 31 -37q29 0 65 36q31 32 49.5 83t18.5 98q0 100 -66.5 156.5t-167.5 56.5q-135 0 -233.5 -99t-98.5 -234q0 -118 73 -184.5t192 -66.5q118 0 213 44zM475 368q0 33 -19 54.5t-52 21.5q-57 0 -97 -50.5t-40 -108.5
q0 -39 19.5 -62.5t57.5 -23.5q57 0 94 55t37 114z" />
    <glyph glyph-name="A" unicode="A" horiz-adv-x="355" 
d="M326 0h-88l-8 130h-131l-40 -130h-86l225 667h69zM120 199h105q-10 176 -10 264q0 49 1 74q-4 -16 -11.5 -46.5t-11.5 -46.5q-21 -83 -73 -245z" />
    <glyph glyph-name="B" unicode="B" horiz-adv-x="358" 
d="M104 667h120q122 0 122 -129q0 -105 -40 -158q-21 -27 -64 -41q45 -19 60.5 -44t15.5 -75q0 -104 -51 -167q-43 -53 -129 -53h-115zM152 373h6q43 0 66 23q18 18 26.5 54t8.5 68q0 76 -65 76h-15zM143 302l-28 -225q20 0 31 1t25.5 7.5t25.5 19.5q30 37 30 116
q0 45 -19 63t-65 18z" />
    <glyph glyph-name="C" unicode="C" horiz-adv-x="332" 
d="M360 656l-9 -81q-29 17 -55 17q-77 0 -116 -97q-20 -49 -31.5 -123.5t-11.5 -135.5q0 -157 101 -157q28 0 53 13l-10 -82q-32 -19 -73 -19q-166 0 -166 225q0 170 53 306q27 69 75.5 111t117.5 42q42 0 72 -19z" />
    <glyph glyph-name="D" unicode="D" horiz-adv-x="405" 
d="M104 667h109q63 0 94 -16q82 -42 82 -194q0 -82 -16 -181.5t-45 -159.5q-39 -77 -108 -101q-43 -15 -126 -15h-71zM121 78h3q39 0 65.5 11.5t47.5 41.5q29 41 44 145t15 182q0 70 -22.5 101.5t-89.5 31.5z" />
    <glyph glyph-name="E" unicode="E" horiz-adv-x="316" 
d="M339 667l-9 -76h-146l-26 -212h130l-10 -76h-130l-27 -227h146l-9 -76h-235l81 667h235z" />
    <glyph glyph-name="F" unicode="F" horiz-adv-x="305" 
d="M341 667l-10 -76h-147l-26 -211h133l-9 -76h-133l-38 -304h-88l81 667h237z" />
    <glyph glyph-name="G" unicode="G" horiz-adv-x="406" 
d="M402 539l-87 -35q-2 28 -5.5 44.5t-18 32t-40.5 15.5q-30 0 -46 -18.5t-27 -51.5q-21 -61 -34.5 -167.5t-13.5 -182.5q0 -24 1 -36.5t6.5 -30t18.5 -26t35 -8.5q65 0 85 106q9 39 14 94h-76l9 76h161q-1 -7 -4.5 -41t-5 -47t-7 -46.5t-10 -49t-13.5 -44.5t-19 -43.5
t-24.5 -34.5t-31.5 -29.5t-39.5 -17t-48.5 -7.5q-44 0 -73.5 16t-43.5 46.5t-19 62t-5 74.5q0 117 28 255q8 40 15.5 68t23 61t35 53.5t50.5 34t71 13.5q66 0 97.5 -34t41.5 -102z" />
    <glyph glyph-name="H" unicode="H" horiz-adv-x="408" 
d="M411 667l-82 -667h-88l40 330h-129l-41 -330h-88l81 667h89l-32 -261h129l32 261h89z" />
    <glyph glyph-name="I" unicode="I" horiz-adv-x="190" 
d="M193 667l-82 -667h-88l81 667h89z" />
    <glyph glyph-name="J" unicode="J" horiz-adv-x="255" 
d="M258 667l-63 -512q-8 -59 -20 -86q-17 -38 -52 -58t-79 -20q-43 0 -73 18l11 90q36 -23 56 -23q21 0 35 8.5t20.5 24t10 31t5.5 35.5q1 7 1 11l59 481h89z" />
    <glyph glyph-name="K" unicode="K" horiz-adv-x="366" 
d="M405 667l-174 -325l95 -342h-92l-84 327l-39 -327h-88l81 667h89l-38 -306l158 306h92z" />
    <glyph glyph-name="L" unicode="L" horiz-adv-x="288" 
d="M265 76l-9 -76h-233l81 667h89l-72 -591h144z" />
    <glyph glyph-name="M" unicode="M" horiz-adv-x="497" 
d="M468 667l-22 -667h-85q12 217 17 277q2 15 4.5 44.5t3.5 44.5q8 75 8 85v8l-24 -84l-18 -61q-11 -36 -98 -314h-60q-29 341 -29 459l-82 -459h-83l136 667h75q2 -25 9 -93t10 -102.5t7 -90t6 -103t2 -93.5q2 13 26 94q4 12 10.5 36.5t9.5 36.5q2 8 7.5 23.5t8.5 23.5
l84 268h77z" />
    <glyph glyph-name="N" unicode="N" horiz-adv-x="407" 
d="M410 667l-81 -667h-83l-62 300q-13 61 -20 113q-3 18 -5.5 52.5t-4.5 47.5v-16q0 -29 -4 -85q-8 -115 -40 -412h-87l81 667h83l55 -267q28 -138 38 -240v110q0 58 11 148l31 249h88z" />
    <glyph glyph-name="O" unicode="O" horiz-adv-x="416" 
d="M403 489q0 -176 -41 -323q-23 -81 -64 -128t-116 -47q-141 0 -141 180q0 166 32 305q20 90 63 144.5t125 54.5q142 0 142 -186zM311 495q0 18 -0.5 27.5t-3.5 25.5t-8.5 24.5t-17.5 15t-29 6.5q-51 0 -74 -66q-7 -19 -12 -38t-9.5 -45.5t-6 -37t-5.5 -46t-4 -39.5
q-11 -90 -11 -147q0 -101 59 -101q35 0 52.5 23t28.5 64q17 67 28 164q13 104 13 170z" />
    <glyph glyph-name="P" unicode="P" horiz-adv-x="345" 
d="M104 667h117q76 0 108.5 -32.5t32.5 -108.5q0 -59 -19 -115.5t-60 -84.5q-43 -30 -136 -30l-36 -296h-88zM157 373h8q103 0 103 133q0 42 -16 63.5t-56 21.5h-12z" />
    <glyph glyph-name="Q" unicode="Q" horiz-adv-x="416" 
d="M307 -51l-36 66q-44 -24 -89 -24q-141 0 -141 188q0 161 31 298q20 90 63 144t124 54q143 0 143 -186q0 -172 -39 -324q-15 -59 -41 -97l46 -78zM239 212l30 -53q18 67 29 167q13 119 13 166q0 23 -1.5 36t-6.5 31t-18.5 26.5t-34.5 8.5q-48 0 -72 -66
q-20 -56 -33.5 -166t-13.5 -185q0 -21 1.5 -35t7 -31.5t18.5 -26.5t33 -9q19 0 36 12l-46 82z" />
    <glyph glyph-name="R" unicode="R" horiz-adv-x="367" 
d="M104 667h117q71 0 102 -33t31 -105q0 -42 -10.5 -83t-40 -77.5t-72.5 -44.5l90 -324h-90l-82 311l-38 -311h-88zM184 593l-27 -222q44 0 66 16q43 32 43 125q0 43 -14 62t-55 19h-13z" />
    <glyph glyph-name="S" unicode="S" horiz-adv-x="325" 
d="M322 653l-12 -88q-32 30 -68 30q-41 0 -66 -31t-25 -73q0 -28 15 -55t36 -50.5t42 -49t36 -61.5t15 -77q0 -82 -48 -144.5t-128 -62.5q-55 0 -93 32l11 89q42 -35 81 -35q42 0 66 32.5t24 76.5q0 31 -15 59.5t-36 51.5t-42.5 47t-36.5 58t-15 73q0 82 45.5 141t125.5 59
q51 0 88 -22z" />
    <glyph glyph-name="T" unicode="T" horiz-adv-x="284" 
d="M342 667l-10 -79h-102l-72 -588h-87l73 588h-102l10 79h290z" />
    <glyph glyph-name="U" unicode="U" horiz-adv-x="403" 
d="M406 667l-59 -484q-12 -97 -48.5 -144.5t-127.5 -47.5q-131 0 -131 125q0 17 7 80l57 471h87l-58 -471q-5 -35 -5 -62q0 -58 59 -58q17 0 30 6.5t20 14t12 23.5t6.5 25.5t3.5 29.5q1 5 1 8l60 484h86z" />
    <glyph glyph-name="V" unicode="V" horiz-adv-x="322" 
d="M378 667l-211 -667h-70l-45 667h87q15 -358 15 -502q6 32 15 66t22.5 78.5t18.5 64.5q23 83 85 293h83z" />
    <glyph glyph-name="W" unicode="W" horiz-adv-x="516" 
d="M569 667l-198 -667h-69q-13 351 -13 405q0 30 2 90q-1 -5 -14.5 -65.5t-21.5 -91.5q-17 -65 -52.5 -185.5t-44.5 -152.5h-71l-32 667h86l6 -310q0 -7 1 -23t1 -23q0 -81 -4 -146l18 81q17 73 34 132l83 289h68l9 -280q0 -15 1 -41.5t1.5 -48t0.5 -41.5q0 -28 -2 -86
q43 184 45 191l81 306h85z" />
    <glyph glyph-name="X" unicode="X" horiz-adv-x="327" 
d="M383 667l-162 -328l80 -339h-89q-4 18 -14 60t-15 65.5t-10.5 58.5t-6.5 65q-5 -21 -39 -103q-10 -25 -31.5 -73t-31.5 -73h-94l166 339l-76 328h86q4 -16 18 -73t21 -94t9 -74q17 53 32 84q1 3 4 9.5t5 9.5l59 138h89z" />
    <glyph glyph-name="Y" unicode="Y" horiz-adv-x="336" 
d="M392 667l-161 -380l-35 -287h-89l35 287l-90 380h94l32 -179q7 -40 15 -130q17 62 42 132l65 177h92z" />
    <glyph glyph-name="Z" unicode="Z" horiz-adv-x="329" 
d="M378 667l-270 -588h187l-10 -79h-302l272 591h-176l9 76h290z" />
    <glyph glyph-name="bracketleft" unicode="[" horiz-adv-x="307" 
d="M336 729l-9 -76h-119l-94 -760h119l-9 -76h-209l113 912h208z" />
    <glyph glyph-name="backslash" unicode="\" horiz-adv-x="531" 
d="M65 729h68l391 -912h-70z" />
    <glyph glyph-name="bracketright" unicode="]" horiz-adv-x="307" 
d="M304 729l-113 -912h-209l10 76h119l94 760h-120l10 76h209z" />
    <glyph glyph-name="asciicircum" unicode="^" 
d="M494 359h-87l-141 244l-141 -244h-86l175 308h105z" />
    <glyph glyph-name="underscore" unicode="_" 
d="M472 -134h-500v70h500v-70z" />
    <glyph glyph-name="grave" unicode="`" 
d="M339 539l-43 -26l-99 107l60 44z" />
    <glyph glyph-name="a" unicode="a" horiz-adv-x="343" 
d="M324 447l-55 -447h-81l7 57q-18 -32 -37.5 -48t-51.5 -16q-83 0 -83 130q0 45 4.5 91.5t17.5 106t43.5 96.5t74.5 37q51 0 74 -58l6 51h81zM224 309q0 70 -38 70q-44 0 -62 -85q-18 -83 -18 -155t41 -72q39 0 57 76q20 83 20 166z" />
    <glyph glyph-name="b" unicode="b" horiz-adv-x="343" 
d="M189 729l-41 -333q18 29 37 43.5t49 14.5q48 0 67.5 -37t19.5 -90q0 -106 -27 -208q-33 -126 -114 -126q-31 0 -47 15.5t-27 48.5l-7 -57h-81l90 729h81zM236 308q0 71 -41 71q-38 0 -57 -75q-20 -85 -20 -168q0 -69 39 -69q42 0 61 85q18 83 18 156z" />
    <glyph glyph-name="c" unicode="c" horiz-adv-x="249" 
d="M252 438l-11 -84q-11 21 -38 21q-28 0 -47 -24t-27.5 -61.5t-11.5 -67t-3 -57.5q0 -18 1.5 -31t6 -29.5t15.5 -25t29 -8.5q21 0 43 17l-10 -77q-33 -18 -68 -18q-58 0 -83 42t-25 105q0 108 32 201q39 113 135 113q33 0 62 -16z" />
    <glyph glyph-name="d" unicode="d" horiz-adv-x="342" 
d="M359 729l-90 -729h-81l7 57q-18 -32 -37.5 -48t-51.5 -16q-83 0 -83 130q0 35 2 70t10.5 85t23 86.5t41.5 63t64 26.5q30 0 45.5 -14t27.5 -44l40 333h82zM224 309q0 70 -38 70q-44 0 -62 -85q-18 -83 -18 -155t41 -72q39 0 57 76q20 83 20 166z" />
    <glyph glyph-name="e" unicode="e" horiz-adv-x="321" 
d="M206 151h76q-9 -57 -28 -90q-18 -32 -49.5 -50t-68.5 -18q-113 0 -113 148q0 82 22 168q38 145 145 145q60 0 84.5 -45t24.5 -110q0 -40 -7 -92h-185q-4 -40 -4 -59q0 -17 1 -27t4.5 -25.5t13 -23.5t24.5 -8q50 0 60 87zM218 300v15q0 69 -38 69q-8 0 -14.5 -2.5
t-12 -8.5t-10 -11.5t-8.5 -15t-6.5 -16t-5 -18t-4 -16.5t-3.5 -16t-2 -13h103q1 11 1 33z" />
    <glyph glyph-name="f" unicode="f" horiz-adv-x="213" 
d="M272 728l-11 -87q-18 11 -33 11q-14 0 -23 -5t-13.5 -17t-6.5 -20t-3.5 -24.5t-2.5 -21.5l-15 -117h69l-8 -66h-69l-47 -381h-81l47 381h-41l8 66h41l19 154q8 67 32 103t84 36q27 0 54 -12z" />
    <glyph glyph-name="g" unicode="g" horiz-adv-x="344" 
d="M325 447l-57 -461q-8 -70 -23 -102q-35 -72 -133 -72q-54 0 -83.5 27.5t-29.5 81.5q0 16 3 32h79q-2 -14 -2 -21q0 -23 12 -37t34 -14q18 0 30 7.5t17.5 22.5t8 26.5t4.5 30.5l10 87q-33 -62 -87 -62q-47 0 -66.5 37.5t-19.5 90.5q0 113 30 221q33 112 112 112
q29 0 45 -15.5t28 -45.5l6 54h82zM223 301q0 78 -41 78q-23 0 -39 -30t-23 -74t-10 -78t-3 -58q0 -72 42 -72q30 0 44 36q13 31 21.5 93t8.5 105z" />
    <glyph glyph-name="h" unicode="h" horiz-adv-x="353" 
d="M189 729l-41 -334q41 59 97 59q37 0 57 -21t20 -58q0 -19 -4 -57l-39 -318h-82l37 299q0 4 1 11.5t1.5 13.5t0.5 11q0 47 -40 47q-18 0 -30 -8t-18 -24.5t-8.5 -28.5t-5.5 -32l-36 -289h-81l90 729h81z" />
    <glyph glyph-name="i" unicode="i" horiz-adv-x="173" 
d="M182 587q0 -25 -19 -43.5t-44 -18.5q-20 0 -34 14.5t-14 34.5q0 25 19 44t44 19q21 0 34.5 -14.5t13.5 -35.5zM154 447l-55 -447h-81l55 447h81z" />
    <glyph glyph-name="j" unicode="j" horiz-adv-x="174" 
d="M183 587q0 -25 -19 -43.5t-44 -18.5q-20 0 -34 14.5t-14 34.5q0 25 19 44t44 19q21 0 34.5 -14.5t13.5 -35.5zM155 447l-78 -635h-82l79 635h81z" />
    <glyph glyph-name="k" unicode="k" horiz-adv-x="341" 
d="M349 447l-142 -207l102 -240h-92l-90 222l-28 -222h-81l90 729h81l-58 -473l124 191h94z" />
    <glyph glyph-name="l" unicode="l" horiz-adv-x="172" 
d="M188 729l-89 -729h-81l89 729h81z" />
    <glyph glyph-name="m" unicode="m" horiz-adv-x="532" 
d="M154 447l-7 -55q43 62 97 62q62 0 75 -62q40 62 100 62q38 0 61 -20t23 -57q0 -14 -1 -21l-44 -356h-81l36 294q3 21 3 42q0 43 -37 43q-15 0 -25.5 -5.5t-16.5 -12.5t-10 -20.5t-5.5 -21.5t-3.5 -25l-36 -294h-84l36 294q3 22 3 44q0 41 -40 41q-18 0 -30 -7t-18 -22
t-8 -25.5t-5 -30.5l-37 -294h-81l55 447h81z" />
    <glyph glyph-name="n" unicode="n" horiz-adv-x="353" 
d="M154 447l-6 -52q41 59 97 59q37 0 57 -21t20 -58q0 -19 -4 -57l-39 -318h-82l37 299q0 4 1 11.5t1.5 13.5t0.5 11q0 47 -40 47q-18 0 -30 -8t-18 -24.5t-8.5 -28.5t-5.5 -32l-36 -289h-81l55 447h81z" />
    <glyph glyph-name="o" unicode="o" horiz-adv-x="336" 
d="M311 306q0 -39 -3.5 -76t-14.5 -82t-29 -77.5t-50.5 -55t-75.5 -22.5q-114 0 -114 151q0 50 6.5 97t23.5 98.5t53.5 83t88.5 31.5q115 0 115 -148zM228 314q0 65 -41 65q-23 0 -38 -23q-19 -28 -29 -98.5t-10 -122.5q0 -65 40 -65q23 0 39 24q19 28 29 98.5t10 121.5z
" />
    <glyph glyph-name="p" unicode="p" horiz-adv-x="344" 
d="M155 447l-7 -58q19 32 38.5 48.5t50.5 16.5q83 0 83 -131q0 -46 -4.5 -92t-17.5 -105t-43.5 -96t-75.5 -37q-29 0 -45.5 14t-26.5 43l-30 -238h-82l79 635h81zM237 307q0 72 -41 72q-39 0 -57 -75q-20 -83 -20 -166q0 -71 39 -71q42 0 61 85q18 92 18 155z" />
    <glyph glyph-name="q" unicode="q" horiz-adv-x="343" 
d="M324 447l-79 -635h-82l31 238q-35 -57 -86 -57q-86 0 -86 126q0 44 5 91.5t18 107.5t43.5 98t73.5 38q31 0 47 -16t27 -49l7 58h81zM224 309q0 70 -38 70q-20 0 -34 -16t-18.5 -31t-9.5 -38q-18 -83 -18 -155t41 -72q39 0 57 76q20 83 20 166z" />
    <glyph glyph-name="r" unicode="r" horiz-adv-x="233" 
d="M251 457l-11 -86q-5 1 -14 1q-47 0 -67 -25.5t-26 -75.5l-34 -271h-81l55 447h81l-7 -56q24 33 45.5 48t58.5 18z" />
    <glyph glyph-name="s" unicode="s" horiz-adv-x="256" 
d="M242 438l-10 -77q-29 22 -59 22q-23 0 -41 -16.5t-18 -39.5q0 -17 11.5 -33t28 -29.5t33 -29t28 -38.5t11.5 -52q0 -64 -40.5 -108t-103.5 -44q-38 0 -69 21l10 80q32 -27 64 -27q29 0 46 18t17 47q0 22 -18 43t-39 37t-39 43.5t-18 59.5q0 60 38 101t98 41q38 0 70 -19z
" />
    <glyph glyph-name="t" unicode="t" horiz-adv-x="193" 
d="M208 447l-8 -64h-44l-47 -383h-81l47 383h-45l8 64h45l15 127h81l-15 -127h44z" />
    <glyph glyph-name="u" unicode="u" horiz-adv-x="354" 
d="M335 447l-33 -268q-6 -49 -12.5 -76t-22.5 -56.5t-46 -42t-77 -12.5q-111 0 -111 110q0 16 4 50l36 295h81l-33 -268q-5 -35 -5 -62q0 -25 10.5 -35.5t35.5 -10.5q20 0 32 13t15.5 25.5t6.5 35.5q4 21 5 34l32 268h82z" />
    <glyph glyph-name="v" unicode="v" horiz-adv-x="295" 
d="M319 447l-170 -447h-55l-64 447h87q20 -186 20 -279q0 -39 -1 -59q30 114 104 338h79z" />
    <glyph glyph-name="w" unicode="w" horiz-adv-x="442" 
d="M462 447l-158 -447h-56q-2 22 -6.5 76t-7 93.5t-2.5 76.5q0 42 3 82q-5 -30 -30 -123q-3 -9 -63 -205h-56l-53 447h87q10 -186 10 -278q0 -29 -2 -43q28 113 93 321h59q2 -28 4 -83t4 -82q5 -73 5 -87q0 -23 -2 -69q8 38 20 83.5t21 76t26 84.5t24 77h80z" />
    <glyph glyph-name="x" unicode="x" horiz-adv-x="327" 
d="M330 447l-125 -211l91 -236h-97q-1 4 -13.5 39.5t-18 53t-12 44.5t-6.5 44q-6 -23 -17.5 -48.5t-21 -43t-26 -46.5t-24.5 -43h-85l139 236l-84 211h96q38 -118 43 -153q11 30 75 153h86z" />
    <glyph glyph-name="y" unicode="y" horiz-adv-x="322" 
d="M346 447l-259 -635h-85l96 224l-67 411h92l26 -312l114 312h83z" />
    <glyph glyph-name="z" unicode="z" horiz-adv-x="294" 
d="M307 447l-192 -372h139l-9 -75h-260l198 374h-140l9 73h255z" />
    <glyph glyph-name="braceleft" unicode="{" horiz-adv-x="503" 
d="M433 728l-9 -69q-56 0 -78 -15.5t-28 -68.5l-23 -185q-5 -45 -21.5 -71.5t-54.5 -45.5q27 -17 38 -36.5t11 -50.5q0 -8 -2 -32l-22 -182q-2 -24 -2 -36q0 -14 6 -24t13.5 -15t22 -7.5t23 -3t23.5 -0.5l-9 -69h-34q-62 0 -94 23.5t-32 83.5q0 27 2 40l22 187q2 18 2 27
q0 53 -47 65l8 65q33 9 47.5 30t19.5 57l25 196q10 74 48 106t113 32q21 0 32 -1z" />
    <glyph glyph-name="bar" unicode="|" 
d="M293 -250h-80v1000h80v-1000z" />
    <glyph glyph-name="braceright" unicode="}" horiz-adv-x="503" 
d="M379 303l-8 -65q-27 -5 -44 -24q-18 -20 -23 -63l-24 -196q-8 -66 -40 -99q-39 -40 -113 -40q-10 0 -40 2l8 68q56 0 76 15q24 17 31 70l23 184q6 48 24 77q17 27 51 41q-20 9 -35 32q-13 22 -13 51q0 8 4 46l20 160q0 3 1.5 10.5t2 14.5t0.5 13q0 26 -13 42
q-16 18 -58 18q-13 0 -17 -1l8 69q22 2 34 2q69 0 100 -31q27 -27 27 -77q0 -20 -3 -40l-24 -187q-2 -20 -2 -29q0 -27 10 -41q12 -17 37 -22z" />
    <glyph glyph-name="asciitilde" unicode="~" horiz-adv-x="667" 
d="M579 730l48 -28q-56 -115 -147 -115q-36 0 -103 31.5t-99 31.5q-48 0 -86 -71l-47 31q14 28 24.5 45t27 36t38.5 28t49 9q39 0 107 -32t99 -32t50.5 16.5t38.5 49.5z" />
    <glyph glyph-name="uni00A0" unicode="&#xa0;" horiz-adv-x="233" 
 />
    <glyph glyph-name="exclamdown" unicode="&#xa1;" horiz-adv-x="243" 
d="M200 407q0 -24 -18 -42t-42 -18q-19 0 -32.5 13.5t-13.5 33.5q0 24 18 42t42 18q19 0 32.5 -13.5t13.5 -33.5zM174 267l-60 -487h-86l60 487h86z" />
    <glyph glyph-name="cent" unicode="&#xa2;" horiz-adv-x="380" 
d="M325 550l-9 -79q-12 12 -31 12q-30 0 -51 -27q-19 -26 -29 -82t-10 -102q0 -94 51 -94q10 0 35 9l-9 -73q-20 -11 -38 -12l-9 -79h-60l9 78q-2 1 -10 6t-13 9t-12.5 13t-13.5 20q-19 37 -19 98q0 175 64 266q23 32 61 48l11 92h60l-11 -94q17 -2 34 -9z" />
    <glyph glyph-name="sterling" unicode="&#xa3;" horiz-adv-x="380" 
d="M42 353h58q-21 57 -21 115q0 101 58 157q52 50 126 50q58 0 90 -32q33 -33 33 -84q0 -11 -1 -16l-73 -33q2 10 2 29q0 32 -14 47q-15 17 -44 17q-39 0 -65 -26q-30 -30 -30 -90q0 -47 24 -134h90l-8 -61h-69q11 -34 11 -76q0 -33 -11 -68q-11 -31 -26 -57l26 -16
q16 -9 32 -9q22 0 34 30l69 -23q-14 -31 -35 -52q-28 -30 -67 -30q-27 0 -61 16l-28 14q-26 13 -40 13t-21 -9q-3 -4 -7 -12l-5 -8l-63 27q10 32 30 52q25 27 58 27q5 0 15 -2q27 37 27 88q0 43 -20 95h-82z" />
    <glyph glyph-name="currency" unicode="&#xa4;" horiz-adv-x="667" 
d="M634 125l-44 -45l-96 96q-67 -50 -143 -50q-74 0 -144 49l-95 -95l-45 45l96 95q-51 65 -51 142q0 74 50 141l-97 96l45 45l96 -96q70 50 144 50q75 0 142 -49l96 95l45 -45l-95 -95q49 -70 49 -142q0 -71 -49 -141zM514 362q0 68 -48 116.5t-116 48.5t-116 -48.5
t-48 -116.5t48 -116.5t116 -48.5q67 0 115.5 48.5t48.5 116.5z" />
    <glyph glyph-name="yen" unicode="&#xa5;" horiz-adv-x="380" 
d="M409 667l-100 -236h78l-8 -62h-96l-22 -52h112l-7 -61h-121l-32 -256h-88l31 256h-133l7 61h123l-13 52h-103l7 62h81l-56 236h94q20 -118 31 -177q15 -81 17 -132q19 70 106 309h92z" />
    <glyph glyph-name="brokenbar" unicode="&#xa6;" 
d="M293 345h-81v405h81v-405zM293 -250h-81v405h81v-405z" />
    <glyph glyph-name="section" unicode="&#xa7;" horiz-adv-x="373" 
d="M366 593h-72q2 34 -11 59t-42 25q-30 0 -49 -27q-19 -28 -19 -68q0 -39 33 -72q14 -14 50 -38q35 -24 45 -35q44 -44 44 -121q0 -100 -41 -161q-27 -41 -69 -56q54 -41 54 -114q0 -87 -53 -136q-38 -35 -94 -35q-57 0 -90 39q-37 42 -29 121h72q-5 -51 13 -76
q15 -19 38 -19q26 0 44 19q26 29 26 80q0 36 -28 66q-13 13 -52 37q-40 26 -54 40q-41 43 -41 118q0 80 35 142q30 52 81 74q-58 52 -58 118q0 76 44 125q40 44 104 44q52 0 84 -32q35 -35 35 -107v-10zM115 239q0 -57 18 -77q15 -19 44 -19q28 0 48 17q45 37 45 157
q0 51 -16 72t-45 21q-26 0 -47 -19q-25 -22 -36 -67t-11 -85z" />
    <glyph glyph-name="dieresis" unicode="&#xa8;" horiz-adv-x="490" 
d="M408 569q0 -23 -17 -39.5t-39 -16.5q-19 0 -31.5 12.5t-12.5 31.5q0 22 17 39t40 17q19 0 31 -12.5t12 -31.5zM262 569q0 -23 -17 -39.5t-39 -16.5q-19 0 -31 12.5t-12 31.5q0 23 16.5 39.5t39.5 16.5q19 0 31 -12.5t12 -31.5z" />
    <glyph glyph-name="copyright" unicode="&#xa9;" horiz-adv-x="757" 
d="M737 333q0 -143 -101 -244.5t-244 -101.5t-244.5 101.5t-101.5 244.5t101.5 244.5t244.5 101.5q142 0 243.5 -101.5t101.5 -244.5zM683 333q0 122 -84.5 209.5t-206.5 87.5t-207 -87t-85 -209t85.5 -210t206.5 -88t206 87.5t85 209.5zM463 204v-62q-18 -14 -51 -14
q-133 0 -133 199q0 211 131 211q30 0 53 -13v-62q-22 14 -42 14q-69 0 -69 -147q0 -138 72 -138q15 0 39 12z" />
    <glyph glyph-name="ordfeminine" unicode="&#xaa;" horiz-adv-x="262" 
d="M228 372h-61l2 17q-17 -21 -44 -21q-25 0 -39 18q-19 23 -19 82q0 57 11 103q13 54 38 80q20 20 47 20q24 0 38 -21l2 17h61zM218 297h-173l5 40h173zM133 528l-1 -10q-4 -36 -4 -53q0 -43 21 -43q8 0 15 7q13 13 22 75l3 21q4 25 4 53q0 23 -7 32q-5 7 -13 7
q-9 0 -18 -9q-15 -18 -22 -80z" />
    <glyph glyph-name="guillemotleft" unicode="&#xab;" horiz-adv-x="321" 
d="M310 405l-121 -171l69 -177l-41 -21l-80 198l137 196zM204 405l-122 -171l72 -177l-43 -21l-77 198l134 196z" />
    <glyph glyph-name="logicalnot" unicode="&#xac;" 
d="M455 0h-80v195h-353v72h433v-267z" />
    <glyph glyph-name="uni00AD" unicode="&#xad;" horiz-adv-x="255" 
d="M213 295l-9 -78h-155l9 78h155z" />
    <glyph glyph-name="registered" unicode="&#xae;" horiz-adv-x="757" 
d="M522 132h-73l-82 176v-176h-70v403h92q63 0 89.5 -24.5t26.5 -86.5q0 -42 -18 -71t-57 -32zM367 368h18q31 0 41.5 14t10.5 46t-11.5 45t-43.5 13h-15v-118zM683 333q0 122 -84.5 209.5t-206.5 87.5t-207 -87t-85 -209t85.5 -210t206.5 -88t206 87.5t85 209.5zM737 333
q0 -143 -101 -244.5t-244 -101.5t-244.5 101.5t-101.5 244.5t101.5 244.5t244.5 101.5q142 0 243.5 -101.5t101.5 -244.5z" />
    <glyph glyph-name="macron" unicode="&#xaf;" 
d="M409 586l-8 -62h-221l7 62h222z" />
    <glyph glyph-name="degree" unicode="&#xb0;" 
d="M430 528q0 -58 -42.5 -99t-100.5 -41t-100.5 41t-42.5 99q0 59 42 99.5t101 40.5t101 -40.5t42 -99.5zM379 528q0 38 -27 64t-65 26t-65 -26t-27 -64t27 -64t65 -26t65 26t27 64z" />
    <glyph glyph-name="plusminus" unicode="&#xb1;" 
d="M468 347h-176v-169h-80v169h-177v74h177v169h80v-169h176v-74zM468 64h-433v75h433v-75z" />
    <glyph glyph-name="twosuperior" unicode="&#xb2;" horiz-adv-x="249" 
d="M133 532h-62q3 32 7.5 54t16 43.5t32.5 32t53 10.5q84 0 84 -81q0 -30 -17.5 -72.5t-31 -65.5t-50 -77t-38.5 -57h101l-7 -52h-190q13 20 37.5 60.5t37.5 60.5q1 1 19.5 30.5t27 43.5t22.5 40.5t20 46t6 35.5q0 35 -28 35q-37 0 -40 -87z" />
    <glyph glyph-name="threesuperior" unicode="&#xb3;" horiz-adv-x="249" 
d="M137 555h-59q7 59 27.5 88t73.5 29q78 0 78 -76q0 -97 -53 -123q35 -15 35 -57q0 -154 -115 -154q-41 0 -60 19t-19 60q0 16 3 31h59q-3 -14 -3 -26q0 -31 27 -31q45 0 45 97q0 17 -10.5 27.5t-27.5 10.5q-7 0 -19 -2l6 53h11q21 0 32 4.5t19 20.5q10 21 10 56
q0 37 -23 37q-31 0 -37 -64z" />
    <glyph glyph-name="acute" unicode="&#xb4;" 
d="M239 542l95 122l66 -39l-115 -112z" />
    <glyph glyph-name="mu" unicode="&#xb5;" horiz-adv-x="504" 
d="M430 0h-80l8 67q-21 -37 -54 -59q-31 -20 -79 -20q-45 0 -77 28q-26 23 -39 59l-32 -263h-82l78 635h82l-25 -204q-6 -49 -6 -69q0 -59 34 -92q30 -29 77 -29q57 0 91 35q18 19 29 44.5t13.5 41t6.5 45.5l28 228h82z" />
    <glyph glyph-name="mu" unicode="&#x3bc;" horiz-adv-x="504" 
d="M430 0h-80l8 67q-21 -37 -54 -59q-31 -20 -79 -20q-45 0 -77 28q-26 23 -39 59l-32 -263h-82l78 635h82l-25 -204q-6 -49 -6 -69q0 -59 34 -92q30 -29 77 -29q57 0 91 35q18 19 29 44.5t13.5 41t6.5 45.5l28 228h82z" />
    <glyph glyph-name="paragraph" unicode="&#xb6;" horiz-adv-x="591" 
d="M575 667l-8 -63h-62l-87 -704h-69l87 704h-102l-87 -704h-69l52 415h-15q-72 0 -117.5 40t-45.5 111q0 89 68 149q61 52 177 52h278z" />
    <glyph glyph-name="periodcentered" unicode="&#xb7;" horiz-adv-x="206" 
d="M175 341q0 -28 -21.5 -49.5t-50.5 -21.5q-24 0 -40 16t-16 40q0 28 21.5 50t50.5 22q24 0 40 -16.5t16 -40.5z" />
    <glyph glyph-name="cedilla" unicode="&#xb8;" 
d="M261 -74l-89 -117l-35 20l70 126z" />
    <glyph glyph-name="onesuperior" unicode="&#xb9;" horiz-adv-x="249" 
d="M223 667l-50 -400h-60l43 348h-41l6 52h102z" />
    <glyph glyph-name="ordmasculine" unicode="&#xba;" horiz-adv-x="267" 
d="M189 671q30 0 50 -21q28 -30 28 -90q0 -45 -12 -92t-39 -74q-26 -26 -62 -26q-30 0 -51 19q-30 29 -30 99q0 103 49 156q28 29 67 29zM233 297h-182l5 40h182zM181 612q-9 0 -17 -9q-12 -12 -20 -50q-8 -40 -8 -78q0 -33 8 -41q6 -7 14 -7t14 6q13 12 23 52q8 35 8 75
q0 37 -10 47q-5 5 -12 5z" />
    <glyph glyph-name="guillemotright" unicode="&#xbb;" horiz-adv-x="321" 
d="M289 234l-126 -198l-38 21l115 177l-79 171l42 25zM185 234l-128 -198l-36 21l113 177l-79 171l42 25z" />
    <glyph glyph-name="onequarter" unicode="&#xbc;" horiz-adv-x="621" 
d="M589 400l-32 -255h26l-5 -47h-27l-11 -98h-58l12 98h-114l6 49l146 253h57zM555 667l-408 -667h-54l408 667h54zM223 667l-49 -400h-61l43 348h-41l7 52h101zM518 300l-81 -155h62z" />
    <glyph glyph-name="onehalf" unicode="&#xbd;" horiz-adv-x="621" 
d="M473 265h-62q6 68 28 103.5t82 35.5q83 0 83 -80q0 -31 -16.5 -72.5t-32.5 -67t-49 -74t-39 -58.5h101l-7 -52h-190q6 10 17 27.5t20 32t17 27.5q1 1 23.5 35.5t32.5 51t27.5 47.5t25 54t7.5 41q0 35 -28 35q-6 0 -11 -2t-8.5 -6t-6.5 -8t-5 -11.5t-3.5 -11.5t-2.5 -13
t-1.5 -12t-1 -12t-0.5 -10zM555 667l-408 -667h-54l408 667h54zM223 667l-49 -400h-61l43 348h-41l7 52h101z" />
    <glyph glyph-name="threequarters" unicode="&#xbe;" horiz-adv-x="621" 
d="M554 667l-407 -667h-54l407 667h54zM137 555h-59q7 59 27.5 88t73.5 29q78 0 78 -76q0 -97 -53 -123q35 -15 35 -57q0 -154 -115 -154q-41 0 -60 19t-19 60q0 16 3 31h59q-3 -14 -3 -26q0 -31 27 -31q45 0 45 97q0 17 -10.5 27.5t-27.5 10.5q-7 0 -19 -2l6 53h11
q21 0 32 4.5t19 20.5q10 21 10 56q0 37 -23 37q-31 0 -37 -64zM518 300l-81 -155h62zM589 400l-32 -255h26l-5 -47h-27l-11 -98h-58l12 98h-114l6 49l146 253h57z" />
    <glyph glyph-name="questiondown" unicode="&#xbf;" horiz-adv-x="324" 
d="M248 407q0 -24 -18 -42t-42 -18q-19 0 -32.5 13.5t-13.5 33.5q0 24 18 42t42 18q19 0 32.5 -13.5t13.5 -33.5zM176 -53h79q-4 -35 -8 -56.5t-13.5 -46t-24 -38.5t-39.5 -23t-59 -9q-57 0 -80.5 30.5t-23.5 89.5q0 53 11.5 121t33.5 99q14 20 30 27.5t43 9.5l14 116h78
l-22 -176q-6 1 -19 1q-27 0 -42.5 -9.5t-24.5 -34.5q-19 -52 -19 -140q0 -61 37 -61q9 0 16.5 3.5t12 11t8 15t5.5 18.5t3 18t2.5 19t1.5 15z" />
    <glyph glyph-name="Agrave" unicode="&#xc0;" horiz-adv-x="355" 
d="M326 0h-88l-8 130h-131l-40 -130h-86l225 667h69zM120 199h105q-10 176 -10 264q0 49 1 74q-4 -16 -11.5 -46.5t-11.5 -46.5q-21 -83 -73 -245zM274 759l-43 -26l-99 107l60 44z" />
    <glyph glyph-name="Aacute" unicode="&#xc1;" horiz-adv-x="355" 
d="M326 0h-88l-8 130h-131l-40 -130h-86l225 667h69zM120 199h105q-10 176 -10 264q0 49 1 74q-4 -16 -11.5 -46.5t-11.5 -46.5q-21 -83 -73 -245zM199 762l95 122l66 -39l-115 -112z" />
    <glyph glyph-name="Acircumflex" unicode="&#xc2;" horiz-adv-x="355" 
d="M326 0h-88l-8 130h-131l-40 -130h-86l225 667h69zM120 199h105q-10 176 -10 264q0 49 1 74q-4 -16 -11.5 -46.5t-11.5 -46.5q-21 -83 -73 -245zM343 761l-45 -34l-59 74l-72 -74l-41 34l124 124z" />
    <glyph glyph-name="Atilde" unicode="&#xc3;" horiz-adv-x="355" 
d="M326 0h-88l-8 130h-131l-40 -130h-86l225 667h69zM120 199h105q-10 176 -10 264q0 49 1 74q-4 -16 -11.5 -46.5t-11.5 -46.5q-21 -83 -73 -245zM297 815h48q-10 -88 -75 -88q-15 0 -40 14t-39 14q-21 0 -21 -24h-54q15 88 77 88q19 0 45 -15t38 -15q8 0 11.5 3.5
t5.5 11.5t4 11z" />
    <glyph glyph-name="Adieresis" unicode="&#xc4;" horiz-adv-x="355" 
d="M326 0h-88l-8 130h-131l-40 -130h-86l225 667h69zM120 199h105q-10 176 -10 264q0 49 1 74q-4 -16 -11.5 -46.5t-11.5 -46.5q-21 -83 -73 -245zM363 777q0 -23 -16.5 -39.5t-39.5 -16.5q-19 0 -31.5 12.5t-12.5 31.5q0 22 17 39t40 17q19 0 31 -12.5t12 -31.5zM217 777
q0 -23 -16.5 -39.5t-39.5 -16.5q-19 0 -31 12.5t-12 31.5q0 23 17 39.5t39 16.5q19 0 31 -12.5t12 -31.5z" />
    <glyph glyph-name="Aring" unicode="&#xc5;" horiz-adv-x="355" 
d="M326 0h-88l-8 130h-131l-40 -130h-86l225 667h69zM120 199h105q-10 176 -10 264q0 49 1 74q-4 -16 -11.5 -46.5t-11.5 -46.5q-21 -83 -73 -245zM172 799q0 36 24.5 60.5t60.5 24.5t60.5 -24.5t24.5 -60.5t-24.5 -60.5t-60.5 -24.5t-60.5 24.5t-24.5 60.5zM217 799
q0 -17 11.5 -28.5t28.5 -11.5t28.5 11.5t11.5 28.5t-11.5 28.5t-28.5 11.5t-28.5 -11.5t-11.5 -28.5z" />
    <glyph glyph-name="AE" unicode="&#xc6;" horiz-adv-x="503" 
d="M474 0h-228l-10 131h-136l-41 -131h-86l221 667h218l8 -76h-143l19 -212h129l8 -76h-129l22 -227h140zM232 199l-13 151q-4 50 -4 190q-6 -42 -34 -143q-29 -99 -60 -198h111z" />
    <glyph glyph-name="Ccedilla" unicode="&#xc7;" horiz-adv-x="332" 
d="M360 656l-9 -81q-29 17 -55 17q-77 0 -116 -97q-20 -49 -31.5 -123.5t-11.5 -135.5q0 -157 101 -157q28 0 53 13l-10 -82q-32 -19 -73 -19q-166 0 -166 225q0 170 53 306q27 69 75.5 111t117.5 42q42 0 72 -19zM244 -75l-86 -118l-52 26l65 125z" />
    <glyph glyph-name="Egrave" unicode="&#xc8;" horiz-adv-x="316" 
d="M339 667l-9 -76h-146l-26 -212h130l-10 -76h-130l-27 -227h146l-9 -76h-235l81 667h235zM279 759l-43 -26l-99 107l60 44z" />
    <glyph glyph-name="Eacute" unicode="&#xc9;" horiz-adv-x="316" 
d="M339 667l-9 -76h-146l-26 -212h130l-10 -76h-130l-27 -227h146l-9 -76h-235l81 667h235zM179 762l95 122l66 -39l-115 -112z" />
    <glyph glyph-name="Ecircumflex" unicode="&#xca;" horiz-adv-x="316" 
d="M339 667l-9 -76h-146l-26 -212h130l-10 -76h-130l-27 -227h146l-9 -76h-235l81 667h235zM338 761l-45 -34l-59 74l-72 -74l-41 34l124 124z" />
    <glyph glyph-name="Edieresis" unicode="&#xcb;" horiz-adv-x="316" 
d="M339 667l-9 -76h-146l-26 -212h130l-10 -76h-130l-27 -227h146l-9 -76h-235l81 667h235zM348 777q0 -23 -17 -39.5t-39 -16.5q-19 0 -31.5 12.5t-12.5 31.5q0 22 17 39t40 17q19 0 31 -12.5t12 -31.5zM202 777q0 -23 -17 -39.5t-39 -16.5q-19 0 -31 12.5t-12 31.5
q0 23 16.5 39.5t39.5 16.5q19 0 31 -12.5t12 -31.5z" />
    <glyph glyph-name="Igrave" unicode="&#xcc;" horiz-adv-x="190" 
d="M193 667l-82 -667h-88l81 667h89zM204 759l-43 -26l-99 107l60 44z" />
    <glyph glyph-name="Iacute" unicode="&#xcd;" horiz-adv-x="190" 
d="M193 667l-82 -667h-88l81 667h89zM109 762l95 122l66 -39l-115 -112z" />
    <glyph glyph-name="Icircumflex" unicode="&#xce;" horiz-adv-x="190" 
d="M193 667l-82 -667h-88l81 667h89zM263 761l-45 -34l-59 74l-72 -74l-41 34l124 124z" />
    <glyph glyph-name="Idieresis" unicode="&#xcf;" horiz-adv-x="190" 
d="M193 667l-82 -667h-88l81 667h89zM278 777q0 -23 -17 -39.5t-39 -16.5q-19 0 -31.5 12.5t-12.5 31.5q0 22 17 39t40 17q19 0 31 -12.5t12 -31.5zM132 777q0 -23 -17 -39.5t-39 -16.5q-19 0 -31 12.5t-12 31.5q0 23 16.5 39.5t39.5 16.5q19 0 31 -12.5t12 -31.5z" />
    <glyph glyph-name="Eth" unicode="&#xd0;" horiz-adv-x="405" 
d="M105 667h108q45 0 75 -8t54 -35q47 -52 47 -167q0 -146 -33 -263q-37 -130 -113 -170q-46 -24 -149 -24h-71l39 320h-50l9 73h50zM151 320l-30 -242q82 0 116 53q28 44 43.5 148t15.5 179q0 64 -21 98.5t-81 34.5h-10l-24 -198h85l-9 -73h-85z" />
    <glyph glyph-name="Ntilde" unicode="&#xd1;" horiz-adv-x="407" 
d="M410 667l-81 -667h-83l-62 300q-13 61 -20 113q-3 18 -5.5 52.5t-4.5 47.5v-16q0 -29 -4 -85q-8 -115 -40 -412h-87l81 667h83l55 -267q28 -138 38 -240v110q0 58 11 148l31 249h88zM331 815h48q-10 -88 -75 -88q-15 0 -40 14t-39 14q-21 0 -21 -24h-54q15 88 77 88
q19 0 45 -15t38 -15q8 0 11.5 3.5t5.5 11.5t4 11z" />
    <glyph glyph-name="Ograve" unicode="&#xd2;" horiz-adv-x="416" 
d="M403 489q0 -176 -41 -323q-23 -81 -64 -128t-116 -47q-141 0 -141 180q0 166 32 305q20 90 63 144.5t125 54.5q142 0 142 -186zM311 495q0 18 -0.5 27.5t-3.5 25.5t-8.5 24.5t-17.5 15t-29 6.5q-51 0 -74 -66q-7 -19 -12 -38t-9.5 -45.5t-6 -37t-5.5 -46t-4 -39.5
q-11 -90 -11 -147q0 -101 59 -101q35 0 52.5 23t28.5 64q17 67 28 164q13 104 13 170zM309 759l-43 -26l-99 107l60 44z" />
    <glyph glyph-name="Oacute" unicode="&#xd3;" horiz-adv-x="416" 
d="M403 489q0 -176 -41 -323q-23 -81 -64 -128t-116 -47q-141 0 -141 180q0 166 32 305q20 90 63 144.5t125 54.5q142 0 142 -186zM311 495q0 18 -0.5 27.5t-3.5 25.5t-8.5 24.5t-17.5 15t-29 6.5q-51 0 -74 -66q-7 -19 -12 -38t-9.5 -45.5t-6 -37t-5.5 -46t-4 -39.5
q-11 -90 -11 -147q0 -101 59 -101q35 0 52.5 23t28.5 64q17 67 28 164q13 104 13 170zM209 762l95 122l66 -39l-115 -112z" />
    <glyph glyph-name="Ocircumflex" unicode="&#xd4;" horiz-adv-x="416" 
d="M403 489q0 -176 -41 -323q-23 -81 -64 -128t-116 -47q-141 0 -141 180q0 166 32 305q20 90 63 144.5t125 54.5q142 0 142 -186zM311 495q0 18 -0.5 27.5t-3.5 25.5t-8.5 24.5t-17.5 15t-29 6.5q-51 0 -74 -66q-7 -19 -12 -38t-9.5 -45.5t-6 -37t-5.5 -46t-4 -39.5
q-11 -90 -11 -147q0 -101 59 -101q35 0 52.5 23t28.5 64q17 67 28 164q13 104 13 170zM368 761l-45 -34l-59 74l-72 -74l-41 34l124 124z" />
    <glyph glyph-name="Otilde" unicode="&#xd5;" horiz-adv-x="416" 
d="M403 489q0 -176 -41 -323q-23 -81 -64 -128t-116 -47q-141 0 -141 180q0 166 32 305q20 90 63 144.5t125 54.5q142 0 142 -186zM311 495q0 18 -0.5 27.5t-3.5 25.5t-8.5 24.5t-17.5 15t-29 6.5q-51 0 -74 -66q-7 -19 -12 -38t-9.5 -45.5t-6 -37t-5.5 -46t-4 -39.5
q-11 -90 -11 -147q0 -101 59 -101q35 0 52.5 23t28.5 64q17 67 28 164q13 104 13 170zM327 815h48q-10 -88 -75 -88q-15 0 -40 14t-39 14q-21 0 -21 -24h-54q15 88 77 88q19 0 45 -15t38 -15q8 0 11.5 3.5t5.5 11.5t4 11z" />
    <glyph glyph-name="Odieresis" unicode="&#xd6;" horiz-adv-x="416" 
d="M403 489q0 -176 -41 -323q-23 -81 -64 -128t-116 -47q-141 0 -141 180q0 166 32 305q20 90 63 144.5t125 54.5q142 0 142 -186zM311 495q0 18 -0.5 27.5t-3.5 25.5t-8.5 24.5t-17.5 15t-29 6.5q-51 0 -74 -66q-7 -19 -12 -38t-9.5 -45.5t-6 -37t-5.5 -46t-4 -39.5
q-11 -90 -11 -147q0 -101 59 -101q35 0 52.5 23t28.5 64q17 67 28 164q13 104 13 170zM382 777q0 -23 -17 -39.5t-39 -16.5q-19 0 -31.5 12.5t-12.5 31.5q0 22 17 39t40 17q19 0 31 -12.5t12 -31.5zM236 777q0 -23 -17 -39.5t-39 -16.5q-19 0 -31 12.5t-12 31.5
q0 23 16.5 39.5t39.5 16.5q19 0 31 -12.5t12 -31.5z" />
    <glyph glyph-name="multiply" unicode="&#xd7;" 
d="M390 154l-127 126l-126 -126l-54 53l127 127l-127 127l54 53l126 -126l127 126l54 -53l-127 -127l127 -127z" />
    <glyph glyph-name="Oslash" unicode="&#xd8;" horiz-adv-x="452" 
d="M9 3l57 93q-8 52 -8 109q0 105 23 227q26 143 80 197q46 46 115 46q79 0 110 -50l42 64l40 -28l-56 -92q8 -49 8 -104q0 -110 -25 -232q-29 -145 -80 -196q-47 -46 -120 -46q-71 0 -105 49l-41 -68zM149 233l178 291q0 36 -15 53t-43 17t-48 -21q-29 -31 -50 -146
q-18 -97 -22 -194zM325 425l-176 -288q2 -31 20 -49q14 -14 37 -14q27 0 48 19q27 25 46 127q20 108 25 205z" />
    <glyph glyph-name="Ugrave" unicode="&#xd9;" horiz-adv-x="403" 
d="M406 667l-59 -484q-12 -97 -48.5 -144.5t-127.5 -47.5q-131 0 -131 125q0 17 7 80l57 471h87l-58 -471q-5 -35 -5 -62q0 -58 59 -58q17 0 30 6.5t20 14t12 23.5t6.5 25.5t3.5 29.5q1 5 1 8l60 484h86zM309 759l-43 -26l-99 107l60 44z" />
    <glyph glyph-name="Uacute" unicode="&#xda;" horiz-adv-x="403" 
d="M406 667l-59 -484q-12 -97 -48.5 -144.5t-127.5 -47.5q-131 0 -131 125q0 17 7 80l57 471h87l-58 -471q-5 -35 -5 -62q0 -58 59 -58q17 0 30 6.5t20 14t12 23.5t6.5 25.5t3.5 29.5q1 5 1 8l60 484h86zM209 762l95 122l66 -39l-115 -112z" />
    <glyph glyph-name="Ucircumflex" unicode="&#xdb;" horiz-adv-x="403" 
d="M406 667l-59 -484q-12 -97 -48.5 -144.5t-127.5 -47.5q-131 0 -131 125q0 17 7 80l57 471h87l-58 -471q-5 -35 -5 -62q0 -58 59 -58q17 0 30 6.5t20 14t12 23.5t6.5 25.5t3.5 29.5q1 5 1 8l60 484h86zM368 761l-45 -34l-59 74l-72 -74l-41 34l124 124z" />
    <glyph glyph-name="Udieresis" unicode="&#xdc;" horiz-adv-x="403" 
d="M406 667l-59 -484q-12 -97 -48.5 -144.5t-127.5 -47.5q-131 0 -131 125q0 17 7 80l57 471h87l-58 -471q-5 -35 -5 -62q0 -58 59 -58q17 0 30 6.5t20 14t12 23.5t6.5 25.5t3.5 29.5q1 5 1 8l60 484h86zM388 777q0 -23 -17 -39.5t-39 -16.5q-19 0 -31.5 12.5t-12.5 31.5
q0 22 17 39t40 17q19 0 31 -12.5t12 -31.5zM242 777q0 -23 -17 -39.5t-39 -16.5q-19 0 -31 12.5t-12 31.5q0 23 16.5 39.5t39.5 16.5q19 0 31 -12.5t12 -31.5z" />
    <glyph glyph-name="Yacute" unicode="&#xdd;" horiz-adv-x="336" 
d="M392 667l-161 -380l-35 -287h-89l35 287l-90 380h94l32 -179q7 -40 15 -130q17 62 42 132l65 177h92zM179 762l95 122l66 -39l-115 -112z" />
    <glyph glyph-name="Thorn" unicode="&#xde;" horiz-adv-x="345" 
d="M181 567h28q76 0 108.5 -32.5t32.5 -108.5q0 -74 -27.5 -136t-88.5 -83q-31 -11 -98 -11l-24 -196h-89l82 667h89zM145 273h8q37 0 56 12q47 30 47 121q0 41 -15.5 63t-54.5 22h-14z" />
    <glyph glyph-name="germandbls" unicode="&#xdf;" horiz-adv-x="361" 
d="M22 0l46 372h-50l9 75h50l17 135q10 82 44 120t113 38q55 0 83.5 -41t28.5 -112q0 -97 -40 -148q-15 -21 -42 -29q34 -11 47 -32.5t13 -59.5q0 -133 -28 -206q-15 -60 -47 -86.5t-93 -26.5q-21 0 -31 1l10 76q30 0 44.5 8.5t26.5 35.5t19 82t7 93q0 40 -15.5 58.5
t-54.5 18.5l9 75q3 -1 10 -1q77 0 77 124q0 44 -7.5 66.5t-31.5 22.5q-15 0 -26.5 -6.5t-17.5 -14.5t-10.5 -24t-6 -24.5t-3.5 -25.5l-69 -564h-81z" />
    <glyph glyph-name="agrave" unicode="&#xe0;" horiz-adv-x="343" 
d="M324 447l-55 -447h-81l7 57q-18 -32 -37.5 -48t-51.5 -16q-83 0 -83 130q0 45 4.5 91.5t17.5 106t43.5 96.5t74.5 37q51 0 74 -58l6 51h81zM224 309q0 70 -38 70q-44 0 -62 -85q-18 -83 -18 -155t41 -72q39 0 57 76q20 83 20 166zM264 539l-43 -26l-99 107l60 44z" />
    <glyph glyph-name="aacute" unicode="&#xe1;" horiz-adv-x="343" 
d="M324 447l-55 -447h-81l7 57q-18 -32 -37.5 -48t-51.5 -16q-83 0 -83 130q0 45 4.5 91.5t17.5 106t43.5 96.5t74.5 37q51 0 74 -58l6 51h81zM224 309q0 70 -38 70q-44 0 -62 -85q-18 -83 -18 -155t41 -72q39 0 57 76q20 83 20 166zM144 542l95 122l66 -39l-115 -112z" />
    <glyph glyph-name="acircumflex" unicode="&#xe2;" horiz-adv-x="343" 
d="M324 447l-55 -447h-81l7 57q-18 -32 -37.5 -48t-51.5 -16q-83 0 -83 130q0 45 4.5 91.5t17.5 106t43.5 96.5t74.5 37q51 0 74 -58l6 51h81zM224 309q0 70 -38 70q-44 0 -62 -85q-18 -83 -18 -155t41 -72q39 0 57 76q20 83 20 166zM313 547l-45 -34l-59 74l-72 -74l-41 34
l124 124z" />
    <glyph glyph-name="atilde" unicode="&#xe3;" horiz-adv-x="343" 
d="M324 447l-55 -447h-81l7 57q-18 -32 -37.5 -48t-51.5 -16q-83 0 -83 130q0 45 4.5 91.5t17.5 106t43.5 96.5t74.5 37q51 0 74 -58l6 51h81zM224 309q0 70 -38 70q-44 0 -62 -85q-18 -83 -18 -155t41 -72q39 0 57 76q20 83 20 166zM272 601h48q-10 -88 -75 -88
q-15 0 -40 14t-39 14q-21 0 -21 -24h-54q15 88 77 88q19 0 45 -15t38 -15q8 0 11.5 3.5t5.5 11.5t4 11z" />
    <glyph glyph-name="adieresis" unicode="&#xe4;" horiz-adv-x="343" 
d="M324 447l-55 -447h-81l7 57q-18 -32 -37.5 -48t-51.5 -16q-83 0 -83 130q0 45 4.5 91.5t17.5 106t43.5 96.5t74.5 37q51 0 74 -58l6 51h81zM224 309q0 70 -38 70q-44 0 -62 -85q-18 -83 -18 -155t41 -72q39 0 57 76q20 83 20 166zM323 569q0 -23 -16.5 -39.5t-39.5 -16.5
q-19 0 -31.5 12.5t-12.5 31.5q0 22 17 39t40 17q19 0 31 -12.5t12 -31.5zM177 569q0 -23 -16.5 -39.5t-39.5 -16.5q-19 0 -31 12.5t-12 31.5q0 23 17 39.5t39 16.5q19 0 31 -12.5t12 -31.5z" />
    <glyph glyph-name="aring" unicode="&#xe5;" horiz-adv-x="343" 
d="M324 447l-55 -447h-81l7 57q-18 -32 -37.5 -48t-51.5 -16q-83 0 -83 130q0 45 4.5 91.5t17.5 106t43.5 96.5t74.5 37q51 0 74 -58l6 51h81zM224 309q0 70 -38 70q-44 0 -62 -85q-18 -83 -18 -155t41 -72q39 0 57 76q20 83 20 166zM118 600q0 36 24.5 60.5t60.5 24.5
t60.5 -24.5t24.5 -60.5t-24.5 -60.5t-60.5 -24.5t-60.5 24.5t-24.5 60.5zM163 600q0 -17 11.5 -28.5t28.5 -11.5t28.5 11.5t11.5 28.5t-11.5 28.5t-28.5 11.5t-28.5 -11.5t-11.5 -28.5z" />
    <glyph glyph-name="ae" unicode="&#xe6;" horiz-adv-x="498" 
d="M66 348l10 84q48 22 92 22q75 0 97 -57q39 57 102 57q106 0 106 -151q0 -46 -8 -97h-182q-4 -33 -4 -74q0 -71 43 -71q29 0 43 28.5t16 63.5h77q-12 -74 -45 -117t-101 -43q-78 0 -96 70q-20 -37 -44 -53.5t-63 -16.5q-93 0 -93 107q0 32 7 63.5t21 60.5t40 46.5t61 17.5
q45 0 66 -29q0 6 2 26.5t2 31.5q0 57 -62 57q-41 0 -87 -26zM293 266h97q5 28 5 52q0 68 -39 68q-53 0 -63 -120zM204 166q0 57 -43 57q-34 0 -48 -31.5t-14 -70.5q0 -29 7.5 -45.5t33.5 -16.5q24 0 39.5 19.5t20 41.5t4.5 46z" />
    <glyph glyph-name="ccedilla" unicode="&#xe7;" horiz-adv-x="249" 
d="M252 438l-11 -84q-11 21 -38 21q-28 0 -47 -24t-27.5 -61.5t-11.5 -67t-3 -57.5q0 -18 1.5 -31t6 -29.5t15.5 -25t29 -8.5q21 0 43 17l-10 -77q-33 -18 -68 -18q-58 0 -83 42t-25 105q0 108 32 201q39 113 135 113q33 0 62 -16zM170 -74l-89 -117l-35 20l70 126z" />
    <glyph glyph-name="egrave" unicode="&#xe8;" horiz-adv-x="321" 
d="M206 151h76q-9 -57 -28 -90q-18 -32 -49.5 -50t-68.5 -18q-113 0 -113 148q0 82 22 168q38 145 145 145q60 0 84.5 -45t24.5 -110q0 -40 -7 -92h-185q-4 -40 -4 -59q0 -17 1 -27t4.5 -25.5t13 -23.5t24.5 -8q50 0 60 87zM218 300v15q0 69 -38 69q-8 0 -14.5 -2.5
t-12 -8.5t-10 -11.5t-8.5 -15t-6.5 -16t-5 -18t-4 -16.5t-3.5 -16t-2 -13h103q1 11 1 33zM250 539l-43 -26l-99 107l60 44z" />
    <glyph glyph-name="eacute" unicode="&#xe9;" horiz-adv-x="321" 
d="M206 151h76q-9 -57 -28 -90q-18 -32 -49.5 -50t-68.5 -18q-113 0 -113 148q0 82 22 168q38 145 145 145q60 0 84.5 -45t24.5 -110q0 -40 -7 -92h-185q-4 -40 -4 -59q0 -17 1 -27t4.5 -25.5t13 -23.5t24.5 -8q50 0 60 87zM218 300v15q0 69 -38 69q-8 0 -14.5 -2.5
t-12 -8.5t-10 -11.5t-8.5 -15t-6.5 -16t-5 -18t-4 -16.5t-3.5 -16t-2 -13h103q1 11 1 33zM150 542l95 122l66 -39l-115 -112z" />
    <glyph glyph-name="ecircumflex" unicode="&#xea;" horiz-adv-x="321" 
d="M206 151h76q-9 -57 -28 -90q-18 -32 -49.5 -50t-68.5 -18q-113 0 -113 148q0 82 22 168q38 145 145 145q60 0 84.5 -45t24.5 -110q0 -40 -7 -92h-185q-4 -40 -4 -59q0 -17 1 -27t4.5 -25.5t13 -23.5t24.5 -8q50 0 60 87zM218 300v15q0 69 -38 69q-8 0 -14.5 -2.5
t-12 -8.5t-10 -11.5t-8.5 -15t-6.5 -16t-5 -18t-4 -16.5t-3.5 -16t-2 -13h103q1 11 1 33zM309 547l-45 -34l-59 74l-72 -74l-41 34l124 124z" />
    <glyph glyph-name="edieresis" unicode="&#xeb;" horiz-adv-x="321" 
d="M206 151h76q-9 -57 -28 -90q-18 -32 -49.5 -50t-68.5 -18q-113 0 -113 148q0 82 22 168q38 145 145 145q60 0 84.5 -45t24.5 -110q0 -40 -7 -92h-185q-4 -40 -4 -59q0 -17 1 -27t4.5 -25.5t13 -23.5t24.5 -8q50 0 60 87zM218 300v15q0 69 -38 69q-8 0 -14.5 -2.5
t-12 -8.5t-10 -11.5t-8.5 -15t-6.5 -16t-5 -18t-4 -16.5t-3.5 -16t-2 -13h103q1 11 1 33zM318 569q0 -23 -17 -39.5t-39 -16.5q-19 0 -31.5 12.5t-12.5 31.5q0 22 17 39t40 17q19 0 31 -12.5t12 -31.5zM172 569q0 -23 -17 -39.5t-39 -16.5q-19 0 -31 12.5t-12 31.5
q0 23 16.5 39.5t39.5 16.5q19 0 31 -12.5t12 -31.5z" />
    <glyph glyph-name="igrave" unicode="&#xec;" horiz-adv-x="173" 
d="M154 447l-55 -447h-81l55 447h81zM171 539l-43 -26l-99 107l60 44z" />
    <glyph glyph-name="iacute" unicode="&#xed;" horiz-adv-x="173" 
d="M154 447l-55 -447h-81l55 447h81zM76 542l95 122l66 -39l-115 -112z" />
    <glyph glyph-name="icircumflex" unicode="&#xee;" horiz-adv-x="173" 
d="M154 447l-55 -447h-81l55 447h81zM228 547l-45 -34l-59 74l-72 -74l-41 34l124 124z" />
    <glyph glyph-name="idieresis" unicode="&#xef;" horiz-adv-x="173" 
d="M154 447l-55 -447h-81l55 447h81zM246 569q0 -23 -17 -39.5t-39 -16.5q-19 0 -31.5 12.5t-12.5 31.5q0 22 17 39t40 17q19 0 31 -12.5t12 -31.5zM100 569q0 -23 -17 -39.5t-39 -16.5q-19 0 -31 12.5t-12 31.5q0 23 16.5 39.5t39.5 16.5q19 0 31 -12.5t12 -31.5z" />
    <glyph glyph-name="eth" unicode="&#xf0;" horiz-adv-x="336" 
d="M323 679l-75 -52q67 -102 67 -270q0 -72 -12 -155t-38 -129q-45 -80 -126 -80q-115 0 -115 150q0 46 6.5 92.5t22.5 98.5t50 85t83 33q28 0 46 -18q-11 101 -44 151l-74 -51l-40 49l77 53q-23 29 -58 54l47 50q39 -26 72 -62l72 48zM228 313q0 65 -39 65q-34 0 -52 -53
q-11 -32 -18.5 -92.5t-7.5 -99.5q0 -65 40 -65q35 0 52 53q11 32 18 91.5t7 100.5z" />
    <glyph glyph-name="ntilde" unicode="&#xf1;" horiz-adv-x="353" 
d="M154 447l-6 -52q41 59 97 59q37 0 57 -21t20 -58q0 -19 -4 -57l-39 -318h-82l37 299q0 4 1 11.5t1.5 13.5t0.5 11q0 47 -40 47q-18 0 -30 -8t-18 -24.5t-8.5 -28.5t-5.5 -32l-36 -289h-81l55 447h81zM279 601h48q-10 -88 -75 -88q-15 0 -40 14t-39 14q-21 0 -21 -24h-54
q15 88 77 88q19 0 45 -15t38 -15q8 0 11.5 3.5t5.5 11.5t4 11z" />
    <glyph glyph-name="ograve" unicode="&#xf2;" horiz-adv-x="336" 
d="M311 306q0 -39 -3.5 -76t-14.5 -82t-29 -77.5t-50.5 -55t-75.5 -22.5q-114 0 -114 151q0 50 6.5 97t23.5 98.5t53.5 83t88.5 31.5q115 0 115 -148zM228 314q0 65 -41 65q-23 0 -38 -23q-19 -28 -29 -98.5t-10 -122.5q0 -65 40 -65q23 0 39 24q19 28 29 98.5t10 121.5z
M257 539l-43 -26l-99 107l60 44z" />
    <glyph glyph-name="oacute" unicode="&#xf3;" horiz-adv-x="336" 
d="M311 306q0 -39 -3.5 -76t-14.5 -82t-29 -77.5t-50.5 -55t-75.5 -22.5q-114 0 -114 151q0 50 6.5 97t23.5 98.5t53.5 83t88.5 31.5q115 0 115 -148zM228 314q0 65 -41 65q-23 0 -38 -23q-19 -28 -29 -98.5t-10 -122.5q0 -65 40 -65q23 0 39 24q19 28 29 98.5t10 121.5z
M157 542l95 122l66 -39l-115 -112z" />
    <glyph glyph-name="ocircumflex" unicode="&#xf4;" horiz-adv-x="336" 
d="M311 306q0 -39 -3.5 -76t-14.5 -82t-29 -77.5t-50.5 -55t-75.5 -22.5q-114 0 -114 151q0 50 6.5 97t23.5 98.5t53.5 83t88.5 31.5q115 0 115 -148zM228 314q0 65 -41 65q-23 0 -38 -23q-19 -28 -29 -98.5t-10 -122.5q0 -65 40 -65q23 0 39 24q19 28 29 98.5t10 121.5z
M316 547l-45 -34l-59 74l-72 -74l-41 34l124 124z" />
    <glyph glyph-name="otilde" unicode="&#xf5;" horiz-adv-x="336" 
d="M311 306q0 -39 -3.5 -76t-14.5 -82t-29 -77.5t-50.5 -55t-75.5 -22.5q-114 0 -114 151q0 50 6.5 97t23.5 98.5t53.5 83t88.5 31.5q115 0 115 -148zM228 314q0 65 -41 65q-23 0 -38 -23q-19 -28 -29 -98.5t-10 -122.5q0 -65 40 -65q23 0 39 24q19 28 29 98.5t10 121.5z
M275 601h48q-10 -88 -75 -88q-15 0 -40 14t-39 14q-21 0 -21 -24h-54q15 88 77 88q19 0 45 -15t38 -15q8 0 11.5 3.5t5.5 11.5t4 11z" />
    <glyph glyph-name="odieresis" unicode="&#xf6;" horiz-adv-x="336" 
d="M311 306q0 -39 -3.5 -76t-14.5 -82t-29 -77.5t-50.5 -55t-75.5 -22.5q-114 0 -114 151q0 50 6.5 97t23.5 98.5t53.5 83t88.5 31.5q115 0 115 -148zM228 314q0 65 -41 65q-23 0 -38 -23q-19 -28 -29 -98.5t-10 -122.5q0 -65 40 -65q23 0 39 24q19 28 29 98.5t10 121.5z
M331 569q0 -23 -16.5 -39.5t-39.5 -16.5q-19 0 -31.5 12.5t-12.5 31.5q0 22 17 39t40 17q19 0 31 -12.5t12 -31.5zM185 569q0 -23 -16.5 -39.5t-39.5 -16.5q-19 0 -31 12.5t-12 31.5q0 23 17 39.5t39 16.5q19 0 31 -12.5t12 -31.5z" />
    <glyph glyph-name="divide" unicode="&#xf7;" 
d="M315 514q0 -21 -15.5 -36.5t-36.5 -15.5t-37 15.5t-16 36.5q0 22 15.5 37.5t37.5 15.5q21 0 36.5 -16t15.5 -37zM480 297h-434v74h434v-74zM315 153q0 -21 -15.5 -36.5t-36.5 -15.5t-37 15.5t-16 36.5q0 22 15.5 37.5t37.5 15.5q21 0 36.5 -16t15.5 -37z" />
    <glyph glyph-name="oslash" unicode="&#xf8;" horiz-adv-x="359" 
d="M356 441l-46 -64q9 -30 9 -70t-3 -76.5t-13.5 -82t-28 -78t-50 -55t-76.5 -22.5q-54 0 -87 37l-27 -38l-31 22l40 55q-10 33 -10 70q0 108 26 191q38 124 145 124q54 0 87 -37l32 45zM121 174l112 167q-4 19 -12.5 28.5t-25.5 9.5q-24 0 -40 -25q-23 -36 -34 -180z
M234 273l-113 -168q6 -41 38 -41q50 0 65 113q7 43 10 96z" />
    <glyph glyph-name="ugrave" unicode="&#xf9;" horiz-adv-x="354" 
d="M335 447l-33 -268q-6 -49 -12.5 -76t-22.5 -56.5t-46 -42t-77 -12.5q-111 0 -111 110q0 16 4 50l36 295h81l-33 -268q-5 -35 -5 -62q0 -25 10.5 -35.5t35.5 -10.5q20 0 32 13t15.5 25.5t6.5 35.5q4 21 5 34l32 268h82zM259 539l-43 -26l-99 107l60 44z" />
    <glyph glyph-name="uacute" unicode="&#xfa;" horiz-adv-x="354" 
d="M335 447l-33 -268q-6 -49 -12.5 -76t-22.5 -56.5t-46 -42t-77 -12.5q-111 0 -111 110q0 16 4 50l36 295h81l-33 -268q-5 -35 -5 -62q0 -25 10.5 -35.5t35.5 -10.5q20 0 32 13t15.5 25.5t6.5 35.5q4 21 5 34l32 268h82zM166 542l95 122l66 -39l-115 -112z" />
    <glyph glyph-name="ucircumflex" unicode="&#xfb;" horiz-adv-x="354" 
d="M335 447l-33 -268q-6 -49 -12.5 -76t-22.5 -56.5t-46 -42t-77 -12.5q-111 0 -111 110q0 16 4 50l36 295h81l-33 -268q-5 -35 -5 -62q0 -25 10.5 -35.5t35.5 -10.5q20 0 32 13t15.5 25.5t6.5 35.5q4 21 5 34l32 268h82zM325 547l-45 -34l-59 74l-72 -74l-41 34l124 124z
" />
    <glyph glyph-name="udieresis" unicode="&#xfc;" horiz-adv-x="354" 
d="M335 447l-33 -268q-6 -49 -12.5 -76t-22.5 -56.5t-46 -42t-77 -12.5q-111 0 -111 110q0 16 4 50l36 295h81l-33 -268q-5 -35 -5 -62q0 -25 10.5 -35.5t35.5 -10.5q20 0 32 13t15.5 25.5t6.5 35.5q4 21 5 34l32 268h82zM334 569q0 -23 -17 -39.5t-39 -16.5
q-19 0 -31.5 12.5t-12.5 31.5q0 22 17 39t40 17q19 0 31 -12.5t12 -31.5zM188 569q0 -23 -17 -39.5t-39 -16.5q-19 0 -31 12.5t-12 31.5q0 23 16.5 39.5t39.5 16.5q19 0 31 -12.5t12 -31.5z" />
    <glyph glyph-name="yacute" unicode="&#xfd;" horiz-adv-x="322" 
d="M346 447l-259 -635h-85l96 224l-67 411h92l26 -312l114 312h83zM146 542l95 122l66 -39l-115 -112z" />
    <glyph glyph-name="thorn" unicode="&#xfe;" horiz-adv-x="344" 
d="M189 729l-41 -340q19 33 38 49t52 16q82 0 82 -126q0 -45 -4.5 -91.5t-17.5 -107t-43.5 -98.5t-75.5 -38q-30 0 -45.5 13t-27.5 44l-30 -238h-81l113 917h81zM237 312q0 67 -41 67q-33 0 -53 -61q-24 -82 -24 -180q0 -70 39 -70q38 0 57 68q22 77 22 176z" />
    <glyph glyph-name="ydieresis" unicode="&#xff;" horiz-adv-x="322" 
d="M346 447l-259 -635h-85l96 224l-67 411h92l26 -312l114 312h83zM318 569q0 -23 -17 -39.5t-39 -16.5q-19 0 -31.5 12.5t-12.5 31.5q0 22 17 39t40 17q19 0 31 -12.5t12 -31.5zM172 569q0 -23 -17 -39.5t-39 -16.5q-19 0 -31 12.5t-12 31.5q0 23 16.5 39.5t39.5 16.5
q19 0 31 -12.5t12 -31.5z" />
    <glyph glyph-name="Amacron" unicode="&#x100;" horiz-adv-x="355" 
d="M326 0h-88l-8 130h-131l-40 -130h-86l225 667h69zM120 199h105q-10 176 -10 264q0 49 1 74q-4 -16 -11.5 -46.5t-11.5 -46.5q-21 -83 -73 -245zM359 794l-8 -62h-221l7 62h222z" />
    <glyph glyph-name="amacron" unicode="&#x101;" horiz-adv-x="343" 
d="M324 447l-55 -447h-81l7 57q-18 -32 -37.5 -48t-51.5 -16q-83 0 -83 130q0 45 4.5 91.5t17.5 106t43.5 96.5t74.5 37q51 0 74 -58l6 51h81zM224 309q0 70 -38 70q-44 0 -62 -85q-18 -83 -18 -155t41 -72q39 0 57 76q20 83 20 166zM331 586l-8 -62h-221l7 62h222z" />
    <glyph glyph-name="Abreve" unicode="&#x102;" horiz-adv-x="355" 
d="M326 0h-88l-8 130h-131l-40 -130h-86l225 667h69zM120 199h105q-10 176 -10 264q0 49 1 74q-4 -16 -11.5 -46.5t-11.5 -46.5q-21 -83 -73 -245zM314 811h54q-10 -45 -47 -69t-86 -24q-48 0 -79 23.5t-31 69.5h54q10 -35 63 -35q52 0 72 35z" />
    <glyph glyph-name="abreve" unicode="&#x103;" horiz-adv-x="343" 
d="M324 447l-55 -447h-81l7 57q-18 -32 -37.5 -48t-51.5 -16q-83 0 -83 130q0 45 4.5 91.5t17.5 106t43.5 96.5t74.5 37q51 0 74 -58l6 51h81zM224 309q0 70 -38 70q-44 0 -62 -85q-18 -83 -18 -155t41 -72q39 0 57 76q20 83 20 166zM279 606h54q-10 -45 -47 -69t-86 -24
q-48 0 -79 23.5t-31 69.5h54q10 -35 63 -35q52 0 72 35z" />
    <glyph glyph-name="Aogonek" unicode="&#x104;" horiz-adv-x="355" 
d="M198 667h69l59 -667h-39q-6 -7 -25 -36q-14 -22 -14 -40q0 -16 10 -22q8 -5 22 -5q24 0 42 8l-7 -51q-21 -9 -46 -9q-39 0 -59 19q-16 15 -16 39q0 26 16 55q8 14 28 42l-8 130h-131l-40 -130h-86zM120 199h105q-5 80 -8 172q-2 70 -2 98q0 42 1 68q-24 -97 -47 -180
q-18 -62 -49 -158z" />
    <glyph glyph-name="aogonek" unicode="&#x105;" horiz-adv-x="343" 
d="M324 447l-55 -447h-32q-6 -7 -25 -36q-14 -22 -14 -40q0 -16 10 -22q8 -5 22 -5q24 0 42 8l-7 -51q-21 -9 -46 -9q-39 0 -59 19q-16 15 -16 39q0 26 16 55q8 14 28 42l7 57q-14 -28 -33 -44q-25 -20 -56 -20q-30 0 -49 17q-34 30 -34 113q0 79 10 140q17 117 65 164
q27 27 65 27q31 0 51 -20q15 -15 23 -38l6 51h81zM186 379q-19 0 -31 -12q-23 -21 -37 -103q-12 -67 -12 -121q0 -51 15 -66q10 -10 26 -10t27 11q23 21 37 97q13 70 13 129q0 47 -14 64q-10 11 -24 11z" />
    <glyph glyph-name="Cacute" unicode="&#x106;" horiz-adv-x="332" 
d="M360 656l-9 -81q-29 17 -55 17q-77 0 -116 -97q-20 -49 -31.5 -123.5t-11.5 -135.5q0 -157 101 -157q28 0 53 13l-10 -82q-32 -19 -73 -19q-166 0 -166 225q0 170 53 306q27 69 75.5 111t117.5 42q42 0 72 -19zM239 762l95 122l66 -39l-115 -112z" />
    <glyph glyph-name="cacute" unicode="&#x107;" horiz-adv-x="249" 
d="M252 438l-11 -84q-11 21 -38 21q-28 0 -47 -24t-27.5 -61.5t-11.5 -67t-3 -57.5q0 -18 1.5 -31t6 -29.5t15.5 -25t29 -8.5q21 0 43 17l-10 -77q-33 -18 -68 -18q-58 0 -83 42t-25 105q0 108 32 201q39 113 135 113q33 0 62 -16zM149 542l95 122l66 -39l-115 -112z" />
    <glyph glyph-name="Ccircumflex" unicode="&#x108;" horiz-adv-x="332" 
d="M360 656l-9 -81q-29 17 -55 17q-77 0 -116 -97q-20 -49 -31.5 -123.5t-11.5 -135.5q0 -157 101 -157q28 0 53 13l-10 -82q-32 -19 -73 -19q-166 0 -166 225q0 170 53 306q27 69 75.5 111t117.5 42q42 0 72 -19zM398 761l-45 -34l-59 74l-72 -74l-41 34l124 124z" />
    <glyph glyph-name="ccircumflex" unicode="&#x109;" horiz-adv-x="249" 
d="M252 438l-11 -84q-11 21 -38 21q-28 0 -47 -24t-27.5 -61.5t-11.5 -67t-3 -57.5q0 -18 1.5 -31t6 -29.5t15.5 -25t29 -8.5q21 0 43 17l-10 -77q-33 -18 -68 -18q-58 0 -83 42t-25 105q0 108 32 201q39 113 135 113q33 0 62 -16zM308 547l-45 -34l-59 74l-72 -74l-41 34
l124 124z" />
    <glyph glyph-name="Cdotaccent" unicode="&#x10a;" horiz-adv-x="332" 
d="M360 656l-9 -81q-29 17 -55 17q-77 0 -116 -97q-20 -49 -31.5 -123.5t-11.5 -135.5q0 -157 101 -157q28 0 53 13l-10 -82q-32 -19 -73 -19q-166 0 -166 225q0 170 53 306q27 69 75.5 111t117.5 42q42 0 72 -19zM351 780q0 -23 -18 -41t-41 -18q-20 0 -33 13.5t-13 32.5
q0 23 18 41t41 18q19 0 32.5 -13t13.5 -33z" />
    <glyph glyph-name="cdotaccent" unicode="&#x10b;" horiz-adv-x="249" 
d="M252 438l-11 -84q-11 21 -38 21q-28 0 -47 -24t-27.5 -61.5t-11.5 -67t-3 -57.5q0 -18 1.5 -31t6 -29.5t15.5 -25t29 -8.5q21 0 43 17l-10 -77q-33 -18 -68 -18q-58 0 -83 42t-25 105q0 108 32 201q39 113 135 113q33 0 62 -16zM253 572q0 -23 -18 -41t-41 -18
q-20 0 -33 13.5t-13 32.5q0 23 18 41t41 18q19 0 32.5 -13t13.5 -33z" />
    <glyph glyph-name="Ccaron" unicode="&#x10c;" horiz-adv-x="332" 
d="M360 656l-9 -81q-29 17 -55 17q-77 0 -116 -97q-20 -49 -31.5 -123.5t-11.5 -135.5q0 -157 101 -157q28 0 53 13l-10 -82q-32 -19 -73 -19q-166 0 -166 225q0 170 53 306q27 69 75.5 111t117.5 42q42 0 72 -19zM419 851l-123 -124l-94 124l49 34l54 -74l77 74z" />
    <glyph glyph-name="ccaron" unicode="&#x10d;" horiz-adv-x="249" 
d="M252 438l-11 -84q-11 21 -38 21q-28 0 -47 -24t-27.5 -61.5t-11.5 -67t-3 -57.5q0 -18 1.5 -31t6 -29.5t15.5 -25t29 -8.5q21 0 43 17l-10 -77q-33 -18 -68 -18q-58 0 -83 42t-25 105q0 108 32 201q39 113 135 113q33 0 62 -16zM319 637l-123 -124l-94 124l49 34l54 -74
l77 74z" />
    <glyph glyph-name="Dcaron" unicode="&#x10e;" horiz-adv-x="405" 
d="M104 667h109q63 0 94 -16q82 -42 82 -194q0 -82 -16 -181.5t-45 -159.5q-39 -77 -108 -101q-43 -15 -126 -15h-71zM121 78h3q39 0 65.5 11.5t47.5 41.5q29 41 44 145t15 182q0 70 -22.5 101.5t-89.5 31.5zM355 851l-123 -124l-94 124l49 34l54 -74l77 74z" />
    <glyph glyph-name="dcaron" unicode="&#x10f;" horiz-adv-x="496" 
d="M359 729l-90 -729h-81l7 57q-18 -32 -37.5 -48t-51.5 -16q-83 0 -83 130q0 35 2 70t10.5 85t23 86.5t41.5 63t64 26.5q30 0 45.5 -14t27.5 -44l40 333h82zM224 309q0 70 -38 70q-44 0 -62 -85q-18 -83 -18 -155t41 -72q39 0 57 76q20 83 20 166zM506 667l-92 -189l-43 17
l67 193z" />
    <glyph glyph-name="Dcroat" unicode="&#x110;" horiz-adv-x="405" 
d="M105 667h108q45 0 75 -8t54 -35q47 -52 47 -167q0 -146 -33 -263q-37 -130 -113 -170q-46 -24 -149 -24h-71l39 320h-50l9 73h50zM151 320l-30 -242q82 0 116 53q28 44 43.5 148t15.5 179q0 64 -21 98.5t-81 34.5h-10l-24 -198h85l-9 -73h-85z" />
    <glyph glyph-name="dcroat" unicode="&#x111;" horiz-adv-x="358" 
d="M234 372l19 149h-106l8 64h106l17 144h82l-19 -144h50l-8 -64h-50l-64 -521h-81l7 57q-12 -27 -33 -45q-24 -19 -54 -19q-33 0 -53 20q-32 31 -32 115q0 81 18 156q19 84 54 119q27 27 64 27q29 0 48 -16q17 -16 27 -42zM184 354q-19 0 -31 -12q-18 -18 -32 -82
q-15 -69 -15 -119q0 -49 15 -64q9 -10 26 -10t30 13q21 20 33 89q12 78 12 113q0 44 -15 61q-11 11 -23 11z" />
    <glyph glyph-name="Emacron" unicode="&#x112;" horiz-adv-x="316" 
d="M339 667l-9 -76h-146l-26 -212h130l-10 -76h-130l-27 -227h146l-9 -76h-235l81 667h235zM349 794l-8 -62h-221l7 62h222z" />
    <glyph glyph-name="emacron" unicode="&#x113;" horiz-adv-x="321" 
d="M206 151h76q-9 -57 -28 -90q-18 -32 -49.5 -50t-68.5 -18q-113 0 -113 148q0 82 22 168q38 145 145 145q60 0 84.5 -45t24.5 -110q0 -40 -7 -92h-185q-4 -40 -4 -59q0 -17 1 -27t4.5 -25.5t13 -23.5t24.5 -8q50 0 60 87zM218 300v15q0 69 -38 69q-8 0 -14.5 -2.5
t-12 -8.5t-10 -11.5t-8.5 -15t-6.5 -16t-5 -18t-4 -16.5t-3.5 -16t-2 -13h103q1 11 1 33zM314 586l-8 -62h-221l7 62h222z" />
    <glyph glyph-name="Edotaccent" unicode="&#x116;" horiz-adv-x="316" 
d="M339 667l-9 -76h-146l-26 -212h130l-10 -76h-130l-27 -227h146l-9 -76h-235l81 667h235zM283 780q0 -23 -18 -41t-41 -18q-20 0 -33 13.5t-13 32.5q0 23 18 41t41 18q19 0 32.5 -13t13.5 -33z" />
    <glyph glyph-name="edotaccent" unicode="&#x117;" horiz-adv-x="321" 
d="M206 151h76q-9 -57 -28 -90q-18 -32 -49.5 -50t-68.5 -18q-113 0 -113 148q0 82 22 168q38 145 145 145q60 0 84.5 -45t24.5 -110q0 -40 -7 -92h-185q-4 -40 -4 -59q0 -17 1 -27t4.5 -25.5t13 -23.5t24.5 -8q50 0 60 87zM218 300v15q0 69 -38 69q-8 0 -14.5 -2.5
t-12 -8.5t-10 -11.5t-8.5 -15t-6.5 -16t-5 -18t-4 -16.5t-3.5 -16t-2 -13h103q1 11 1 33zM254 572q0 -23 -18 -41t-41 -18q-19 0 -32.5 13.5t-13.5 32.5q0 23 18 41t41 18q20 0 33 -13t13 -33z" />
    <glyph glyph-name="Eogonek" unicode="&#x118;" horiz-adv-x="316" 
d="M339 667l-9 -76h-146l-26 -212h130l-10 -76h-130l-27 -227h146l-9 -76h-36q-6 -7 -25 -36q-14 -22 -14 -40q0 -16 10 -22q7 -5 22 -5q24 0 42 8l-7 -51q-21 -9 -46 -9q-39 0 -59 19q-16 15 -16 39q0 26 16 55q8 14 28 42h-150l81 667h235z" />
    <glyph glyph-name="eogonek" unicode="&#x119;" horiz-adv-x="321" 
d="M206 151h76q-9 -67 -45 -119q-11 -16 -26.5 -36t-22.5 -32q-14 -26 -14 -40q0 -16 10 -22q8 -5 22 -5q24 0 42 8l-7 -51q-21 -9 -46 -9q-39 0 -59 19q-16 15 -16 39q0 26 16 55q14 23 26 37q-69 -10 -103 26q-36 36 -36 122q0 76 19 155q21 85 62 123q36 33 86 33
q47 0 74 -31q50 -57 31 -193l-3 -23h-185q-4 -20 -4 -58q0 -56 16 -74q10 -11 28 -11t31 13q22 20 28 74zM114 267h103q6 86 -12 106q-8 11 -23 11q-18 0 -30 -12q-16 -16 -26 -50q-3 -9 -12 -55z" />
    <glyph glyph-name="Ecaron" unicode="&#x11a;" horiz-adv-x="316" 
d="M339 667l-9 -76h-146l-26 -212h130l-10 -76h-130l-27 -227h146l-9 -76h-235l81 667h235zM349 851l-123 -124l-94 124l49 34l54 -74l77 74z" />
    <glyph glyph-name="ecaron" unicode="&#x11b;" horiz-adv-x="321" 
d="M206 151h76q-9 -57 -28 -90q-18 -32 -49.5 -50t-68.5 -18q-113 0 -113 148q0 82 22 168q38 145 145 145q60 0 84.5 -45t24.5 -110q0 -40 -7 -92h-185q-4 -40 -4 -59q0 -17 1 -27t4.5 -25.5t13 -23.5t24.5 -8q50 0 60 87zM218 300v15q0 69 -38 69q-8 0 -14.5 -2.5
t-12 -8.5t-10 -11.5t-8.5 -15t-6.5 -16t-5 -18t-4 -16.5t-3.5 -16t-2 -13h103q1 11 1 33zM320 637l-123 -124l-94 124l49 34l54 -74l77 74z" />
    <glyph glyph-name="Gcircumflex" unicode="&#x11c;" horiz-adv-x="406" 
d="M402 539l-87 -35q-2 28 -5.5 44.5t-18 32t-40.5 15.5q-30 0 -46 -18.5t-27 -51.5q-21 -61 -34.5 -167.5t-13.5 -182.5q0 -24 1 -36.5t6.5 -30t18.5 -26t35 -8.5q65 0 85 106q9 39 14 94h-76l9 76h161q-1 -7 -4.5 -41t-5 -47t-7 -46.5t-10 -49t-13.5 -44.5t-19 -43.5
t-24.5 -34.5t-31.5 -29.5t-39.5 -17t-48.5 -7.5q-44 0 -73.5 16t-43.5 46.5t-19 62t-5 74.5q0 117 28 255q8 40 15.5 68t23 61t35 53.5t50.5 34t71 13.5q66 0 97.5 -34t41.5 -102zM378 761l-45 -34l-59 74l-72 -74l-41 34l124 124z" />
    <glyph glyph-name="gcircumflex" unicode="&#x11d;" horiz-adv-x="344" 
d="M325 447l-57 -461q-8 -70 -23 -102q-35 -72 -133 -72q-54 0 -83.5 27.5t-29.5 81.5q0 16 3 32h79q-2 -14 -2 -21q0 -23 12 -37t34 -14q18 0 30 7.5t17.5 22.5t8 26.5t4.5 30.5l10 87q-33 -62 -87 -62q-47 0 -66.5 37.5t-19.5 90.5q0 113 30 221q33 112 112 112
q29 0 45 -15.5t28 -45.5l6 54h82zM223 301q0 78 -41 78q-23 0 -39 -30t-23 -74t-10 -78t-3 -58q0 -72 42 -72q30 0 44 36q13 31 21.5 93t8.5 105zM314 547l-45 -34l-59 74l-72 -74l-41 34l124 124z" />
    <glyph glyph-name="Gbreve" unicode="&#x11e;" horiz-adv-x="406" 
d="M402 539l-87 -35q-2 28 -5.5 44.5t-18 32t-40.5 15.5q-30 0 -46 -18.5t-27 -51.5q-21 -61 -34.5 -167.5t-13.5 -182.5q0 -24 1 -36.5t6.5 -30t18.5 -26t35 -8.5q65 0 85 106q9 39 14 94h-76l9 76h161q-1 -7 -4.5 -41t-5 -47t-7 -46.5t-10 -49t-13.5 -44.5t-19 -43.5
t-24.5 -34.5t-31.5 -29.5t-39.5 -17t-48.5 -7.5q-44 0 -73.5 16t-43.5 46.5t-19 62t-5 74.5q0 117 28 255q8 40 15.5 68t23 61t35 53.5t50.5 34t71 13.5q66 0 97.5 -34t41.5 -102zM344 811h54q-10 -45 -47 -69t-86 -24q-48 0 -79 23.5t-31 69.5h54q10 -35 63 -35q52 0 72 35
z" />
    <glyph glyph-name="gbreve" unicode="&#x11f;" horiz-adv-x="344" 
d="M325 447l-57 -461q-8 -70 -23 -102q-35 -72 -133 -72q-54 0 -83.5 27.5t-29.5 81.5q0 16 3 32h79q-2 -14 -2 -21q0 -23 12 -37t34 -14q18 0 30 7.5t17.5 22.5t8 26.5t4.5 30.5l10 87q-33 -62 -87 -62q-47 0 -66.5 37.5t-19.5 90.5q0 113 30 221q33 112 112 112
q29 0 45 -15.5t28 -45.5l6 54h82zM223 301q0 78 -41 78q-23 0 -39 -30t-23 -74t-10 -78t-3 -58q0 -72 42 -72q30 0 44 36q13 31 21.5 93t8.5 105zM280 606h54q-10 -45 -47 -69t-86 -24q-48 0 -79 23.5t-31 69.5h54q10 -35 63 -35q52 0 72 35z" />
    <glyph glyph-name="Gdotaccent" unicode="&#x120;" horiz-adv-x="406" 
d="M402 539l-87 -35q-2 28 -5.5 44.5t-18 32t-40.5 15.5q-30 0 -46 -18.5t-27 -51.5q-21 -61 -34.5 -167.5t-13.5 -182.5q0 -24 1 -36.5t6.5 -30t18.5 -26t35 -8.5q65 0 85 106q9 39 14 94h-76l9 76h161q-1 -7 -4.5 -41t-5 -47t-7 -46.5t-10 -49t-13.5 -44.5t-19 -43.5
t-24.5 -34.5t-31.5 -29.5t-39.5 -17t-48.5 -7.5q-44 0 -73.5 16t-43.5 46.5t-19 62t-5 74.5q0 117 28 255q8 40 15.5 68t23 61t35 53.5t50.5 34t71 13.5q66 0 97.5 -34t41.5 -102zM327 780q0 -23 -18 -41t-41 -18q-20 0 -33 13.5t-13 32.5q0 23 18 41t41 18q19 0 32.5 -13
t13.5 -33z" />
    <glyph glyph-name="gdotaccent" unicode="&#x121;" horiz-adv-x="344" 
d="M325 447l-57 -461q-8 -70 -23 -102q-35 -72 -133 -72q-54 0 -83.5 27.5t-29.5 81.5q0 16 3 32h79q-2 -14 -2 -21q0 -23 12 -37t34 -14q18 0 30 7.5t17.5 22.5t8 26.5t4.5 30.5l10 87q-33 -62 -87 -62q-47 0 -66.5 37.5t-19.5 90.5q0 113 30 221q33 112 112 112
q29 0 45 -15.5t28 -45.5l6 54h82zM223 301q0 78 -41 78q-23 0 -39 -30t-23 -74t-10 -78t-3 -58q0 -72 42 -72q30 0 44 36q13 31 21.5 93t8.5 105zM235 572q0 -23 -18 -41t-41 -18q-20 0 -33 13.5t-13 32.5q0 23 18 41t41 18q19 0 32.5 -13t13.5 -33z" />
    <glyph glyph-name="Gcommaaccent" unicode="&#x122;" horiz-adv-x="406" 
d="M402 539l-87 -35q-2 28 -5.5 44.5t-18 32t-40.5 15.5q-30 0 -46 -18.5t-27 -51.5q-21 -61 -34.5 -167.5t-13.5 -182.5q0 -24 1 -36.5t6.5 -30t18.5 -26t35 -8.5q65 0 85 106q9 39 14 94h-76l9 76h161q-1 -7 -4.5 -41t-5 -47t-7 -46.5t-10 -49t-13.5 -44.5t-19 -43.5
t-24.5 -34.5t-31.5 -29.5t-39.5 -17t-48.5 -7.5q-44 0 -73.5 16t-43.5 46.5t-19 62t-5 74.5q0 117 28 255q8 40 15.5 68t23 61t35 53.5t50.5 34t71 13.5q66 0 97.5 -34t41.5 -102zM220 -69l-73 -154l-43 13l48 162z" />
    <glyph glyph-name="gcommaaccent" unicode="&#x123;" horiz-adv-x="344" 
d="M325 447l-57 -461q-8 -70 -23 -102q-35 -72 -133 -72q-54 0 -83.5 27.5t-29.5 81.5q0 16 3 32h79q-2 -14 -2 -21q0 -23 12 -37t34 -14q18 0 30 7.5t17.5 22.5t8 26.5t4.5 30.5l10 87q-33 -62 -87 -62q-47 0 -66.5 37.5t-19.5 90.5q0 113 30 221q33 112 112 112
q29 0 45 -15.5t28 -45.5l6 54h82zM223 301q0 78 -41 78q-23 0 -39 -30t-23 -74t-10 -78t-3 -58q0 -72 42 -72q30 0 44 36q13 31 21.5 93t8.5 105zM142 508l79 165l43 -13l-54 -173z" />
    <glyph glyph-name="Hcircumflex" unicode="&#x124;" horiz-adv-x="408" 
d="M411 667l-82 -667h-88l40 330h-129l-41 -330h-88l81 667h89l-32 -261h129l32 261h89zM378 761l-45 -34l-59 74l-72 -74l-41 34l124 124z" />
    <glyph glyph-name="hcircumflex" unicode="&#x125;" horiz-adv-x="353" 
d="M189 729l-41 -334q41 59 97 59q37 0 57 -21t20 -58q0 -19 -4 -57l-39 -318h-82l37 299q0 4 1 11.5t1.5 13.5t0.5 11q0 47 -40 47q-18 0 -30 -8t-18 -24.5t-8.5 -28.5t-5.5 -32l-36 -289h-81l90 729h81zM263 797l-45 -34l-59 74l-72 -74l-41 34l124 124z" />
    <glyph glyph-name="Hbar" unicode="&#x126;" horiz-adv-x="408" 
d="M329 0h-90l41 330h-128l-41 -330h-90l67 550h-48l8 64h48l7 53h90l-7 -53h128l7 53h90l-6 -53h48l-8 -64h-48zM307 550h-128l-18 -144h128z" />
    <glyph glyph-name="hbar" unicode="&#x127;" horiz-adv-x="359" 
d="M24 0l62 521h-50l8 64h50l19 144h81l-17 -144h106l-8 -64h-106l-18 -151q41 59 97 59q37 0 57 -21t20 -58q0 -19 -4 -57l-36 -293h-82l34 275q0 4 1 11.5t1.5 13.5t0.5 11q0 47 -40 47q-18 0 -30 -8t-18 -24.5t-8.5 -28.5t-5.5 -32l-33 -265h-81z" />
    <glyph glyph-name="Imacron" unicode="&#x12a;" horiz-adv-x="190" 
d="M193 667l-82 -667h-88l81 667h89zM274 794l-8 -62h-221l7 62h222z" />
    <glyph glyph-name="imacron" unicode="&#x12b;" horiz-adv-x="173" 
d="M154 447l-55 -447h-81l55 447h81zM239 586l-8 -62h-221l7 62h222z" />
    <glyph glyph-name="Iogonek" unicode="&#x12e;" horiz-adv-x="190" 
d="M193 667l-82 -667q-2 -2 -31 -36q-16 -18 -16 -40q0 -15 10 -22q8 -5 18 -5q23 0 42 8l-7 -51q-20 -9 -46 -9q-34 0 -55 19q-16 15 -16 39q0 27 18 55q12 20 34 42h-39l81 667h89z" />
    <glyph glyph-name="iogonek" unicode="&#x12f;" horiz-adv-x="173" 
d="M182 587q0 -25 -19 -43.5t-44 -18.5q-20 0 -34 14.5t-14 34.5q0 25 19 44t44 19q21 0 34.5 -14.5t13.5 -35.5zM134 -95l-7 -51q-21 -9 -46 -9q-39 0 -59 19q-16 15 -16 39q0 26 16 55q8 14 28 42h-32l55 447h81l-55 -447q-6 -7 -25 -36q-14 -22 -14 -40q0 -16 10 -22
q8 -5 22 -5q24 0 42 8z" />
    <glyph glyph-name="Idotaccent" unicode="&#x130;" horiz-adv-x="190" 
d="M193 667l-82 -667h-88l81 667h89zM213 780q0 -23 -18 -41t-41 -18q-20 0 -33 13.5t-13 32.5q0 23 18 41t41 18q19 0 32.5 -13t13.5 -33z" />
    <glyph glyph-name="dotlessi" unicode="&#x131;" horiz-adv-x="173" 
d="M154 447l-55 -447h-81l55 447h81z" />
    <glyph glyph-name="Jcircumflex" unicode="&#x134;" horiz-adv-x="255" 
d="M258 667l-63 -512q-8 -59 -20 -86q-17 -38 -52 -58t-79 -20q-43 0 -73 18l11 90q36 -23 56 -23q21 0 35 8.5t20.5 24t10 31t5.5 35.5q1 7 1 11l59 481h89zM328 761l-45 -34l-59 74l-72 -74l-41 34l124 124z" />
    <glyph glyph-name="jcircumflex" unicode="&#x135;" horiz-adv-x="174" 
d="M155 447l-78 -635h-82l79 635h81zM228 547l-45 -34l-59 74l-72 -74l-41 34l124 124z" />
    <glyph glyph-name="Kcommaaccent" unicode="&#x136;" horiz-adv-x="366" 
d="M405 667l-174 -325l95 -342h-92l-84 327l-39 -327h-88l81 667h89l-38 -306l158 306h92zM215 -69l-73 -154l-43 13l48 162z" />
    <glyph glyph-name="kcommaaccent" unicode="&#x137;" horiz-adv-x="341" 
d="M349 447l-142 -207l102 -240h-92l-90 222l-28 -222h-81l90 729h81l-58 -473l124 191h94zM195 -69l-79 -165l-43 13l54 173z" />
    <glyph glyph-name="Lacute" unicode="&#x139;" horiz-adv-x="288" 
d="M265 76l-9 -76h-233l81 667h89l-72 -591h144zM119 762l95 122l66 -39l-115 -112z" />
    <glyph glyph-name="lacute" unicode="&#x13a;" horiz-adv-x="172" 
d="M188 729l-89 -729h-81l89 729h81zM109 792l95 122l66 -39l-115 -112z" />
    <glyph glyph-name="Lcommaaccent" unicode="&#x13b;" horiz-adv-x="288" 
d="M265 76l-9 -76h-233l81 667h89l-72 -591h144zM180 -69l-73 -154l-43 13l48 162z" />
    <glyph glyph-name="lcommaaccent" unicode="&#x13c;" horiz-adv-x="172" 
d="M188 729l-89 -729h-81l89 729h81zM100 -69l-79 -165l-43 13l54 173z" />
    <glyph glyph-name="Lcaron" unicode="&#x13d;" horiz-adv-x="366" 
d="M265 76l-9 -76h-233l81 667h89l-72 -591h144zM376 667l-94 -189l-43 13l69 197z" />
    <glyph glyph-name="lcaron" unicode="&#x13e;" horiz-adv-x="326" 
d="M188 729l-89 -729h-81l89 729h81zM336 667l-92 -189l-43 17l67 193z" />
    <glyph glyph-name="Ldot" unicode="&#x13f;" horiz-adv-x="288" 
d="M265 76l-9 -76h-233l81 667h89l-72 -591h144zM306 341q0 -23 -18 -41t-41 -18q-19 0 -32.5 13t-13.5 33q0 23 18 41t41 18q20 0 33 -13.5t13 -32.5z" />
    <glyph glyph-name="ldot" unicode="&#x140;" horiz-adv-x="276" 
d="M188 729l-89 -729h-81l89 729h81zM296 372q0 -23 -18 -41t-41 -18q-19 0 -32.5 13.5t-13.5 32.5q0 23 18 41t41 18q20 0 33 -13t13 -33z" />
    <glyph glyph-name="Lslash" unicode="&#x141;" horiz-adv-x="288" 
d="M265 76l-9 -76h-233l31 257l-55 -41l11 89l55 42l39 320h89l-34 -277l105 75l-11 -90l-105 -74l-27 -225h144z" />
    <glyph glyph-name="lslash" unicode="&#x142;" horiz-adv-x="187" 
d="M215 480l-11 -86l-55 -45l-43 -349h-81l37 307l-55 -43l11 86l55 43l41 336h81l-36 -294z" />
    <glyph glyph-name="Nacute" unicode="&#x143;" horiz-adv-x="407" 
d="M410 667l-81 -667h-83l-62 300q-13 61 -20 113q-3 18 -5.5 52.5t-4.5 47.5v-16q0 -29 -4 -85q-8 -115 -40 -412h-87l81 667h83l55 -267q28 -138 38 -240v110q0 58 11 148l31 249h88zM214 762l95 122l66 -39l-115 -112z" />
    <glyph glyph-name="nacute" unicode="&#x144;" horiz-adv-x="353" 
d="M154 447l-6 -52q41 59 97 59q37 0 57 -21t20 -58q0 -19 -4 -57l-39 -318h-82l37 299q0 4 1 11.5t1.5 13.5t0.5 11q0 47 -40 47q-18 0 -30 -8t-18 -24.5t-8.5 -28.5t-5.5 -32l-36 -289h-81l55 447h81zM154 542l95 122l66 -39l-115 -112z" />
    <glyph glyph-name="Ncommaaccent" unicode="&#x145;" horiz-adv-x="407" 
d="M410 667l-81 -667h-83l-62 300q-13 61 -20 113q-3 18 -5.5 52.5t-4.5 47.5v-16q0 -29 -4 -85q-8 -115 -40 -412h-87l81 667h83l55 -267q28 -138 38 -240v110q0 58 11 148l31 249h88zM215 -69l-73 -154l-43 13l48 162z" />
    <glyph glyph-name="ncommaaccent" unicode="&#x146;" horiz-adv-x="353" 
d="M154 447l-6 -52q41 59 97 59q37 0 57 -21t20 -58q0 -19 -4 -57l-39 -318h-82l37 299q0 4 1 11.5t1.5 13.5t0.5 11q0 47 -40 47q-18 0 -30 -8t-18 -24.5t-8.5 -28.5t-5.5 -32l-36 -289h-81l55 447h81zM187 -69l-79 -165l-43 13l54 173z" />
    <glyph glyph-name="Ncaron" unicode="&#x147;" horiz-adv-x="407" 
d="M410 667l-81 -667h-83l-62 300q-13 61 -20 113q-3 18 -5.5 52.5t-4.5 47.5v-16q0 -29 -4 -85q-8 -115 -40 -412h-87l81 667h83l55 -267q28 -138 38 -240v110q0 58 11 148l31 249h88zM383 851l-123 -124l-94 124l49 34l54 -74l77 74z" />
    <glyph glyph-name="ncaron" unicode="&#x148;" horiz-adv-x="353" 
d="M154 447l-6 -52q41 59 97 59q37 0 57 -21t20 -58q0 -19 -4 -57l-39 -318h-82l37 299q0 4 1 11.5t1.5 13.5t0.5 11q0 47 -40 47q-18 0 -30 -8t-18 -24.5t-8.5 -28.5t-5.5 -32l-36 -289h-81l55 447h81zM344 637l-123 -124l-94 124l49 34l54 -74l77 74z" />
    <glyph glyph-name="Omacron" unicode="&#x14c;" horiz-adv-x="416" 
d="M403 489q0 -176 -41 -323q-23 -81 -64 -128t-116 -47q-141 0 -141 180q0 166 32 305q20 90 63 144.5t125 54.5q142 0 142 -186zM311 495q0 18 -0.5 27.5t-3.5 25.5t-8.5 24.5t-17.5 15t-29 6.5q-51 0 -74 -66q-7 -19 -12 -38t-9.5 -45.5t-6 -37t-5.5 -46t-4 -39.5
q-11 -90 -11 -147q0 -101 59 -101q35 0 52.5 23t28.5 64q17 67 28 164q13 104 13 170zM389 794l-8 -62h-221l7 62h222z" />
    <glyph glyph-name="omacron" unicode="&#x14d;" horiz-adv-x="336" 
d="M311 306q0 -39 -3.5 -76t-14.5 -82t-29 -77.5t-50.5 -55t-75.5 -22.5q-114 0 -114 151q0 50 6.5 97t23.5 98.5t53.5 83t88.5 31.5q115 0 115 -148zM228 314q0 65 -41 65q-23 0 -38 -23q-19 -28 -29 -98.5t-10 -122.5q0 -65 40 -65q23 0 39 24q19 28 29 98.5t10 121.5z
M327 586l-8 -62h-221l7 62h222z" />
    <glyph glyph-name="Obreve" unicode="&#x14e;" horiz-adv-x="416" 
d="M403 489q0 -176 -41 -323q-23 -81 -64 -128t-116 -47q-141 0 -141 180q0 166 32 305q20 90 63 144.5t125 54.5q142 0 142 -186zM311 495q0 18 -0.5 27.5t-3.5 25.5t-8.5 24.5t-17.5 15t-29 6.5q-51 0 -74 -66q-7 -19 -12 -38t-9.5 -45.5t-6 -37t-5.5 -46t-4 -39.5
q-11 -90 -11 -147q0 -101 59 -101q35 0 52.5 23t28.5 64q17 67 28 164q13 104 13 170zM338 811h54q-10 -45 -47 -69t-86 -24q-48 0 -79 23.5t-31 69.5h54q10 -35 63 -35q52 0 72 35z" />
    <glyph glyph-name="obreve" unicode="&#x14f;" horiz-adv-x="336" 
d="M311 306q0 -39 -3.5 -76t-14.5 -82t-29 -77.5t-50.5 -55t-75.5 -22.5q-114 0 -114 151q0 50 6.5 97t23.5 98.5t53.5 83t88.5 31.5q115 0 115 -148zM228 314q0 65 -41 65q-23 0 -38 -23q-19 -28 -29 -98.5t-10 -122.5q0 -65 40 -65q23 0 39 24q19 28 29 98.5t10 121.5z
M282 606h54q-10 -45 -47 -69t-86 -24q-48 0 -79 23.5t-31 69.5h54q10 -35 63 -35q52 0 72 35z" />
    <glyph glyph-name="Ohungarumlaut" unicode="&#x150;" horiz-adv-x="416" 
d="M403 489q0 -176 -41 -323q-23 -81 -64 -128t-116 -47q-141 0 -141 180q0 166 32 305q20 90 63 144.5t125 54.5q142 0 142 -186zM311 495q0 18 -0.5 27.5t-3.5 25.5t-8.5 24.5t-17.5 15t-29 6.5q-51 0 -74 -66q-7 -19 -12 -38t-9.5 -45.5t-6 -37t-5.5 -46t-4 -39.5
q-11 -90 -11 -147q0 -101 59 -101q35 0 52.5 23t28.5 64q17 67 28 164q13 104 13 170zM410 852l-92 -126l-36 21l77 138zM298 852l-91 -126l-37 21l77 138z" />
    <glyph glyph-name="ohungarumlaut" unicode="&#x151;" horiz-adv-x="336" 
d="M311 306q0 -39 -3.5 -76t-14.5 -82t-29 -77.5t-50.5 -55t-75.5 -22.5q-114 0 -114 151q0 50 6.5 97t23.5 98.5t53.5 83t88.5 31.5q115 0 115 -148zM228 314q0 65 -41 65q-23 0 -38 -23q-19 -28 -29 -98.5t-10 -122.5q0 -65 40 -65q23 0 39 24q19 28 29 98.5t10 121.5z
M348 638l-92 -126l-36 21l77 138zM236 638l-91 -126l-37 21l77 138z" />
    <glyph glyph-name="OE" unicode="&#x152;" horiz-adv-x="555" 
d="M567 667l-9 -76h-145l-26 -212h133l-9 -76h-133l-28 -227h149l-9 -76h-228l6 52q-40 -61 -106 -61q-123 0 -123 195q0 133 34 284q9 40 20 71.5t30.5 64.5t50 51t70.5 18q68 0 89 -60l6 52h228zM312 492q0 22 -1.5 35t-6 31.5t-17.5 28t-33 9.5q-52 0 -79 -84
q-45 -143 -45 -324q0 -115 60 -115q52 0 77 78q7 21 12 46.5t7.5 42.5t6 49.5t5.5 44.5q14 121 14 158z" />
    <glyph glyph-name="oe" unicode="&#x153;" horiz-adv-x="516" 
d="M400 151h75q-11 -68 -47.5 -113t-100.5 -45q-34 0 -54 14.5t-35 46.5q-34 -61 -103 -61q-110 0 -110 155q0 49 6.5 95.5t23 97.5t52.5 82t88 31q68 0 87 -60q34 60 102 60q58 0 82.5 -42.5t24.5 -105.5q0 -41 -7 -99h-186q0 -7 -1 -19t-1.5 -21.5t-0.5 -18.5
q0 -84 43 -84q49 0 62 87zM307 264h100q4 32 4 49q0 72 -40 72q-19 0 -32 -11.5t-19.5 -36.5t-8 -35.5t-4.5 -37.5zM226 300q0 79 -40 79q-27 0 -44 -33q-16 -31 -25 -91.5t-9 -108.5q0 -79 40 -79q24 0 40.5 28.5t24 71t10.5 75.5t3 58z" />
    <glyph glyph-name="Racute" unicode="&#x154;" horiz-adv-x="367" 
d="M104 667h117q71 0 102 -33t31 -105q0 -42 -10.5 -83t-40 -77.5t-72.5 -44.5l90 -324h-90l-82 311l-38 -311h-88zM184 593l-27 -222q44 0 66 16q43 32 43 125q0 43 -14 62t-55 19h-13zM189 762l95 122l66 -39l-115 -112z" />
    <glyph glyph-name="racute" unicode="&#x155;" horiz-adv-x="233" 
d="M251 457l-11 -86q-5 1 -14 1q-47 0 -67 -25.5t-26 -75.5l-34 -271h-81l55 447h81l-7 -56q24 33 45.5 48t58.5 18zM129 542l95 122l66 -39l-115 -112z" />
    <glyph glyph-name="Rcommaaccent" unicode="&#x156;" horiz-adv-x="367" 
d="M104 667h117q71 0 102 -33t31 -105q0 -42 -10.5 -83t-40 -77.5t-72.5 -44.5l90 -324h-90l-82 311l-38 -311h-88zM184 593l-27 -222q44 0 66 16q43 32 43 125q0 43 -14 62t-55 19h-13zM215 -69l-73 -154l-43 13l48 162z" />
    <glyph glyph-name="rcommaaccent" unicode="&#x157;" horiz-adv-x="233" 
d="M251 457l-11 -86q-5 1 -14 1q-47 0 -67 -25.5t-26 -75.5l-34 -271h-81l55 447h81l-7 -56q24 33 45.5 48t58.5 18zM145 -69l-79 -165l-43 13l54 173z" />
    <glyph glyph-name="Rcaron" unicode="&#x158;" horiz-adv-x="367" 
d="M104 667h117q71 0 102 -33t31 -105q0 -42 -10.5 -83t-40 -77.5t-72.5 -44.5l90 -324h-90l-82 311l-38 -311h-88zM184 593l-27 -222q44 0 66 16q43 32 43 125q0 43 -14 62t-55 19h-13zM359 851l-123 -124l-94 124l49 34l54 -74l77 74z" />
    <glyph glyph-name="rcaron" unicode="&#x159;" horiz-adv-x="233" 
d="M251 457l-11 -86q-5 1 -14 1q-47 0 -67 -25.5t-26 -75.5l-34 -271h-81l55 447h81l-7 -56q24 33 45.5 48t58.5 18zM304 637l-123 -124l-94 124l49 34l54 -74l77 74z" />
    <glyph glyph-name="Sacute" unicode="&#x15a;" horiz-adv-x="325" 
d="M322 653l-12 -88q-32 30 -68 30q-41 0 -66 -31t-25 -73q0 -28 15 -55t36 -50.5t42 -49t36 -61.5t15 -77q0 -82 -48 -144.5t-128 -62.5q-55 0 -93 32l11 89q42 -35 81 -35q42 0 66 32.5t24 76.5q0 31 -15 59.5t-36 51.5t-42.5 47t-36.5 58t-15 73q0 82 45.5 141t125.5 59
q51 0 88 -22zM189 762l95 122l66 -39l-115 -112z" />
    <glyph glyph-name="sacute" unicode="&#x15b;" horiz-adv-x="256" 
d="M242 438l-10 -77q-29 22 -59 22q-23 0 -41 -16.5t-18 -39.5q0 -17 11.5 -33t28 -29.5t33 -29t28 -38.5t11.5 -52q0 -64 -40.5 -108t-103.5 -44q-38 0 -69 21l10 80q32 -27 64 -27q29 0 46 18t17 47q0 22 -18 43t-39 37t-39 43.5t-18 59.5q0 60 38 101t98 41q38 0 70 -19z
M134 542l95 122l66 -39l-115 -112z" />
    <glyph glyph-name="Scircumflex" unicode="&#x15c;" horiz-adv-x="325" 
d="M322 653l-12 -88q-32 30 -68 30q-41 0 -66 -31t-25 -73q0 -28 15 -55t36 -50.5t42 -49t36 -61.5t15 -77q0 -82 -48 -144.5t-128 -62.5q-55 0 -93 32l11 89q42 -35 81 -35q42 0 66 32.5t24 76.5q0 31 -15 59.5t-36 51.5t-42.5 47t-36.5 58t-15 73q0 82 45.5 141t125.5 59
q51 0 88 -22zM348 761l-45 -34l-59 74l-72 -74l-41 34l124 124z" />
    <glyph glyph-name="scircumflex" unicode="&#x15d;" horiz-adv-x="256" 
d="M242 438l-10 -77q-29 22 -59 22q-23 0 -41 -16.5t-18 -39.5q0 -17 11.5 -33t28 -29.5t33 -29t28 -38.5t11.5 -52q0 -64 -40.5 -108t-103.5 -44q-38 0 -69 21l10 80q32 -27 64 -27q29 0 46 18t17 47q0 22 -18 43t-39 37t-39 43.5t-18 59.5q0 60 38 101t98 41q38 0 70 -19z
M288 547l-45 -34l-59 74l-72 -74l-41 34l124 124z" />
    <glyph glyph-name="Scedilla" unicode="&#x15e;" horiz-adv-x="325" 
d="M322 653l-12 -88q-32 30 -68 30q-41 0 -66 -31t-25 -73q0 -28 15 -55t36 -50.5t42 -49t36 -61.5t15 -77q0 -82 -48 -144.5t-128 -62.5q-55 0 -93 32l11 89q42 -35 81 -35q42 0 66 32.5t24 76.5q0 31 -15 59.5t-36 51.5t-42.5 47t-36.5 58t-15 73q0 82 45.5 141t125.5 59
q51 0 88 -22zM181 -75l-86 -118l-52 26l65 125z" />
    <glyph glyph-name="scedilla" unicode="&#x15f;" horiz-adv-x="256" 
d="M242 438l-10 -77q-29 22 -59 22q-23 0 -41 -16.5t-18 -39.5q0 -17 11.5 -33t28 -29.5t33 -29t28 -38.5t11.5 -52q0 -64 -40.5 -108t-103.5 -44q-38 0 -69 21l10 80q32 -27 64 -27q29 0 46 18t17 47q0 22 -18 43t-39 37t-39 43.5t-18 59.5q0 60 38 101t98 41q38 0 70 -19z
M139 -74l-89 -117l-35 20l70 126z" />
    <glyph glyph-name="Scaron" unicode="&#x160;" horiz-adv-x="325" 
d="M322 653l-12 -88q-32 30 -68 30q-41 0 -66 -31t-25 -73q0 -28 15 -55t36 -50.5t42 -49t36 -61.5t15 -77q0 -82 -48 -144.5t-128 -62.5q-55 0 -93 32l11 89q42 -35 81 -35q42 0 66 32.5t24 76.5q0 31 -15 59.5t-36 51.5t-42.5 47t-36.5 58t-15 73q0 82 45.5 141t125.5 59
q51 0 88 -22zM359 851l-123 -124l-94 124l49 34l54 -74l77 74z" />
    <glyph glyph-name="scaron" unicode="&#x161;" horiz-adv-x="256" 
d="M242 438l-10 -77q-29 22 -59 22q-23 0 -41 -16.5t-18 -39.5q0 -17 11.5 -33t28 -29.5t33 -29t28 -38.5t11.5 -52q0 -64 -40.5 -108t-103.5 -44q-38 0 -69 21l10 80q32 -27 64 -27q29 0 46 18t17 47q0 22 -18 43t-39 37t-39 43.5t-18 59.5q0 60 38 101t98 41q38 0 70 -19z
M299 637l-123 -124l-94 124l49 34l54 -74l77 74z" />
    <glyph glyph-name="Tcedilla" unicode="&#x162;" horiz-adv-x="284" 
d="M342 667l-10 -79h-102l-72 -588h-87l73 588h-102l10 79h290zM160 -75l-86 -118l-52 26l65 125z" />
    <glyph glyph-name="tcedilla" unicode="&#x163;" horiz-adv-x="193" 
d="M208 447l-8 -64h-44l-47 -383h-81l47 383h-45l8 64h45l15 127h81l-15 -127h44zM115 -74l-89 -117l-35 20l70 126z" />
    <glyph glyph-name="Tcaron" unicode="&#x164;" horiz-adv-x="284" 
d="M332 588l10 79h-290l-10 -79h102l-73 -588h87l72 588h102zM329 851l-123 -124l-94 124l49 34l54 -74l77 74z" />
    <glyph glyph-name="tcaron" unicode="&#x165;" horiz-adv-x="296" 
d="M208 447l-8 -64h-44l-47 -383h-81l47 383h-45l8 64h45l15 127h81l-15 -127h44zM346 667l-92 -189l-43 17l67 193z" />
    <glyph glyph-name="Utilde" unicode="&#x168;" horiz-adv-x="403" 
d="M406 667l-59 -484q-12 -97 -48.5 -144.5t-127.5 -47.5q-131 0 -131 125q0 17 7 80l57 471h87l-58 -471q-5 -35 -5 -62q0 -58 59 -58q17 0 30 6.5t20 14t12 23.5t6.5 25.5t3.5 29.5q1 5 1 8l60 484h86zM331 815h48q-10 -88 -75 -88q-15 0 -40 14t-39 14q-21 0 -21 -24h-54
q15 88 77 88q19 0 45 -15t38 -15q8 0 11.5 3.5t5.5 11.5t4 11z" />
    <glyph glyph-name="utilde" unicode="&#x169;" horiz-adv-x="354" 
d="M335 447l-33 -268q-6 -49 -12.5 -76t-22.5 -56.5t-46 -42t-77 -12.5q-111 0 -111 110q0 16 4 50l36 295h81l-33 -268q-5 -35 -5 -62q0 -25 10.5 -35.5t35.5 -10.5q20 0 32 13t15.5 25.5t6.5 35.5q4 21 5 34l32 268h82zM284 601h48q-10 -88 -75 -88q-15 0 -40 14t-39 14
q-21 0 -21 -24h-54q15 88 77 88q19 0 45 -15t38 -15q8 0 11.5 3.5t5.5 11.5t4 11z" />
    <glyph glyph-name="Umacron" unicode="&#x16a;" horiz-adv-x="403" 
d="M406 667l-59 -484q-12 -97 -48.5 -144.5t-127.5 -47.5q-131 0 -131 125q0 17 7 80l57 471h87l-58 -471q-5 -35 -5 -62q0 -58 59 -58q17 0 30 6.5t20 14t12 23.5t6.5 25.5t3.5 29.5q1 5 1 8l60 484h86zM379 794l-8 -62h-221l7 62h222z" />
    <glyph glyph-name="umacron" unicode="&#x16b;" horiz-adv-x="354" 
d="M335 447l-33 -268q-6 -49 -12.5 -76t-22.5 -56.5t-46 -42t-77 -12.5q-111 0 -111 110q0 16 4 50l36 295h81l-33 -268q-5 -35 -5 -62q0 -25 10.5 -35.5t35.5 -10.5q20 0 32 13t15.5 25.5t6.5 35.5q4 21 5 34l32 268h82zM329 586l-8 -62h-221l7 62h222z" />
    <glyph glyph-name="Ubreve" unicode="&#x16c;" horiz-adv-x="403" 
d="M406 667l-59 -484q-12 -97 -48.5 -144.5t-127.5 -47.5q-131 0 -131 125q0 17 7 80l57 471h87l-58 -471q-5 -35 -5 -62q0 -58 59 -58q17 0 30 6.5t20 14t12 23.5t6.5 25.5t3.5 29.5q1 5 1 8l60 484h86zM334 811h54q-10 -45 -47 -69t-86 -24q-48 0 -79 23.5t-31 69.5h54
q10 -35 63 -35q52 0 72 35z" />
    <glyph glyph-name="ubreve" unicode="&#x16d;" horiz-adv-x="354" 
d="M335 447l-33 -268q-6 -49 -12.5 -76t-22.5 -56.5t-46 -42t-77 -12.5q-111 0 -111 110q0 16 4 50l36 295h81l-33 -268q-5 -35 -5 -62q0 -25 10.5 -35.5t35.5 -10.5q20 0 32 13t15.5 25.5t6.5 35.5q4 21 5 34l32 268h82zM284 606h54q-10 -45 -47 -69t-86 -24
q-48 0 -79 23.5t-31 69.5h54q10 -35 63 -35q52 0 72 35z" />
    <glyph glyph-name="Uring" unicode="&#x16e;" horiz-adv-x="403" 
d="M406 667l-59 -484q-12 -97 -48.5 -144.5t-127.5 -47.5q-131 0 -131 125q0 17 7 80l57 471h87l-58 -471q-5 -35 -5 -62q0 -58 59 -58q17 0 30 6.5t20 14t12 23.5t6.5 25.5t3.5 29.5q1 5 1 8l60 484h86zM192 799q0 36 24.5 60.5t60.5 24.5t60.5 -24.5t24.5 -60.5
t-24.5 -60.5t-60.5 -24.5t-60.5 24.5t-24.5 60.5zM237 799q0 -17 11.5 -28.5t28.5 -11.5t28.5 11.5t11.5 28.5t-11.5 28.5t-28.5 11.5t-28.5 -11.5t-11.5 -28.5z" />
    <glyph glyph-name="uring" unicode="&#x16f;" horiz-adv-x="354" 
d="M335 447l-33 -268q-6 -49 -12.5 -76t-22.5 -56.5t-46 -42t-77 -12.5q-111 0 -111 110q0 16 4 50l36 295h81l-33 -268q-5 -35 -5 -62q0 -25 10.5 -35.5t35.5 -10.5q20 0 32 13t15.5 25.5t6.5 35.5q4 21 5 34l32 268h82zM128 600q0 36 24.5 60.5t60.5 24.5t60.5 -24.5
t24.5 -60.5t-24.5 -60.5t-60.5 -24.5t-60.5 24.5t-24.5 60.5zM173 600q0 -17 11.5 -28.5t28.5 -11.5t28.5 11.5t11.5 28.5t-11.5 28.5t-28.5 11.5t-28.5 -11.5t-11.5 -28.5z" />
    <glyph glyph-name="Uhungarumlaut" unicode="&#x170;" horiz-adv-x="403" 
d="M406 667l-59 -484q-12 -97 -48.5 -144.5t-127.5 -47.5q-131 0 -131 125q0 17 7 80l57 471h87l-58 -471q-5 -35 -5 -62q0 -58 59 -58q17 0 30 6.5t20 14t12 23.5t6.5 25.5t3.5 29.5q1 5 1 8l60 484h86zM395 852l-92 -126l-36 21l77 138zM283 852l-91 -126l-37 21l77 138z
" />
    <glyph glyph-name="uhungarumlaut" unicode="&#x171;" horiz-adv-x="354" 
d="M335 447l-33 -268q-6 -49 -12.5 -76t-22.5 -56.5t-46 -42t-77 -12.5q-111 0 -111 110q0 16 4 50l36 295h81l-33 -268q-5 -35 -5 -62q0 -25 10.5 -35.5t35.5 -10.5q20 0 32 13t15.5 25.5t6.5 35.5q4 21 5 34l32 268h82zM350 638l-92 -126l-36 21l77 138zM238 638l-91 -126
l-37 21l77 138z" />
    <glyph glyph-name="Uogonek" unicode="&#x172;" horiz-adv-x="403" 
d="M406 667l-59 -484q-8 -59 -16 -86q-14 -45 -45 -74q-8 -8 -32 -26t-34 -28q-22 -22 -22 -44q0 -14 10 -22q9 -6 27 -6t37 8l-7 -51q-23 -9 -48 -9q-32 0 -52 15q-21 17 -21 47q0 22 13 46q6 14 25 38h-5q-71 0 -104 31t-33 94q0 19 5 63l59 488h87l-58 -471
q-5 -44 -5 -60q0 -31 13 -45q15 -15 46 -15t46 17q18 20 26 82l61 492h86z" />
    <glyph glyph-name="uogonek" unicode="&#x173;" horiz-adv-x="354" 
d="M335 447l-36 -290q-7 -57 -17 -83q-12 -35 -41 -64q-7 -7 -17 -16.5t-16.5 -16t-11.5 -12.5q-16 -20 -16 -41q0 -15 10 -22q8 -5 22 -5q24 0 42 8l-7 -51q-21 -9 -46 -9q-39 0 -59 19q-16 15 -16 39q0 47 39 90q-7 -1 -21 -1q-53 0 -83 28q-28 28 -28 78q0 19 4 51
l36 298h81l-33 -268q-5 -37 -5 -59q0 -26 10 -37q10 -12 34 -12q23 0 36 14q15 16 25 94l32 268h82z" />
    <glyph glyph-name="Ydieresis" unicode="&#x178;" horiz-adv-x="336" 
d="M392 667l-161 -380l-35 -287h-89l35 287l-90 380h94l32 -179q7 -40 15 -130q17 62 42 132l65 177h92zM353 777q0 -23 -16.5 -39.5t-39.5 -16.5q-19 0 -31.5 12.5t-12.5 31.5q0 22 17 39t40 17q19 0 31 -12.5t12 -31.5zM207 777q0 -23 -16.5 -39.5t-39.5 -16.5
q-19 0 -31 12.5t-12 31.5q0 23 17 39.5t39 16.5q19 0 31 -12.5t12 -31.5z" />
    <glyph glyph-name="Zacute" unicode="&#x179;" horiz-adv-x="329" 
d="M378 667l-270 -588h187l-10 -79h-302l272 591h-176l9 76h290zM184 762l95 122l66 -39l-115 -112z" />
    <glyph glyph-name="zacute" unicode="&#x17a;" horiz-adv-x="294" 
d="M307 447l-192 -372h139l-9 -75h-260l198 374h-140l9 73h255zM133 542l95 122l66 -39l-115 -112z" />
    <glyph glyph-name="Zdotaccent" unicode="&#x17b;" horiz-adv-x="329" 
d="M378 667l-270 -588h187l-10 -79h-302l272 591h-176l9 76h290zM288 780q0 -23 -18 -41t-41 -18q-19 0 -32.5 13.5t-13.5 32.5q0 23 18 41t41 18q20 0 33 -13t13 -33z" />
    <glyph glyph-name="zdotaccent" unicode="&#x17c;" horiz-adv-x="294" 
d="M307 447l-192 -372h139l-9 -75h-260l198 374h-140l9 73h255zM232 572q0 -23 -18 -41t-41 -18q-19 0 -32.5 13.5t-13.5 32.5q0 23 18 41t41 18q20 0 33 -13t13 -33z" />
    <glyph glyph-name="Zcaron" unicode="&#x17d;" horiz-adv-x="329" 
d="M378 667l-270 -588h187l-10 -79h-302l272 591h-176l9 76h290zM354 851l-123 -124l-94 124l49 34l54 -74l77 74z" />
    <glyph glyph-name="zcaron" unicode="&#x17e;" horiz-adv-x="294" 
d="M307 447l-192 -372h139l-9 -75h-260l198 374h-140l9 73h255zM303 637l-123 -124l-94 124l49 34l54 -74l77 74z" />
    <glyph glyph-name="uni018F" unicode="&#x18f;" horiz-adv-x="418" 
d="M58 351h245q10 88 10 148t-21 81q-16 16 -44 16q-32 0 -51 -19q-25 -25 -36 -73l-80 35q19 58 57 95q43 41 115 41q69 0 104 -31q48 -42 48 -157q0 -127 -22 -241q-29 -155 -83 -209q-46 -46 -117 -46q-62 0 -97 36q-45 45 -45 142q0 60 11 137zM293 275h-157
q-9 -65 -9 -103q0 -58 19 -79q16 -18 44 -18t47 19t35 75q12 45 21 106z" />
    <glyph glyph-name="florin" unicode="&#x192;" horiz-adv-x="380" 
d="M384 728l-17 -84q-17 11 -35 11q-9 0 -16 -3t-12 -9.5t-8.5 -12t-6.5 -16t-4 -16l-3 -16.5t-3 -14l-24 -121h69l-12 -61h-69l-59 -310q-5 -26 -6 -31.5t-6.5 -30.5t-8.5 -33t-11 -28.5t-14.5 -28.5t-18 -22t-23.5 -19.5t-28 -10.5t-35 -5q-27 0 -56 11l15 76q21 -7 37 -7
q10 0 18.5 3t14.5 10t10 12.5t7.5 17.5t5 17t4 18.5t3.5 16.5q24 120 67 344h-60l12 61h60l24 121q5 27 7 36.5t8.5 33.5t11.5 34t15.5 26t22.5 23t30 13t40 6q27 0 54 -12z" />
    <glyph glyph-name="uni01CF" unicode="&#x1cf;" horiz-adv-x="190" 
d="M193 667l-82 -667h-88l81 667h89zM274 851l-123 -124l-94 124l49 34l54 -74l77 74z" />
    <glyph glyph-name="uni01D0" unicode="&#x1d0;" horiz-adv-x="173" 
d="M154 447l-55 -447h-81l55 447h81zM239 637l-123 -124l-94 124l49 34l54 -74l77 74z" />
    <glyph glyph-name="uni01DD" unicode="&#x1dd;" horiz-adv-x="331" 
d="M31 248h188q4 48 4 60q0 39 -11 57t-35 18q-18 0 -31 -13q-19 -19 -32 -74l-75 16q23 76 55 108q35 34 91 34q61 0 91 -38q30 -37 30 -114q0 -76 -17 -152.5t-59 -117.5q-39 -39 -98 -39q-43 0 -72 29q-36 37 -36 121q0 45 4 77zM212 188h-104q-3 -48 -3 -54
q0 -40 11 -56q9 -15 28 -15q20 0 32 14q26 27 36 111z" />
    <glyph glyph-name="Gcaron" unicode="&#x1e6;" horiz-adv-x="406" 
d="M402 539l-87 -35q-2 28 -5.5 44.5t-18 32t-40.5 15.5q-30 0 -46 -18.5t-27 -51.5q-21 -61 -34.5 -167.5t-13.5 -182.5q0 -24 1 -36.5t6.5 -30t18.5 -26t35 -8.5q65 0 85 106q9 39 14 94h-76l9 76h161q-1 -7 -4.5 -41t-5 -47t-7 -46.5t-10 -49t-13.5 -44.5t-19 -43.5
t-24.5 -34.5t-31.5 -29.5t-39.5 -17t-48.5 -7.5q-44 0 -73.5 16t-43.5 46.5t-19 62t-5 74.5q0 117 28 255q8 40 15.5 68t23 61t35 53.5t50.5 34t71 13.5q66 0 97.5 -34t41.5 -102zM394 851l-123 -124l-94 124l49 34l54 -74l77 74z" />
    <glyph glyph-name="gcaron" unicode="&#x1e7;" horiz-adv-x="344" 
d="M325 447l-57 -461q-8 -70 -23 -102q-35 -72 -133 -72q-54 0 -83.5 27.5t-29.5 81.5q0 16 3 32h79q-2 -14 -2 -21q0 -23 12 -37t34 -14q18 0 30 7.5t17.5 22.5t8 26.5t4.5 30.5l10 87q-33 -62 -87 -62q-47 0 -66.5 37.5t-19.5 90.5q0 113 30 221q33 112 112 112
q29 0 45 -15.5t28 -45.5l6 54h82zM223 301q0 78 -41 78q-23 0 -39 -30t-23 -74t-10 -78t-3 -58q0 -72 42 -72q30 0 44 36q13 31 21.5 93t8.5 105zM313 637l-123 -124l-94 124l49 34l54 -74l77 74z" />
    <glyph glyph-name="AEacute" unicode="&#x1fc;" horiz-adv-x="503" 
d="M474 0h-228l-10 131h-136l-41 -131h-86l221 667h218l8 -76h-143l19 -212h129l8 -76h-129l22 -227h140zM232 199l-13 151q-4 50 -4 190q-6 -42 -34 -143q-29 -99 -60 -198h111zM240 762l95 122l66 -39l-115 -112z" />
    <glyph glyph-name="aeacute" unicode="&#x1fd;" horiz-adv-x="498" 
d="M66 348l10 84q48 22 92 22q75 0 97 -57q39 57 102 57q106 0 106 -151q0 -46 -8 -97h-182q-4 -33 -4 -74q0 -71 43 -71q29 0 43 28.5t16 63.5h77q-12 -74 -45 -117t-101 -43q-78 0 -96 70q-20 -37 -44 -53.5t-63 -16.5q-93 0 -93 107q0 32 7 63.5t21 60.5t40 46.5t61 17.5
q45 0 66 -29q0 6 2 26.5t2 31.5q0 57 -62 57q-41 0 -87 -26zM293 266h97q5 28 5 52q0 68 -39 68q-53 0 -63 -120zM204 166q0 57 -43 57q-34 0 -48 -31.5t-14 -70.5q0 -29 7.5 -45.5t33.5 -16.5q24 0 39.5 19.5t20 41.5t4.5 46zM238 542l95 122l66 -39l-115 -112z" />
    <glyph glyph-name="Scommaaccent" unicode="&#x218;" horiz-adv-x="325" 
d="M322 653l-12 -88q-32 30 -68 30q-41 0 -66 -31t-25 -73q0 -28 15 -55t36 -50.5t42 -49t36 -61.5t15 -77q0 -82 -48 -144.5t-128 -62.5q-55 0 -93 32l11 89q42 -35 81 -35q42 0 66 32.5t24 76.5q0 31 -15 59.5t-36 51.5t-42.5 47t-36.5 58t-15 73q0 82 45.5 141t125.5 59
q51 0 88 -22zM175 -69l-73 -154l-43 13l48 162z" />
    <glyph glyph-name="scommaaccent" unicode="&#x219;" horiz-adv-x="256" 
d="M242 438l-10 -77q-29 22 -59 22q-23 0 -41 -16.5t-18 -39.5q0 -17 11.5 -33t28 -29.5t33 -29t28 -38.5t11.5 -52q0 -64 -40.5 -108t-103.5 -44q-38 0 -69 21l10 80q32 -27 64 -27q29 0 46 18t17 47q0 22 -18 43t-39 37t-39 43.5t-18 59.5q0 60 38 101t98 41q38 0 70 -19z
M140 -69l-79 -165l-43 13l54 173z" />
    <glyph glyph-name="Tcommaaccent" unicode="&#x21a;" horiz-adv-x="284" 
d="M342 667l-10 -79h-102l-72 -588h-87l73 588h-102l10 79h290zM145 -69l-73 -154l-43 13l48 162z" />
    <glyph glyph-name="tcommaaccent" unicode="&#x21b;" horiz-adv-x="193" 
d="M208 447l-8 -64h-44l-47 -383h-81l47 383h-45l8 64h45l15 127h81l-15 -127h44zM115 -69l-79 -165l-43 13l54 173z" />
    <glyph glyph-name="uni0228" unicode="&#x228;" horiz-adv-x="316" 
d="M339 667l-9 -76h-146l-26 -212h130l-10 -76h-130l-27 -227h146l-9 -76h-235l81 667h235zM207 -75l-86 -118l-52 26l65 125z" />
    <glyph glyph-name="uni0229" unicode="&#x229;" horiz-adv-x="321" 
d="M206 151h76q-9 -57 -28 -90q-18 -32 -49.5 -50t-68.5 -18q-113 0 -113 148q0 82 22 168q38 145 145 145q60 0 84.5 -45t24.5 -110q0 -40 -7 -92h-185q-4 -40 -4 -59q0 -17 1 -27t4.5 -25.5t13 -23.5t24.5 -8q50 0 60 87zM218 300v15q0 69 -38 69q-8 0 -14.5 -2.5
t-12 -8.5t-10 -11.5t-8.5 -15t-6.5 -16t-5 -18t-4 -16.5t-3.5 -16t-2 -13h103q1 11 1 33zM179 -74l-89 -117l-35 20l70 126z" />
    <glyph glyph-name="uni0237" unicode="&#x237;" horiz-adv-x="174" 
d="M155 447l-78 -635h-82l79 635h81z" />
    <glyph glyph-name="uni0259" unicode="&#x259;" horiz-adv-x="331" 
d="M31 248h188q4 48 4 60q0 39 -11 57t-35 18q-18 0 -31 -13q-19 -19 -32 -74l-75 16q23 76 55 108q35 34 91 34q61 0 91 -38q30 -37 30 -114q0 -76 -17 -152.5t-59 -117.5q-39 -39 -98 -39q-43 0 -72 29q-36 37 -36 121q0 45 4 77zM212 188h-104q-3 -48 -3 -54
q0 -40 11 -56q9 -15 28 -15q20 0 32 14q26 27 36 111z" />
    <glyph glyph-name="afii57929" unicode="&#x2bc;" horiz-adv-x="195" 
d="M216 667l-92 -189l-43 17l67 193z" />
    <glyph glyph-name="circumflex" unicode="&#x2c6;" 
d="M398 547l-45 -34l-59 74l-72 -74l-41 34l124 124z" />
    <glyph glyph-name="caron" unicode="&#x2c7;" 
d="M409 637l-123 -124l-94 124l49 34l54 -74l77 74z" />
    <glyph glyph-name="uni02C9" unicode="&#x2c9;" 
d="M409 586l-8 -62h-221l7 62h222z" />
    <glyph glyph-name="breve" unicode="&#x2d8;" 
d="M364 606h54q-10 -45 -47 -69t-86 -24q-48 0 -79 23.5t-31 69.5h54q10 -35 63 -35q52 0 72 35z" />
    <glyph glyph-name="dotaccent" unicode="&#x2d9;" 
d="M343 572q0 -23 -18 -41t-41 -18q-20 0 -33 13.5t-13 32.5q0 23 18 41t41 18q19 0 32.5 -13t13.5 -33z" />
    <glyph glyph-name="ring" unicode="&#x2da;" 
d="M208 600q0 36 24.5 60.5t60.5 24.5t60.5 -24.5t24.5 -60.5t-24.5 -60.5t-60.5 -24.5t-60.5 24.5t-24.5 60.5zM253 600q0 -17 11.5 -28.5t28.5 -11.5t28.5 11.5t11.5 28.5t-11.5 28.5t-28.5 11.5t-28.5 -11.5t-11.5 -28.5z" />
    <glyph glyph-name="ogonek" unicode="&#x2db;" 
d="M364 -95l-7 -51q-21 -9 -46 -9q-39 0 -59 19q-16 15 -16 39q0 26 16 55q8 14 28 42h49q-6 -7 -25 -36q-14 -22 -14 -40q0 -16 10 -22q8 -5 22 -5q24 0 42 8z" />
    <glyph glyph-name="tilde" unicode="&#x2dc;" 
d="M357 601h48q-10 -88 -75 -88q-15 0 -40 14t-39 14q-21 0 -21 -24h-54q15 88 77 88q19 0 45 -15t38 -15q8 0 11.5 3.5t5.5 11.5t4 11z" />
    <glyph glyph-name="hungarumlaut" unicode="&#x2dd;" 
d="M430 638l-92 -126l-36 21l77 138zM318 638l-91 -126l-37 21l77 138z" />
    <glyph glyph-name="acutecomb" unicode="&#x301;" horiz-adv-x="2" 
d="M-183 542l95 122l66 -39l-115 -112z" />
    <glyph glyph-name="uni0394" unicode="&#x394;" horiz-adv-x="667" 
d="M613 0h-615l263 667h86zM496 73l-192 496l-191 -496h383z" />
    <glyph glyph-name="uni0394" unicode="&#x2206;" horiz-adv-x="667" 
d="M613 0h-615l263 667h86zM496 73l-192 496l-191 -496h383z" />
    <glyph glyph-name="uni03A9" unicode="&#x3a9;" horiz-adv-x="667" 
d="M632 0h-262v65q179 100 179 289q0 101 -61.5 179t-159.5 78q-100 0 -161.5 -77t-61.5 -180q0 -188 179 -289v-65h-262v72h174q-174 103 -174 292q0 133 87 226t218 93t218 -93.5t87 -225.5q0 -189 -173 -292h173v-72z" />
    <glyph glyph-name="uni03A9" unicode="&#x2126;" horiz-adv-x="667" 
d="M632 0h-262v65q179 100 179 289q0 101 -61.5 179t-159.5 78q-100 0 -161.5 -77t-61.5 -180q0 -188 179 -289v-65h-262v72h174q-174 103 -174 292q0 133 87 226t218 93t218 -93.5t87 -225.5q0 -189 -173 -292h173v-72z" />
    <glyph glyph-name="pi" unicode="&#x3c0;" horiz-adv-x="593" 
d="M566 374h-74v-374h-82v374h-223v-374h-82v374h-75v73h536v-73z" />
    <glyph glyph-name="afii10023" unicode="&#x401;" horiz-adv-x="316" 
d="M339 667l-9 -76h-146l-26 -212h130l-10 -76h-130l-27 -227h146l-9 -76h-235l81 667h235zM350 766q0 -22 -17 -39t-39 -17q-19 0 -31.5 12.5t-12.5 31.5q0 22 17 39t40 17q19 0 31 -12.5t12 -31.5zM212 766q0 -22 -17 -39t-39 -17q-19 0 -31 12.5t-12 31.5q0 22 16.5 39
t39.5 17q19 0 31 -12.5t12 -31.5z" />
    <glyph glyph-name="afii10051" unicode="&#x402;" horiz-adv-x="430" 
d="M63 0l71 588h-88l10 79h297l-10 -79h-121l-24 -201q34 19 72 19q61 0 96 -41q39 -47 39 -136q0 -146 -62 -205q-35 -33 -92 -33q-46 0 -73 18l28 84q18 -19 40 -19q19 0 32 14q32 34 32 135q0 55 -21 79q-17 20 -47 20q-33 0 -55 -20l-37 -302h-87z" />
    <glyph glyph-name="afii10052" unicode="&#x403;" horiz-adv-x="305" 
d="M341 667l-10 -76h-147l-73 -591h-88l81 667h237zM189 762l95 122l66 -39l-115 -112z" />
    <glyph glyph-name="afii10053" unicode="&#x404;" horiz-adv-x="343" 
d="M371 651l-10 -87q-29 29 -66 29q-43 0 -74 -30q-52 -50 -71 -177h154l-9 -76h-155q-4 -34 -4 -66q0 -106 37 -142q24 -23 63 -23q36 0 68 25l-11 -88q-40 -26 -87 -26q-68 0 -108 40q-57 57 -57 197q0 98 25 210q28 129 91 188q54 51 132 51q45 0 82 -25z" />
    <glyph glyph-name="afii10054" unicode="&#x405;" horiz-adv-x="325" 
d="M322 653l-12 -88q-32 30 -68 30q-41 0 -66 -31t-25 -73q0 -28 15 -55t36 -50.5t42 -49t36 -61.5t15 -77q0 -82 -48 -144.5t-128 -62.5q-55 0 -93 32l11 89q42 -35 81 -35q42 0 66 32.5t24 76.5q0 31 -15 59.5t-36 51.5t-42.5 47t-36.5 58t-15 73q0 82 45.5 141t125.5 59
q51 0 88 -22z" />
    <glyph glyph-name="afii10055" unicode="&#x406;" horiz-adv-x="190" 
d="M193 667l-82 -667h-88l81 667h89z" />
    <glyph glyph-name="afii10056" unicode="&#x407;" horiz-adv-x="190" 
d="M193 667l-82 -667h-88l81 667h89zM240 777q0 -23 -11 -39.5t-27 -16.5q-12 0 -20.5 12.5t-8.5 31.5q0 22 11.5 39t26.5 17q13 0 21 -12.5t8 -31.5zM146 777q0 -22 -11.5 -39t-26.5 -17q-13 0 -21 12.5t-8 31.5q0 23 11 39.5t27 16.5q12 0 20.5 -12.5t8.5 -31.5z" />
    <glyph glyph-name="afii10057" unicode="&#x408;" horiz-adv-x="255" 
d="M258 667l-63 -512q-8 -59 -20 -86q-17 -38 -52 -58t-79 -20q-43 0 -73 18l11 90q36 -23 56 -23q21 0 35 8.5t20.5 24t10 31t5.5 35.5q1 7 1 11l59 481h89z" />
    <glyph glyph-name="afii10058" unicode="&#x409;" horiz-adv-x="602" 
d="M439 667l-35 -285h6q86 0 129 -43q38 -39 38 -116q0 -122 -56 -178q-45 -45 -124 -45h-128l73 592l-2 -1h-116l-40 -327q-24 -190 -75 -239q-33 -32 -86 -32q-29 0 -53 11l11 93q13 -15 34 -15q20 0 35 14q32 29 50 178l48 393h291zM395 306l-29 -230h4q52 0 77 24
q36 34 36 125q0 44 -22 64q-19 17 -64 17h-2z" />
    <glyph glyph-name="afii10059" unicode="&#x40a;" horiz-adv-x="574" 
d="M323 667h88l-35 -285h6q86 0 129 -43q38 -39 38 -116q0 -122 -56 -178q-45 -45 -124 -45h-128l37 306h-129l-38 -306h-88l81 667h89l-35 -285h130zM367 306l-29 -230h4q52 0 77 24q36 34 36 125q0 44 -22 64q-19 17 -64 17h-2z" />
    <glyph glyph-name="afii10060" unicode="&#x40b;" horiz-adv-x="438" 
d="M63 0l71 588h-88l10 79h297l-10 -79h-121l-23 -194q33 12 70 12q61 0 94 -27q40 -32 40 -99q0 -19 -7 -77l-25 -203h-89l26 212q4 28 4 45q0 34 -16 50q-17 17 -50 17q-30 0 -57 -12l-39 -312h-87z" />
    <glyph glyph-name="afii10061" unicode="&#x40c;" horiz-adv-x="366" 
d="M405 667l-174 -325l95 -342h-92l-84 327l-39 -327h-88l81 667h89l-38 -306l158 306h92zM209 762l95 122l66 -39l-115 -112z" />
    <glyph glyph-name="afii10062" unicode="&#x40e;" horiz-adv-x="355" 
d="M50 667h94l34 -168q20 -98 27 -156q21 76 47 153l58 171h90l-238 -667h-88l79 224zM306 827l82 -26q-15 -47 -55 -73q-34 -22 -87 -22q-59 0 -95 25t-48 70l79 26q5 -20 17 -34q16 -17 46 -17q28 0 44 16q13 13 17 35z" />
    <glyph glyph-name="afii10145" unicode="&#x40f;" horiz-adv-x="408" 
d="M105 667h89l-73 -591h128l73 591h89l-82 -667h-110l-16 -130h-86l16 130h-110z" />
    <glyph glyph-name="afii10017" unicode="&#x410;" horiz-adv-x="355" 
d="M326 0h-88l-8 130h-131l-40 -130h-86l225 667h69zM120 199h105q-10 176 -10 264q0 49 1 74q-4 -16 -11.5 -46.5t-11.5 -46.5q-21 -83 -73 -245z" />
    <glyph glyph-name="afii10018" unicode="&#x411;" horiz-adv-x="354" 
d="M105 667h243l-9 -76h-155l-26 -210h5q82 0 121 -38q40 -38 40 -118q0 -122 -57 -179q-46 -46 -124 -46h-120zM148 305l-28 -229h3q50 0 74 23q35 33 35 123q0 45 -20 64t-61 19h-3z" />
    <glyph glyph-name="afii10019" unicode="&#x412;" horiz-adv-x="358" 
d="M104 667h120q122 0 122 -129q0 -105 -40 -158q-21 -27 -64 -41q45 -19 60.5 -44t15.5 -75q0 -104 -51 -167q-43 -53 -129 -53h-115zM152 373h6q43 0 66 23q18 18 26.5 54t8.5 68q0 76 -65 76h-15zM143 302l-28 -225q20 0 31 1t25.5 7.5t25.5 19.5q30 37 30 116
q0 45 -19 63t-65 18z" />
    <glyph glyph-name="afii10020" unicode="&#x413;" horiz-adv-x="305" 
d="M341 667l-10 -76h-147l-73 -591h-88l81 667h237z" />
    <glyph glyph-name="afii10021" unicode="&#x414;" horiz-adv-x="455" 
d="M149 667h286l-73 -591h53l-26 -206h-82l17 130h-265l-17 -130h-82l26 206q41 19 64 49q17 22 28.5 54t16 57.5t10.5 75.5zM224 591l-31 -249q-1 -9 -3.5 -31t-3.5 -28.5t-3.5 -23.5t-4 -24t-3.5 -19.5t-4.5 -20.5t-5.5 -18t-7 -19q-19 -48 -55 -82h171l64 515h-114z" />
    <glyph glyph-name="afii10022" unicode="&#x415;" horiz-adv-x="316" 
d="M339 667l-9 -76h-146l-26 -212h130l-10 -76h-130l-27 -227h146l-9 -76h-235l81 667h235z" />
    <glyph glyph-name="afii10024" unicode="&#x416;" horiz-adv-x="518" 
d="M481 0h-93l-76 329l-40 -329h-88l40 329l-156 -329h-93l173 347l-85 320h87l78 -308l38 308h88l-38 -308l154 308h87l-164 -323z" />
    <glyph glyph-name="afii10025" unicode="&#x417;" horiz-adv-x="343" 
d="M112 385h18q53 0 81 25q32 29 32 86q0 46 -24 72q-22 24 -60 24q-45 0 -80 -37l11 91q39 29 92 29q65 0 105 -38q46 -44 46 -129q0 -84 -44 -126q-21 -19 -56 -31q30 -5 51 -26q35 -35 35 -104q0 -114 -66 -180q-50 -50 -130 -50q-63 0 -107 38l12 91q36 -43 87 -43
q47 0 74 28q36 37 36 109q0 48 -24 72q-23 23 -73 23h-25z" />
    <glyph glyph-name="afii10026" unicode="&#x418;" horiz-adv-x="410" 
d="M23 0l82 667h88l-34 -271q-11 -92 -45 -223q52 127 81 191l138 303h80l-82 -667h-88l36 295q14 101 43 205q-40 -107 -71 -177l-148 -323h-80z" />
    <glyph glyph-name="afii10027" unicode="&#x419;" horiz-adv-x="410" 
d="M23 0l82 667h88l-34 -271q-11 -92 -45 -223q52 127 81 191l138 303h80l-82 -667h-88l36 295q14 101 43 205q-40 -107 -71 -177l-148 -323h-80zM330 827l82 -26q-15 -47 -55 -73q-34 -22 -87 -22q-59 0 -95 25t-48 70l79 26q5 -20 17 -34q16 -17 46 -17q28 0 44 16
q13 13 17 35z" />
    <glyph glyph-name="afii10028" unicode="&#x41a;" horiz-adv-x="366" 
d="M405 667l-174 -325l95 -342h-92l-84 327l-39 -327h-88l81 667h89l-38 -306l158 306h92z" />
    <glyph glyph-name="afii10029" unicode="&#x41b;" horiz-adv-x="436" 
d="M148 667h291l-82 -667h-90l73 591h-116l-40 -327q-24 -190 -75 -239q-33 -32 -86 -32q-29 0 -53 11l11 93q13 -15 34 -15q20 0 35 14q32 29 50 178z" />
    <glyph glyph-name="afii10030" unicode="&#x41c;" horiz-adv-x="497" 
d="M468 667l-22 -667h-85q12 217 17 277q2 15 4.5 44.5t3.5 44.5q8 75 8 85v8l-24 -84l-18 -61q-11 -36 -98 -314h-60q-29 341 -29 459l-82 -459h-83l136 667h75q2 -25 9 -93t10 -102.5t7 -90t6 -103t2 -93.5q2 13 26 94q4 12 10.5 36.5t9.5 36.5q2 8 7.5 23.5t8.5 23.5
l84 268h77z" />
    <glyph glyph-name="afii10031" unicode="&#x41d;" horiz-adv-x="408" 
d="M411 667l-82 -667h-88l40 330h-129l-41 -330h-88l81 667h89l-32 -261h129l32 261h89z" />
    <glyph glyph-name="afii10032" unicode="&#x41e;" horiz-adv-x="416" 
d="M403 489q0 -176 -41 -323q-23 -81 -64 -128t-116 -47q-141 0 -141 180q0 166 32 305q20 90 63 144.5t125 54.5q142 0 142 -186zM311 495q0 18 -0.5 27.5t-3.5 25.5t-8.5 24.5t-17.5 15t-29 6.5q-51 0 -74 -66q-7 -19 -12 -38t-9.5 -45.5t-6 -37t-5.5 -46t-4 -39.5
q-11 -90 -11 -147q0 -101 59 -101q35 0 52.5 23t28.5 64q17 67 28 164q13 104 13 170z" />
    <glyph glyph-name="afii10033" unicode="&#x41f;" horiz-adv-x="402" 
d="M405 667l-82 -667h-88l72 591h-123l-73 -591h-88l81 667h301z" />
    <glyph glyph-name="afii10034" unicode="&#x420;" horiz-adv-x="345" 
d="M104 667h117q76 0 108.5 -32.5t32.5 -108.5q0 -59 -19 -115.5t-60 -84.5q-43 -30 -136 -30l-36 -296h-88zM157 373h8q103 0 103 133q0 42 -16 63.5t-56 21.5h-12z" />
    <glyph glyph-name="afii10035" unicode="&#x421;" horiz-adv-x="332" 
d="M360 656l-9 -81q-29 17 -55 17q-77 0 -116 -97q-20 -49 -31.5 -123.5t-11.5 -135.5q0 -157 101 -157q28 0 53 13l-10 -82q-32 -19 -73 -19q-166 0 -166 225q0 170 53 306q27 69 75.5 111t117.5 42q42 0 72 -19z" />
    <glyph glyph-name="afii10036" unicode="&#x422;" horiz-adv-x="284" 
d="M342 667l-10 -79h-102l-72 -588h-87l73 588h-102l10 79h290z" />
    <glyph glyph-name="afii10037" unicode="&#x423;" horiz-adv-x="355" 
d="M50 667h94l34 -168q20 -98 27 -156q21 76 47 153l58 171h90l-238 -667h-88l79 224z" />
    <glyph glyph-name="afii10038" unicode="&#x424;" horiz-adv-x="508" 
d="M180 0l11 86q-63 10 -102 51q-54 55 -54 161q0 74 21.5 144t66.5 115q54 53 132 57l9 80h90l-9 -80q61 -9 101 -51q55 -57 55 -165q0 -177 -81 -255q-58 -53 -139 -57l-11 -86h-90zM330 538l-46 -376q41 4 68 32q31 31 45 92t14 119q0 68 -28 102q-21 25 -53 31zM206 162
l46 376q-44 -8 -71 -38q-28 -30 -42 -89t-14 -115q0 -62 24 -95q20 -29 57 -39z" />
    <glyph glyph-name="afii10039" unicode="&#x425;" horiz-adv-x="327" 
d="M383 667l-162 -328l80 -339h-89q-4 18 -14 60t-15 65.5t-10.5 58.5t-6.5 65q-5 -21 -39 -103q-10 -25 -31.5 -73t-31.5 -73h-94l166 339l-76 328h86q4 -16 18 -73t21 -94t9 -74q17 53 32 84q1 3 4 9.5t5 9.5l59 138h89z" />
    <glyph glyph-name="afii10040" unicode="&#x426;" horiz-adv-x="415" 
d="M105 667h90l-73 -591h124l73 591h90l-73 -591h59l-25 -206h-86l16 130h-277z" />
    <glyph glyph-name="afii10041" unicode="&#x427;" horiz-adv-x="387" 
d="M390 667l-82 -667h-88l39 320q-31 -9 -65 -9q-60 0 -97 29q-37 30 -37 88q0 26 6 74l20 165h88l-21 -171q-4 -32 -4 -46q0 -30 17 -43q17 -14 52 -14q26 0 51 10l33 264h88z" />
    <glyph glyph-name="afii10042" unicode="&#x428;" horiz-adv-x="604" 
d="M105 667h88l-73 -591h119l73 591h88l-73 -591h119l73 591h88l-82 -667h-502z" />
    <glyph glyph-name="afii10043" unicode="&#x429;" horiz-adv-x="615" 
d="M105 667h88l-73 -591h120l73 591h88l-73 -591h120l73 591h88l-73 -591h67l-25 -206h-86l16 130h-485z" />
    <glyph glyph-name="afii10044" unicode="&#x42a;" horiz-adv-x="403" 
d="M70 0l72 591h-87l9 76h176l-35 -285h6q86 0 129 -43q38 -39 38 -116q0 -122 -56 -178q-45 -45 -124 -45h-128zM196 306l-29 -230h4q52 0 77 24q36 34 36 125q0 44 -22 64q-19 17 -64 17h-2z" />
    <glyph glyph-name="afii10045" unicode="&#x42b;" horiz-adv-x="514" 
d="M517 667l-82 -667h-87l81 667h88zM105 667h88l-35 -285h6q86 0 129 -43q38 -39 38 -116q0 -122 -56 -178q-45 -45 -124 -45h-128zM149 306l-29 -230h4q52 0 77 24q36 34 36 125q0 44 -22 64q-19 17 -64 17h-2z" />
    <glyph glyph-name="afii10046" unicode="&#x42c;" horiz-adv-x="356" 
d="M105 667h88l-35 -285h6q86 0 129 -43q38 -39 38 -116q0 -122 -56 -178q-45 -45 -124 -45h-128zM149 306l-29 -230h4q52 0 77 24q36 34 36 125q0 44 -22 64q-19 17 -64 17h-2z" />
    <glyph glyph-name="afii10047" unicode="&#x42d;" horiz-adv-x="374" 
d="M20 26l11 94q34 -41 80 -41q41 0 69 27q56 52 71 204h-153l9 76h152q3 28 3 55q0 95 -37 129q-22 22 -59 22q-43 0 -76 -36l12 95q37 25 84 25q69 0 114 -43q59 -59 59 -194q0 -112 -22 -208q-30 -132 -88 -189q-52 -51 -131 -51q-58 0 -98 35z" />
    <glyph glyph-name="afii10048" unicode="&#x42e;" horiz-adv-x="586" 
d="M431 675q59 0 94 -31q48 -42 48 -157q0 -127 -22 -241q-29 -155 -83 -209q-46 -46 -120 -46q-60 0 -94 36q-41 43 -41 151q0 67 8 147h-70l-40 -325h-88l81 667h89l-34 -266h71q25 167 86 228q45 46 115 46zM422 594q-28 0 -48 -21q-30 -31 -49 -142q-9 -48 -17 -130
t-8 -126q0 -66 22 -87q16 -14 37 -14q27 0 48 19q31 29 50 149q24 153 24 263q0 52 -16 72q-15 17 -43 17z" />
    <glyph glyph-name="afii10049" unicode="&#x42f;" horiz-adv-x="374" 
d="M10 0l148 308q-41 13 -66 47q-25 36 -25 96q0 59 19.5 109t50.5 75q26 21 54.5 26.5t71.5 5.5h114l-82 -667h-88l38 304l-136 -304h-99zM280 593h-19q-42 0 -65 -21q-37 -34 -37 -114q0 -44 21 -66q22 -23 67 -23h5z" />
    <glyph glyph-name="afii10065" unicode="&#x430;" horiz-adv-x="343" 
d="M324 447l-55 -447h-81l7 57q-18 -32 -37.5 -48t-51.5 -16q-83 0 -83 130q0 45 4.5 91.5t17.5 106t43.5 96.5t74.5 37q51 0 74 -58l6 51h81zM224 309q0 70 -38 70q-44 0 -62 -85q-18 -83 -18 -155t41 -72q39 0 57 76q20 83 20 166z" />
    <glyph glyph-name="afii10066" unicode="&#x431;" horiz-adv-x="348" 
d="M299 700h75q-3 -48 -30 -81q-21 -26 -70 -48l-40 -18q-27 -12 -45.5 -26t-32.5 -39q-25 -42 -33 -100q10 27 32 45q25 21 61 21q40 0 65 -25q36 -36 36 -129q0 -37 -3.5 -76t-22 -100t-50.5 -93q-39 -38 -93 -38q-62 0 -92 48q-26 43 -26 126q0 127 33 269q20 87 58 132
q32 38 88 63q8 4 21.5 9.5t19.5 8t14 6.5t13 8t9 8q12 13 13 29zM194 379q-17 0 -29 -11q-22 -19 -36 -95q-13 -76 -13 -136q0 -43 16 -58q9 -9 24 -9t28 11q25 22 38 100q12 71 12 131q0 44 -16 58q-11 9 -24 9z" />
    <glyph glyph-name="afii10067" unicode="&#x432;" horiz-adv-x="318" 
d="M73 447h104q65 0 94 -29q27 -26 27 -77q0 -57 -30 -85q-14 -13 -49 -25q23 -5 42 -22q25 -24 25 -69q0 -64 -36 -102t-106 -38h-126zM132 260h16q34 0 49 13q21 18 21 56q0 27 -15 40q-14 12 -47 12h-9zM108 66h13q39 0 56 16q21 19 21 61q0 30 -16 45q-15 14 -51 14h-6z
" />
    <glyph glyph-name="afii10068" unicode="&#x433;" horiz-adv-x="260" 
d="M266 373h-120l-46 -373h-82l55 447h202z" />
    <glyph glyph-name="afii10069" unicode="&#x434;" horiz-adv-x="352" 
d="M93 447h240l-46 -373h39l-22 -178h-74l13 104h-195l-14 -104h-74l23 178q23 7 40 22q31 30 41 110zM205 74l37 299h-82l-20 -158q-9 -65 -15 -83q-11 -34 -36 -58h116z" />
    <glyph glyph-name="afii10070" unicode="&#x435;" horiz-adv-x="321" 
d="M206 151h76q-9 -57 -28 -90q-18 -32 -49.5 -50t-68.5 -18q-113 0 -113 148q0 82 22 168q38 145 145 145q60 0 84.5 -45t24.5 -110q0 -40 -7 -92h-185q-4 -40 -4 -59q0 -17 1 -27t4.5 -25.5t13 -23.5t24.5 -8q50 0 60 87zM218 300v15q0 69 -38 69q-8 0 -14.5 -2.5
t-12 -8.5t-10 -11.5t-8.5 -15t-6.5 -16t-5 -18t-4 -16.5t-3.5 -16t-2 -13h103q1 11 1 33z" />
    <glyph glyph-name="afii10072" unicode="&#x436;" horiz-adv-x="468" 
d="M418 0h-86l-66 204l-25 -204h-80l25 204l-114 -204h-92l136 234l-79 212h86l68 -204l25 205h80l-25 -205l112 205h93l-134 -222z" />
    <glyph glyph-name="afii10073" unicode="&#x437;" horiz-adv-x="288" 
d="M47 344l11 86q35 24 82 24q64 0 98 -34q30 -30 30 -80q0 -44 -22 -74q-20 -26 -55 -35q22 -5 40 -22q28 -26 28 -73q0 -64 -45 -106q-40 -37 -107 -37q-58 0 -97 32l11 84q33 -40 81 -40q32 0 50 16q21 19 21 50q0 29 -20 45q-16 13 -53 13h-19l9 70h15q39 0 57 14
q22 16 22 48q0 26 -19 40q-17 13 -45 13q-23 0 -43 -11q-20 -12 -30 -23z" />
    <glyph glyph-name="afii10074" unicode="&#x438;" horiz-adv-x="368" 
d="M73 447h82l-27 -219q-2 -12 -13 -81q17 43 38 82l116 218h80l-55 -447h-82l27 218q8 53 13 79q-13 -40 -37 -82l-117 -215h-80z" />
    <glyph glyph-name="afii10075" unicode="&#x439;" horiz-adv-x="368" 
d="M73 447h82l-27 -219q-2 -12 -13 -81q17 43 38 82l116 218h80l-55 -447h-82l27 218q8 53 13 79q-13 -40 -37 -82l-117 -215h-80zM273 617l71 -24q-14 -45 -46 -67q-29 -21 -82 -21q-52 0 -83 21q-34 23 -45 67l72 24q5 -20 17 -32q16 -14 39 -14q22 0 37 13q13 11 20 33z
" />
    <glyph glyph-name="afii10076" unicode="&#x43a;" horiz-adv-x="346" 
d="M301 0h-92l-83 205l-26 -205h-82l55 447h82l-25 -203l130 203h94l-148 -222z" />
    <glyph glyph-name="afii10077" unicode="&#x43b;" horiz-adv-x="361" 
d="M342 447l-55 -447h-82l46 373h-90l-23 -185q-16 -125 -58 -167q-28 -27 -72 -27q-23 0 -38 9l10 79q9 -8 23 -8q18 0 30 12q20 22 30 107l31 254h248z" />
    <glyph glyph-name="afii10078" unicode="&#x43c;" horiz-adv-x="434" 
d="M220 0h-56l-21 157q-11 74 -12 158q-11 -76 -26 -154l-31 -161h-78l102 446h78l17 -182q11 -109 13 -139q15 54 45 137l65 184h78l-8 -446h-78l8 161q2 41 13 154q-18 -73 -50 -158z" />
    <glyph glyph-name="afii10079" unicode="&#x43d;" horiz-adv-x="354" 
d="M155 447l-21 -171h98l21 171h82l-55 -447h-82l25 202h-98l-25 -202h-82l55 447h82z" />
    <glyph glyph-name="afii10080" unicode="&#x43e;" horiz-adv-x="336" 
d="M311 306q0 -39 -3.5 -76t-14.5 -82t-29 -77.5t-50.5 -55t-75.5 -22.5q-114 0 -114 151q0 50 6.5 97t23.5 98.5t53.5 83t88.5 31.5q115 0 115 -148zM228 314q0 65 -41 65q-23 0 -38 -23q-19 -28 -29 -98.5t-10 -122.5q0 -65 40 -65q23 0 39 24q19 28 29 98.5t10 121.5z
" />
    <glyph glyph-name="afii10081" unicode="&#x43f;" horiz-adv-x="350" 
d="M276 0h-82l46 373h-94l-46 -373h-82l55 447h258z" />
    <glyph glyph-name="afii10082" unicode="&#x440;" horiz-adv-x="344" 
d="M155 447l-7 -58q19 32 38.5 48.5t50.5 16.5q83 0 83 -131q0 -46 -4.5 -92t-17.5 -105t-43.5 -96t-75.5 -37q-29 0 -45.5 14t-26.5 43l-30 -238h-82l79 635h81zM237 307q0 72 -41 72q-39 0 -57 -75q-20 -83 -20 -166q0 -71 39 -71q42 0 61 85q18 92 18 155z" />
    <glyph glyph-name="afii10083" unicode="&#x441;" horiz-adv-x="249" 
d="M252 438l-11 -84q-11 21 -38 21q-28 0 -47 -24t-27.5 -61.5t-11.5 -67t-3 -57.5q0 -18 1.5 -31t6 -29.5t15.5 -25t29 -8.5q21 0 43 17l-10 -77q-33 -18 -68 -18q-58 0 -83 42t-25 105q0 108 32 201q39 113 135 113q33 0 62 -16z" />
    <glyph glyph-name="afii10084" unicode="&#x442;" horiz-adv-x="268" 
d="M274 373h-82l-46 -373h-82l46 373h-82l9 74h246z" />
    <glyph glyph-name="afii10085" unicode="&#x443;" horiz-adv-x="322" 
d="M346 447l-259 -635h-85l96 224l-67 411h92l26 -312l114 312h83z" />
    <glyph glyph-name="afii10086" unicode="&#x444;" horiz-adv-x="460" 
d="M137 -188l24 184q-60 8 -97 52q-40 48 -40 132q0 62 18 125t59 101q46 44 115 45l28 216h82l-28 -216q58 -9 92 -46q45 -47 45 -139q0 -152 -72 -222q-51 -48 -120 -48l-24 -184h-82zM283 377l-37 -307q38 1 63 26q25 24 35.5 74.5t10.5 96.5q0 52 -21 80q-18 25 -51 30z
M176 70l37 307q-33 -2 -57 -26q-28 -27 -40 -76.5t-12 -90.5q0 -59 23 -87q19 -23 49 -27z" />
    <glyph glyph-name="afii10087" unicode="&#x445;" horiz-adv-x="327" 
d="M330 447l-125 -211l91 -236h-97q-1 4 -13.5 39.5t-18 53t-12 44.5t-6.5 44q-6 -23 -17.5 -48.5t-21 -43t-26 -46.5t-24.5 -43h-85l139 236l-84 211h96q38 -118 43 -153q11 30 75 153h86z" />
    <glyph glyph-name="afii10088" unicode="&#x446;" horiz-adv-x="354" 
d="M73 447h82l-46 -373h96l46 373h82l-46 -373h48l-23 -178h-76l14 104h-232z" />
    <glyph glyph-name="afii10089" unicode="&#x447;" horiz-adv-x="338" 
d="M182 0l24 195q-28 -11 -59 -11q-56 0 -84 30q-23 23 -23 64q0 25 4 49l15 120h80l-14 -111q-3 -22 -3 -33q0 -25 14 -36q12 -9 35 -9q24 0 44 10l22 179h82l-55 -447h-82z" />
    <glyph glyph-name="afii10090" unicode="&#x448;" horiz-adv-x="526" 
d="M73 447h82l-46 -373h94l46 373h82l-46 -373h94l46 373h82l-55 -447h-434z" />
    <glyph glyph-name="afii10091" unicode="&#x449;" horiz-adv-x="528" 
d="M73 447h82l-46 -373h94l46 373h82l-46 -373h94l46 373h82l-46 -373h48l-22 -178h-76l13 104h-406z" />
    <glyph glyph-name="afii10092" unicode="&#x44a;" horiz-adv-x="342" 
d="M166 276h10q76 0 112 -34q34 -32 34 -90q0 -74 -41 -115q-38 -37 -116 -37h-115l46 373h-68l9 74h150zM141 70h12q44 0 62 16q21 20 21 59q0 33 -19 48q-16 13 -53 13h-7z" />
    <glyph glyph-name="afii10093" unicode="&#x44b;" horiz-adv-x="458" 
d="M439 447l-55 -447h-82l55 447h82zM73 447h82l-21 -171h8q76 0 112 -34q34 -32 34 -89q0 -77 -41 -116q-38 -37 -116 -37h-113zM109 70h12q44 0 62 16q21 20 21 59q0 33 -19 48q-16 13 -53 13h-7z" />
    <glyph glyph-name="afii10094" unicode="&#x44c;" horiz-adv-x="310" 
d="M73 447h82l-21 -171h10q76 0 112 -34q34 -32 34 -90q0 -74 -41 -115q-38 -37 -116 -37h-115zM109 70h12q44 0 62 16q21 19 21 58q0 34 -19 49q-16 13 -53 13h-7z" />
    <glyph glyph-name="afii10095" unicode="&#x44d;" horiz-adv-x="287" 
d="M10 23l11 84q10 -16 21 -24q15 -12 36 -12q29 0 45 16q31 27 40 105h-98l9 74h96q0 70 -23 93q-16 16 -41 16q-20 0 -36 -11q-12 -7 -22 -21l10 88q31 23 71 23q55 0 90 -37q43 -46 43 -141q0 -64 -16 -133t-57 -110q-40 -40 -97 -40q-50 0 -82 30z" />
    <glyph glyph-name="afii10096" unicode="&#x44e;" horiz-adv-x="485" 
d="M133 270h53q18 100 63 145q38 39 95 39q50 0 79 -29q37 -36 37 -124q0 -75 -17 -151.5t-59 -117.5q-39 -39 -99 -39q-45 0 -72 27q-38 38 -38 138q0 24 1 37h-52l-24 -195h-82l55 447h82zM336 379q-16 0 -28 -11q-22 -19 -36 -95q-13 -76 -13 -136q0 -43 16 -58
q9 -9 24 -9t28 11q25 22 38 100q12 71 12 131q0 44 -16 58q-9 9 -25 9z" />
    <glyph glyph-name="afii10097" unicode="&#x44f;" horiz-adv-x="331" 
d="M6 0l104 184q-28 7 -47 31q-21 27 -21 69q0 80 46 125q39 38 115 38h109l-55 -447h-82l22 183l-96 -183h-95zM204 236l17 139h-18q-36 0 -54 -18q-22 -22 -22 -63q0 -30 15 -44t47 -14h15z" />
    <glyph glyph-name="afii10071" unicode="&#x451;" horiz-adv-x="321" 
d="M206 151h76q-9 -57 -28 -90q-18 -32 -49.5 -50t-68.5 -18q-113 0 -113 148q0 82 22 168q38 145 145 145q60 0 84.5 -45t24.5 -110q0 -40 -7 -92h-185q-4 -40 -4 -59q0 -17 1 -27t4.5 -25.5t13 -23.5t24.5 -8q50 0 60 87zM218 300v15q0 69 -38 69q-8 0 -14.5 -2.5
t-12 -8.5t-10 -11.5t-8.5 -15t-6.5 -16t-5 -18t-4 -16.5t-3.5 -16t-2 -13h103q1 11 1 33zM321 569q0 -23 -16.5 -39.5t-39.5 -16.5q-19 0 -31.5 12.5t-12.5 31.5q0 22 17 39t40 17q19 0 31 -12.5t12 -31.5zM181 569q0 -23 -16.5 -39.5t-39.5 -16.5q-19 0 -31 12.5t-12 31.5
q0 23 17 39.5t39 16.5q19 0 31 -12.5t12 -31.5z" />
    <glyph glyph-name="afii10099" unicode="&#x452;" horiz-adv-x="359" 
d="M114 729h81l-18 -144h106l-8 -64h-106l-18 -150q16 26 41 43q23 16 54 16q38 0 58 -20q22 -22 22 -66q0 -8 -3 -38l-42 -332q-11 -90 -44 -127q-31 -35 -87 -35q-27 0 -51 10l10 77q13 -10 32 -10q18 0 31 9q19 15 27 73l38 304q3 27 3 33q0 27 -12 39q-9 11 -29 11
q-21 0 -34 -13q-19 -18 -27 -80l-33 -265h-81l65 521h-50l8 64h50z" />
    <glyph glyph-name="afii10100" unicode="&#x453;" horiz-adv-x="260" 
d="M266 373h-120l-46 -373h-82l55 447h202zM139 542l95 122l66 -39l-115 -112z" />
    <glyph glyph-name="afii10101" unicode="&#x454;" horiz-adv-x="276" 
d="M241 102l-11 -87q-37 -22 -83 -22q-53 0 -83 31q-41 42 -41 144q0 69 17 135q20 76 58 113q39 38 103 38q43 0 78 -24l-10 -87q-19 32 -58 32q-25 0 -45 -17q-33 -28 -41 -92h108l-9 -74h-109q-6 -74 18 -103q16 -18 41 -18q40 0 67 31z" />
    <glyph glyph-name="afii10102" unicode="&#x455;" horiz-adv-x="256" 
d="M242 438l-10 -77q-29 22 -59 22q-23 0 -41 -16.5t-18 -39.5q0 -17 11.5 -33t28 -29.5t33 -29t28 -38.5t11.5 -52q0 -64 -40.5 -108t-103.5 -44q-38 0 -69 21l10 80q32 -27 64 -27q29 0 46 18t17 47q0 22 -18 43t-39 37t-39 43.5t-18 59.5q0 60 38 101t98 41q38 0 70 -19z
" />
    <glyph glyph-name="afii10103" unicode="&#x456;" horiz-adv-x="173" 
d="M182 587q0 -25 -19 -43.5t-44 -18.5q-20 0 -34 14.5t-14 34.5q0 25 19 44t44 19q21 0 34.5 -14.5t13.5 -35.5zM154 447l-55 -447h-81l55 447h81z" />
    <glyph glyph-name="afii10104" unicode="&#x457;" horiz-adv-x="173" 
d="M154 447l-55 -447h-81l55 447h81zM202 593q0 -23 -10.5 -39.5t-25.5 -16.5q-11 0 -19.5 12.5t-8.5 31.5q0 22 11.5 39t25.5 17q12 0 19.5 -12.5t7.5 -31.5zM116 593q0 -22 -11 -39t-25 -17q-12 0 -19.5 12.5t-7.5 31.5q0 23 10.5 39.5t25.5 16.5q11 0 19 -12.5t8 -31.5z
" />
    <glyph glyph-name="afii10105" unicode="&#x458;" horiz-adv-x="174" 
d="M183 587q0 -25 -19 -43.5t-44 -18.5q-20 0 -34 14.5t-14 34.5q0 25 19 44t44 19q21 0 34.5 -14.5t13.5 -35.5zM155 447l-78 -635h-82l79 635h81z" />
    <glyph glyph-name="afii10106" unicode="&#x459;" horiz-adv-x="493" 
d="M94 447h244l-21 -171h10q76 0 112 -34q34 -32 34 -90q0 -74 -41 -115q-38 -37 -116 -37h-113l46 373h-88l-23 -185q-16 -125 -58 -167q-28 -27 -72 -27q-23 0 -38 9l10 79q9 -8 23 -8q18 0 30 12q20 22 30 107zM292 70h12q44 0 62 16q21 19 21 58q0 34 -19 49
q-16 13 -53 13h-7z" />
    <glyph glyph-name="afii10107" unicode="&#x45a;" horiz-adv-x="490" 
d="M253 447h82l-21 -171h10q76 0 112 -34q34 -32 34 -90q0 -74 -41 -115q-38 -37 -116 -37h-115l25 206h-98l-25 -206h-82l55 447h82l-21 -171h98zM289 70h12q44 0 62 16q21 19 21 58q0 34 -19 49q-16 13 -53 13h-7z" />
    <glyph glyph-name="afii10108" unicode="&#x45b;" horiz-adv-x="359" 
d="M24 0l62 521h-50l8 64h50l19 144h81l-17 -144h106l-8 -64h-106l-18 -151q41 59 97 59q37 0 57 -21t20 -58q0 -19 -4 -57l-36 -293h-82l34 275q0 4 1 11.5t1.5 13.5t0.5 11q0 47 -40 47q-18 0 -30 -8t-18 -24.5t-8.5 -28.5t-5.5 -32l-33 -265h-81z" />
    <glyph glyph-name="afii10109" unicode="&#x45c;" horiz-adv-x="346" 
d="M301 0h-92l-83 205l-26 -205h-82l55 447h82l-25 -203l130 203h94l-148 -222zM179 542l95 122l66 -39l-115 -112z" />
    <glyph glyph-name="afii10110" unicode="&#x45e;" horiz-adv-x="322" 
d="M346 447l-259 -635h-85l96 224l-67 411h92l26 -312l114 312h83zM269 617l71 -24q-14 -45 -46 -67q-29 -21 -82 -21q-52 0 -83 21q-34 23 -45 67l72 24q5 -20 17 -32q16 -14 39 -14q22 0 37 13q13 11 20 33z" />
    <glyph glyph-name="afii10193" unicode="&#x45f;" horiz-adv-x="354" 
d="M73 447h82l-46 -373h98l46 373h82l-55 -447h-93l-13 -104h-76l13 104h-93z" />
    <glyph glyph-name="afii10146" unicode="&#x462;" horiz-adv-x="383" 
d="M50 0l64 524h-72l10 75h72l12 95h88l-12 -95h111l-10 -75h-111l-17 -142h6q86 0 129 -43q38 -39 38 -116q0 -122 -56 -178q-45 -45 -124 -45h-128zM176 306l-29 -230h4q52 0 77 24q36 34 36 125q0 44 -22 64q-19 17 -66 17z" />
    <glyph glyph-name="afii10194" unicode="&#x463;" horiz-adv-x="330" 
d="M38 0l46 379h-56l9 68h56l27 220h81l-27 -220h88l-9 -68h-88l-12 -103h11q76 0 112 -34q34 -32 34 -90q0 -74 -41 -115q-38 -37 -116 -37h-115zM129 70h12q44 0 62 16q21 19 21 58q0 34 -19 49q-16 13 -53 13h-7z" />
    <glyph glyph-name="afii10147" unicode="&#x472;" horiz-adv-x="416" 
d="M261 675q60 0 94 -31q48 -42 48 -157q0 -127 -22 -241q-29 -155 -83 -209q-46 -46 -120 -46q-58 0 -94 36q-43 43 -43 151q0 124 23 254q26 143 80 197q46 46 117 46zM149 396h157q5 60 5 109q0 52 -16 72q-15 17 -43 17t-48 -21q-40 -42 -55 -177zM299 320h-159
q-10 -90 -10 -145q0 -66 22 -87q16 -14 37 -14q27 0 48 19q42 39 62 227z" />
    <glyph glyph-name="afii10195" unicode="&#x473;" horiz-adv-x="336" 
d="M196 454q49 0 78 -29q37 -37 37 -124q0 -75 -17 -151.5t-59 -117.5q-39 -39 -99 -39q-48 0 -76 29q-36 37 -36 123q0 195 76 270q39 39 96 39zM122 270h104q0 2 1 18.5t1 25.5q0 42 -16 56q-11 9 -25 9q-16 0 -28 -11q-27 -25 -37 -98zM219 198h-106q-3 -29 -3 -61
q0 -43 16 -58q10 -9 25 -9q16 0 27 11q30 24 41 117z" />
    <glyph glyph-name="afii10148" unicode="&#x474;" horiz-adv-x="322" 
d="M378 667l-211 -667h-70l-45 667h87q15 -358 15 -502q6 32 15 66t22.5 78.5t18.5 64.5q23 83 85 293h83z" />
    <glyph glyph-name="afii10196" unicode="&#x475;" horiz-adv-x="295" 
d="M319 447l-170 -447h-55l-64 447h87q20 -186 20 -279q0 -39 -1 -59q30 114 104 338h79z" />
    <glyph glyph-name="afii10050" unicode="&#x490;" horiz-adv-x="350" 
d="M105 667l184 1l15 125h86l-24 -202h-182l-73 -591h-88z" />
    <glyph glyph-name="afii10098" unicode="&#x491;" horiz-adv-x="285" 
d="M18 0l55 447h149l12 100h76l-21 -174h-143l-46 -373h-82z" />
    <glyph glyph-name="uni0492" unicode="&#x492;" horiz-adv-x="312" 
d="M339 591h-150l-26 -211h126l-10 -76h-126l-37 -304h-88l37 304h-50l10 76h50l35 287h238z" />
    <glyph glyph-name="uni0493" unicode="&#x493;" horiz-adv-x="264" 
d="M270 374h-120l-15 -122h93l-9 -73h-93l-22 -179h-82l22 179h-44l9 73h44l24 195h202z" />
    <glyph glyph-name="uni0494" unicode="&#x494;" horiz-adv-x="391" 
d="M342 591h-158l-25 -204q34 19 72 19q61 0 96 -41q39 -47 39 -136q0 -146 -62 -205q-35 -33 -92 -33q-46 0 -73 18l28 84q18 -19 40 -19q19 0 32 14q32 34 32 135q0 55 -21 79q-17 20 -47 20q-33 0 -55 -20l-37 -302h-88l82 667h246z" />
    <glyph glyph-name="uni0495" unicode="&#x495;" horiz-adv-x="307" 
d="M266 373h-120l-13 -105q68 0 104 -38q40 -41 40 -125q0 -78 -21 -142q-24 -75 -73 -111q-51 -39 -117 -40l11 86q31 0 54 19q35 28 48 96q10 40 10 93q0 50 -19 69q-15 16 -47 16l-23 -191h-82l55 447h202z" />
    <glyph glyph-name="uni0496" unicode="&#x496;" horiz-adv-x="527" 
d="M63 667h87l78 -308l38 308h88l-38 -308l154 308h87l-164 -323l69 -268h59l-25 -206h-86l16 130h-38l-76 329l-40 -329h-88l40 329l-156 -329h-93l173 347z" />
    <glyph glyph-name="uni0497" unicode="&#x497;" horiz-adv-x="468" 
d="M37 446h86l68 -204l25 205h80l-25 -205l112 205h93l-134 -222l51 -151h48l-22 -178h-76l13 104h-24l-66 204l-25 -204h-80l25 204l-114 -204h-92l136 234z" />
    <glyph glyph-name="uni0498" unicode="&#x498;" horiz-adv-x="343" 
d="M112 385h18q53 0 81 25q32 29 32 86q0 46 -24 72q-22 24 -60 24q-45 0 -80 -37l11 91q39 29 92 29q65 0 105 -38q46 -44 46 -129q0 -84 -44 -126q-21 -19 -56 -31q30 -5 51 -26q35 -35 35 -104q0 -95 -52 -167q-33 -44 -81 -56l-15 -128h-86l15 123q-45 2 -84 36l12 91
q36 -43 87 -43q47 0 74 28q36 37 36 109q0 48 -24 72q-23 23 -73 23h-25z" />
    <glyph glyph-name="uni0499" unicode="&#x499;" horiz-adv-x="288" 
d="M47 344l11 86q35 24 82 24q64 0 98 -34q30 -30 30 -80q0 -44 -22 -74q-20 -26 -55 -35q22 -5 40 -22q28 -26 28 -74q0 -69 -43 -109q-27 -25 -66 -30l-12 -100h-76l12 98q-37 7 -64 31l11 84q33 -40 81 -40q32 0 50 16q21 19 21 50q0 29 -20 45q-16 13 -53 13h-19l9 70
h15q39 0 57 14q22 16 22 48q0 26 -19 40q-17 13 -45 13q-23 0 -43 -11q-20 -12 -30 -23z" />
    <glyph glyph-name="uni049A" unicode="&#x49a;" horiz-adv-x="375" 
d="M405 667l-174 -325l74 -266h59l-26 -206h-86l17 130h-35l-84 327l-39 -327h-88l81 667h89l-38 -306l158 306h92z" />
    <glyph glyph-name="uni049B" unicode="&#x49b;" horiz-adv-x="346" 
d="M73 447h82l-25 -203l130 203h94l-148 -222l64 -151h48l-22 -178h-76l13 104h-24l-83 205l-26 -205h-82z" />
    <glyph glyph-name="uni049C" unicode="&#x49c;" horiz-adv-x="464" 
d="M151 324l-40 -324h-88l82 667h88l-33 -267h40l18 143h63l-23 -192l153 316h92l-161 -308l87 -359h-98l-74 343l-23 -180h-63l20 161h-40z" />
    <glyph glyph-name="uni049D" unicode="&#x49d;" horiz-adv-x="405" 
d="M125 204l-25 -204h-82l55 447h82l-21 -173h30l14 113h60l-16 -132l100 192h91l-119 -210l68 -237h-90l-55 214l-16 -131h-60l14 121h-30z" />
    <glyph glyph-name="uni04A0" unicode="&#x4a0;" horiz-adv-x="424" 
d="M463 667l-174 -325l95 -342h-92l-84 327l-39 -327h-88l72 588h-105l10 79h193l-38 -306l158 306h92z" />
    <glyph glyph-name="uni04A1" unicode="&#x4a1;" horiz-adv-x="402" 
d="M357 0h-92l-83 205l-26 -205h-82l46 374h-100l9 73h182l-25 -203l130 203h94l-148 -222z" />
    <glyph glyph-name="uni04A2" unicode="&#x4a2;" horiz-adv-x="417" 
d="M411 667l-73 -591h59l-26 -206h-86l17 130h-61l40 330h-129l-41 -330h-88l81 667h89l-32 -261h129l32 261h89z" />
    <glyph glyph-name="uni04A3" unicode="&#x4a3;" horiz-adv-x="356" 
d="M155 447l-21 -171h98l21 171h82l-46 -373h48l-22 -178h-76l13 104h-54l25 202h-98l-25 -202h-82l55 447h82z" />
    <glyph glyph-name="uni04A4" unicode="&#x4a4;" horiz-adv-x="506" 
d="M542 667l-10 -76h-131l-73 -591h-88l40 330h-128l-41 -330h-88l81 667h89l-32 -261h128l32 261h221z" />
    <glyph glyph-name="uni04A5" unicode="&#x4a5;" horiz-adv-x="410" 
d="M416 373h-90l-46 -373h-82l25 202h-98l-25 -202h-82l55 447h82l-21 -171h98l21 171h172z" />
    <glyph glyph-name="uni04AA" unicode="&#x4aa;" horiz-adv-x="332" 
d="M360 656l-9 -81q-29 17 -55 17q-41 0 -73 -30q-45 -42 -67 -148q-19 -92 -19 -178q0 -101 40 -136q24 -21 61 -21q31 0 53 13l-10 -82q-20 -13 -41 -16l-16 -124h-86l18 128q-44 12 -72 50q-42 55 -42 176q0 85 22 190q31 146 93 207q54 54 131 54q44 0 72 -19z" />
    <glyph glyph-name="uni04AB" unicode="&#x4ab;" horiz-adv-x="249" 
d="M252 438l-11 -84q-9 21 -37 21t-48 -25q-42 -53 -42 -185q0 -62 19 -81q13 -13 34 -13q19 0 42 17l-10 -77q-15 -10 -29 -13l-13 -102h-76l13 103q-28 10 -44 32q-27 37 -27 113q0 73 18.5 152.5t55.5 118.5q38 39 93 39q32 0 62 -16z" />
    <glyph glyph-name="uni04AE" unicode="&#x4ae;" horiz-adv-x="336" 
d="M392 667l-161 -380l-35 -287h-89l35 287l-90 380h94l32 -179q7 -40 15 -130q17 62 42 132l65 177h92z" />
    <glyph glyph-name="uni04AF" unicode="&#x4af;" horiz-adv-x="312" 
d="M26 447h88l32 -298l110 298h86l-164 -390l-30 -245h-82l30 245z" />
    <glyph glyph-name="uni04B0" unicode="&#x4b0;" horiz-adv-x="334" 
d="M390 667l-161 -380l-3 -27h92l-9 -70h-92l-23 -190h-89l24 190h-92l8 70h92l3 27l-90 380h94l32 -179q7 -40 15 -130q17 62 42 132l65 177h92z" />
    <glyph glyph-name="uni04B1" unicode="&#x4b1;" horiz-adv-x="315" 
d="M102 83l-73 364h88l35 -278l107 278h86l-161 -364l-2 -19h92l-8 -64h-92l-23 -188h-82l23 188h-92l8 64h92z" />
    <glyph glyph-name="uni04B2" unicode="&#x4b2;" horiz-adv-x="343" 
d="M383 667l-162 -328l58 -263h59l-26 -206h-86l17 130h-33q-4 21 -16.5 76t-19 95t-8.5 78q-11 -39 -39 -103q-9 -21 -63 -146h-94l166 339l-76 328h86q4 -16 18 -73t21 -94t9 -74q4 14 15.5 42t16.5 42q1 3 9 19l59 138h89z" />
    <glyph glyph-name="uni04B3" unicode="&#x4b3;" horiz-adv-x="327" 
d="M330 447l-125 -211l58 -162h48l-21 -178h-76l12 104h-27q-1 4 -13.5 39.5t-18 53t-12 44.5t-6.5 44q-6 -23 -17.5 -48.5t-21 -43t-26 -46.5t-24.5 -43h-85l139 236l-84 211h96q38 -118 43 -153q11 30 75 153h86z" />
    <glyph glyph-name="uni04B6" unicode="&#x4b6;" horiz-adv-x="396" 
d="M390 667l-72 -591h59l-25 -206h-86l16 130h-62l39 320q-31 -9 -65 -9q-60 0 -97 29q-37 30 -37 88q0 26 6 74l20 165h88l-21 -171q-4 -32 -4 -46q0 -30 17 -43q17 -14 52 -14q26 0 51 10l33 264h88z" />
    <glyph glyph-name="uni04B7" unicode="&#x4b7;" horiz-adv-x="340" 
d="M236 0h-54l24 195q-28 -11 -59 -11q-56 0 -84 30q-23 23 -23 64q0 25 4 49l15 120h80l-14 -111q-3 -22 -3 -33q0 -25 14 -36q12 -9 35 -9q24 0 44 10l22 179h82l-46 -373h48l-22 -178h-76z" />
    <glyph glyph-name="uni04B8" unicode="&#x4b8;" horiz-adv-x="414" 
d="M417 667l-82 -667h-88l39 319q-24 -6 -41 -6l-17 -142h-63l17 141q-48 2 -80 26q-42 32 -42 94q0 19 6 70l20 165h88l-21 -171q-4 -29 -4 -44q0 -31 13 -44q10 -10 30 -12l19 147h63l-19 -150q18 0 41 7l33 267h88z" />
    <glyph glyph-name="uni04B9" unicode="&#x4b9;" horiz-adv-x="368" 
d="M212 0l24 195q-16 -5 -31 -8l-12 -96h-60l12 94q-47 -2 -77 25q-28 26 -28 69l4 48l15 120h78l-14 -111q-3 -18 -3 -35q0 -22 9 -32q9 -11 25 -11l16 133h60l-16 -132q15 0 31 8l22 180h82l-55 -447h-82z" />
    <glyph glyph-name="uni04BA" unicode="&#x4ba;" horiz-adv-x="400" 
d="M23 0l82 667h89l-33 -273q33 12 70 12q61 0 94 -27q40 -32 40 -97q0 -26 -7 -79l-25 -203h-89l26 212q4 30 4 44q0 35 -16 51q-17 17 -50 17q-30 0 -57 -12l-39 -312h-89z" />
    <glyph glyph-name="uni04BB" unicode="&#x4bb;" horiz-adv-x="353" 
d="M189 729l-41 -334q41 59 97 59q37 0 57 -21t20 -58q0 -19 -4 -57l-39 -318h-82l37 299q0 4 1 11.5t1.5 13.5t0.5 11q0 47 -40 47q-18 0 -30 -8t-18 -24.5t-8.5 -28.5t-5.5 -32l-36 -289h-81l90 729h81z" />
    <glyph glyph-name="uni04C0" unicode="&#x4c0;" horiz-adv-x="172" 
d="M180 667l-81 -667h-81l81 667h81z" />
    <glyph glyph-name="uni04C1" unicode="&#x4c1;" horiz-adv-x="518" 
d="M481 0h-93l-76 329l-40 -329h-88l40 329l-156 -329h-93l173 347l-85 320h87l78 -308l38 308h88l-38 -308l154 308h87l-164 -323zM379 827l82 -26q-15 -47 -55 -73q-34 -22 -87 -22q-59 0 -95 25t-48 70l79 26q5 -20 17 -34q16 -17 46 -17q28 0 44 16q13 13 17 35z" />
    <glyph glyph-name="uni04C2" unicode="&#x4c2;" horiz-adv-x="468" 
d="M418 0h-86l-66 204l-25 -204h-80l25 204l-114 -204h-92l136 234l-79 212h86l68 -204l25 205h80l-25 -205l112 205h93l-134 -222zM322 617l71 -24q-14 -45 -46 -67q-29 -21 -82 -21q-52 0 -83 21q-34 23 -45 67l72 24q5 -20 17 -32q16 -14 39 -14q22 0 37 13q13 11 20 33z
" />
    <glyph glyph-name="uni04C3" unicode="&#x4c3;" horiz-adv-x="385" 
d="M405 667l-150 -287q45 -10 72 -47q28 -37 28 -98q0 -25 -6 -79l-12 -103q-17 -134 -63 -180q-34 -33 -90 -33q-38 0 -72 18l28 84q21 -19 39 -19q19 0 32 14q23 23 37 135l9 74q6 49 6 76q0 48 -21 70q-17 18 -46 18q-26 0 -51 -15l-34 -295h-88l81 667h89l-40 -323
l163 323h89z" />
    <glyph glyph-name="uni04C4" unicode="&#x4c4;" horiz-adv-x="342" 
d="M73 447h82l-27 -217l132 217h97l-141 -209q32 -15 48 -47q16 -31 16 -84q0 -78 -24 -146q-25 -69 -69 -105q-50 -41 -118 -44l11 86q30 0 56 23q27 25 43 82q13 52 13 101q0 46 -19 67q-18 20 -49 20l-24 -191h-82z" />
    <glyph glyph-name="uni04C7" unicode="&#x4c7;" horiz-adv-x="408" 
d="M411 667l-86 -691q-8 -59 -20 -86q-17 -38 -52 -58t-79 -20q-43 0 -73 18l11 90q36 -23 56 -23q17 0 29.5 6.5t19.5 15t12 24t6.5 25.5t3.5 28q0 2 0.5 5.5t0.5 5.5l41 323h-129l-41 -330h-88l81 667h89l-32 -261h129l32 261h89z" />
    <glyph glyph-name="uni04C8" unicode="&#x4c8;" horiz-adv-x="340" 
d="M155 447l-21 -171h98l21 171h82l-58 -473q-11 -92 -44 -127q-31 -35 -87 -35q-27 0 -51 10l10 77q13 -10 32 -10q18 0 31 9q19 15 29 96l26 208h-98l-25 -202h-82l55 447h82z" />
    <glyph glyph-name="uni04D0" unicode="&#x4d0;" horiz-adv-x="355" 
d="M326 0h-88l-8 130h-131l-40 -130h-86l225 667h69zM120 199h105q-10 176 -10 264q0 49 1 74q-4 -16 -11.5 -46.5t-11.5 -46.5q-21 -83 -73 -245zM296 827l82 -26q-15 -47 -55 -73q-34 -22 -87 -22q-59 0 -95 25t-48 70l79 26q5 -20 17 -34q16 -17 46 -17q28 0 44 16
q13 13 17 35z" />
    <glyph glyph-name="uni04D1" unicode="&#x4d1;" horiz-adv-x="343" 
d="M324 447l-55 -447h-81l7 57q-18 -32 -37.5 -48t-51.5 -16q-83 0 -83 130q0 45 4.5 91.5t17.5 106t43.5 96.5t74.5 37q51 0 74 -58l6 51h81zM224 309q0 70 -38 70q-44 0 -62 -85q-18 -83 -18 -155t41 -72q39 0 57 76q20 83 20 166zM258 617l71 -24q-14 -45 -46 -67
q-29 -21 -82 -21q-51 0 -83 21q-34 23 -45 67l72 24q5 -20 17 -32q16 -14 39 -14q22 0 37 13q13 11 20 33z" />
    <glyph glyph-name="uni04D2" unicode="&#x4d2;" horiz-adv-x="355" 
d="M326 0h-88l-8 130h-131l-40 -130h-86l225 667h69zM120 199h105q-10 176 -10 264q0 49 1 74q-4 -16 -11.5 -46.5t-11.5 -46.5q-21 -83 -73 -245zM358 777q0 -23 -17 -39.5t-39 -16.5q-19 0 -31.5 12.5t-12.5 31.5q0 22 17 39t40 17q19 0 31 -12.5t12 -31.5zM212 777
q0 -23 -17 -39.5t-39 -16.5q-19 0 -31 12.5t-12 31.5q0 23 16.5 39.5t39.5 16.5q19 0 31 -12.5t12 -31.5z" />
    <glyph glyph-name="uni04D3" unicode="&#x4d3;" horiz-adv-x="343" 
d="M324 447l-55 -447h-81l7 57q-18 -32 -37.5 -48t-51.5 -16q-83 0 -83 130q0 45 4.5 91.5t17.5 106t43.5 96.5t74.5 37q51 0 74 -58l6 51h81zM224 309q0 70 -38 70q-44 0 -62 -85q-18 -83 -18 -155t41 -72q39 0 57 76q20 83 20 166zM335 569q0 -23 -16.5 -39.5t-39.5 -16.5
q-19 0 -31.5 12.5t-12.5 31.5q0 22 17 39t40 17q19 0 31 -12.5t12 -31.5zM189 569q0 -23 -16.5 -39.5t-39.5 -16.5q-19 0 -31 12.5t-12 31.5q0 23 17 39.5t39 16.5q19 0 31 -12.5t12 -31.5z" />
    <glyph glyph-name="uni04D4" unicode="&#x4d4;" horiz-adv-x="503" 
d="M474 0h-228l-10 131h-136l-41 -131h-86l221 667h218l8 -76h-143l19 -212h129l8 -76h-129l22 -227h140zM232 199l-13 151q-4 50 -4 190q-6 -42 -34 -143q-29 -99 -60 -198h111z" />
    <glyph glyph-name="uni04D5" unicode="&#x4d5;" horiz-adv-x="498" 
d="M66 348l10 84q48 22 92 22q75 0 97 -57q39 57 102 57q106 0 106 -151q0 -46 -8 -97h-182q-4 -33 -4 -74q0 -71 43 -71q29 0 43 28.5t16 63.5h77q-12 -74 -45 -117t-101 -43q-78 0 -96 70q-20 -37 -44 -53.5t-63 -16.5q-93 0 -93 107q0 32 7 63.5t21 60.5t40 46.5t61 17.5
q45 0 66 -29q0 6 2 26.5t2 31.5q0 57 -62 57q-41 0 -87 -26zM293 266h97q5 28 5 52q0 68 -39 68q-53 0 -63 -120zM204 166q0 57 -43 57q-34 0 -48 -31.5t-14 -70.5q0 -29 7.5 -45.5t33.5 -16.5q24 0 39.5 19.5t20 41.5t4.5 46z" />
    <glyph glyph-name="uni04D6" unicode="&#x4d6;" horiz-adv-x="316" 
d="M339 667l-9 -76h-146l-26 -212h130l-10 -76h-130l-27 -227h146l-9 -76h-235l81 667h235zM291 827l82 -26q-15 -47 -55 -73q-34 -22 -87 -22q-59 0 -95 25t-48 70l79 26q5 -20 17 -34q16 -17 46 -17q28 0 44 16q13 13 17 35z" />
    <glyph glyph-name="uni04D7" unicode="&#x4d7;" horiz-adv-x="321" 
d="M206 151h76q-9 -57 -28 -90q-18 -32 -49.5 -50t-68.5 -18q-113 0 -113 148q0 82 22 168q38 145 145 145q60 0 84.5 -45t24.5 -110q0 -40 -7 -92h-185q-4 -40 -4 -59q0 -17 1 -27t4.5 -25.5t13 -23.5t24.5 -8q50 0 60 87zM218 300v15q0 69 -38 69q-8 0 -14.5 -2.5
t-12 -8.5t-10 -11.5t-8.5 -15t-6.5 -16t-5 -18t-4 -16.5t-3.5 -16t-2 -13h103q1 11 1 33zM253 617l71 -24q-14 -45 -46 -67q-29 -21 -82 -21q-52 0 -83 21q-34 23 -45 67l72 24q5 -20 17 -32q16 -14 39 -14q22 0 37 13q13 11 20 33z" />
    <glyph glyph-name="uni04D8" unicode="&#x4d8;" horiz-adv-x="418" 
d="M58 351h245q10 88 10 148t-21 81q-16 16 -44 16q-32 0 -51 -19q-25 -25 -36 -73l-80 35q19 58 57 95q43 41 115 41q69 0 104 -31q48 -42 48 -157q0 -127 -22 -241q-29 -155 -83 -209q-46 -46 -117 -46q-62 0 -97 36q-45 45 -45 142q0 60 11 137zM293 275h-157
q-9 -65 -9 -103q0 -58 19 -79q16 -18 44 -18t47 19t35 75q12 45 21 106z" />
    <glyph glyph-name="afii10846" unicode="&#x4d9;" horiz-adv-x="331" 
d="M31 248h188q4 48 4 60q0 39 -11 57t-35 18q-18 0 -31 -13q-19 -19 -32 -74l-75 16q23 76 55 108q35 34 91 34q61 0 91 -38q30 -37 30 -114q0 -76 -17 -152.5t-59 -117.5q-39 -39 -98 -39q-43 0 -72 29q-36 37 -36 121q0 45 4 77zM212 188h-104q-3 -48 -3 -54
q0 -40 11 -56q9 -15 28 -15q20 0 32 14q26 27 36 111z" />
    <glyph glyph-name="uni04DA" unicode="&#x4da;" horiz-adv-x="418" 
d="M58 351h245q10 88 10 148t-21 81q-16 16 -44 16q-32 0 -51 -19q-25 -25 -36 -73l-80 35q19 58 57 95q43 41 115 41q69 0 104 -31q48 -42 48 -157q0 -127 -22 -241q-29 -155 -83 -209q-46 -46 -117 -46q-62 0 -97 36q-45 45 -45 142q0 60 11 137zM293 275h-157
q-9 -65 -9 -103q0 -58 19 -79q16 -18 44 -18t47 19t35 75q12 45 21 106zM383 777q0 -23 -16.5 -39.5t-39.5 -16.5q-19 0 -31.5 12.5t-12.5 31.5q0 22 17 39t40 17q19 0 31 -12.5t12 -31.5zM237 777q0 -23 -16.5 -39.5t-39.5 -16.5q-19 0 -31 12.5t-12 31.5q0 23 17 39.5
t39 16.5q19 0 31 -12.5t12 -31.5z" />
    <glyph glyph-name="uni04DB" unicode="&#x4db;" horiz-adv-x="331" 
d="M31 248h188q4 48 4 60q0 39 -11 57t-35 18q-18 0 -31 -13q-19 -19 -32 -74l-75 16q23 76 55 108q35 34 91 34q61 0 91 -38q30 -37 30 -114q0 -76 -17 -152.5t-59 -117.5q-39 -39 -98 -39q-43 0 -72 29q-36 37 -36 121q0 45 4 77zM212 188h-104q-3 -48 -3 -54
q0 -40 11 -56q9 -15 28 -15q20 0 32 14q26 27 36 111zM313 569q0 -23 -16.5 -39.5t-39.5 -16.5q-19 0 -31.5 12.5t-12.5 31.5q0 22 17 39t40 17q19 0 31 -12.5t12 -31.5zM167 569q0 -23 -16.5 -39.5t-39.5 -16.5q-19 0 -31 12.5t-12 31.5q0 23 17 39.5t39 16.5
q19 0 31 -12.5t12 -31.5z" />
    <glyph glyph-name="uni04DC" unicode="&#x4dc;" horiz-adv-x="518" 
d="M481 0h-93l-76 329l-40 -329h-88l40 329l-156 -329h-93l173 347l-85 320h87l78 -308l38 308h88l-38 -308l154 308h87l-164 -323zM438 777q0 -23 -17 -39.5t-39 -16.5q-19 0 -31.5 12.5t-12.5 31.5q0 22 17 39t40 17q19 0 31 -12.5t12 -31.5zM292 777q0 -23 -17 -39.5
t-39 -16.5q-19 0 -31 12.5t-12 31.5q0 23 16.5 39.5t39.5 16.5q19 0 31 -12.5t12 -31.5z" />
    <glyph glyph-name="uni04DD" unicode="&#x4dd;" horiz-adv-x="468" 
d="M418 0h-86l-66 204l-25 -204h-80l25 204l-114 -204h-92l136 234l-79 212h86l68 -204l25 205h80l-25 -205l112 205h93l-134 -222zM388 569q0 -23 -17 -39.5t-39 -16.5q-19 0 -31.5 12.5t-12.5 31.5q0 22 17 39t40 17q19 0 31 -12.5t12 -31.5zM242 569q0 -23 -17 -39.5
t-39 -16.5q-19 0 -31 12.5t-12 31.5q0 23 16.5 39.5t39.5 16.5q19 0 31 -12.5t12 -31.5z" />
    <glyph glyph-name="uni04DE" unicode="&#x4de;" horiz-adv-x="343" 
d="M112 385h18q53 0 81 25q32 29 32 86q0 46 -24 72q-22 24 -60 24q-45 0 -80 -37l11 91q39 29 92 29q65 0 105 -38q46 -44 46 -129q0 -84 -44 -126q-21 -19 -56 -31q30 -5 51 -26q35 -35 35 -104q0 -114 -66 -180q-50 -50 -130 -50q-63 0 -107 38l12 91q36 -43 87 -43
q47 0 74 28q36 37 36 109q0 48 -24 72q-23 23 -73 23h-25zM328 777q0 -23 -17 -39.5t-39 -16.5q-19 0 -31.5 12.5t-12.5 31.5q0 22 17 39t40 17q19 0 31 -12.5t12 -31.5zM182 777q0 -23 -17 -39.5t-39 -16.5q-19 0 -31 12.5t-12 31.5q0 23 16.5 39.5t39.5 16.5
q19 0 31 -12.5t12 -31.5z" />
    <glyph glyph-name="uni04DF" unicode="&#x4df;" horiz-adv-x="288" 
d="M47 344l11 86q35 24 82 24q64 0 98 -34q30 -30 30 -80q0 -44 -22 -74q-20 -26 -55 -35q22 -5 40 -22q28 -26 28 -73q0 -64 -45 -106q-40 -37 -107 -37q-58 0 -97 32l11 84q33 -40 81 -40q32 0 50 16q21 19 21 50q0 29 -20 45q-16 13 -53 13h-19l9 70h15q39 0 57 14
q22 16 22 48q0 26 -19 40q-17 13 -45 13q-23 0 -43 -11q-20 -12 -30 -23zM288 569q0 -23 -17 -39.5t-39 -16.5q-19 0 -31.5 12.5t-12.5 31.5q0 22 17 39t40 17q19 0 31 -12.5t12 -31.5zM142 569q0 -23 -17 -39.5t-39 -16.5q-19 0 -31 12.5t-12 31.5q0 23 16.5 39.5
t39.5 16.5q19 0 31 -12.5t12 -31.5z" />
    <glyph glyph-name="uni04E2" unicode="&#x4e2;" horiz-adv-x="410" 
d="M23 0l82 667h88l-34 -271q-11 -92 -45 -223q52 127 81 191l138 303h80l-82 -667h-88l36 295q14 101 43 205q-40 -107 -71 -177l-148 -323h-80zM389 794l-8 -62h-221l7 62h222z" />
    <glyph glyph-name="uni04E3" unicode="&#x4e3;" horiz-adv-x="368" 
d="M73 447h82l-27 -219q-2 -12 -13 -81q17 43 38 82l116 218h80l-55 -447h-82l27 218q8 53 13 79q-13 -40 -37 -82l-117 -215h-80zM334 586l-8 -62h-221l7 62h222z" />
    <glyph glyph-name="uni04E4" unicode="&#x4e4;" horiz-adv-x="410" 
d="M23 0l82 667h88l-34 -271q-11 -92 -45 -223q52 127 81 191l138 303h80l-82 -667h-88l36 295q14 101 43 205q-40 -107 -71 -177l-148 -323h-80zM388 777q0 -23 -17 -39.5t-39 -16.5q-19 0 -31.5 12.5t-12.5 31.5q0 22 17 39t40 17q19 0 31 -12.5t12 -31.5zM242 777
q0 -23 -17 -39.5t-39 -16.5q-19 0 -31 12.5t-12 31.5q0 23 16.5 39.5t39.5 16.5q19 0 31 -12.5t12 -31.5z" />
    <glyph glyph-name="uni04E5" unicode="&#x4e5;" horiz-adv-x="368" 
d="M73 447h82l-27 -219q-2 -12 -13 -81q17 43 38 82l116 218h80l-55 -447h-82l27 218q8 53 13 79q-13 -40 -37 -82l-117 -215h-80zM347 569q0 -23 -16.5 -39.5t-39.5 -16.5q-19 0 -31.5 12.5t-12.5 31.5q0 22 17 39t40 17q19 0 31 -12.5t12 -31.5zM201 569
q0 -23 -16.5 -39.5t-39.5 -16.5q-19 0 -31 12.5t-12 31.5q0 23 17 39.5t39 16.5q19 0 31 -12.5t12 -31.5z" />
    <glyph glyph-name="uni04E6" unicode="&#x4e6;" horiz-adv-x="416" 
d="M403 489q0 -176 -41 -323q-23 -81 -64 -128t-116 -47q-141 0 -141 180q0 166 32 305q20 90 63 144.5t125 54.5q142 0 142 -186zM311 495q0 18 -0.5 27.5t-3.5 25.5t-8.5 24.5t-17.5 15t-29 6.5q-51 0 -74 -66q-7 -19 -12 -38t-9.5 -45.5t-6 -37t-5.5 -46t-4 -39.5
q-11 -90 -11 -147q0 -101 59 -101q35 0 52.5 23t28.5 64q17 67 28 164q13 104 13 170zM393 777q0 -23 -16.5 -39.5t-39.5 -16.5q-19 0 -31.5 12.5t-12.5 31.5q0 22 17 39t40 17q19 0 31 -12.5t12 -31.5zM247 777q0 -23 -16.5 -39.5t-39.5 -16.5q-19 0 -31 12.5t-12 31.5
q0 23 17 39.5t39 16.5q19 0 31 -12.5t12 -31.5z" />
    <glyph glyph-name="uni04E7" unicode="&#x4e7;" horiz-adv-x="336" 
d="M311 306q0 -39 -3.5 -76t-14.5 -82t-29 -77.5t-50.5 -55t-75.5 -22.5q-114 0 -114 151q0 50 6.5 97t23.5 98.5t53.5 83t88.5 31.5q115 0 115 -148zM228 314q0 65 -41 65q-23 0 -38 -23q-19 -28 -29 -98.5t-10 -122.5q0 -65 40 -65q23 0 39 24q19 28 29 98.5t10 121.5z
M331 569q0 -23 -16.5 -39.5t-39.5 -16.5q-19 0 -31.5 12.5t-12.5 31.5q0 22 17 39t40 17q19 0 31 -12.5t12 -31.5zM185 569q0 -23 -16.5 -39.5t-39.5 -16.5q-19 0 -31 12.5t-12 31.5q0 23 17 39.5t39 16.5q19 0 31 -12.5t12 -31.5z" />
    <glyph glyph-name="uni04E8" unicode="&#x4e8;" horiz-adv-x="416" 
d="M261 675q60 0 94 -31q48 -42 48 -157q0 -127 -22 -241q-29 -155 -83 -209q-46 -46 -120 -46q-58 0 -94 36q-43 43 -43 151q0 124 23 254q26 143 80 197q46 46 117 46zM149 396h157q5 60 5 109q0 52 -16 72q-15 17 -43 17t-48 -21q-40 -42 -55 -177zM299 320h-159
q-10 -90 -10 -145q0 -66 22 -87q16 -14 37 -14q27 0 48 19q42 39 62 227z" />
    <glyph glyph-name="uni04E9" unicode="&#x4e9;" horiz-adv-x="336" 
d="M196 454q49 0 78 -29q37 -37 37 -124q0 -75 -17 -151.5t-59 -117.5q-39 -39 -99 -39q-48 0 -76 29q-36 37 -36 123q0 195 76 270q39 39 96 39zM122 270h104q0 2 1 18.5t1 25.5q0 42 -16 56q-11 9 -25 9q-16 0 -28 -11q-27 -25 -37 -98zM219 198h-106q-3 -29 -3 -61
q0 -43 16 -58q10 -9 25 -9q16 0 27 11q30 24 41 117z" />
    <glyph glyph-name="uni04EA" unicode="&#x4ea;" horiz-adv-x="416" 
d="M261 675q60 0 94 -31q48 -42 48 -157q0 -127 -22 -241q-29 -155 -83 -209q-46 -46 -120 -46q-58 0 -94 36q-43 43 -43 151q0 124 23 254q26 143 80 197q46 46 117 46zM149 396h157q5 60 5 109q0 52 -16 72q-15 17 -43 17t-48 -21q-40 -42 -55 -177zM299 320h-159
q-10 -90 -10 -145q0 -66 22 -87q16 -14 37 -14q27 0 48 19q42 39 62 227zM388 777q0 -23 -17 -39.5t-39 -16.5q-19 0 -31.5 12.5t-12.5 31.5q0 22 17 39t40 17q19 0 31 -12.5t12 -31.5zM242 777q0 -23 -17 -39.5t-39 -16.5q-19 0 -31 12.5t-12 31.5q0 23 16.5 39.5
t39.5 16.5q19 0 31 -12.5t12 -31.5z" />
    <glyph glyph-name="uni04EB" unicode="&#x4eb;" horiz-adv-x="336" 
d="M196 454q49 0 78 -29q37 -37 37 -124q0 -75 -17 -151.5t-59 -117.5q-39 -39 -99 -39q-48 0 -76 29q-36 37 -36 123q0 195 76 270q39 39 96 39zM122 270h104q0 2 1 18.5t1 25.5q0 42 -16 56q-11 9 -25 9q-16 0 -28 -11q-27 -25 -37 -98zM219 198h-106q-3 -29 -3 -61
q0 -43 16 -58q10 -9 25 -9q16 0 27 11q30 24 41 117zM331 569q0 -23 -16.5 -39.5t-39.5 -16.5q-19 0 -31.5 12.5t-12.5 31.5q0 22 17 39t40 17q19 0 31 -12.5t12 -31.5zM185 569q0 -23 -16.5 -39.5t-39.5 -16.5q-19 0 -31 12.5t-12 31.5q0 23 17 39.5t39 16.5q19 0 31 -12.5
t12 -31.5z" />
    <glyph glyph-name="uni04EE" unicode="&#x4ee;" horiz-adv-x="355" 
d="M50 667h94l34 -168q20 -98 27 -156q21 76 47 153l58 171h90l-238 -667h-88l79 224zM354 794l-8 -62h-221l7 62h222z" />
    <glyph glyph-name="uni04EF" unicode="&#x4ef;" horiz-adv-x="322" 
d="M346 447l-259 -635h-85l96 224l-67 411h92l26 -312l114 312h83zM314 586l-8 -62h-221l7 62h222z" />
    <glyph glyph-name="uni04F0" unicode="&#x4f0;" horiz-adv-x="355" 
d="M50 667h94l34 -168q20 -98 27 -156q21 76 47 153l58 171h90l-238 -667h-88l79 224zM368 777q0 -23 -17 -39.5t-39 -16.5q-19 0 -31.5 12.5t-12.5 31.5q0 22 17 39t40 17q19 0 31 -12.5t12 -31.5zM222 777q0 -23 -17 -39.5t-39 -16.5q-19 0 -31 12.5t-12 31.5
q0 23 16.5 39.5t39.5 16.5q19 0 31 -12.5t12 -31.5z" />
    <glyph glyph-name="uni04F1" unicode="&#x4f1;" horiz-adv-x="322" 
d="M346 447l-259 -635h-85l96 224l-67 411h92l26 -312l114 312h83zM324 569q0 -23 -17 -39.5t-39 -16.5q-19 0 -31.5 12.5t-12.5 31.5q0 22 17 39t40 17q19 0 31 -12.5t12 -31.5zM178 569q0 -23 -17 -39.5t-39 -16.5q-19 0 -31 12.5t-12 31.5q0 23 16.5 39.5t39.5 16.5
q19 0 31 -12.5t12 -31.5z" />
    <glyph glyph-name="uni04F2" unicode="&#x4f2;" horiz-adv-x="355" 
d="M50 667h94l34 -168q20 -98 27 -156q21 76 47 153l58 171h90l-238 -667h-88l79 224zM375 852l-92 -126l-36 21l77 138zM263 852l-91 -126l-37 21l77 138z" />
    <glyph glyph-name="uni04F3" unicode="&#x4f3;" horiz-adv-x="322" 
d="M346 447l-259 -635h-85l96 224l-67 411h92l26 -312l114 312h83zM341 638l-92 -126l-36 21l77 138zM229 638l-91 -126l-37 21l77 138z" />
    <glyph glyph-name="uni04F4" unicode="&#x4f4;" horiz-adv-x="387" 
d="M390 667l-82 -667h-88l39 320q-31 -9 -65 -9q-60 0 -97 29q-37 30 -37 88q0 26 6 74l20 165h88l-21 -171q-4 -32 -4 -46q0 -30 17 -43q17 -14 52 -14q26 0 51 10l33 264h88zM373 777q0 -23 -16.5 -39.5t-39.5 -16.5q-19 0 -31.5 12.5t-12.5 31.5q0 22 17 39t40 17
q19 0 31 -12.5t12 -31.5zM227 777q0 -23 -16.5 -39.5t-39.5 -16.5q-19 0 -31 12.5t-12 31.5q0 23 17 39.5t39 16.5q19 0 31 -12.5t12 -31.5z" />
    <glyph glyph-name="uni04F5" unicode="&#x4f5;" horiz-adv-x="338" 
d="M182 0l24 195q-28 -11 -59 -11q-56 0 -84 30q-23 23 -23 64q0 25 4 49l15 120h80l-14 -111q-3 -22 -3 -33q0 -25 14 -36q12 -9 35 -9q24 0 44 10l22 179h82l-55 -447h-82zM328 569q0 -23 -17 -39.5t-39 -16.5q-19 0 -31.5 12.5t-12.5 31.5q0 22 17 39t40 17
q19 0 31 -12.5t12 -31.5zM182 569q0 -23 -17 -39.5t-39 -16.5q-19 0 -31 12.5t-12 31.5q0 23 16.5 39.5t39.5 16.5q19 0 31 -12.5t12 -31.5z" />
    <glyph glyph-name="uni04F8" unicode="&#x4f8;" horiz-adv-x="514" 
d="M517 667l-82 -667h-87l81 667h88zM105 667h88l-35 -285h6q86 0 129 -43q38 -39 38 -116q0 -122 -56 -178q-45 -45 -124 -45h-128zM149 306l-29 -230h4q52 0 77 24q36 34 36 125q0 44 -22 64q-19 17 -64 17h-2zM443 777q0 -23 -16.5 -39.5t-39.5 -16.5q-19 0 -31.5 12.5
t-12.5 31.5q0 22 17 39t40 17q19 0 31 -12.5t12 -31.5zM297 777q0 -23 -16.5 -39.5t-39.5 -16.5q-19 0 -31 12.5t-12 31.5q0 23 17 39.5t39 16.5q19 0 31 -12.5t12 -31.5z" />
    <glyph glyph-name="uni04F9" unicode="&#x4f9;" horiz-adv-x="458" 
d="M439 447l-55 -447h-82l55 447h82zM73 447h82l-21 -171h8q76 0 112 -34q34 -32 34 -89q0 -77 -41 -116q-38 -37 -116 -37h-113zM109 70h12q44 0 62 16q21 20 21 59q0 33 -19 48q-16 13 -53 13h-7zM388 569q0 -23 -17 -39.5t-39 -16.5q-19 0 -31.5 12.5t-12.5 31.5
q0 22 17 39t40 17q19 0 31 -12.5t12 -31.5zM242 569q0 -23 -17 -39.5t-39 -16.5q-19 0 -31 12.5t-12 31.5q0 23 16.5 39.5t39.5 16.5q19 0 31 -12.5t12 -31.5z" />
    <glyph glyph-name="uni1E9E" unicode="&#x1e9e;" horiz-adv-x="386" 
d="M23 0l62 505q10 80 48 123q41 46 112 47q61 2 95 -31q34 -32 34 -87q0 -28 -5 -60l-87 -110q39 -11 55 -42q18 -34 8 -126q-18 -138 -63 -185q-21 -22 -48 -28t-73 -6h-3l10 78q33 0 50 16q5 5 9 12t7 13.5t5.5 17t4 17t3 19t2 17t2 17.5t1.5 15q9 70 -5 96
q-12 23 -47 25l7 54l73 100q6 25 6 47q0 24 -12 39q-13 16 -37 16q-26 0 -42 -19q-18 -21 -25 -78l-62 -502h-85z" />
    <glyph glyph-name="uni2010" unicode="&#x2010;" horiz-adv-x="255" 
d="M213 295l-9 -78h-155l9 78h155z" />
    <glyph glyph-name="uni2011" unicode="&#x2011;" horiz-adv-x="255" 
d="M213 295l-9 -78h-155l9 78h155z" />
    <glyph glyph-name="figuredash" unicode="&#x2012;" horiz-adv-x="550" 
d="M479 302h-410l9 70h410z" />
    <glyph glyph-name="endash" unicode="&#x2013;" horiz-adv-x="550" 
d="M479 221h-410l9 70h410z" />
    <glyph glyph-name="emdash" unicode="&#x2014;" horiz-adv-x="820" 
d="M758 291l-9 -70h-680l9 70h680z" />
    <glyph glyph-name="afii00208" unicode="&#x2015;" horiz-adv-x="820" 
d="M758 291l-9 -70h-680l9 70h680z" />
    <glyph glyph-name="quoteleft" unicode="&#x2018;" horiz-adv-x="194" 
d="M69 492l105 215l44 -13l-79 -223z" />
    <glyph glyph-name="quoteright" unicode="&#x2019;" horiz-adv-x="192" 
d="M213 667l-104 -215l-43 13l79 223z" />
    <glyph glyph-name="quotesinglbase" unicode="&#x201a;" horiz-adv-x="192" 
d="M133 72l-104 -215l-43 13l79 223z" />
    <glyph glyph-name="quotedblleft" unicode="&#x201c;" horiz-adv-x="315" 
d="M69 492l105 215l44 -13l-79 -223zM191 492l105 215l44 -13l-79 -223z" />
    <glyph glyph-name="quotedblright" unicode="&#x201d;" horiz-adv-x="312" 
d="M333 667l-104 -215l-43 13l79 223zM213 667l-104 -215l-43 13l79 223z" />
    <glyph glyph-name="quotedblbase" unicode="&#x201e;" horiz-adv-x="311" 
d="M253 72l-104 -215l-43 13l79 223zM133 72l-104 -215l-43 13l79 223z" />
    <glyph glyph-name="dagger" unicode="&#x2020;" horiz-adv-x="378" 
d="M348 459h-91l-78 -642h-83l78 642h-92l9 73h92l25 197h83l-25 -197h91z" />
    <glyph glyph-name="daggerdbl" unicode="&#x2021;" horiz-adv-x="382" 
d="M315 124h-91l-37 -307h-83l37 307h-92l9 73h92l32 257h-92l9 74h92l25 201h83l-25 -201h91l-9 -74h-91l-32 -257h91z" />
    <glyph glyph-name="bullet" unicode="&#x2022;" horiz-adv-x="1000" 
d="M652 340q0 -57 -40.5 -98.5t-97.5 -41.5t-97 41.5t-40 98.5t40.5 98.5t97.5 41.5t97 -41.5t40 -98.5z" />
    <glyph glyph-name="ellipsis" unicode="&#x2026;" horiz-adv-x="552" 
d="M490 53q0 -24 -18 -42t-42 -18q-19 0 -32.5 13.5t-13.5 33.5q0 24 18 42t42 18q20 0 33 -13.5t13 -33.5zM306 53q0 -24 -17.5 -42t-41.5 -18q-19 0 -32.5 13.5t-13.5 33.5q0 24 17.5 42t41.5 18q20 0 33 -13.5t13 -33.5zM123 53q0 -24 -18 -42t-42 -18q-19 0 -32.5 13.5
t-13.5 33.5q0 24 17.5 42t41.5 18q20 0 33.5 -13.5t13.5 -33.5z" />
    <glyph glyph-name="perthousand" unicode="&#x2030;" horiz-adv-x="732" 
d="M234 557q-8 -228 -120 -228q-43 0 -60 30t-17 85q0 39 4.5 74t16.5 72t37 59t61 22q78 0 78 -114zM461 667l-371 -667h-54l371 667h54zM177 559q0 59 -27 59q-26 0 -38 -47q-17 -79 -17 -132q0 -57 27 -57q10 0 17.5 7t13 21t9.5 27t6.5 34t4 32.5t3 32t1.5 23.5z
M403 225q0 59 -27 59q-26 0 -38 -47q-17 -79 -17 -132q0 -57 27 -57q10 0 17.5 7t13 21t9.5 27t6.5 34t4 32.5t3 32t1.5 23.5zM460 223q-8 -228 -120 -228q-43 0 -60 30t-17 85q0 39 4.5 74t16.5 72t37 59t61 22q78 0 78 -114zM637 225q0 59 -27 59q-26 0 -38 -47
q-17 -79 -17 -132q0 -57 27 -57q10 0 17.5 7t13 21t9.5 27t6.5 34t4 32.5t3 32t1.5 23.5zM694 223q-8 -228 -120 -228q-43 0 -60 30t-17 85q0 39 4.5 74t16.5 72t37 59t61 22q78 0 78 -114z" />
    <glyph glyph-name="guilsinglleft" unicode="&#x2039;" horiz-adv-x="217" 
d="M206 405l-121 -171l69 -177l-41 -21l-79 198l136 196z" />
    <glyph glyph-name="guilsinglright" unicode="&#x203a;" horiz-adv-x="217" 
d="M185 234l-128 -198l-36 21l113 177l-79 171l42 25z" />
    <glyph glyph-name="fraction" unicode="&#x2044;" horiz-adv-x="124" 
d="M306 667l-408 -667h-54l408 667h54z" />
    <glyph glyph-name="Euro" unicode="&#x20ac;" horiz-adv-x="380" 
d="M345 10q-34 -19 -75 -19q-168 0 -168 228v21h-99l36 66h68q3 35 9 67h-97l37 67h73q57 236 223 236q38 0 73 -20l-10 -81q-31 17 -56 17q-96 0 -135 -152h149l-37 -67h-126q-1 -7 -2 -14.5t-2 -17t-2 -14.5l-2 -21h89l-36 -66h-57q0 -161 103 -161q27 0 54 13z" />
    <glyph glyph-name="uni20B4" unicode="&#x20b4;" horiz-adv-x="380" 
d="M125 565l10 88q25 10 37 14q29 8 56 8q68 0 103 -39q32 -35 32 -101q0 -63 -40 -104h55l-8 -62h-94l-51 -52h139l-8 -61h-177q-44 -47 -44 -107q0 -33 20 -53q19 -19 51 -19q25 0 51 11q15 7 38 24l-11 -89q-21 -15 -41 -22q-26 -10 -61 -10q-54 0 -89 35q-46 46 -46 119
q0 63 42 111h-54l8 61h92l51 52h-137l8 62h177q39 39 39 87q0 36 -20 56q-21 21 -51 21q-36 0 -77 -30z" />
    <glyph glyph-name="uni20B6" unicode="&#x20b6;" horiz-adv-x="380" 
d="M256 667q76 0 108.5 -32.5t32.5 -108.5q0 -58 -19 -113t-60 -83q-43 -30 -136 -30l-6 -52h110l-8 -61h-110l-22 -187h-88l22 186h-70l8 62h70l7 52h-70l9 73h70l35 294h117zM192 373h8q103 0 103 133q0 42 -16 63.5t-56 21.5h-12z" />
    <glyph glyph-name="uni20B6" unicode="&#x20cf;" horiz-adv-x="380" 
d="M256 667q76 0 108.5 -32.5t32.5 -108.5q0 -58 -19 -113t-60 -83q-43 -30 -136 -30l-6 -52h110l-8 -61h-110l-22 -187h-88l22 186h-70l8 62h70l7 52h-70l9 73h70l35 294h117zM192 373h8q103 0 103 133q0 42 -16 63.5t-56 21.5h-12z" />
    <glyph glyph-name="uni20B6" unicode="&#x20ce;" horiz-adv-x="380" 
d="M256 667q76 0 108.5 -32.5t32.5 -108.5q0 -58 -19 -113t-60 -83q-43 -30 -136 -30l-6 -52h110l-8 -61h-110l-22 -187h-88l22 186h-70l8 62h70l7 52h-70l9 73h70l35 294h117zM192 373h8q103 0 103 133q0 42 -16 63.5t-56 21.5h-12z" />
    <glyph glyph-name="uni20B6" unicode="&#x20cd;" horiz-adv-x="380" 
d="M256 667q76 0 108.5 -32.5t32.5 -108.5q0 -58 -19 -113t-60 -83q-43 -30 -136 -30l-6 -52h110l-8 -61h-110l-22 -187h-88l22 186h-70l8 62h70l7 52h-70l9 73h70l35 294h117zM192 373h8q103 0 103 133q0 42 -16 63.5t-56 21.5h-12z" />
    <glyph glyph-name="uni20B6" unicode="&#x20cc;" horiz-adv-x="380" 
d="M256 667q76 0 108.5 -32.5t32.5 -108.5q0 -58 -19 -113t-60 -83q-43 -30 -136 -30l-6 -52h110l-8 -61h-110l-22 -187h-88l22 186h-70l8 62h70l7 52h-70l9 73h70l35 294h117zM192 373h8q103 0 103 133q0 42 -16 63.5t-56 21.5h-12z" />
    <glyph glyph-name="uni20B6" unicode="&#x20cb;" horiz-adv-x="380" 
d="M256 667q76 0 108.5 -32.5t32.5 -108.5q0 -58 -19 -113t-60 -83q-43 -30 -136 -30l-6 -52h110l-8 -61h-110l-22 -187h-88l22 186h-70l8 62h70l7 52h-70l9 73h70l35 294h117zM192 373h8q103 0 103 133q0 42 -16 63.5t-56 21.5h-12z" />
    <glyph glyph-name="uni20B6" unicode="&#x20ca;" horiz-adv-x="380" 
d="M256 667q76 0 108.5 -32.5t32.5 -108.5q0 -58 -19 -113t-60 -83q-43 -30 -136 -30l-6 -52h110l-8 -61h-110l-22 -187h-88l22 186h-70l8 62h70l7 52h-70l9 73h70l35 294h117zM192 373h8q103 0 103 133q0 42 -16 63.5t-56 21.5h-12z" />
    <glyph glyph-name="uni20B6" unicode="&#x20c9;" horiz-adv-x="380" 
d="M256 667q76 0 108.5 -32.5t32.5 -108.5q0 -58 -19 -113t-60 -83q-43 -30 -136 -30l-6 -52h110l-8 -61h-110l-22 -187h-88l22 186h-70l8 62h70l7 52h-70l9 73h70l35 294h117zM192 373h8q103 0 103 133q0 42 -16 63.5t-56 21.5h-12z" />
    <glyph glyph-name="uni20B6" unicode="&#x20c8;" horiz-adv-x="380" 
d="M256 667q76 0 108.5 -32.5t32.5 -108.5q0 -58 -19 -113t-60 -83q-43 -30 -136 -30l-6 -52h110l-8 -61h-110l-22 -187h-88l22 186h-70l8 62h70l7 52h-70l9 73h70l35 294h117zM192 373h8q103 0 103 133q0 42 -16 63.5t-56 21.5h-12z" />
    <glyph glyph-name="uni20B6" unicode="&#x20c7;" horiz-adv-x="380" 
d="M256 667q76 0 108.5 -32.5t32.5 -108.5q0 -58 -19 -113t-60 -83q-43 -30 -136 -30l-6 -52h110l-8 -61h-110l-22 -187h-88l22 186h-70l8 62h70l7 52h-70l9 73h70l35 294h117zM192 373h8q103 0 103 133q0 42 -16 63.5t-56 21.5h-12z" />
    <glyph glyph-name="uni20B6" unicode="&#x20c6;" horiz-adv-x="380" 
d="M256 667q76 0 108.5 -32.5t32.5 -108.5q0 -58 -19 -113t-60 -83q-43 -30 -136 -30l-6 -52h110l-8 -61h-110l-22 -187h-88l22 186h-70l8 62h70l7 52h-70l9 73h70l35 294h117zM192 373h8q103 0 103 133q0 42 -16 63.5t-56 21.5h-12z" />
    <glyph glyph-name="uni20B6" unicode="&#x20c5;" horiz-adv-x="380" 
d="M256 667q76 0 108.5 -32.5t32.5 -108.5q0 -58 -19 -113t-60 -83q-43 -30 -136 -30l-6 -52h110l-8 -61h-110l-22 -187h-88l22 186h-70l8 62h70l7 52h-70l9 73h70l35 294h117zM192 373h8q103 0 103 133q0 42 -16 63.5t-56 21.5h-12z" />
    <glyph glyph-name="uni20B6" unicode="&#x20c4;" horiz-adv-x="380" 
d="M256 667q76 0 108.5 -32.5t32.5 -108.5q0 -58 -19 -113t-60 -83q-43 -30 -136 -30l-6 -52h110l-8 -61h-110l-22 -187h-88l22 186h-70l8 62h70l7 52h-70l9 73h70l35 294h117zM192 373h8q103 0 103 133q0 42 -16 63.5t-56 21.5h-12z" />
    <glyph glyph-name="uni20B6" unicode="&#x20c3;" horiz-adv-x="380" 
d="M256 667q76 0 108.5 -32.5t32.5 -108.5q0 -58 -19 -113t-60 -83q-43 -30 -136 -30l-6 -52h110l-8 -61h-110l-22 -187h-88l22 186h-70l8 62h70l7 52h-70l9 73h70l35 294h117zM192 373h8q103 0 103 133q0 42 -16 63.5t-56 21.5h-12z" />
    <glyph glyph-name="uni20B6" unicode="&#x20c2;" horiz-adv-x="380" 
d="M256 667q76 0 108.5 -32.5t32.5 -108.5q0 -58 -19 -113t-60 -83q-43 -30 -136 -30l-6 -52h110l-8 -61h-110l-22 -187h-88l22 186h-70l8 62h70l7 52h-70l9 73h70l35 294h117zM192 373h8q103 0 103 133q0 42 -16 63.5t-56 21.5h-12z" />
    <glyph glyph-name="uni20B6" unicode="&#x20c1;" horiz-adv-x="380" 
d="M256 667q76 0 108.5 -32.5t32.5 -108.5q0 -58 -19 -113t-60 -83q-43 -30 -136 -30l-6 -52h110l-8 -61h-110l-22 -187h-88l22 186h-70l8 62h70l7 52h-70l9 73h70l35 294h117zM192 373h8q103 0 103 133q0 42 -16 63.5t-56 21.5h-12z" />
    <glyph glyph-name="uni20B6" unicode="&#x20c0;" horiz-adv-x="380" 
d="M256 667q76 0 108.5 -32.5t32.5 -108.5q0 -58 -19 -113t-60 -83q-43 -30 -136 -30l-6 -52h110l-8 -61h-110l-22 -187h-88l22 186h-70l8 62h70l7 52h-70l9 73h70l35 294h117zM192 373h8q103 0 103 133q0 42 -16 63.5t-56 21.5h-12z" />
    <glyph glyph-name="uni20B6" unicode="&#x20bf;" horiz-adv-x="380" 
d="M256 667q76 0 108.5 -32.5t32.5 -108.5q0 -58 -19 -113t-60 -83q-43 -30 -136 -30l-6 -52h110l-8 -61h-110l-22 -187h-88l22 186h-70l8 62h70l7 52h-70l9 73h70l35 294h117zM192 373h8q103 0 103 133q0 42 -16 63.5t-56 21.5h-12z" />
    <glyph glyph-name="uni20B6" unicode="&#x20be;" horiz-adv-x="380" 
d="M256 667q76 0 108.5 -32.5t32.5 -108.5q0 -58 -19 -113t-60 -83q-43 -30 -136 -30l-6 -52h110l-8 -61h-110l-22 -187h-88l22 186h-70l8 62h70l7 52h-70l9 73h70l35 294h117zM192 373h8q103 0 103 133q0 42 -16 63.5t-56 21.5h-12z" />
    <glyph glyph-name="uni20B6" unicode="&#x20bd;" horiz-adv-x="380" 
d="M256 667q76 0 108.5 -32.5t32.5 -108.5q0 -58 -19 -113t-60 -83q-43 -30 -136 -30l-6 -52h110l-8 -61h-110l-22 -187h-88l22 186h-70l8 62h70l7 52h-70l9 73h70l35 294h117zM192 373h8q103 0 103 133q0 42 -16 63.5t-56 21.5h-12z" />
    <glyph glyph-name="uni20B6" unicode="&#x20bc;" horiz-adv-x="380" 
d="M256 667q76 0 108.5 -32.5t32.5 -108.5q0 -58 -19 -113t-60 -83q-43 -30 -136 -30l-6 -52h110l-8 -61h-110l-22 -187h-88l22 186h-70l8 62h70l7 52h-70l9 73h70l35 294h117zM192 373h8q103 0 103 133q0 42 -16 63.5t-56 21.5h-12z" />
    <glyph glyph-name="uni20B6" unicode="&#x20bb;" horiz-adv-x="380" 
d="M256 667q76 0 108.5 -32.5t32.5 -108.5q0 -58 -19 -113t-60 -83q-43 -30 -136 -30l-6 -52h110l-8 -61h-110l-22 -187h-88l22 186h-70l8 62h70l7 52h-70l9 73h70l35 294h117zM192 373h8q103 0 103 133q0 42 -16 63.5t-56 21.5h-12z" />
    <glyph glyph-name="uni20B6" unicode="&#x20ba;" horiz-adv-x="380" 
d="M256 667q76 0 108.5 -32.5t32.5 -108.5q0 -58 -19 -113t-60 -83q-43 -30 -136 -30l-6 -52h110l-8 -61h-110l-22 -187h-88l22 186h-70l8 62h70l7 52h-70l9 73h70l35 294h117zM192 373h8q103 0 103 133q0 42 -16 63.5t-56 21.5h-12z" />
    <glyph glyph-name="uni20B6" unicode="&#x20b9;" horiz-adv-x="380" 
d="M256 667q76 0 108.5 -32.5t32.5 -108.5q0 -58 -19 -113t-60 -83q-43 -30 -136 -30l-6 -52h110l-8 -61h-110l-22 -187h-88l22 186h-70l8 62h70l7 52h-70l9 73h70l35 294h117zM192 373h8q103 0 103 133q0 42 -16 63.5t-56 21.5h-12z" />
    <glyph glyph-name="uni20B6" unicode="&#x20b7;" horiz-adv-x="380" 
d="M256 667q76 0 108.5 -32.5t32.5 -108.5q0 -58 -19 -113t-60 -83q-43 -30 -136 -30l-6 -52h110l-8 -61h-110l-22 -187h-88l22 186h-70l8 62h70l7 52h-70l9 73h70l35 294h117zM192 373h8q103 0 103 133q0 42 -16 63.5t-56 21.5h-12z" />
    <glyph glyph-name="uni20B8" unicode="&#x20b8;" horiz-adv-x="380" 
d="M375 557l-10 -79h-99l-59 -478h-87l60 478h-103l10 79h288zM379 598h-288l9 69h288z" />
    <glyph glyph-name="afii61352" unicode="&#x2116;" horiz-adv-x="636" 
d="M410 667l-81 -667h-83l-62 300q-13 61 -20 113q-3 18 -5.5 52.5t-4.5 47.5v-16q0 -29 -4 -85q-8 -115 -40 -412h-87l81 667h83l55 -267q28 -138 38 -240v110q0 58 11 148l31 249h88zM636 571q0 -33 -4.5 -65t-15.5 -68t-35 -58t-58 -22q-79 0 -79 112q0 31 5.5 62.5
t17.5 64.5t36.5 54t57.5 21q75 0 75 -101zM607 320l-8 -64h-179l8 64h179zM573 563q0 50 -20 50q-25 0 -36.5 -52t-11.5 -92q0 -53 23 -53q18 0 29 33t13.5 62t2.5 52z" />
    <glyph glyph-name="uni2117" unicode="&#x2117;" horiz-adv-x="757" 
d="M307 535h94q61 0 87 -26q27 -27 27 -82q0 -61 -29 -89q-26 -24 -81 -24h-28v-182h-70v403zM377 368h12q31 0 43 10q15 12 15 50q0 34 -12 46t-43 12h-15v-118zM737 333q0 -141 -101 -244q-102 -102 -245 -102q-142 0 -244 102q-101 103 -101 244t101 244q102 102 244 102
q143 0 245 -102q101 -103 101 -244zM391 630q-119 0 -205 -86q-86 -88 -86 -211t86 -211q86 -86 205 -86q120 0 206 86q86 88 86 211t-86 211q-86 86 -206 86z" />
    <glyph glyph-name="trademark" unicode="&#x2122;" horiz-adv-x="489" 
d="M497 667l-8 -380h-60l13 223l-74 -223h-43q-16 152 -22 228l-42 -228h-59l81 380h53q22 -182 25 -253q25 85 83 253h53zM240 667l-6 -51h-63l-40 -329h-61l40 329h-64l7 51h187z" />
    <glyph glyph-name="partialdiff" unicode="&#x2202;" 
d="M72 592l11 72q82 -11 143 -34t113 -71q129 -119 129 -310q0 -110 -59.5 -184.5t-166.5 -74.5q-93 0 -158 66t-65 159q0 90 59.5 154.5t148.5 64.5q47 0 80 -16t63 -53q-28 61 -33 68q-36 65 -110.5 107t-154.5 52zM380 218q0 65 -39 106t-104 41q-58 0 -96 -46t-38 -106
q0 -61 40 -105.5t100 -44.5q61 0 99 46.5t38 108.5z" />
    <glyph glyph-name="product" unicode="&#x220f;" horiz-adv-x="703" 
d="M669 -250h-242v72h82v856h-309v-856h81v-72h-241v72h79v856h-79v72h629v-72h-79v-856h79v-72z" />
    <glyph glyph-name="summation" unicode="&#x2211;" horiz-adv-x="667" 
d="M613 -250h-583v81l248 439l-248 400v80h573v-229h-72l-8 157h-403l251 -409l-252 -447h414l4 158h76v-230z" />
    <glyph glyph-name="minus" unicode="&#x2212;" 
d="M480 296h-434v76h434v-76z" />
    <glyph glyph-name="uni2215" unicode="&#x2215;" horiz-adv-x="390" 
d="M478 729l-501 -912h-70l503 912h68z" />
    <glyph glyph-name="uni2219" unicode="&#x2219;" horiz-adv-x="206" 
d="M175 341q0 -28 -21.5 -49.5t-50.5 -21.5q-24 0 -40 16t-16 40q0 28 21.5 50t50.5 22q24 0 40 -16.5t16 -40.5z" />
    <glyph glyph-name="radical" unicode="&#x221a;" horiz-adv-x="667" 
d="M708 755h-194l-210 -755h-100l-79 295h-84v73h150l34 -122q8 -30 27 -139h6q2 12 5 26t7 31.5t6 26.5q4 17 11.5 53t11.5 53q7 29 22 80.5t18 64.5l106 385h263v-72z" />
    <glyph glyph-name="infinity" unicode="&#x221e;" horiz-adv-x="667" 
d="M662 339q0 -66 -42.5 -110t-108.5 -44q-93 0 -162 102q-73 -102 -164 -102q-68 0 -110.5 44t-42.5 112q0 67 43 110t110 43q92 0 161 -100q68 100 164 100q68 0 110 -43.5t42 -111.5zM580 340q0 35 -23 59t-58 24q-58 0 -112 -83q55 -83 113 -83q35 0 57.5 24t22.5 59z
M307 340q-55 82 -113 82q-35 0 -57.5 -24t-22.5 -59t23.5 -58.5t57.5 -23.5q57 0 112 83z" />
    <glyph glyph-name="integral" unicode="&#x222b;" 
d="M414 739l-17 -71q-23 10 -46 10q-10 0 -18.5 -2t-14.5 -6.5t-10.5 -8.5t-7 -12.5t-4 -13.5t-2 -15.5t-0.5 -15v-17v-15.5v-655q1 -84 -29.5 -125t-112.5 -41q-32 0 -61 10l17 71q23 -10 47 -10q35 0 46.5 22t11.5 60q0 115 -1 343.5t-1 342.5q0 50 10 82q12 39 45.5 58.5
t76.5 19.5q29 0 71 -11z" />
    <glyph glyph-name="approxequal" unicode="&#x2248;" 
d="M456 494l48 -28q-27 -54 -61 -84.5t-86 -30.5q-35 0 -102 31.5t-100 31.5q-48 0 -86 -71l-47 31q24 54 56.5 86t82.5 32q39 0 107 -32t99 -32q32 0 51 16.5t38 49.5zM456 322l48 -28q-27 -54 -61 -84.5t-86 -30.5q-35 0 -102 31.5t-100 31.5q-49 0 -86 -70l-47 30
q24 54 56 86t83 32q38 0 105.5 -31.5t100.5 -31.5q31 0 50.5 16.5t38.5 48.5z" />
    <glyph glyph-name="notequal" unicode="&#x2260;" 
d="M479 214h-239l-54 -112h-65l54 112h-129v72h161l43 88h-204v73h237l55 112h65l-54 -112h130v-73h-163l-43 -88h206v-72z" />
    <glyph glyph-name="lessequal" unicode="&#x2264;" 
d="M467 149l-433 198v69l433 198v-76l-348 -157l348 -156v-76zM467 47h-433v73h433v-73z" />
    <glyph glyph-name="greaterequal" unicode="&#x2265;" 
d="M479 347l-433 -198v76l348 157l-348 156v76l433 -198v-69zM479 47h-433v73h433v-73z" />
    <glyph glyph-name="dotmath" unicode="&#x22c5;" horiz-adv-x="206" 
d="M175 341q0 -28 -21.5 -49.5t-50.5 -21.5q-24 0 -40 16t-16 40q0 28 21.5 50t50.5 22q24 0 40 -16.5t16 -40.5z" />
    <glyph glyph-name="lozenge" unicode="&#x25ca;" horiz-adv-x="667" 
d="M606 334l-260 -360l-259 360l259 359zM513 334l-167 228l-166 -228l166 -229z" />
    <glyph glyph-name="openbullet" unicode="&#x25e6;" 
d="M430 528q0 -58 -42.5 -99t-100.5 -41t-100.5 41t-42.5 99q0 59 42 99.5t101 40.5t101 -40.5t42 -99.5zM379 528q0 38 -27 64t-65 26t-65 -26t-27 -64t27 -64t65 -26t65 26t27 64z" />
    <glyph glyph-name="uniF400" unicode="&#xf400;" horiz-adv-x="2" 
d="M-183 542l95 122l66 -39l-115 -112z" />
    <glyph glyph-name="uniF401" unicode="&#xf401;" horiz-adv-x="2" 
d="M-183 762l95 122l66 -39l-115 -112z" />
    <glyph glyph-name="uniF406" unicode="&#xf406;" 
d="M364 811h54q-10 -45 -47 -69t-86 -24q-48 0 -79 23.5t-31 69.5h54q10 -35 63 -35q52 0 72 35z" />
    <glyph glyph-name="uniF407" unicode="&#xf407;" horiz-adv-x="502" 
d="M269 -75l-86 -118l-52 26l65 125z" />
    <glyph glyph-name="uniF408" unicode="&#xf408;" 
d="M398 761l-45 -34l-59 74l-72 -74l-41 34l124 124z" />
    <glyph glyph-name="uniF409" unicode="&#xf409;" horiz-adv-x="174" 
d="M195 -69l-73 -154l-43 13l48 162z" />
    <glyph glyph-name="uniF40A" unicode="&#xf40a;" horiz-adv-x="195" 
d="M216 667l-94 -189l-43 13l69 197z" />
    <glyph glyph-name="uniF40B" unicode="&#xf40b;" 
d="M343 780q0 -23 -18 -41t-41 -18q-20 0 -33 13.5t-13 32.5q0 23 18 41t41 18q19 0 32.5 -13t13.5 -33z" />
    <glyph glyph-name="uniF40C" unicode="&#xf40c;" horiz-adv-x="528" 
d="M222 799q0 36 24.5 60.5t60.5 24.5t60.5 -24.5t24.5 -60.5t-24.5 -60.5t-60.5 -24.5t-60.5 24.5t-24.5 60.5zM267 799q0 -17 11.5 -28.5t28.5 -11.5t28.5 11.5t11.5 28.5t-11.5 28.5t-28.5 11.5t-28.5 -11.5t-11.5 -28.5z" />
    <glyph glyph-name="uniF40D" unicode="&#xf40d;" 
d="M357 815h48q-10 -88 -75 -88q-15 0 -40 14t-39 14q-21 0 -21 -24h-54q15 88 77 88q19 0 45 -15t38 -15q8 0 11.5 3.5t5.5 11.5t4 11z" />
    <glyph glyph-name="uniF40E" unicode="&#xf40e;" 
d="M364 -95l-7 -51q-22 -9 -47 -9q-32 0 -53 14.5t-21 44.5q0 19 9.5 38t20 30t28.5 28h49q-53 -43 -53 -78q0 -25 30 -25q25 0 44 8z" />
    <glyph glyph-name="uniF4C6" unicode="&#xf4c6;" horiz-adv-x="387" 
d="M390 667l-85 -692q-12 -92 -51 -129q-36 -34 -100 -34q-42 0 -73 18l11 90q29 -23 56 -23q26 0 43 17q20 22 28 82l40 324q-31 -9 -65 -9q-60 0 -97 29q-37 30 -37 88q0 26 6 74l20 165h88l-21 -171q-4 -33 -4 -46q0 -29 17 -43q16 -14 52 -14q26 0 51 10l33 264h88z" />
    <glyph glyph-name="uniF4C7" unicode="&#xf4c7;" horiz-adv-x="338" 
d="M261 -26q-11 -92 -44 -127q-31 -35 -87 -35q-27 0 -51 10l10 77q13 -10 32 -10t31 9q19 15 29 92l25 205q-28 -11 -59 -11q-56 0 -84 30q-23 23 -23 64q0 25 4 49l15 120h80l-14 -111q-3 -22 -3 -33q0 -25 14 -36q12 -9 35 -9q24 0 44 10l22 179h82z" />
    <glyph glyph-name="uniF4CC" unicode="&#xf4cc;" horiz-adv-x="355" 
d="M50 667h94l34 -168q20 -98 27 -156q21 76 47 153l58 171h90l-238 -667h-88l79 224zM189 762l95 122l66 -39l-115 -112z" />
    <glyph glyph-name="uniF4CD" unicode="&#xf4cd;" horiz-adv-x="322" 
d="M346 447l-259 -635h-85l96 224l-67 411h92l26 -312l114 312h83zM150 542l95 122l66 -39l-115 -112z" />
    <glyph glyph-name="dollar.fitted" unicode="&#xf5f5;" horiz-adv-x="369" 
d="M361 575l-72 -33q-6 62 -68 62q-43 0 -64.5 -34t-21.5 -79q0 -32 22.5 -60t50.5 -45t59 -42.5t43 -51.5q13 -27 13 -67q0 -109 -52 -175q-33 -42 -98 -57l-10 -84h-60l10 84q-46 6 -70 29.5t-35 74.5l76 35q7 -32 22 -45.5t46 -13.5q44 0 64 37.5t20 85.5q0 33 -12 52
q-14 24 -62 52q-59 35 -85 71t-26 99q0 78 38.5 139t107.5 66l9 76h60l-9 -76q90 -11 104 -100z" />
    <glyph glyph-name="Euro.fitted" unicode="&#xf5f6;" horiz-adv-x="443" 
d="M348 10q-34 -19 -75 -19q-168 0 -168 228v21h-99l36 66h68q3 35 9 67h-97l37 67h73q57 236 223 236q38 0 73 -20l-10 -81q-31 17 -56 17q-96 0 -135 -152h149l-37 -67h-126q-1 -7 -2 -14.5t-2 -17t-2 -14.5l-2 -21h89l-36 -66h-57q0 -161 103 -161q27 0 54 13z" />
    <glyph glyph-name="cent.fitted" unicode="&#xf5f7;" horiz-adv-x="238" 
d="M229 550l-9 -79q-12 12 -31 12q-30 0 -51 -27q-19 -26 -29 -82t-10 -102q0 -94 51 -94q10 0 35 9l-9 -73q-20 -11 -38 -12l-9 -79h-60l9 78q-2 1 -10 6t-13 9t-12.5 13t-13.5 20q-19 37 -19 98q0 175 64 266q23 32 61 48l11 92h60l-11 -94q17 -2 34 -9z" />
    <glyph glyph-name="sterling.fitted" unicode="&#xf5f8;" horiz-adv-x="405" 
d="M47 353h58q-21 57 -21 115q0 101 58 157q52 50 126 50q58 0 90 -32q33 -33 33 -84q0 -11 -1 -16l-73 -33q2 10 2 29q0 32 -14 47q-15 17 -44 17q-39 0 -65 -26q-30 -30 -30 -90q0 -47 24 -134h90l-8 -61h-69q11 -34 11 -76q0 -33 -11 -68q-11 -31 -26 -57l26 -16
q16 -9 32 -9q21 0 34 30l69 -23q-14 -31 -35 -52q-28 -30 -67 -30q-27 0 -61 16l-28 14q-26 13 -40 13q-13 0 -21 -9q-3 -4 -8 -12l-4 -8l-63 27q10 32 30 52q25 27 58 27q5 0 15 -2q27 37 27 88q0 43 -20 95h-82z" />
    <glyph glyph-name="yen.fitted" unicode="&#xf5f9;" horiz-adv-x="405" 
d="M397 667l-100 -236h78l-8 -62h-96l-22 -52h112l-7 -61h-121l-32 -256h-88l31 256h-133l7 61h123l-13 52h-103l7 62h81l-56 236h94q20 -118 31 -177q15 -81 17 -132q19 70 106 309h92z" />
    <glyph glyph-name="florin.fitted" unicode="&#xf5fa;" horiz-adv-x="415" 
d="M411 728l-17 -84q-17 11 -35 11q-9 0 -16 -3t-12 -9.5t-8.5 -12t-6.5 -16t-4 -16l-3 -16.5t-3 -14l-24 -121h69l-12 -61h-69l-59 -310q-5 -26 -6 -31.5t-6.5 -30.5t-8.5 -33t-11 -28.5t-14.5 -28.5t-18 -22t-23.5 -19.5t-28 -10.5t-35 -5q-27 0 -56 11l15 76q21 -7 37 -7
q10 0 18.5 3t14.5 10t10 12.5t7.5 17.5t5 17t4 18.5t3.5 16.5q24 120 67 344h-60l12 61h60l24 121q5 27 7 36.5t8.5 33.5t11.5 34t15.5 26t22.5 23t30 13t40 6q27 0 54 -12z" />
    <glyph glyph-name="uni20B4.fitted" unicode="&#xf5fb;" horiz-adv-x="379" 
d="M108 565l10 88q25 10 37 14q29 8 56 8q68 0 103 -39q32 -35 32 -101q0 -63 -40 -104h55l-8 -62h-94l-51 -52h139l-8 -61h-177q-44 -47 -44 -107q0 -33 20 -53q19 -19 51 -19q25 0 51 11q15 7 38 24l-11 -89q-21 -15 -41 -22q-26 -10 -61 -10q-54 0 -89 35q-46 46 -46 119
q0 63 42 111h-54l8 61h92l51 52h-137l8 62h177q39 39 39 87q0 36 -20 56q-21 21 -51 21q-36 0 -77 -30z" />
    <glyph glyph-name="uni20B6.fitted" unicode="&#xf5fc;" horiz-adv-x="412" 
d="M261 667q76 0 108.5 -32.5t32.5 -108.5q0 -58 -19 -113t-60 -83q-43 -30 -136 -30l-6 -52h110l-8 -61h-110l-22 -187h-88l22 186h-70l8 62h70l7 52h-70l9 73h70l35 294h117zM197 373h8q103 0 103 133q0 42 -16 63.5t-56 21.5h-12z" />
    <glyph glyph-name="uni20B8.fitted" unicode="&#xf5fd;" horiz-adv-x="327" 
d="M311 557l-10 -79h-99l-59 -478h-87l60 478h-103l10 79h288zM315 598h-288l9 69h288z" />
    <glyph glyph-name="uniF639" unicode="&#xf639;" horiz-adv-x="355" 
d="M338 497q0 -171 -37 -318q-47 -187 -164 -187q-120 0 -120 175q0 155 38 320q44 188 164 188q119 0 119 -178zM250 509q0 86 -42 86q-45 0 -69 -120q-36 -178 -36 -317q0 -88 42 -88q45 0 69 119q36 182 36 320z" />
    <glyph glyph-name="uniF63A" unicode="&#xf63a;" horiz-adv-x="384" 
d="M161 450h-87q4 41 8.5 68t16 59.5t28.5 51.5t47 32.5t70 13.5q65 0 95.5 -31.5t30.5 -97.5q0 -126 -149 -352q-63 -95 -76 -117h163l-9 -77h-289q22 38 64 108.5t53 88.5l25.5 42.5t28.5 48t24 42.5t26.5 49.5t21.5 45.5q28 63 28 109q0 63 -49 63q-20 0 -34 -15.5
t-18 -29.5t-9 -38q-3 -18 -10 -64z" />
    <glyph glyph-name="uniF63B" unicode="&#xf63b;" horiz-adv-x="357" 
d="M151 488h-84l2 16q10 82 43.5 126.5t108.5 44.5q120 0 120 -120q0 -67 -17 -124q-11 -36 -27.5 -55t-50.5 -32q36 -12 50.5 -35.5t14.5 -62.5q0 -90 -27 -157q-41 -97 -156 -97q-62 0 -89 32t-27 95q0 16 4 48h83q0 -4 -2 -16t-2 -19q0 -61 48 -61q21 0 38 14
q20 17 30 65.5t10 87.5q0 72 -67 72q-7 0 -23 -2l9 78h14q48 0 70 22q33 33 33 124q0 65 -42 65q-55 0 -64 -109z" />
    <glyph glyph-name="uniF63C" unicode="&#xf63c;" horiz-adv-x="341" 
d="M325 667l-52 -430h42l-9 -68h-42l-21 -169h-82l21 169h-180l10 76l231 422h82zM226 521l-150 -284h113z" />
    <glyph glyph-name="uniF63D" unicode="&#xf63d;" horiz-adv-x="377" 
d="M366 667l-10 -78h-141l-42 -167q151 0 151 -149q0 -68 -21.5 -130t-72 -106.5t-120.5 -44.5q-47 0 -101 28l32 79q41 -24 73 -24q38 0 65.5 31t38 69t10.5 75q0 101 -94 101q-26 0 -55 -8l78 324h209z" />
    <glyph glyph-name="uniF63E" unicode="&#xf63e;" horiz-adv-x="319" 
d="M204 667h94q-9 -17 -77 -129q-39 -65 -86 -158q38 30 75 30q47 0 69.5 -35.5t22.5 -85.5q0 -108 -23 -182q-36 -115 -148 -115q-120 0 -120 140q0 77 13.5 145.5t44.5 139t58 119t77 131.5zM215 260q0 21 -2 33.5t-12.5 23.5t-30.5 11q-28 0 -44 -30q-28 -56 -28 -155
q0 -73 42 -73q23 0 39.5 22t23.5 56.5t9.5 61.5t2.5 50z" />
    <glyph glyph-name="uniF63F" unicode="&#xf63f;" horiz-adv-x="390" 
d="M387 667l-281 -667h-95l256 591h-183l9 76h294z" />
    <glyph glyph-name="uniF640" unicode="&#xf640;" horiz-adv-x="354" 
d="M338 552q0 -95 -36 -147q-20 -29 -56 -43q35 -14 48 -38.5t13 -64.5q0 -92 -25 -161q-38 -106 -147 -106q-120 0 -120 137q0 140 48 199q17 21 54 34q-34 15 -45 39.5t-11 66.5q0 68 21 120q19 48 53.5 67.5t89.5 19.5q60 0 86.5 -31t26.5 -92zM249 534q0 63 -39 63
q-24 0 -39 -25.5t-19 -51t-4 -50.5q0 -69 38 -69q33 0 48 45t15 88zM218 245q0 68 -45 68q-21 0 -36.5 -20t-22 -50.5t-9.5 -56t-3 -46.5q0 -69 43 -69q23 0 39 19.5t22.5 51t9 55.5t2.5 48z" />
    <glyph glyph-name="uniF641" unicode="&#xf641;" horiz-adv-x="319" 
d="M112 0h-94l83 135q43 70 82 145q-27 -27 -65 -27q-37 0 -63 28q-38 41 -38 123q0 59 17.5 127.5t53.5 104.5q39 39 103 39q53 0 80 -26q38 -35 38 -115q0 -91 -18 -166q-24 -103 -70 -182zM104 405q0 -44 16 -61q11 -11 27 -11q20 0 34 13q19 17 30.5 68.5t11.5 97.5
q0 49 -13 66q-11 15 -30 15q-20 0 -36 -17q-21 -22 -30.5 -73t-9.5 -98z" />
    <glyph glyph-name="uniF6BA" unicode="&#xf6ba;" horiz-adv-x="255" 
d="M213 376l-9 -78h-155l9 78h155z" />
    <glyph glyph-name="uniF6BB" unicode="&#xf6bb;" horiz-adv-x="550" 
d="M479 302h-410l9 70h410z" />
    <glyph glyph-name="uniF6BC" unicode="&#xf6bc;" horiz-adv-x="820" 
d="M758 372l-9 -70h-680l9 70h680z" />
    <glyph glyph-name="uniF6C3" unicode="&#xf6c3;" horiz-adv-x="174" 
d="M195 -69l-79 -165l-43 13l54 173z" />
    <glyph glyph-name="uniF6C9" unicode="&#xf6c9;" 
d="M239 762l95 122l66 -39l-115 -112z" />
    <glyph glyph-name="uniF6CA" unicode="&#xf6ca;" 
d="M409 851l-123 -124l-94 124l49 34l54 -74l77 74z" />
    <glyph glyph-name="uniF6CB" unicode="&#xf6cb;" horiz-adv-x="490" 
d="M408 777q0 -23 -17 -39.5t-39 -16.5q-19 0 -31.5 12.5t-12.5 31.5q0 22 17 39t40 17q19 0 31 -12.5t12 -31.5zM262 777q0 -23 -17 -39.5t-39 -16.5q-19 0 -31 12.5t-12 31.5q0 23 16.5 39.5t39.5 16.5q19 0 31 -12.5t12 -31.5z" />
    <glyph glyph-name="uniF6CE" unicode="&#xf6ce;" 
d="M339 759l-43 -26l-99 107l60 44z" />
    <glyph glyph-name="uniF6CF" unicode="&#xf6cf;" 
d="M430 852l-92 -126l-36 21l77 138zM318 852l-91 -126l-37 21l77 138z" />
    <glyph glyph-name="uniF6D0" unicode="&#xf6d0;" 
d="M409 794l-8 -62h-221l7 62h222z" />
    <glyph glyph-name="uniF6D1" unicode="&#xf6d1;" horiz-adv-x="305" 
d="M226 827l82 -26q-15 -47 -55 -73q-34 -22 -87 -22q-59 0 -95 25t-48 70l79 26q5 -20 17 -34q16 -17 46 -17q28 0 44 16q13 13 17 35z" />
    <glyph glyph-name="uniF6D4" unicode="&#xf6d4;" horiz-adv-x="293" 
d="M203 617l71 -24q-14 -45 -46 -67q-29 -21 -82 -21q-52 0 -83 21q-34 23 -45 67l72 24q5 -20 17 -32q16 -14 39 -14q22 0 37 13q13 11 20 33z" />
    <glyph glyph-name="uniF6DC" unicode="&#xf6dc;" horiz-adv-x="192" 
d="M184 667l-82 -667h-85l73 590h-65l9 77h150z" />
    <glyph glyph-name="uniF6DE" unicode="&#xf6de;" horiz-adv-x="615" 
d="M568 291l-6 -70h-510l6 70h510z" />
    <glyph glyph-name="nbspace" horiz-adv-x="233" 
 />
    <glyph glyph-name="hyphenminus" horiz-adv-x="255" 
d="M213 295l-9 -78h-155l9 78h155z" />
    <glyph glyph-name="dotlessi1" horiz-adv-x="173" 
d="M154 447l-55 -447h-81l55 447h81z" />
    </font>
</defs>
</svg>
