<?xml version="1.0" standalone="no"?>
<!DOCTYPE svg PUBLIC "-//W3C//DTD SVG 1.1//EN" "http://www.w3.org/Graphics/SVG/1.1/DTD/svg11.dtd" >
<svg xmlns="http://www.w3.org/2000/svg" xmlns:xlink="http://www.w3.org/1999/xlink" version="1.1">
<metadata>
Created by FontForge 20170731 at Fri Mar 29 22:16:35 2013
 By Aleksey,,,
Copyright (c) 1995 ParaGraph Intl., (c) 1998 ParaType Inc., ParaType Ltd. All rights reserved.
</metadata>
<defs>
<font id="FuturaPTCond-ExtraBold" horiz-adv-x="500" >
  <font-face 
    font-family="Futura PT Cond Extra Bold"
    font-weight="800"
    font-stretch="condensed"
    units-per-em="1000"
    panose-1="2 11 10 6 2 2 4 2 2 3"
    ascent="763"
    descent="-237"
    x-height="467"
    cap-height="667"
    bbox="-306 -250 1035 925"
    underline-thickness="50"
    underline-position="-200"
    unicode-range="U+0020-FB02"
  />
<missing-glyph horiz-adv-x="233" 
 />
    <glyph glyph-name="afii10017.var.accented" unicode="&#x410;`" horiz-adv-x="532" 
d="M527 0h-186l-14 85h-121l-15 -85h-186l161 667h220zM230 227h76q-23 155 -34 280q-2 -15 -5.5 -47t-5.5 -47q-15 -103 -31 -186zM400 868l-88 -148h-99l47 148h140z" />
    <glyph glyph-name="afii10022.var.accented" unicode="&#x415;`" horiz-adv-x="411" 
d="M381 0h-334v667h334v-157h-154v-97h138v-151h-138v-102h154v-160zM339 868l-88 -148h-99l47 148h140z" />
    <glyph glyph-name="afii10026.var.accented" unicode="&#x418;`" horiz-adv-x="556" 
d="M47 0v667h170v-185q0 -49 -20 -225q43 128 69 194l85 216h158v-667h-170v178q0 50 11 214q-21 -75 -70 -201l-75 -191h-158zM412 868l-88 -148h-99l47 148h140z" />
    <glyph glyph-name="afii10032.var.accented" unicode="&#x41e;`" horiz-adv-x="567" 
d="M537 334q0 -193 -98 -286q-63 -60 -155 -60q-93 0 -156 60q-98 93 -98 286q0 191 98 285q63 60 156 60q92 0 155 -60q98 -94 98 -285zM284 511q-19 0 -30 -12q-37 -37 -37 -165t37 -165q11 -12 30 -12q17 0 29 12q37 37 37 165t-37 165q-12 12 -29 12zM417 868l-88 -148
h-99l47 148h140z" />
    <glyph glyph-name="afii10037.var.accented" unicode="&#x423;`" horiz-adv-x="510" 
d="M5 667h188l33 -107q26 -82 34 -147q11 79 31 150l28 104h186l-236 -667h-181l80 225zM389 868l-88 -148h-99l47 148h140z" />
    <glyph glyph-name="afii10045.var.accented" unicode="&#x42b;`" horiz-adv-x="752" 
d="M706 0h-180v667h180v-667zM255 0h-208v667h180v-245h6q141 0 203 -67q49 -53 49 -142q0 -103 -57 -158q-58 -55 -173 -55zM227 278v-133q42 -5 62 14q20 18 20 52q0 32 -18 50q-23 23 -64 17zM510 868l-88 -148h-99l47 148h140z" />
    <glyph glyph-name="afii10047.var.accented" unicode="&#x42d;`" horiz-adv-x="485" 
d="M44 18l-10 196q25 -27 47 -38q27 -14 63 -14q50 0 80 25q33 28 39 75h-155v151h154q-7 44 -38 72q-29 27 -77 27q-35 0 -66 -17q-23 -12 -44 -37v187q56 34 131 34q124 0 198 -75q89 -90 89 -262q0 -184 -97 -281q-73 -73 -196 -73q-64 0 -118 30zM309 868l-88 -148h-99
l47 148h140z" />
    <glyph glyph-name="afii10048.var.accented" unicode="&#x42e;`" horiz-adv-x="821" 
d="M791 334q0 -193 -98 -286q-63 -60 -160 -60q-93 0 -152 58q-78 77 -87 222h-67v-268h-180v667h180v-242h71q5 55 27.5 108t55.5 86q62 60 157 60q92 0 155 -60q98 -94 98 -285zM538 511q-19 0 -30 -12q-37 -37 -37 -165t37 -165q11 -12 30 -12q17 0 29 12q37 37 37 165
t-37 165q-12 12 -29 12zM544 868l-88 -148h-99l47 148h140z" />
    <glyph glyph-name="afii10049.var.accented" unicode="&#x42f;`" horiz-adv-x="541" 
d="M20 0l128 263q-46 11 -77 48q-34 43 -34 115q0 106 58 170q66 71 213 71h186v-667h-180v179q0 58 4 88l-103 -267h-195zM314 358v159q-42 6 -68 -20q-20 -20 -20 -58q0 -39 22 -61q22 -20 57 -20h9zM404 868l-88 -148h-99l47 148h140z" />
    <glyph glyph-name="afii10023.var.accented" unicode="&#x401;`" horiz-adv-x="411" 
d="M381 0h-334v667h334v-157h-154v-97h138v-151h-138v-102h154v-160zM287 851l-77 -128l-66 13l59 139zM146 800q0 -26 -19 -45t-45 -19t-45.5 19t-19.5 46q0 26 19.5 44.5t45.5 18.5t45 -19t19 -45zM413 800q0 -26 -19 -45t-45 -19t-45.5 19t-19.5 46q0 26 19.5 44.5
t45.5 18.5t45 -19t19 -45z" />
    <glyph glyph-name="afii10065.var.accented" unicode="&#x430;`" horiz-adv-x="497" 
d="M457 0h-174q1 13 3 39.5t3 39.5q-45 -89 -120 -89q-42 0 -71.5 25t-44 65.5t-20.5 78.5t-6 77q0 40 6.5 78t21.5 76.5t45.5 62.5t72.5 24q73 0 112 -84q-1 8 -2 34t-3 40h177v-467zM281 254q0 80 -36 80q-44 0 -44 -117q0 -84 39 -84q7 0 13.5 3t10.5 9t7 12t5 16.5t3 17
t1.5 18.5t0.5 17v16v12zM382 678l-88 -148h-99l47 148h140z" />
    <glyph glyph-name="afii10070.var.accented" unicode="&#x435;`" horiz-adv-x="481" 
d="M279 158l169 -1q-18 -81 -72 -124t-136 -43q-104 0 -158.5 64.5t-54.5 170.5q0 105 58 178t160 73t156 -71t54 -176q0 -5 -0.5 -16t-0.5 -16h-254q0 -72 40 -72q32 0 39 33zM202 290h81q-2 59 -41 59q-38 0 -40 -59zM374 678l-88 -148h-99l47 148h140z" />
    <glyph glyph-name="afii10074.var.accented" unicode="&#x438;`" horiz-adv-x="506" 
d="M40 467h166v-131q0 -53 -7 -123q16 49 35 90l74 164h158v-467h-166v125q0 53 6 129q-13 -44 -35 -94l-73 -160h-158v467zM387 678l-88 -148h-99l47 148h140z" />
    <glyph glyph-name="afii10080.var.accented" unicode="&#x43e;`" horiz-adv-x="487" 
d="M461 234q0 -120 -68 -187q-57 -57 -149 -57t-149 57q-68 67 -68 187q0 118 68 186q57 57 149 57t149 -57q68 -68 68 -186zM244 346q-18 0 -28 -16q-21 -30 -21 -97q0 -66 21 -96q10 -16 28 -16t28 16q21 30 21 96q0 67 -21 97q-10 16 -28 16zM377 678l-88 -148h-99
l47 148h140z" />
    <glyph glyph-name="afii10085.var.accented" unicode="&#x443;`" horiz-adv-x="456" 
d="M456 467l-221 -682h-178l82 234l-139 448h174q48 -190 55 -265q19 128 28 164l26 101h173zM362 678l-88 -148h-99l47 148h140z" />
    <glyph glyph-name="afii10093.var.accented" unicode="&#x44b;`" horiz-adv-x="688" 
d="M663 0h-174v467h174v-467zM214 301h64q93 0 136 -41q40 -38 40 -104q0 -72 -42 -112q-45 -44 -133 -44h-239v467h174v-166zM214 110h6q39 0 54 15q10 10 10 27q0 19 -10 28q-14 13 -54 13h-6v-83zM478 678l-88 -148h-99l47 148h140z" />
    <glyph glyph-name="afii10095.var.accented" unicode="&#x44d;`" horiz-adv-x="391" 
d="M40 14v137q29 -29 77 -29q35 0 56 19q16 15 21 41h-105v106h105q-7 27 -24 41q-20 16 -51 16q-44 0 -79 -32v140q48 24 106 24q91 0 151 -58q68 -68 68 -185q0 -122 -70 -190q-54 -54 -146 -54q-67 0 -109 24zM292 678l-88 -148h-99l47 148h140z" />
    <glyph glyph-name="afii10096.var.accented" unicode="&#x44e;`" horiz-adv-x="709" 
d="M683 234q0 -120 -68 -188q-56 -56 -148 -56q-95 0 -150 57q-47 50 -55 123h-53v-170h-169v467h169v-161h54q9 70 56 117q54 54 145 54q95 0 151 -56q68 -68 68 -187zM466 346q-18 0 -28 -16q-21 -30 -21 -97q0 -66 21 -96q10 -16 28 -16t28 16q21 30 21 96q0 67 -21 97
q-10 16 -28 16zM488 678l-88 -148h-99l47 148h140z" />
    <glyph glyph-name="afii10097.var.accented" unicode="&#x44f;`" horiz-adv-x="483" 
d="M30 0l85 160q-38 10 -62 39q-25 32 -25 87q0 86 47 132q51 49 168 49h200v-467h-174v117q0 7 3 64q-4 -13 -21 -62l-45 -119h-176zM269 250v95h-4q-32 0 -46 -10q-19 -15 -19 -39q0 -23 16 -35q14 -11 48 -11h5zM375 678l-88 -148h-99l47 148h140z" />
    <glyph glyph-name="afii10071.var.accented" unicode="&#x451;`" horiz-adv-x="481" 
d="M279 158l169 -1q-18 -81 -72 -124t-136 -43q-104 0 -158.5 64.5t-54.5 170.5q0 105 58 178t160 73t156 -71t54 -176q0 -5 -0.5 -16t-0.5 -16h-254q0 -72 40 -72q32 0 39 33zM202 290h81q-2 59 -41 59q-38 0 -40 -59zM312 656l-72 -126l-68 16l47 140zM173 610
q0 -26 -19.5 -45.5t-45.5 -19.5q-27 0 -47 19.5t-20 46.5t19.5 45t46.5 18t46.5 -18.5t19.5 -45.5zM450 610q0 -26 -19.5 -45.5t-45.5 -19.5q-27 0 -47 19.5t-20 46.5t19.5 45t46.5 18t46.5 -18.5t19.5 -45.5z" />
    <glyph glyph-name="fi" unicode="fi" horiz-adv-x="547" 
d="M295 327h-62v-327h-173v327h-50v140h50q0 11 -0.5 34t-0.5 37q0 70 15 110q16 43 54.5 67.5t85.5 24.5q35 0 81 -12v-161q-19 17 -35 17q-27 0 -27 -48v-69h62v-140zM522 613q0 -42 -29.5 -72t-71.5 -30t-71.5 30t-29.5 72q0 41 30 70.5t71 29.5t71 -29.5t30 -70.5z
M507 0h-173v467h173v-467z" />
    <glyph glyph-name="fl" unicode="fl" horiz-adv-x="547" 
d="M295 327h-62v-327h-173v327h-50v140h50q0 11 -0.5 34t-0.5 37q0 70 15 110q16 43 54.5 67.5t85.5 24.5q35 0 81 -12v-161q-19 17 -35 17q-27 0 -27 -48v-69h62v-140zM507 0h-173v729h173v-729z" />
    <glyph glyph-name=".notdef" horiz-adv-x="233" 
 />
    <glyph glyph-name=".null" horiz-adv-x="0" 
 />
    <glyph glyph-name="nonmarkingreturn" horiz-adv-x="333" 
 />
    <glyph glyph-name="space" unicode=" " horiz-adv-x="233" 
 />
    <glyph glyph-name="exclam" unicode="!" horiz-adv-x="322" 
d="M251 240h-176v450h176v-450zM262 91q0 -42 -29.5 -71.5t-71.5 -29.5q-41 0 -71 30t-30 71q0 42 29.5 72t71.5 30t71.5 -30t29.5 -72z" />
    <glyph glyph-name="quotedbl" unicode="&#x22;" horiz-adv-x="413" 
d="M372 667l-24 -268h-96l-24 268h144zM185 667l-25 -268h-95l-24 268h144z" />
    <glyph glyph-name="numbersign" unicode="#" horiz-adv-x="600" 
d="M606 498l-18 -116h-100l-13 -83h101l-17 -117h-102l-29 -182h-134l30 182h-85l-29 -182h-132l30 182h-102l18 117h101l14 83h-101l18 116h101l27 169h132l-28 -169h85l27 169h133l-27 -169h100zM355 382h-85l-13 -83h85z" />
    <glyph glyph-name="dollar" unicode="$" horiz-adv-x="532" 
d="M424 646v-202q-56 71 -109 71q-18 0 -31.5 -10.5t-13.5 -28.5q0 -19 17.5 -36.5t43 -35.5t50.5 -41t42.5 -61.5t17.5 -87.5q0 -78 -45 -140q-29 -41 -83 -67v-101h-84v85q-45 2 -72 7.5t-65 22.5v208q48 -75 115 -75q22 0 37.5 11t15.5 32q0 18 -17.5 37t-42 39t-49 44.5
t-42 62t-17.5 82.5q0 88 54 151q31 37 89 61v93h83v-88q55 -7 106 -33z" />
    <glyph glyph-name="percent" unicode="%" horiz-adv-x="727" 
d="M316 502q0 -74 -36.5 -123.5t-104.5 -49.5q-72 0 -110 47.5t-38 126.5q0 76 38 122t108 46q68 0 105.5 -47.5t37.5 -121.5zM199 503q0 70 -27 70q-28 0 -28 -74q0 -73 28 -73q27 0 27 77zM555 667l-288 -667h-92l290 667h90zM701 168q0 -74 -36.5 -123.5t-104.5 -49.5
q-72 0 -110 47.5t-38 126.5q0 76 38 122t108 46q68 0 105.5 -47.5t37.5 -121.5zM584 169q0 70 -27 70q-28 0 -28 -74q0 -73 28 -73q27 0 27 77z" />
    <glyph glyph-name="ampersand" unicode="&#x26;" horiz-adv-x="630" 
d="M620 0h-195l-26 36q-73 -48 -148 -48q-87 0 -149 60t-62 146q0 113 115 177q-52 65 -52 131q0 75 55 126t131 51q79 0 140.5 -51.5t61.5 -128.5q0 -100 -113 -174l65 -86q26 26 62 77l92 -122q-39 -42 -69 -70zM339 507q0 14 -11 24.5t-25 10.5q-15 0 -26 -10t-11 -25
q0 -24 32 -67q41 39 41 67zM308 160l-66 87q-31 -17 -31 -49q0 -22 14.5 -38.5t36.5 -16.5t46 17z" />
    <glyph glyph-name="quotesingle" unicode="'" horiz-adv-x="225" 
d="M185 667l-25 -268h-95l-24 268h144z" />
    <glyph glyph-name="parenleft" unicode="(" horiz-adv-x="335" 
d="M301 -148l-129 -69q-125 221 -125 476t125 478l129 -69q-100 -202 -100 -409q0 -205 100 -407z" />
    <glyph glyph-name="parenright" unicode=")" horiz-adv-x="334" 
d="M162 -217l-129 69q100 202 100 407q0 207 -100 409l129 69q125 -223 125 -478t-125 -476z" />
    <glyph glyph-name="asterisk" unicode="*" horiz-adv-x="533" 
d="M454 552l-106 -28l70 -85l-92 -66l-59 93l-59 -93l-92 66l70 85l-107 28l35 108l103 -41l-7 110h113l-6 -110l102 41z" />
    <glyph glyph-name="plus" unicode="+" 
d="M467 280h-152v-153h-130v153h-152v120h152v153h130v-153h152v-120z" />
    <glyph glyph-name="comma" unicode="," horiz-adv-x="293" 
d="M263 159l-117 -320h-142l82 320h177z" />
    <glyph glyph-name="hyphen" unicode="-" horiz-adv-x="317" 
d="M267 186h-217v134h217v-134z" />
    <glyph glyph-name="period" unicode="." horiz-adv-x="294" 
d="M248 90q0 -41 -30 -70.5t-71 -29.5q-42 0 -72 30t-30 72q0 41 30 70.5t71 29.5q42 0 72 -30t30 -72z" />
    <glyph glyph-name="slash" unicode="/" horiz-adv-x="625" 
d="M583 729l-508 -945h-120l508 945h120z" />
    <glyph glyph-name="zero" unicode="0" horiz-adv-x="532" 
d="M502 336q0 -61 -11 -117t-35 -110.5t-71 -87.5t-112 -33q-55 0 -98 22t-69.5 56.5t-44 82t-24 94t-6.5 96.5q0 61 12 117.5t38 108t74.5 83t113.5 31.5t112.5 -32t72.5 -85t36.5 -109t11.5 -117zM324 314v42q0 167 -60 167q-56 0 -56 -165q0 -48 4 -87q0 -3 1 -13.5
t1.5 -16.5t2 -17.5t3.5 -19.5l4.5 -18t6.5 -16.5t9 -13t11.5 -9.5t14.5 -3q58 0 58 170z" />
    <glyph glyph-name="one" unicode="1" horiz-adv-x="532" 
d="M386 0h-180v510h-72v157h252v-667z" />
    <glyph glyph-name="two" unicode="2" horiz-adv-x="532" 
d="M236 425h-175q-1 8 -1 24q0 99 61.5 164.5t160.5 65.5q95 0 154.5 -61.5t59.5 -156.5q0 -152 -175 -313q36 3 166 5v-153h-458l182 243q33 44 51 71t38 73t20 84q0 23 -10.5 41.5t-31.5 18.5q-43 0 -43 -82q0 -16 1 -24z" />
    <glyph glyph-name="three" unicode="3" horiz-adv-x="532" 
d="M226 477h-174q7 92 65.5 147t150.5 55q85 0 146.5 -55t61.5 -139q0 -94 -81 -140q89 -52 89 -155q0 -93 -65.5 -147.5t-160.5 -54.5q-93 0 -156 53.5t-63 144.5v10h176q0 -60 44 -60q24 0 36.5 18.5t12.5 43.5q0 33 -19.5 51.5t-52.5 18.5q-10 0 -32 -2v142q7 -1 22 -1
q38 0 56 15.5t18 52.5q0 55 -39 55q-33 0 -35 -53z" />
    <glyph glyph-name="four" unicode="4" horiz-adv-x="532" 
d="M506 135h-57v-135h-180v135h-242v141l201 391h221v-388h57v-144zM176 279h99q2 133 7 200q-63 -134 -106 -200z" />
    <glyph glyph-name="five" unicode="5" horiz-adv-x="532" 
d="M273 510l-14 -75q10 1 30 1q85 0 140 -60.5t55 -145.5q0 -105 -73.5 -173.5t-179.5 -68.5q-95 0 -184 52l22 158q76 -46 142 -46q38 0 65.5 19t27.5 56q0 40 -31.5 57t-75.5 17q-56 0 -117 -23l51 389h332v-157h-190z" />
    <glyph glyph-name="six" unicode="6" horiz-adv-x="532" 
d="M404 667l-107 -190q-14 -25 -33 -52q34 18 64 18q76 0 120 -66.5t44 -146.5q0 -106 -63.5 -174t-168.5 -68q-101 0 -159.5 69t-58.5 172q0 40 9 82.5t34.5 101.5t36 82.5t50 97t39.5 74.5h193zM319 227q0 86 -51 86q-50 0 -50 -89q0 -92 50 -92q51 0 51 95z" />
    <glyph glyph-name="seven" unicode="7" horiz-adv-x="532" 
d="M533 667l-300 -667h-194l161 355q30 68 86 155h-226v157h473z" />
    <glyph glyph-name="eight" unicode="8" horiz-adv-x="532" 
d="M494 190q0 -91 -67.5 -146.5t-160.5 -55.5q-90 0 -158.5 56.5t-68.5 144.5q0 112 113 158q-100 34 -100 140q0 86 62 139t149 53q88 0 153.5 -51.5t65.5 -136.5q0 -100 -92 -144q104 -44 104 -157zM304 477q0 22 -9 40t-29 18q-36 0 -36 -56q0 -23 8.5 -41.5t28.5 -18.5
t28.5 18t8.5 40zM310 210q0 25 -10.5 46t-33.5 21q-22 0 -33 -22t-11 -47t11 -45.5t34 -20.5t33 21t10 47z" />
    <glyph glyph-name="nine" unicode="9" horiz-adv-x="532" 
d="M321 0h-193q105 189 139 242q-32 -19 -63 -19q-76 0 -120 66.5t-44 146.5q0 105 63.5 174t168.5 69q101 0 159.5 -69t58.5 -172q0 -40 -9 -82.5t-34.5 -101.5t-36 -82.5t-50 -97t-39.5 -74.5zM314 443q0 92 -49 92q-52 0 -52 -95q0 -87 52 -87q49 0 49 90z" />
    <glyph glyph-name="colon" unicode=":" horiz-adv-x="294" 
d="M248 375q0 -41 -30 -70.5t-71 -29.5q-42 0 -72 30t-30 72q0 41 30 70.5t71 29.5q42 0 72 -30t30 -72zM248 90q0 -41 -30 -70.5t-71 -29.5q-42 0 -72 30t-30 72q0 41 30 70.5t71 29.5q42 0 72 -30t30 -72z" />
    <glyph glyph-name="semicolon" unicode=";" horiz-adv-x="293" 
d="M281 375q0 -42 -29.5 -71t-71.5 -29t-71.5 30t-29.5 72q0 41 29.5 70.5t70.5 29.5q42 0 72 -30t30 -72zM263 159l-117 -320h-142l82 320h177z" />
    <glyph glyph-name="less" unicode="&#x3c;" 
d="M467 58l-434 222v109l434 220v-128l-297 -147l296 -148z" />
    <glyph glyph-name="equal" unicode="=" 
d="M467 370h-434v113h434v-113zM467 197h-434v113h434v-113z" />
    <glyph glyph-name="greater" unicode="&#x3e;" 
d="M467 279l-434 -221v129l297 147l-296 147l-1 128l434 -221v-109z" />
    <glyph glyph-name="question" unicode="?" horiz-adv-x="508" 
d="M40 478q0 45 5 71.5t23 57.5q26 45 76.5 70t106.5 25q96 0 156.5 -61.5t60.5 -157.5q0 -65 -32.5 -113.5t-95.5 -65.5v-64h-171v159q18 -2 27 -2q47 0 70 19.5t23 63.5q0 74 -38 74t-38 -76h-173zM155 92q0 42 29.5 71.5t71.5 29.5t71.5 -29.5t29.5 -71.5t-29.5 -72
t-71.5 -30t-71.5 30t-29.5 72z" />
    <glyph glyph-name="at" unicode="@" horiz-adv-x="733" 
d="M570 98l20 -80q-89 -30 -199 -30q-78 0 -141 21q-99 33 -158 122.5t-59 196.5q0 147 102.5 248.5t249.5 101.5q132 0 223.5 -82t91.5 -212q0 -50 -17 -98q-20 -53 -59 -92.5t-88 -39.5q-26 0 -48.5 14.5t-29.5 39.5q-44 -63 -124 -63q-62 0 -101.5 47t-39.5 110
q0 76 50.5 138t124.5 62q66 0 97 -48l7 38l89 -1l-37 -189q-6 -28 -6 -43q0 -32 22 -32q26 0 46 31.5t28 66t8 59.5q0 98 -67 156t-166 58q-114 0 -191.5 -79t-77.5 -193q0 -111 74 -188q67 -70 195 -70q93 0 181 30zM443 340q0 28 -17.5 48.5t-45.5 20.5q-37 0 -61 -32.5
t-24 -70.5q0 -30 17 -50t46 -20q37 0 61 33t24 71z" />
    <glyph glyph-name="A" unicode="A" horiz-adv-x="532" 
d="M527 0h-186l-14 85h-121l-15 -85h-186l161 667h220zM230 227h76q-23 155 -34 280q-2 -15 -5.5 -47t-5.5 -47q-15 -103 -31 -186z" />
    <glyph glyph-name="B" unicode="B" horiz-adv-x="530" 
d="M47 667h209q91 0 143 -30q42 -24 65 -66.5t23 -92.5q0 -125 -124 -136q137 -17 137 -151q0 -87 -56.5 -139t-144.5 -52h-252v667zM227 522v-114q4 -1 11 -1q30 0 50.5 14.5t20.5 43.5t-17.5 43.5t-46.5 14.5q-12 0 -18 -1zM227 272v-127q5 -1 15 -1q32 0 53 16.5t21 48.5
t-21 48t-54 16q-3 0 -7 -0.5t-7 -0.5z" />
    <glyph glyph-name="C" unicode="C" horiz-adv-x="445" 
d="M422 205l-11 -193q-55 -24 -107 -24q-69 0 -123 29.5t-86 79t-48.5 109t-16.5 125.5q0 95 31 172t99.5 126.5t164.5 49.5q49 0 89 -17v-190q-38 40 -83 40q-44 0 -72 -30t-36.5 -67t-8.5 -81q0 -43 8.5 -78.5t35.5 -64.5t70 -29q46 0 94 43z" />
    <glyph glyph-name="D" unicode="D" horiz-adv-x="537" 
d="M47 667h155q148 0 226.5 -92t78.5 -242q0 -124 -46 -205q-39 -71 -99 -99.5t-147 -28.5h-168v667zM227 500v-339q96 3 96 167q0 28 -3.5 54t-13 54.5t-30 46t-49.5 17.5z" />
    <glyph glyph-name="E" unicode="E" horiz-adv-x="411" 
d="M381 0h-334v667h334v-157h-154v-97h138v-151h-138v-102h154v-160z" />
    <glyph glyph-name="F" unicode="F" horiz-adv-x="388" 
d="M365 510h-138v-97h128v-151h-128v-262h-180v667h318v-157z" />
    <glyph glyph-name="G" unicode="G" horiz-adv-x="560" 
d="M530 385v-27q0 -170 -44 -255q-29 -56 -82 -85.5t-117 -29.5q-56 0 -100.5 20t-73.5 53t-48 78t-27 92t-8 99q0 66 13.5 124.5t42 110.5t80 83t121.5 31q157 0 229 -165l-175 -64q-3 26 -16 47t-37 21q-74 0 -74 -204q0 -165 68 -165q34 0 48.5 29.5t14.5 66.5h-66v140
h251z" />
    <glyph glyph-name="H" unicode="H" horiz-adv-x="539" 
d="M493 0h-180v268h-86v-268h-180v667h180v-236h86v236h180v-667z" />
    <glyph glyph-name="I" unicode="I" horiz-adv-x="273" 
d="M227 0h-180v667h180v-667z" />
    <glyph glyph-name="J" unicode="J" horiz-adv-x="354" 
d="M307 667v-463q0 -81 -22 -125q-45 -91 -167 -91q-57 0 -118 22v186q31 -39 72 -39q55 0 55 82v428h180z" />
    <glyph glyph-name="K" unicode="K" horiz-adv-x="541" 
d="M536 0h-194l-120 319l5 -319h-180v667h180l-5 -298l106 298h190l-142 -322z" />
    <glyph glyph-name="L" unicode="L" horiz-adv-x="369" 
d="M362 0h-315v667h180v-507h135v-160z" />
    <glyph glyph-name="M" unicode="M" horiz-adv-x="766" 
d="M733 0h-188l-14 304q-1 20 -2 60.5t-2 60.5q-6 -65 -18 -128l-56 -297h-147l-52 321q-6 34 -12 104q0 -16 -0.5 -46.5t-1 -55t-1.5 -46.5l-16 -277h-193l78 667h224q46 -273 52 -355q6 54 15 109t25.5 138t21.5 108h222z" />
    <glyph glyph-name="N" unicode="N" horiz-adv-x="563" 
d="M516 0h-172q-11 31 -35 93t-38 99.5t-32 91.5t-31 100q11 -156 11 -214v-170h-172v667h172l90 -234q20 -51 55 -168q-20 164 -20 246v156h172v-667z" />
    <glyph glyph-name="O" unicode="O" horiz-adv-x="567" 
d="M537 340q0 -63 -13.5 -121.5t-41 -112t-78 -86t-117.5 -32.5q-108 0 -182 89q-75 91 -75 263q0 62 15 120t44 108t80 80.5t117 30.5q53 0 96 -20.5t71 -54t47.5 -78.5t28 -91.5t8.5 -94.5zM350 333q0 178 -65 178q-22 0 -36.5 -20.5t-21 -53t-8.5 -56.5t-2 -47
q0 -24 2 -47t7.5 -56t20 -53.5t36.5 -20.5t36.5 20.5t20.5 52.5t8 56t2 47z" />
    <glyph glyph-name="P" unicode="P" horiz-adv-x="505" 
d="M47 667h174q91 0 148 -25q59 -26 89.5 -80.5t30.5 -121.5q0 -118 -71.5 -175t-190.5 -46v-219h-180v667zM227 368h9q32 0 51.5 21t19.5 54t-18 55.5t-50 22.5h-12v-153z" />
    <glyph glyph-name="Q" unicode="Q" horiz-adv-x="574" 
d="M544 -14l-145 -79l-61 89q-24 -8 -54 -8q-54 0 -97.5 21t-72.5 55t-48 79.5t-27.5 92.5t-8.5 96q0 63 14 122t42 110.5t79.5 83t118.5 31.5q65 0 115.5 -30.5t79.5 -81t43.5 -108t14.5 -118.5q0 -175 -75 -263zM351 339q0 23 -2 47t-8.5 55t-22 50.5t-37.5 19.5
q-20 0 -34 -21t-20 -54t-8 -57.5t-2 -46.5q0 -175 67 -175t67 182z" />
    <glyph glyph-name="R" unicode="R" horiz-adv-x="533" 
d="M521 0h-195q-93 252 -102 277q3 -44 3 -88v-189h-180v667h184q84 0 139 -23q58 -25 89 -79.5t31 -120.5q0 -120 -103 -167zM227 358h12q33 0 52.5 25t19.5 59q0 75 -84 75v-159z" />
    <glyph glyph-name="S" unicode="S" horiz-adv-x="404" 
d="M362 645v-204q-48 73 -106 73q-18 0 -32.5 -11t-14.5 -29t17.5 -35.5t43 -35.5t51 -41t43 -61.5t17.5 -86.5q0 -95 -59 -160.5t-153 -65.5q-67 0 -136 29v209q53 -73 114 -73q21 0 37 11.5t16 32.5q0 19 -17.5 37.5t-42.5 37.5t-50 42t-42.5 61t-17.5 85q0 89 57.5 154
t145.5 65q64 0 129 -34z" />
    <glyph glyph-name="T" unicode="T" horiz-adv-x="378" 
d="M378 507h-99v-507h-180v507h-99v160h378v-160z" />
    <glyph glyph-name="U" unicode="U" horiz-adv-x="545" 
d="M499 667v-472q0 -52 -14.5 -87.5t-52.5 -67.5q-60 -52 -151 -52q-104 0 -169 58t-65 174v447h180v-431q0 -23 1.5 -37t12.5 -28t32 -14q13 0 22.5 5.5t14 12t6.5 19.5t2.5 20.5t0.5 21.5v431h180z" />
    <glyph glyph-name="V" unicode="V" horiz-adv-x="518" 
d="M518 667l-182 -667h-183l-153 667h189q52 -298 63 -435q6 66 10 104q8 57 18 110l42 221h196z" />
    <glyph glyph-name="W" unicode="W" horiz-adv-x="753" 
d="M753 667l-135 -667h-173q-56 310 -68 417q-3 -23 -9 -83t-10 -92l-34 -242h-176l-148 667h178q11 -68 37 -241l9 -57q2 -20 6 -59.5t7 -59.5q1 12 4.5 51t6.5 60q11 77 51 306h155l30 -161q21 -114 38 -264q12 146 23 218l32 207h176z" />
    <glyph glyph-name="X" unicode="X" horiz-adv-x="517" 
d="M517 0h-200q-9 24 -24 70t-18 54q-15 44 -17 55q-3 -10 -9 -29.5t-9 -29.5q-5 -17 -44 -120h-196l162 346l-153 321h200q3 -11 22.5 -69t28.5 -89q7 32 43 158h202l-152 -321z" />
    <glyph glyph-name="Y" unicode="Y" 
d="M500 667l-154 -385v-282h-180v282l-166 385h188q52 -161 63 -206q29 106 63 206h186z" />
    <glyph glyph-name="Z" unicode="Z" horiz-adv-x="515" 
d="M498 667v-19q-18 -40 -54.5 -121.5t-58.5 -130.5t-54.5 -118t-60.5 -126q35 3 206 8v-160h-459v14l143 326q43 97 90 170h-194v157h442z" />
    <glyph glyph-name="bracketleft" unicode="[" horiz-adv-x="349" 
d="M315 -209h-255v938h255v-119h-102v-699h102v-120z" />
    <glyph glyph-name="backslash" unicode="\" horiz-adv-x="625" 
d="M42 729h120l508 -945h-120z" />
    <glyph glyph-name="bracketright" unicode="]" horiz-adv-x="349" 
d="M289 -209h-256v120h103v699h-103v119h256v-938z" />
    <glyph glyph-name="asciicircum" unicode="^" 
d="M496 330h-136l-110 233l-110 -233h-135l160 337h170z" />
    <glyph glyph-name="underscore" unicode="_" 
d="M500 -166h-500v120h500v-120z" />
    <glyph glyph-name="grave" unicode="`" 
d="M304 530h-100l-87 148h139z" />
    <glyph glyph-name="a" unicode="a" horiz-adv-x="497" 
d="M457 0h-174q1 13 3 39.5t3 39.5q-45 -89 -120 -89q-42 0 -71.5 25t-44 65.5t-20.5 78.5t-6 77q0 40 6.5 78t21.5 76.5t45.5 62.5t72.5 24q73 0 112 -84q-1 8 -2 34t-3 40h177v-467zM281 254q0 80 -36 80q-44 0 -44 -117q0 -84 39 -84q7 0 13.5 3t10.5 9t7 12t5 16.5t3 17
t1.5 18.5t0.5 17v16v12z" />
    <glyph glyph-name="b" unicode="b" horiz-adv-x="497" 
d="M213 729v-255q0 -25 -2 -75q41 78 111 78q44 0 75.5 -24.5t46 -64.5t20.5 -78.5t6 -80.5q0 -41 -6.5 -79t-22 -76t-47 -61t-74.5 -23q-61 0 -107 73q4 -42 4 -63h-177v729h173zM291 234q0 99 -44 99q-39 0 -39 -95q0 -99 40 -99q43 0 43 95z" />
    <glyph glyph-name="c" unicode="c" horiz-adv-x="303" 
d="M283 152v-159q-24 -3 -47 -3q-98 0 -153.5 73t-55.5 173t61.5 170.5t159.5 70.5q11 0 35 -2v-152q-77 -5 -77 -84q0 -32 17.5 -59.5t47.5 -27.5h12z" />
    <glyph glyph-name="d" unicode="d" horiz-adv-x="497" 
d="M457 0h-177v20q0 1 3 43q-23 -36 -46.5 -54.5t-59.5 -18.5q-44 0 -75 23t-46.5 61t-22 76t-6.5 79q0 42 6 80.5t20.5 78.5t46 64.5t75.5 24.5q70 0 111 -78l-3 75v255h174v-729zM289 238q0 95 -40 95q-43 0 -43 -99q0 -95 43 -95q40 0 40 99z" />
    <glyph glyph-name="e" unicode="e" horiz-adv-x="481" 
d="M279 158l169 -1q-18 -81 -72 -124t-136 -43q-104 0 -158.5 64.5t-54.5 170.5q0 105 58 178t160 73t156 -71t54 -176q0 -5 -0.5 -16t-0.5 -16h-254q0 -72 40 -72q32 0 39 33zM202 290h81q-2 59 -41 59q-38 0 -40 -59z" />
    <glyph glyph-name="f" unicode="f" horiz-adv-x="301" 
d="M295 327h-62v-327h-173v327h-50v140h50q0 11 -0.5 34t-0.5 37q0 70 15 110q16 43 54.5 67.5t85.5 24.5q35 0 81 -12v-161q-19 17 -35 17q-27 0 -27 -48v-69h62v-140z" />
    <glyph glyph-name="g" unicode="g" horiz-adv-x="493" 
d="M453 467v-479q0 -80 -35 -128q-56 -75 -175 -75q-186 0 -210 169h177q0 -16 10 -27t26 -11q41 0 41 66v72q-45 -61 -109 -61q-55 0 -91 42.5t-48 93.5t-12 105q0 38 7.5 77t23.5 78t46.5 63.5t71.5 24.5q57 0 105 -71l-3 61h175zM285 235q0 101 -38 101q-41 0 -41 -98
q0 -102 41 -102q38 0 38 99z" />
    <glyph glyph-name="h" unicode="h" horiz-adv-x="491" 
d="M451 0h-174v247q0 57 -27 57q-37 0 -37 -69v-235h-173v729h173v-261q0 -30 -4 -90q42 99 123 99q62 0 90.5 -46.5t28.5 -112.5v-318z" />
    <glyph glyph-name="i" unicode="i" horiz-adv-x="253" 
d="M228 613q0 -42 -29.5 -72t-71.5 -30t-71.5 30t-29.5 72q0 41 30 70.5t71 29.5t71 -29.5t30 -70.5zM213 0h-173v467h173v-467z" />
    <glyph glyph-name="j" unicode="j" horiz-adv-x="254" 
d="M228 613q0 -42 -29.5 -72t-71.5 -30t-71.5 30t-29.5 72q0 41 29.5 70.5t70.5 29.5q42 0 72 -29t30 -71zM214 -215h-173v682h173v-682z" />
    <glyph glyph-name="k" unicode="k" horiz-adv-x="495" 
d="M495 0h-199q-10 26 -28 70.5t-31.5 81t-23.5 72.5v-224h-173v729h173v-466q10 32 23 65t32 75t28 64h187l-115 -215z" />
    <glyph glyph-name="l" unicode="l" horiz-adv-x="253" 
d="M213 0h-173v729h173v-729z" />
    <glyph glyph-name="m" unicode="m" horiz-adv-x="733" 
d="M693 0h-173v259q0 50 -27 50q-40 0 -40 -73v-236h-173v257q0 48 -28 48q-14 0 -23 -6.5t-12 -20t-3.5 -22t-0.5 -24.5v-232h-173v467h173v-24q0 -18 -2 -54q23 44 49.5 66t69.5 22q46 0 75 -25t49 -72q34 97 116 97q48 0 82 -31q41 -38 41 -126v-320z" />
    <glyph glyph-name="n" unicode="n" horiz-adv-x="491" 
d="M451 0h-174v247q0 57 -27 57q-37 0 -37 -69v-235h-173v467h173q-2 -58 -4 -89q42 99 123 99q62 0 90.5 -46.5t28.5 -112.5v-318z" />
    <glyph glyph-name="o" unicode="o" horiz-adv-x="487" 
d="M461 229q0 -106 -57.5 -172.5t-162.5 -66.5q-103 0 -158.5 68.5t-55.5 173.5t56.5 175t158.5 70q106 0 162.5 -69.5t56.5 -178.5zM293 233q0 38 -11 75.5t-39 37.5q-27 0 -37.5 -37.5t-10.5 -75.5t10.5 -75t38.5 -37q27 0 38 37.5t11 74.5z" />
    <glyph glyph-name="p" unicode="p" horiz-adv-x="495" 
d="M213 467l-4 -66q20 37 44.5 56.5t62.5 19.5q42 0 73.5 -24.5t47.5 -63t23.5 -78t7.5 -78.5q0 -40 -6.5 -78t-22 -77.5t-46.5 -63.5t-73 -24q-37 0 -62.5 18.5t-48.5 54.5q4 -52 4 -77v-201h-173v682h173zM289 240q0 94 -41 94q-40 0 -40 -98q0 -100 39 -100q42 0 42 104z
" />
    <glyph glyph-name="q" unicode="q" horiz-adv-x="495" 
d="M455 -215h-174v201q0 15 2 41.5t2 35.5q-23 -36 -48 -54.5t-62 -18.5q-42 0 -73 24t-46.5 63.5t-22 77.5t-6.5 78q0 39 7.5 78t23.5 78t47 63.5t73 24.5q71 0 107 -76l-4 66h174v-682zM287 236q0 98 -41 98q-40 0 -40 -101q0 -97 42 -97q23 0 31 33.5t8 66.5z" />
    <glyph glyph-name="r" unicode="r" horiz-adv-x="344" 
d="M334 478v-194q-25 15 -48 15q-34 0 -55 -27q-18 -23 -18 -72v-200h-173v467h173l-9 -91q40 99 130 102z" />
    <glyph glyph-name="s" unicode="s" horiz-adv-x="395" 
d="M370 439l-60 -127q-41 41 -71 41q-27 0 -27 -22q0 -18 26 -32t56.5 -24.5t56.5 -41.5t26 -79q0 -76 -55 -120t-133 -44q-75 0 -166 49l63 129q47 -49 87 -49q13 0 23.5 6.5t10.5 18.5q0 15 -26.5 28t-57.5 24.5t-57.5 42.5t-26.5 78q0 74 58 117t134 43q63 0 139 -38z
" />
    <glyph glyph-name="t" unicode="t" horiz-adv-x="301" 
d="M294 327h-57v-327h-173v327h-50v140h50v137h173v-137h57v-140z" />
    <glyph glyph-name="u" unicode="u" horiz-adv-x="499" 
d="M459 467v-287q0 -50 -14.5 -85t-52.5 -62q-61 -43 -142 -43t-142 43q-38 27 -53 62t-15 85v287h173v-274q0 -18 1.5 -28.5t10.5 -20t25 -9.5q17 0 25.5 11.5t9.5 22t1 29.5v6v263h173z" />
    <glyph glyph-name="v" unicode="v" horiz-adv-x="446" 
d="M446 467l-136 -467h-181l-129 467h175q3 -17 15.5 -79t18.5 -96q2 -13 13 -120q11 87 53 295h171z" />
    <glyph glyph-name="w" unicode="w" horiz-adv-x="682" 
d="M682 467l-136 -467h-171l-36 280l-53 -280h-170l-116 467h170q39 -217 44 -282q8 81 53 282h148q34 -201 41 -282q16 107 53 282h173z" />
    <glyph glyph-name="x" unicode="x" horiz-adv-x="482" 
d="M482 0h-201q-31 79 -38 110q-17 -49 -49 -110h-194l142 240l-134 227h197q12 -33 34 -101q8 25 38 101h192l-138 -223z" />
    <glyph glyph-name="y" unicode="y" horiz-adv-x="456" 
d="M456 467l-221 -682h-178l82 234l-139 448h174q48 -190 55 -265q19 128 28 164l26 101h173z" />
    <glyph glyph-name="z" unicode="z" horiz-adv-x="435" 
d="M418 467l-110 -238q-22 -47 -46 -88h129v-141h-374l113 242q25 52 44 85h-132v140h376z" />
    <glyph glyph-name="braceleft" unicode="{" 
d="M403 -92v-115q-52 -2 -77 -2q-80 0 -116 32.5t-36 111.5v189q0 37 -11 58.5t-44 27.5v110q55 10 55 76v188q0 80 35.5 112.5t116.5 32.5q12 0 24.5 -0.5t28 -1.5t24.5 -1v-114q-6 0 -25 0.5t-24.5 0t-18.5 -3.5t-17.5 -8.5t-9 -17t-4.5 -28.5v-169q0 -48 -12 -75t-48 -51
q37 -25 48.5 -52t11.5 -75v-169q0 -21 4.5 -33.5t18 -17.5t22.5 -5.5t34 -0.5q13 0 20 1z" />
    <glyph glyph-name="bar" unicode="|" 
d="M315 -250h-130v1000h130v-1000z" />
    <glyph glyph-name="braceright" unicode="}" 
d="M119 -207v115q7 -1 20 -1q25 0 34 0.5t22.5 5.5t18 17.5t4.5 33.5v169q0 48 11.5 75t48.5 52q-36 24 -48 51t-12 75v169q0 17 -4.5 28.5t-9 17t-17.5 8.5t-18.5 3.5t-24.5 0t-25 -0.5v114q9 0 24.5 1t28 1.5t24.5 0.5q81 0 116.5 -32.5t35.5 -112.5v-188q0 -66 55 -76
v-110q-33 -6 -44 -27.5t-11 -58.5v-189q0 -79 -36 -111.5t-116 -32.5q-25 0 -77 2z" />
    <glyph glyph-name="asciitilde" unicode="~" horiz-adv-x="667" 
d="M503 748l74 -43q-29 -62 -65 -98t-94 -36q-31 0 -92.5 25t-90.5 25q-20 0 -35 -10t-20.5 -19t-18.5 -32l-71 47q15 34 25 53t28 42t42.5 33.5t56.5 10.5q34 0 95.5 -24.5t94.5 -24.5q26 0 41.5 12.5t29.5 38.5z" />
    <glyph glyph-name="uni00A0" unicode="&#xa0;" horiz-adv-x="233" 
 />
    <glyph glyph-name="exclamdown" unicode="&#xa1;" horiz-adv-x="322" 
d="M262 376q0 -42 -29.5 -72t-71.5 -30t-71.5 30t-29.5 72t29.5 71.5t71.5 29.5t71.5 -29.5t29.5 -71.5zM247 -223h-176v450h176v-450z" />
    <glyph glyph-name="cent" unicode="&#xa2;" horiz-adv-x="532" 
d="M375 273v-161q-9 -2 -25 -2t-23 -1v-86h-84v105q-46 26 -72 60q-53 70 -53 161q0 93 48 160q16 23 32 35.5t45 26.5v108h84v-86q3 0 8 0.5t7 0.5q11 0 33 -4v-148q-37 -2 -57 -25t-20 -61q0 -32 17.5 -57.5t47.5 -25.5h12z" />
    <glyph glyph-name="sterling" unicode="&#xa3;" horiz-adv-x="532" 
d="M409 159l89 -48q-45 -123 -158 -123q-39 0 -85 17q-5 2 -18 7.5t-18.5 7.5t-16.5 4t-21 2q-39 0 -86 -30l-50 82q46 33 78 48q18 30 18 67q0 41 -17 95h-62v93h33q-24 76 -24 117q0 79 57.5 129t138.5 50q107 0 195 -93l-96 -96q-32 50 -67 50q-22 0 -35 -16.5t-13 -38.5
q0 -16 11.5 -52t13.5 -50h161v-93h-150q0 -74 -43 -129q36 -2 75 -21q22 -11 36 -11q33 0 54 32z" />
    <glyph glyph-name="currency" unicode="&#xa4;" horiz-adv-x="667" 
d="M647 138l-69 -71l-103 103q-67 -45 -142 -45q-68 0 -140 44l-103 -102l-70 70l103 103q-44 67 -44 138q0 70 45 137l-105 104l71 71l104 -104q67 44 140 44q71 0 137 -43l103 102l70 -70l-102 -102q46 -74 46 -139q0 -72 -44 -137zM469 377q0 57 -39 97t-96 40
q-56 0 -96 -40.5t-40 -96.5t40 -96t96 -40t95.5 40t39.5 96z" />
    <glyph glyph-name="yen" unicode="&#xa5;" horiz-adv-x="532" 
d="M516 667l-85 -212h79v-94h-117l-26 -66h143v-93h-148v-202h-180v202h-160v93h154l-28 66h-126v94h85l-91 212h188q52 -161 63 -206q29 106 63 206h186z" />
    <glyph glyph-name="brokenbar" unicode="&#xa6;" 
d="M315 335h-130v415h130v-415zM315 -250h-130v415h130v-415z" />
    <glyph glyph-name="section" unicode="&#xa7;" horiz-adv-x="533" 
d="M473 516h-143q0 24 -1.5 38t-7 31t-20 25.5t-36.5 8.5q-24 0 -39 -13t-15 -37q0 -17 5 -29.5t17 -22.5t19.5 -14.5t24.5 -13.5q9 -5 34 -17.5t37 -19t34 -19.5t33.5 -23t27.5 -25.5t23.5 -31t13.5 -35.5t6 -42q0 -82 -65 -135q73 -59 73 -146q0 -94 -66 -152t-162 -58
q-57 0 -108 22t-80 66q-20 30 -25.5 58.5t-6.5 74.5h149q1 -45 15.5 -69t56.5 -24q26 0 42.5 16.5t16.5 42.5q0 27 -28.5 49.5t-69 42t-81 43.5t-69 65.5t-28.5 96.5q0 86 71 140q-30 37 -42.5 66.5t-12.5 74.5q0 87 62 138.5t151 51.5q62 0 110.5 -28t69.5 -84
q14 -37 14 -112zM334 270q0 29 -18.5 47.5t-47.5 18.5t-47.5 -17.5t-18.5 -46.5t19 -48t48 -19t47 18.5t18 46.5z" />
    <glyph glyph-name="dieresis" unicode="&#xa8;" 
d="M419 602q0 -29 -21.5 -50.5t-50.5 -21.5q-30 0 -52 21.5t-22 51.5t21.5 50.5t51.5 20.5t51.5 -21t21.5 -51zM227 602q0 -29 -21.5 -50.5t-50.5 -21.5q-30 0 -52 21.5t-22 51.5t21.5 50.5t51.5 20.5t51.5 -21t21.5 -51z" />
    <glyph glyph-name="copyright" unicode="&#xa9;" horiz-adv-x="760" 
d="M727 333q0 -144 -101 -246t-245 -102t-246 102.5t-102 246.5t102.5 246t246.5 102q143 0 244 -103t101 -246zM647 333q0 113 -77 194.5t-189 81.5t-190 -81t-78 -194q0 -112 78 -194.5t190 -82.5t189 81.5t77 194.5zM484 270l-8 -128q-39 -16 -74 -16q-85 0 -132 59
t-47 147q0 92 51 150t142 58q36 0 62 -11v-127q-4 3 -13 11.5t-13 11.5t-13 6.5t-20 3.5q-36 0 -51.5 -30.5t-15.5 -70.5q0 -39 15 -68.5t50 -29.5q6 0 11.5 1t11 3t9 3.5t9.5 6t8.5 6t9 7.5t8.5 7z" />
    <glyph glyph-name="ordfeminine" unicode="&#xaa;" horiz-adv-x="284" 
d="M261 372h-99q0 5 1 14t1.5 16.5t0.5 14.5q-25 -51 -69 -51q-32 0 -51 27t-24.5 58.5t-5.5 69.5q0 62 19 107t65 45q41 0 64 -49q0 1 -1 18t-2 25h101v-295zM261 297h-242v48h242v-48zM161 517v28q0 46 -21 46q-25 0 -25 -81q0 -61 22 -61q24 0 24 68z" />
    <glyph glyph-name="guillemotleft" unicode="&#xab;" horiz-adv-x="479" 
d="M256 71l-78 -58l-151 226l151 226l78 -58l-113 -168zM452 71l-78 -58l-151 226l151 226l78 -58l-113 -168z" />
    <glyph glyph-name="logicalnot" unicode="&#xac;" 
d="M467 0h-130v150h-304v117h434v-267z" />
    <glyph glyph-name="uni00AD" unicode="&#xad;" horiz-adv-x="317" 
d="M267 186h-217v134h217v-134z" />
    <glyph glyph-name="registered" unicode="&#xae;" horiz-adv-x="761" 
d="M530 154h-117l-54 143v-143h-109v375h109q68 0 111 -30.5t43 -96.5q0 -68 -61 -93zM359 357h5q18 0 29 13t11 31q0 40 -45 40v-84zM647 333q0 113 -77 194.5t-189 81.5t-190 -81t-78 -194q0 -112 78 -194.5t190 -82.5t189 81.5t77 194.5zM727 333q0 -144 -101 -246
t-245 -102t-246 102.5t-102 246.5t102.5 246t246.5 102q143 0 244 -103t101 -246z" />
    <glyph glyph-name="macron" unicode="&#xaf;" horiz-adv-x="499" 
d="M420 553h-340v94h340v-94z" />
    <glyph glyph-name="degree" unicode="&#xb0;" 
d="M404 509q0 -63 -45.5 -108t-108.5 -45t-108.5 45t-45.5 108t45.5 107t108.5 44t108.5 -44t45.5 -107zM327 509q0 31 -23 53t-54 22t-54 -22t-23 -53q0 -32 22.5 -54t54.5 -22t54.5 22.5t22.5 53.5z" />
    <glyph glyph-name="plusminus" unicode="&#xb1;" 
d="M467 357h-152v-154h-130v154h-152v120h152v153h130v-153h152v-120zM467 50h-434v120h434v-120z" />
    <glyph glyph-name="twosuperior" unicode="&#xb2;" horiz-adv-x="352" 
d="M48 519v17q0 59 38 98.5t97 39.5q58 0 96 -36t38 -93q0 -54 -27 -97.5t-76 -88.5q50 3 98 3v-95h-286l114 147q20 26 31.5 42t23 42.5t11.5 50.5q0 33 -23 33q-4 0 -7.5 -1.5t-6 -4.5t-4.5 -6t-3 -8.5t-2 -9t-1 -9.5v-8.5v-8.5v-7h-111z" />
    <glyph glyph-name="threesuperior" unicode="&#xb3;" horiz-adv-x="352" 
d="M156 550h-110q4 56 39.5 90t91.5 34q52 0 91.5 -32t39.5 -83q0 -57 -47 -86q53 -28 53 -90q0 -56 -40 -89.5t-98 -33.5q-57 0 -97.5 30.5t-40.5 86.5v10h111q2 -35 26 -35q13 0 20.5 10t7.5 24q0 19 -11.5 29.5t-30.5 10.5q-6 0 -22 -2v89q5 -1 15 -1q23 0 33 8.5
t10 30.5q0 31 -21 31q-3 0 -6 -1t-4.5 -2t-3 -3.5t-2.5 -4t-1.5 -5t-1 -5t-1 -6t-0.5 -5.5z" />
    <glyph glyph-name="acute" unicode="&#xb4;" 
d="M384 678l-88 -148h-99l47 148h140z" />
    <glyph glyph-name="mu" unicode="&#xb5;" horiz-adv-x="583" 
d="M543 0h-156v68q-9 -36 -34 -57t-62 -21q-36 0 -59 19q-27 21 -36 56v-280h-156v682h172v-227q0 -75 27 -102q20 -20 53 -20t52 20q27 27 27 108v221h172v-467z" />
    <glyph glyph-name="mu" unicode="&#x3bc;" horiz-adv-x="583" 
d="M543 0h-156v68q-9 -36 -34 -57t-62 -21q-36 0 -59 19q-27 21 -36 56v-280h-156v682h172v-227q0 -75 27 -102q20 -20 53 -20t52 20q27 27 27 108v221h172v-467z" />
    <glyph glyph-name="paragraph" unicode="&#xb6;" horiz-adv-x="667" 
d="M594 567h-74v-667h-110v667h-83v-667h-110v421h-12q-78 0 -128 46.5t-50 123.5q0 176 231 176h336v-100z" />
    <glyph glyph-name="periodcentered" unicode="&#xb7;" horiz-adv-x="327" 
d="M281 339q0 -48 -35 -82t-83 -34q-49 0 -83.5 34.5t-34.5 83.5q0 48 34.5 82t82.5 34q49 0 84 -34.5t35 -83.5z" />
    <glyph glyph-name="cedilla" unicode="&#xb8;" 
d="M372 -106l-113 -117l-71 54l98 122z" />
    <glyph glyph-name="onesuperior" unicode="&#xb9;" horiz-adv-x="352" 
d="M249 267h-113v303h-44v97h157v-400z" />
    <glyph glyph-name="ordmasculine" unicode="&#xba;" horiz-adv-x="280" 
d="M265 525q0 -70 -32.5 -110.5t-93.5 -40.5q-60 0 -92 41.5t-32 110.5q0 64 32.5 105.5t91.5 41.5q62 0 94 -40.5t32 -107.5zM261 297h-242v48h242v-48zM168 527q0 71 -28 71t-28 -71q0 -77 28 -77t28 77z" />
    <glyph glyph-name="guillemotright" unicode="&#xbb;" horiz-adv-x="479" 
d="M223 71l113 168l-113 168l78 58l151 -226l-151 -226zM27 71l113 168l-113 168l78 58l151 -226l-151 -226z" />
    <glyph glyph-name="onequarter" unicode="&#xbc;" horiz-adv-x="844" 
d="M815 80h-34v-80h-114v80h-148v86l124 234h138v-231h34v-89zM249 267h-113v303h-44v97h157v-400zM616 169h55q0 53 3 107q-41 -82 -58 -107zM614 667l-288 -667h-92l290 667h90z" />
    <glyph glyph-name="onehalf" unicode="&#xbd;" horiz-adv-x="844" 
d="M539 252v17q0 59 38 98.5t97 39.5q58 0 96 -36t38 -93q0 -54 -27 -97.5t-76 -88.5q49 3 98 3v-95h-286l114 147q20 26 31.5 42t23 42.5t11.5 50.5q0 33 -23 33q-24 0 -24 -63h-111zM249 267h-113v303h-44v97h157v-400zM605 667l-288 -667h-92l290 667h90z" />
    <glyph glyph-name="threequarters" unicode="&#xbe;" horiz-adv-x="844" 
d="M815 80h-34v-80h-114v80h-148v86l124 234h138v-231h34v-89zM156 550h-110q4 56 39.5 90t91.5 34q52 0 91.5 -32t39.5 -83q0 -57 -47 -86q53 -28 53 -90q0 -56 -40 -89.5t-98 -33.5q-57 0 -97.5 30.5t-40.5 86.5v10h111q2 -35 26 -35q13 0 20.5 10t7.5 24q0 19 -11.5 29.5
t-30.5 10.5q-6 0 -22 -2v89q5 -1 15 -1q23 0 33 8.5t10 30.5q0 31 -21 31q-3 0 -6 -1t-4.5 -2t-3 -3.5t-2.5 -4t-1.5 -5t-1 -5t-1 -6t-0.5 -5.5zM616 169h55q0 53 3 107q-41 -82 -58 -107zM631 667l-288 -667h-92l290 667h90z" />
    <glyph glyph-name="questiondown" unicode="&#xbf;" horiz-adv-x="508" 
d="M353 375q0 -42 -29.5 -71.5t-71.5 -29.5t-71.5 29.5t-29.5 71.5t29.5 72t71.5 30t71.5 -30t29.5 -72zM468 -11q0 -45 -5 -71.5t-23 -57.5q-26 -45 -76.5 -70t-106.5 -25q-96 0 -156.5 61.5t-60.5 157.5q0 65 32.5 113.5t95.5 65.5v64h171v-159q-18 2 -27 2
q-47 0 -70 -19.5t-23 -63.5q0 -74 38 -74t38 76h173z" />
    <glyph glyph-name="Agrave" unicode="&#xc0;" horiz-adv-x="532" 
d="M527 0h-186l-14 85h-121l-15 -85h-186l161 667h220zM230 227h76q-23 155 -34 280q-2 -15 -5.5 -47t-5.5 -47q-15 -103 -31 -186zM344 720h-100l-87 148h139z" />
    <glyph glyph-name="Aacute" unicode="&#xc1;" horiz-adv-x="532" 
d="M527 0h-186l-14 85h-121l-15 -85h-186l161 667h220zM230 227h76q-23 155 -34 280q-2 -15 -5.5 -47t-5.5 -47q-15 -103 -31 -186zM394 868l-88 -148h-99l47 148h140z" />
    <glyph glyph-name="Acircumflex" unicode="&#xc2;" horiz-adv-x="532" 
d="M527 0h-186l-14 85h-121l-15 -85h-186l161 667h220zM230 227h76q-23 155 -34 280q-2 -15 -5.5 -47t-5.5 -47q-15 -103 -31 -186zM282 870l137 -98l-57 -66l-83 56l-82 -58l-61 66z" />
    <glyph glyph-name="Atilde" unicode="&#xc3;" horiz-adv-x="532" 
d="M527 0h-186l-14 85h-121l-15 -85h-186l161 667h220zM230 227h76q-23 155 -34 280q-2 -15 -5.5 -47t-5.5 -47q-15 -103 -31 -186zM436 855v-14q0 -50 -28 -84.5t-77 -34.5q-26 0 -64.5 16.5t-52.5 16.5q-27 0 -27 -35h-91v2q0 55 24 92.5t77 37.5q26 0 65.5 -16.5
t55.5 -16.5q28 0 28 36h90z" />
    <glyph glyph-name="Adieresis" unicode="&#xc4;" horiz-adv-x="532" 
d="M527 0h-186l-14 85h-121l-15 -85h-186l161 667h220zM230 227h76q-23 155 -34 280q-2 -15 -5.5 -47t-5.5 -47q-15 -103 -31 -186zM435 792q0 -29 -21.5 -50.5t-50.5 -21.5q-30 0 -52 21.5t-22 51.5t21.5 50.5t51.5 20.5t51.5 -21t21.5 -51zM243 792q0 -29 -21.5 -50.5
t-50.5 -21.5q-30 0 -52 21.5t-22 51.5t21.5 50.5t51.5 20.5t51.5 -21t21.5 -51z" />
    <glyph glyph-name="Aring" unicode="&#xc5;" horiz-adv-x="532" 
d="M527 0h-186l-14 85h-121l-15 -85h-186l161 667h220zM230 227h76q-23 155 -34 280q-2 -15 -5.5 -47t-5.5 -47q-15 -103 -31 -186zM177 810q0 40 28 68t68 28t68 -28t28 -68t-28.5 -68t-66.5 -28q-40 0 -68.5 28.5t-28.5 67.5zM236 810q0 -16 10.5 -26.5t26.5 -10.5
t26.5 10.5t10.5 26.5t-10.5 26.5t-26.5 10.5t-26.5 -10.5t-10.5 -26.5z" />
    <glyph glyph-name="AE" unicode="&#xc6;" horiz-adv-x="615" 
d="M585 0h-256l-12 85h-116l-15 -85h-186l154 667h431v-157h-179l15 -97h150v-151h-124l18 -102h120v-160zM223 223h75q-29 206 -35 283q-14 -118 -40 -283z" />
    <glyph glyph-name="Ccedilla" unicode="&#xc7;" horiz-adv-x="445" 
d="M422 205l-11 -193q-55 -24 -107 -24q-69 0 -123 29.5t-86 79t-48.5 109t-16.5 125.5q0 95 31 172t99.5 126.5t164.5 49.5q49 0 89 -17v-190q-38 40 -83 40q-44 0 -72 -30t-36.5 -67t-8.5 -81q0 -43 8.5 -78.5t35.5 -64.5t70 -29q46 0 94 43zM388 -113l-124 -124l-77 53
l108 137z" />
    <glyph glyph-name="Egrave" unicode="&#xc8;" horiz-adv-x="411" 
d="M381 0h-334v667h334v-157h-154v-97h138v-151h-138v-102h154v-160zM294 720h-100l-87 148h139z" />
    <glyph glyph-name="Eacute" unicode="&#xc9;" horiz-adv-x="411" 
d="M381 0h-334v667h334v-157h-154v-97h138v-151h-138v-102h154v-160zM334 868l-88 -148h-99l47 148h140z" />
    <glyph glyph-name="Ecircumflex" unicode="&#xca;" horiz-adv-x="411" 
d="M381 0h-334v667h334v-157h-154v-97h138v-151h-138v-102h154v-160zM222 870l137 -98l-57 -66l-83 56l-82 -58l-61 66z" />
    <glyph glyph-name="Edieresis" unicode="&#xcb;" horiz-adv-x="411" 
d="M381 0h-334v667h334v-157h-154v-97h138v-151h-138v-102h154v-160zM379 792q0 -29 -21.5 -50.5t-50.5 -21.5q-30 0 -52 21.5t-22 51.5t21.5 50.5t51.5 20.5t51.5 -21t21.5 -51zM187 792q0 -29 -21.5 -50.5t-50.5 -21.5q-30 0 -52 21.5t-22 51.5t21.5 50.5t51.5 20.5
t51.5 -21t21.5 -51z" />
    <glyph glyph-name="Igrave" unicode="&#xcc;" horiz-adv-x="273" 
d="M227 0h-180v667h180v-667zM204 720h-100l-87 148h139z" />
    <glyph glyph-name="Iacute" unicode="&#xcd;" horiz-adv-x="273" 
d="M227 0h-180v667h180v-667zM254 868l-88 -148h-99l47 148h140z" />
    <glyph glyph-name="Icircumflex" unicode="&#xce;" horiz-adv-x="273" 
d="M227 0h-180v667h180v-667zM144 870l137 -98l-57 -66l-83 56l-82 -58l-61 66z" />
    <glyph glyph-name="Idieresis" unicode="&#xcf;" horiz-adv-x="273" 
d="M227 0h-180v667h180v-667zM306 792q0 -29 -21.5 -50.5t-50.5 -21.5q-30 0 -52 21.5t-22 51.5t21.5 50.5t51.5 20.5t51.5 -21t21.5 -51zM114 792q0 -29 -21.5 -50.5t-50.5 -21.5q-30 0 -52 21.5t-22 51.5t21.5 50.5t51.5 20.5t51.5 -21t21.5 -51z" />
    <glyph glyph-name="Eth" unicode="&#xd0;" horiz-adv-x="537" 
d="M47 667h156q148 0 227 -94q77 -91 77 -237q0 -174 -87 -264q-70 -72 -205 -72h-168v290h-40v103h40v274zM227 290v-129q96 6 96 166q0 97 -35 143q-23 30 -56 30h-5v-107h53v-103h-53z" />
    <glyph glyph-name="Ntilde" unicode="&#xd1;" horiz-adv-x="563" 
d="M516 0h-172q-11 31 -35 93t-38 99.5t-32 91.5t-31 100q11 -156 11 -214v-170h-172v667h172l90 -234q20 -51 55 -168q-20 164 -20 246v156h172v-667zM460 855v-14q0 -50 -28 -84.5t-77 -34.5q-27 0 -65 16.5t-52 16.5q-27 0 -27 -35h-91v2q0 55 24 92.5t77 37.5
q26 0 65.5 -16.5t55.5 -16.5q28 0 28 36h90z" />
    <glyph glyph-name="Ograve" unicode="&#xd2;" horiz-adv-x="567" 
d="M537 340q0 -63 -13.5 -121.5t-41 -112t-78 -86t-117.5 -32.5q-108 0 -182 89q-75 91 -75 263q0 62 15 120t44 108t80 80.5t117 30.5q53 0 96 -20.5t71 -54t47.5 -78.5t28 -91.5t8.5 -94.5zM350 333q0 178 -65 178q-22 0 -36.5 -20.5t-21 -53t-8.5 -56.5t-2 -47
q0 -24 2 -47t7.5 -56t20 -53.5t36.5 -20.5t36.5 20.5t20.5 52.5t8 56t2 47zM339 720h-100l-87 148h139z" />
    <glyph glyph-name="Oacute" unicode="&#xd3;" horiz-adv-x="567" 
d="M537 340q0 -63 -13.5 -121.5t-41 -112t-78 -86t-117.5 -32.5q-108 0 -182 89q-75 91 -75 263q0 62 15 120t44 108t80 80.5t117 30.5q53 0 96 -20.5t71 -54t47.5 -78.5t28 -91.5t8.5 -94.5zM350 333q0 178 -65 178q-22 0 -36.5 -20.5t-21 -53t-8.5 -56.5t-2 -47
q0 -24 2 -47t7.5 -56t20 -53.5t36.5 -20.5t36.5 20.5t20.5 52.5t8 56t2 47zM419 868l-88 -148h-99l47 148h140z" />
    <glyph glyph-name="Ocircumflex" unicode="&#xd4;" horiz-adv-x="567" 
d="M537 340q0 -63 -13.5 -121.5t-41 -112t-78 -86t-117.5 -32.5q-108 0 -182 89q-75 91 -75 263q0 62 15 120t44 108t80 80.5t117 30.5q53 0 96 -20.5t71 -54t47.5 -78.5t28 -91.5t8.5 -94.5zM350 333q0 178 -65 178q-22 0 -36.5 -20.5t-21 -53t-8.5 -56.5t-2 -47
q0 -24 2 -47t7.5 -56t20 -53.5t36.5 -20.5t36.5 20.5t20.5 52.5t8 56t2 47zM302 870l137 -98l-57 -66l-83 56l-82 -58l-61 66z" />
    <glyph glyph-name="Otilde" unicode="&#xd5;" horiz-adv-x="567" 
d="M537 340q0 -63 -13.5 -121.5t-41 -112t-78 -86t-117.5 -32.5q-108 0 -182 89q-75 91 -75 263q0 62 15 120t44 108t80 80.5t117 30.5q53 0 96 -20.5t71 -54t47.5 -78.5t28 -91.5t8.5 -94.5zM350 333q0 178 -65 178q-22 0 -36.5 -20.5t-21 -53t-8.5 -56.5t-2 -47
q0 -24 2 -47t7.5 -56t20 -53.5t36.5 -20.5t36.5 20.5t20.5 52.5t8 56t2 47zM453 855v-14q0 -50 -28 -84.5t-77 -34.5q-27 0 -64.5 16.5t-52.5 16.5q-27 0 -27 -35h-91v2q0 55 24 92.5t77 37.5q26 0 65.5 -16.5t55.5 -16.5q28 0 28 36h90z" />
    <glyph glyph-name="Odieresis" unicode="&#xd6;" horiz-adv-x="567" 
d="M537 340q0 -63 -13.5 -121.5t-41 -112t-78 -86t-117.5 -32.5q-108 0 -182 89q-75 91 -75 263q0 62 15 120t44 108t80 80.5t117 30.5q53 0 96 -20.5t71 -54t47.5 -78.5t28 -91.5t8.5 -94.5zM350 333q0 178 -65 178q-22 0 -36.5 -20.5t-21 -53t-8.5 -56.5t-2 -47
q0 -24 2 -47t7.5 -56t20 -53.5t36.5 -20.5t36.5 20.5t20.5 52.5t8 56t2 47zM454 792q0 -29 -21.5 -50.5t-50.5 -21.5q-30 0 -52 21.5t-22 51.5t21.5 50.5t51.5 20.5t51.5 -21t21.5 -51zM262 792q0 -29 -21.5 -50.5t-50.5 -21.5q-30 0 -52 21.5t-22 51.5t21.5 50.5t51.5 20.5
t51.5 -21t21.5 -51z" />
    <glyph glyph-name="multiply" unicode="&#xd7;" 
d="M361 144l-111 111l-111 -111l-85 85l111 111l-111 111l85 85l111 -111l111 111l85 -85l-111 -111l111 -111z" />
    <glyph glyph-name="Oslash" unicode="&#xd8;" horiz-adv-x="595" 
d="M565 631l-59 -85q44 -95 44 -206q0 -64 -14 -123.5t-43 -112t-80.5 -84.5t-119.5 -32q-81 0 -152 60l-47 -68l-64 44l61 92q-3 6 -9.5 18.5t-9.5 19.5q-29 67 -29 175q0 64 13 123t41 111.5t79.5 84t119.5 31.5q85 0 159 -66l45 64zM224 301l118 174q-15 41 -48 41
q-22 0 -37.5 -20.5t-22 -53t-8.5 -57t-2 -47.5v-37zM368 364l-118 -174q12 -39 47 -39q22 0 38 20.5t22.5 53t9 58t2.5 48.5q0 22 -1 33z" />
    <glyph glyph-name="Ugrave" unicode="&#xd9;" horiz-adv-x="545" 
d="M499 667v-472q0 -52 -14.5 -87.5t-52.5 -67.5q-60 -52 -151 -52q-104 0 -169 58t-65 174v447h180v-431q0 -23 1.5 -37t12.5 -28t32 -14q13 0 22.5 5.5t14 12t6.5 19.5t2.5 20.5t0.5 21.5v431h180zM324 720h-100l-87 148h139z" />
    <glyph glyph-name="Uacute" unicode="&#xda;" horiz-adv-x="545" 
d="M499 667v-472q0 -52 -14.5 -87.5t-52.5 -67.5q-60 -52 -151 -52q-104 0 -169 58t-65 174v447h180v-431q0 -23 1.5 -37t12.5 -28t32 -14q13 0 22.5 5.5t14 12t6.5 19.5t2.5 20.5t0.5 21.5v431h180zM409 868l-88 -148h-99l47 148h140z" />
    <glyph glyph-name="Ucircumflex" unicode="&#xdb;" horiz-adv-x="545" 
d="M499 667v-472q0 -52 -14.5 -87.5t-52.5 -67.5q-60 -52 -151 -52q-104 0 -169 58t-65 174v447h180v-431q0 -23 1.5 -37t12.5 -28t32 -14q13 0 22.5 5.5t14 12t6.5 19.5t2.5 20.5t0.5 21.5v431h180zM279 870l137 -98l-57 -66l-83 56l-82 -58l-61 66z" />
    <glyph glyph-name="Udieresis" unicode="&#xdc;" horiz-adv-x="545" 
d="M499 667v-472q0 -52 -14.5 -87.5t-52.5 -67.5q-60 -52 -151 -52q-104 0 -169 58t-65 174v447h180v-431q0 -23 1.5 -37t12.5 -28t32 -14q13 0 22.5 5.5t14 12t6.5 19.5t2.5 20.5t0.5 21.5v431h180zM441 792q0 -29 -21.5 -50.5t-50.5 -21.5q-30 0 -52 21.5t-22 51.5
t21.5 50.5t51.5 20.5t51.5 -21t21.5 -51zM249 792q0 -29 -21.5 -50.5t-50.5 -21.5q-30 0 -52 21.5t-22 51.5t21.5 50.5t51.5 20.5t51.5 -21t21.5 -51z" />
    <glyph glyph-name="Yacute" unicode="&#xdd;" 
d="M500 667l-154 -385v-282h-180v282l-166 385h188q52 -161 63 -206q29 106 63 206h186zM389 868l-88 -148h-99l47 148h140z" />
    <glyph glyph-name="Thorn" unicode="&#xde;" horiz-adv-x="505" 
d="M227 667v-93q91 -2 143 -25q59 -26 89 -80.5t30 -122.5q0 -95 -52 -155q-57 -66 -182 -66h-28v-125h-180v667h180zM227 275h9q33 0 52 21t19 54q0 32 -18 55t-49 23q-9 0 -13 -1v-152z" />
    <glyph glyph-name="germandbls" unicode="&#xdf;" horiz-adv-x="526" 
d="M11 467h48q0 87 11 129q17 65 74 104.5t125 39.5q83 0 143.5 -54.5t60.5 -136.5q0 -50 -22 -89.5t-68 -50.5q37 -5 59 -24q57 -50 57 -148q0 -89 -46 -153q-58 -81 -177 -84v143q44 12 44 92q0 87 -44 92v140q33 2 33 61q0 58 -39 58q-38 0 -38 -63v-523h-173v327h-48
v140z" />
    <glyph glyph-name="agrave" unicode="&#xe0;" horiz-adv-x="497" 
d="M457 0h-174q1 13 3 39.5t3 39.5q-45 -89 -120 -89q-42 0 -71.5 25t-44 65.5t-20.5 78.5t-6 77q0 40 6.5 78t21.5 76.5t45.5 62.5t72.5 24q73 0 112 -84q-1 8 -2 34t-3 40h177v-467zM281 254q0 80 -36 80q-44 0 -44 -117q0 -84 39 -84q7 0 13.5 3t10.5 9t7 12t5 16.5t3 17
t1.5 18.5t0.5 17v16v12zM329 530h-100l-87 148h139z" />
    <glyph glyph-name="aacute" unicode="&#xe1;" horiz-adv-x="497" 
d="M457 0h-174q1 13 3 39.5t3 39.5q-45 -89 -120 -89q-42 0 -71.5 25t-44 65.5t-20.5 78.5t-6 77q0 40 6.5 78t21.5 76.5t45.5 62.5t72.5 24q73 0 112 -84q-1 8 -2 34t-3 40h177v-467zM281 254q0 80 -36 80q-44 0 -44 -117q0 -84 39 -84q7 0 13.5 3t10.5 9t7 12t5 16.5t3 17
t1.5 18.5t0.5 17v16v12zM369 678l-88 -148h-99l47 148h140z" />
    <glyph glyph-name="acircumflex" unicode="&#xe2;" horiz-adv-x="497" 
d="M457 0h-174q1 13 3 39.5t3 39.5q-45 -89 -120 -89q-42 0 -71.5 25t-44 65.5t-20.5 78.5t-6 77q0 40 6.5 78t21.5 76.5t45.5 62.5t72.5 24q73 0 112 -84q-1 8 -2 34t-3 40h177v-467zM281 254q0 80 -36 80q-44 0 -44 -117q0 -84 39 -84q7 0 13.5 3t10.5 9t7 12t5 16.5t3 17
t1.5 18.5t0.5 17v16v12zM264 690l129 -117l-58 -63l-74 66l-80 -70l-60 67z" />
    <glyph glyph-name="atilde" unicode="&#xe3;" horiz-adv-x="497" 
d="M457 0h-174q1 13 3 39.5t3 39.5q-45 -89 -120 -89q-42 0 -71.5 25t-44 65.5t-20.5 78.5t-6 77q0 40 6.5 78t21.5 76.5t45.5 62.5t72.5 24q73 0 112 -84q-1 8 -2 34t-3 40h177v-467zM281 254q0 80 -36 80q-44 0 -44 -117q0 -84 39 -84q7 0 13.5 3t10.5 9t7 12t5 16.5t3 17
t1.5 18.5t0.5 17v16v12zM440 665v-14q0 -50 -28 -84.5t-77 -34.5q-27 0 -65 16.5t-52 16.5q-27 0 -27 -35h-91v2q0 55 24 92.5t77 37.5q26 0 65.5 -16.5t55.5 -16.5q28 0 28 36h90z" />
    <glyph glyph-name="adieresis" unicode="&#xe4;" horiz-adv-x="497" 
d="M457 0h-174q1 13 3 39.5t3 39.5q-45 -89 -120 -89q-42 0 -71.5 25t-44 65.5t-20.5 78.5t-6 77q0 40 6.5 78t21.5 76.5t45.5 62.5t72.5 24q73 0 112 -84q-1 8 -2 34t-3 40h177v-467zM281 254q0 80 -36 80q-44 0 -44 -117q0 -84 39 -84q7 0 13.5 3t10.5 9t7 12t5 16.5t3 17
t1.5 18.5t0.5 17v16v12zM434 602q0 -29 -21.5 -50.5t-50.5 -21.5q-30 0 -52 21.5t-22 51.5t21.5 50.5t51.5 20.5t51.5 -21t21.5 -51zM242 602q0 -29 -21.5 -50.5t-50.5 -21.5q-30 0 -52 21.5t-22 51.5t21.5 50.5t51.5 20.5t51.5 -21t21.5 -51z" />
    <glyph glyph-name="aring" unicode="&#xe5;" horiz-adv-x="497" 
d="M457 0h-174q1 13 3 39.5t3 39.5q-45 -89 -120 -89q-42 0 -71.5 25t-44 65.5t-20.5 78.5t-6 77q0 40 6.5 78t21.5 76.5t45.5 62.5t72.5 24q73 0 112 -84q-1 8 -2 34t-3 40h177v-467zM281 254q0 80 -36 80q-44 0 -44 -117q0 -84 39 -84q7 0 13.5 3t10.5 9t7 12t5 16.5t3 17
t1.5 18.5t0.5 17v16v12zM157 619q0 40 28 68t68 28t68 -28t28 -68t-28 -68t-68 -28t-68 28t-28 68zM216 619q0 -16 10.5 -26.5t26.5 -10.5t26.5 10.5t10.5 26.5t-10.5 26.5t-26.5 10.5t-26.5 -10.5t-10.5 -26.5z" />
    <glyph glyph-name="ae" unicode="&#xe6;" horiz-adv-x="735" 
d="M78 321v135q79 21 139 21q89 0 144 -46q64 46 134 46q102 0 157.5 -71t55.5 -176q0 -21 -1 -32h-255q3 -80 46 -80q27 0 39 35l165 -3q-23 -87 -77 -124q-51 -36 -132 -36q-77 0 -138 48q-70 -48 -151 -48q-74 0 -125.5 44.5t-51.5 117.5q0 72 47.5 110.5t121.5 38.5
q41 0 89 -10q-8 57 -93 57q-60 0 -114 -27zM452 291h87q-7 65 -45 65q-16 0 -25.5 -12t-12 -23.5t-4.5 -29.5zM286 150q0 19 -13 30t-33 11q-19 0 -32 -11.5t-13 -30.5q0 -20 13.5 -30t33.5 -10q19 0 31.5 11t12.5 30z" />
    <glyph glyph-name="ccedilla" unicode="&#xe7;" horiz-adv-x="303" 
d="M283 152v-159q-24 -3 -47 -3q-98 0 -153.5 73t-55.5 173t61.5 170.5t159.5 70.5q11 0 35 -2v-152q-77 -5 -77 -84q0 -32 17.5 -59.5t47.5 -27.5h12zM277 -106l-113 -117l-71 54l98 122z" />
    <glyph glyph-name="egrave" unicode="&#xe8;" horiz-adv-x="481" 
d="M279 158l169 -1q-18 -81 -72 -124t-136 -43q-104 0 -158.5 64.5t-54.5 170.5q0 105 58 178t160 73t156 -71t54 -176q0 -5 -0.5 -16t-0.5 -16h-254q0 -72 40 -72q32 0 39 33zM202 290h81q-2 59 -41 59q-38 0 -40 -59zM304 530h-100l-87 148h139z" />
    <glyph glyph-name="eacute" unicode="&#xe9;" horiz-adv-x="481" 
d="M279 158l169 -1q-18 -81 -72 -124t-136 -43q-104 0 -158.5 64.5t-54.5 170.5q0 105 58 178t160 73t156 -71t54 -176q0 -5 -0.5 -16t-0.5 -16h-254q0 -72 40 -72q32 0 39 33zM202 290h81q-2 59 -41 59q-38 0 -40 -59zM375 678l-88 -148h-99l47 148h140z" />
    <glyph glyph-name="ecircumflex" unicode="&#xea;" horiz-adv-x="481" 
d="M279 158l169 -1q-18 -81 -72 -124t-136 -43q-104 0 -158.5 64.5t-54.5 170.5q0 105 58 178t160 73t156 -71t54 -176q0 -5 -0.5 -16t-0.5 -16h-254q0 -72 40 -72q32 0 39 33zM202 290h81q-2 59 -41 59q-38 0 -40 -59zM256 690l129 -117l-58 -63l-74 66l-80 -70l-60 67z
" />
    <glyph glyph-name="edieresis" unicode="&#xeb;" horiz-adv-x="481" 
d="M279 158l169 -1q-18 -81 -72 -124t-136 -43q-104 0 -158.5 64.5t-54.5 170.5q0 105 58 178t160 73t156 -71t54 -176q0 -5 -0.5 -16t-0.5 -16h-254q0 -72 40 -72q32 0 39 33zM202 290h81q-2 59 -41 59q-38 0 -40 -59zM419 602q0 -29 -21.5 -50.5t-50.5 -21.5
q-30 0 -52 21.5t-22 51.5t21.5 50.5t51.5 20.5t51.5 -21t21.5 -51zM227 602q0 -29 -21.5 -50.5t-50.5 -21.5q-30 0 -52 21.5t-22 51.5t21.5 50.5t51.5 20.5t51.5 -21t21.5 -51z" />
    <glyph glyph-name="igrave" unicode="&#xec;" horiz-adv-x="253" 
d="M213 0h-173v467h173v-467zM194 530h-100l-87 148h139z" />
    <glyph glyph-name="iacute" unicode="&#xed;" horiz-adv-x="253" 
d="M213 0h-173v467h173v-467zM244 678l-88 -148h-99l47 148h140z" />
    <glyph glyph-name="icircumflex" unicode="&#xee;" horiz-adv-x="253" 
d="M213 0h-173v467h173v-467zM132 690l129 -117l-58 -63l-74 66l-80 -70l-60 67z" />
    <glyph glyph-name="idieresis" unicode="&#xef;" horiz-adv-x="253" 
d="M213 0h-173v467h173v-467zM295 602q0 -29 -21.5 -50.5t-50.5 -21.5q-30 0 -52 21.5t-22 51.5t21.5 50.5t51.5 20.5t51.5 -21t21.5 -51zM103 602q0 -29 -21.5 -50.5t-50.5 -21.5q-30 0 -52 21.5t-22 51.5t21.5 50.5t51.5 20.5t51.5 -21t21.5 -51z" />
    <glyph glyph-name="eth" unicode="&#xf0;" horiz-adv-x="488" 
d="M386 663l-83 -46q78 -69 118.5 -164t40.5 -201q0 -130 -58 -195q-60 -67 -158 -67q-106 0 -162.5 67t-56.5 175q0 102 54.5 172t153.5 72q-19 48 -46 80l-109 -60l-35 63l91 50q-39 28 -95 52l45 70q79 -22 150 -66l115 63zM293 233q0 15 -2 31t-6.5 36t-15.5 32.5
t-26 12.5q-27 0 -38 -38t-11 -74q0 -14 2 -30.5t6.5 -36.5t15.5 -33t26 -13q28 0 38.5 38t10.5 75z" />
    <glyph glyph-name="ntilde" unicode="&#xf1;" horiz-adv-x="491" 
d="M451 0h-174v247q0 57 -27 57q-37 0 -37 -69v-235h-173v467h173q-2 -58 -4 -89q42 99 123 99q62 0 90.5 -46.5t28.5 -112.5v-318zM425 665v-14q0 -50 -28 -84.5t-77 -34.5q-26 0 -64 16.5t-53 16.5q-27 0 -27 -35h-91v2q0 55 24 92.5t77 37.5q26 0 65.5 -16.5t55.5 -16.5
q28 0 28 36h90z" />
    <glyph glyph-name="ograve" unicode="&#xf2;" horiz-adv-x="487" 
d="M461 229q0 -106 -57.5 -172.5t-162.5 -66.5q-103 0 -158.5 68.5t-55.5 173.5t56.5 175t158.5 70q106 0 162.5 -69.5t56.5 -178.5zM293 233q0 38 -11 75.5t-39 37.5q-27 0 -37.5 -37.5t-10.5 -75.5t10.5 -75t38.5 -37q27 0 38 37.5t11 74.5zM298 530h-100l-87 148h139z
" />
    <glyph glyph-name="oacute" unicode="&#xf3;" horiz-adv-x="487" 
d="M461 229q0 -106 -57.5 -172.5t-162.5 -66.5q-103 0 -158.5 68.5t-55.5 173.5t56.5 175t158.5 70q106 0 162.5 -69.5t56.5 -178.5zM293 233q0 38 -11 75.5t-39 37.5q-27 0 -37.5 -37.5t-10.5 -75.5t10.5 -75t38.5 -37q27 0 38 37.5t11 74.5zM378 678l-88 -148h-99l47 148
h140z" />
    <glyph glyph-name="ocircumflex" unicode="&#xf4;" horiz-adv-x="487" 
d="M461 229q0 -106 -57.5 -172.5t-162.5 -66.5q-103 0 -158.5 68.5t-55.5 173.5t56.5 175t158.5 70q106 0 162.5 -69.5t56.5 -178.5zM293 233q0 38 -11 75.5t-39 37.5q-27 0 -37.5 -37.5t-10.5 -75.5t10.5 -75t38.5 -37q27 0 38 37.5t11 74.5zM258 690l129 -117l-58 -63
l-74 66l-80 -70l-60 67z" />
    <glyph glyph-name="otilde" unicode="&#xf5;" horiz-adv-x="487" 
d="M461 229q0 -106 -57.5 -172.5t-162.5 -66.5q-103 0 -158.5 68.5t-55.5 173.5t56.5 175t158.5 70q106 0 162.5 -69.5t56.5 -178.5zM293 233q0 38 -11 75.5t-39 37.5q-27 0 -37.5 -37.5t-10.5 -75.5t10.5 -75t38.5 -37q27 0 38 37.5t11 74.5zM410 665v-14q0 -50 -28 -84.5
t-77 -34.5q-27 0 -65 16.5t-52 16.5q-27 0 -27 -35h-91v2q0 55 24 92.5t77 37.5q26 0 65.5 -16.5t55.5 -16.5q28 0 28 36h90z" />
    <glyph glyph-name="odieresis" unicode="&#xf6;" horiz-adv-x="487" 
d="M461 229q0 -106 -57.5 -172.5t-162.5 -66.5q-103 0 -158.5 68.5t-55.5 173.5t56.5 175t158.5 70q106 0 162.5 -69.5t56.5 -178.5zM293 233q0 38 -11 75.5t-39 37.5q-27 0 -37.5 -37.5t-10.5 -75.5t10.5 -75t38.5 -37q27 0 38 37.5t11 74.5zM409 602q0 -29 -21.5 -50.5
t-50.5 -21.5q-30 0 -52 21.5t-22 51.5t21.5 50.5t51.5 20.5t51.5 -21t21.5 -51zM217 602q0 -29 -21.5 -50.5t-50.5 -21.5q-30 0 -52 21.5t-22 51.5t21.5 50.5t51.5 20.5t51.5 -21t21.5 -51z" />
    <glyph glyph-name="divide" unicode="&#xf7;" 
d="M324 510q0 -31 -21.5 -52.5t-52.5 -21.5t-52.5 21.5t-21.5 52.5t21.5 52.5t52.5 21.5t52.5 -21.5t21.5 -52.5zM467 280h-434v120h434v-120zM324 170q0 -31 -21.5 -52.5t-52.5 -21.5t-52.5 21.5t-21.5 52.5t21.5 52.5t52.5 21.5t52.5 -21.5t21.5 -52.5z" />
    <glyph glyph-name="oslash" unicode="&#xf8;" horiz-adv-x="487" 
d="M461 472l-50 -72q50 -68 50 -171q0 -106 -57.5 -172.5t-162.5 -66.5q-53 0 -100 21l-47 -67l-67 48l50 73q-50 68 -50 167q0 105 56.5 175t158.5 70q57 0 105 -24l46 66zM293 233q0 38 -11 75.5t-39 37.5q-27 0 -37.5 -37.5t-10.5 -75.5t10.5 -75t38.5 -37q27 0 38 37.5
t11 74.5z" />
    <glyph glyph-name="ugrave" unicode="&#xf9;" horiz-adv-x="499" 
d="M459 467v-287q0 -50 -14.5 -85t-52.5 -62q-61 -43 -142 -43t-142 43q-38 27 -53 62t-15 85v287h173v-274q0 -18 1.5 -28.5t10.5 -20t25 -9.5q17 0 25.5 11.5t9.5 22t1 29.5v6v263h173zM294 530h-100l-87 148h139z" />
    <glyph glyph-name="uacute" unicode="&#xfa;" horiz-adv-x="499" 
d="M459 467v-287q0 -50 -14.5 -85t-52.5 -62q-61 -43 -142 -43t-142 43q-38 27 -53 62t-15 85v287h173v-274q0 -18 1.5 -28.5t10.5 -20t25 -9.5q17 0 25.5 11.5t9.5 22t1 29.5v6v263h173zM389 678l-88 -148h-99l47 148h140z" />
    <glyph glyph-name="ucircumflex" unicode="&#xfb;" horiz-adv-x="499" 
d="M459 467v-287q0 -50 -14.5 -85t-52.5 -62q-61 -43 -142 -43t-142 43q-38 27 -53 62t-15 85v287h173v-274q0 -18 1.5 -28.5t10.5 -20t25 -9.5q17 0 25.5 11.5t9.5 22t1 29.5v6v263h173zM259 690l129 -117l-58 -63l-74 66l-80 -70l-60 67z" />
    <glyph glyph-name="udieresis" unicode="&#xfc;" horiz-adv-x="499" 
d="M459 467v-287q0 -50 -14.5 -85t-52.5 -62q-61 -43 -142 -43t-142 43q-38 27 -53 62t-15 85v287h173v-274q0 -18 1.5 -28.5t10.5 -20t25 -9.5q17 0 25.5 11.5t9.5 22t1 29.5v6v263h173zM422 602q0 -29 -21.5 -50.5t-50.5 -21.5q-30 0 -52 21.5t-22 51.5t21.5 50.5
t51.5 20.5t51.5 -21t21.5 -51zM230 602q0 -29 -21.5 -50.5t-50.5 -21.5q-30 0 -52 21.5t-22 51.5t21.5 50.5t51.5 20.5t51.5 -21t21.5 -51z" />
    <glyph glyph-name="yacute" unicode="&#xfd;" horiz-adv-x="456" 
d="M456 467l-221 -682h-178l82 234l-139 448h174q48 -190 55 -265q19 128 28 164l26 101h173zM369 678l-88 -148h-99l47 148h140z" />
    <glyph glyph-name="thorn" unicode="&#xfe;" horiz-adv-x="495" 
d="M213 729v-262q0 -22 -4 -66q20 38 44.5 57t62.5 19q42 0 73.5 -24t47.5 -63t23.5 -78t7.5 -78t-6.5 -77.5t-22 -78t-46 -64t-72.5 -24.5q-38 0 -63 18.5t-49 54.5q4 -46 4 -71v-207h-173v944h173zM289 239q0 95 -41 95q-40 0 -40 -97q0 -101 39 -101q42 0 42 103z" />
    <glyph glyph-name="ydieresis" unicode="&#xff;" horiz-adv-x="456" 
d="M456 467l-221 -682h-178l82 234l-139 448h174q48 -190 55 -265q19 128 28 164l26 101h173zM403 602q0 -29 -21.5 -50.5t-50.5 -21.5q-30 0 -52 21.5t-22 51.5t21.5 50.5t51.5 20.5t51.5 -21t21.5 -51zM211 602q0 -29 -21.5 -50.5t-50.5 -21.5q-30 0 -52 21.5t-22 51.5
t21.5 50.5t51.5 20.5t51.5 -21t21.5 -51z" />
    <glyph glyph-name="Amacron" unicode="&#x100;" horiz-adv-x="532" 
d="M527 0h-186l-14 85h-121l-15 -85h-186l161 667h220zM230 227h76q-23 155 -34 280q-2 -15 -5.5 -47t-5.5 -47q-15 -103 -31 -186zM445 743h-340v94h340v-94z" />
    <glyph glyph-name="amacron" unicode="&#x101;" horiz-adv-x="497" 
d="M457 0h-174q1 13 3 39.5t3 39.5q-45 -89 -120 -89q-42 0 -71.5 25t-44 65.5t-20.5 78.5t-6 77q0 40 6.5 78t21.5 76.5t45.5 62.5t72.5 24q73 0 112 -84q-1 8 -2 34t-3 40h177v-467zM281 254q0 80 -36 80q-44 0 -44 -117q0 -84 39 -84q7 0 13.5 3t10.5 9t7 12t5 16.5t3 17
t1.5 18.5t0.5 17v16v12zM430 553h-340v94h340v-94z" />
    <glyph glyph-name="Abreve" unicode="&#x102;" horiz-adv-x="532" 
d="M527 0h-186l-14 85h-121l-15 -85h-186l161 667h220zM230 227h76q-23 155 -34 280q-2 -15 -5.5 -47t-5.5 -47q-15 -103 -31 -186zM357 867h69q-6 -69 -48.5 -109t-111.5 -40t-111.5 40t-48.5 109h69q13 -31 34 -42t57 -11t57 11t34 42z" />
    <glyph glyph-name="abreve" unicode="&#x103;" horiz-adv-x="497" 
d="M457 0h-174q1 13 3 39.5t3 39.5q-45 -89 -120 -89q-42 0 -71.5 25t-44 65.5t-20.5 78.5t-6 77q0 40 6.5 78t21.5 76.5t45.5 62.5t72.5 24q73 0 112 -84q-1 8 -2 34t-3 40h177v-467zM281 254q0 80 -36 80q-44 0 -44 -117q0 -84 39 -84q7 0 13.5 3t10.5 9t7 12t5 16.5t3 17
t1.5 18.5t0.5 17v16v12zM340 669h69q-6 -69 -48.5 -109t-111.5 -40t-111.5 40t-48.5 109h69q13 -31 34 -42t57 -11t57 11t34 42z" />
    <glyph glyph-name="Aogonek" unicode="&#x104;" horiz-adv-x="532" 
d="M166 667h220l141 -667h-58q-28 -38 -28 -66q0 -19 11 -28q10 -9 29 -9q16 0 34 9l-8 -77q-34 -12 -64 -12q-42 0 -68 19q-30 22 -30 61q0 29 19 58q15 23 40 45h-63l-14 85h-121l-15 -85h-186zM230 227h76q-13 79 -20 144q-11 111 -14 136q-8 -74 -18 -139
q-10 -69 -24 -141z" />
    <glyph glyph-name="aogonek" unicode="&#x105;" horiz-adv-x="497" 
d="M280 467h177v-467h-54q-24 -36 -24 -65q0 -16 10 -25t29 -9q16 0 32 9l-8 -73q-28 -12 -57 -12q-51 0 -78 24q-22 20 -22 54q0 28 17 55q13 21 34 42h-53l6 79q-17 -35 -39 -56q-34 -33 -80 -33q-50 0 -84 37q-59 65 -59 214q0 63 16.5 118t45.5 84q34 34 83 34
q47 0 80 -34q21 -23 33 -50zM201 230v-13q0 -57 18 -75q8 -9 21 -9q10 0 20 8q21 20 21 82v31q0 58 -17 73q-9 7 -18 7q-12 0 -23 -9q-22 -21 -22 -95z" />
    <glyph glyph-name="Cacute" unicode="&#x106;" horiz-adv-x="445" 
d="M422 205l-11 -193q-55 -24 -107 -24q-69 0 -123 29.5t-86 79t-48.5 109t-16.5 125.5q0 95 31 172t99.5 126.5t164.5 49.5q49 0 89 -17v-190q-38 40 -83 40q-44 0 -72 -30t-36.5 -67t-8.5 -81q0 -43 8.5 -78.5t35.5 -64.5t70 -29q46 0 94 43zM454 868l-88 -148h-99l47 148
h140z" />
    <glyph glyph-name="cacute" unicode="&#x107;" horiz-adv-x="303" 
d="M283 152v-159q-24 -3 -47 -3q-98 0 -153.5 73t-55.5 173t61.5 170.5t159.5 70.5q11 0 35 -2v-152q-77 -5 -77 -84q0 -32 17.5 -59.5t47.5 -27.5h12zM344 678l-88 -148h-99l47 148h140z" />
    <glyph glyph-name="Ccircumflex" unicode="&#x108;" horiz-adv-x="445" 
d="M422 205l-11 -193q-55 -24 -107 -24q-69 0 -123 29.5t-86 79t-48.5 109t-16.5 125.5q0 95 31 172t99.5 126.5t164.5 49.5q49 0 89 -17v-190q-38 40 -83 40q-44 0 -72 -30t-36.5 -67t-8.5 -81q0 -43 8.5 -78.5t35.5 -64.5t70 -29q46 0 94 43zM332 870l137 -98l-57 -66
l-83 56l-82 -58l-61 66z" />
    <glyph glyph-name="ccircumflex" unicode="&#x109;" horiz-adv-x="303" 
d="M283 152v-159q-24 -3 -47 -3q-98 0 -153.5 73t-55.5 173t61.5 170.5t159.5 70.5q11 0 35 -2v-152q-77 -5 -77 -84q0 -32 17.5 -59.5t47.5 -27.5h12zM226 690l129 -117l-58 -63l-74 66l-80 -70l-60 67z" />
    <glyph glyph-name="Cdotaccent" unicode="&#x10a;" horiz-adv-x="445" 
d="M422 205l-11 -193q-55 -24 -107 -24q-69 0 -123 29.5t-86 79t-48.5 109t-16.5 125.5q0 95 31 172t99.5 126.5t164.5 49.5q49 0 89 -17v-190q-38 40 -83 40q-44 0 -72 -30t-36.5 -67t-8.5 -81q0 -43 8.5 -78.5t35.5 -64.5t70 -29q46 0 94 43zM400 795q0 -31 -22 -53
t-53 -22q-32 0 -54.5 22t-22.5 54q0 31 22 53t54 22t54 -22.5t22 -53.5z" />
    <glyph glyph-name="cdotaccent" unicode="&#x10b;" horiz-adv-x="303" 
d="M283 152v-159q-24 -3 -47 -3q-98 0 -153.5 73t-55.5 173t61.5 170.5t159.5 70.5q11 0 35 -2v-152q-77 -5 -77 -84q0 -32 17.5 -59.5t47.5 -27.5h12zM301 605q0 -31 -22 -53t-53 -22q-32 0 -54.5 22t-22.5 54q0 31 22 53t54 22q31 0 53.5 -22.5t22.5 -53.5z" />
    <glyph glyph-name="Ccaron" unicode="&#x10c;" horiz-adv-x="445" 
d="M422 205l-11 -193q-55 -24 -107 -24q-69 0 -123 29.5t-86 79t-48.5 109t-16.5 125.5q0 95 31 172t99.5 126.5t164.5 49.5q49 0 89 -17v-190q-38 40 -83 40q-44 0 -72 -30t-36.5 -67t-8.5 -81q0 -43 8.5 -78.5t35.5 -64.5t70 -29q46 0 94 43zM474 802l-149 -98l-134 100
l61 69l80 -56l85 54z" />
    <glyph glyph-name="ccaron" unicode="&#x10d;" horiz-adv-x="303" 
d="M283 152v-159q-24 -3 -47 -3q-98 0 -153.5 73t-55.5 173t61.5 170.5t159.5 70.5q11 0 35 -2v-152q-77 -5 -77 -84q0 -32 17.5 -59.5t47.5 -27.5h12zM355 623l-138 -117l-134 117l60 67l80 -70l74 66z" />
    <glyph glyph-name="Dcaron" unicode="&#x10e;" horiz-adv-x="537" 
d="M47 667h155q148 0 226.5 -92t78.5 -242q0 -124 -46 -205q-39 -71 -99 -99.5t-147 -28.5h-168v667zM227 500v-339q96 3 96 167q0 28 -3.5 54t-13 54.5t-30 46t-49.5 17.5zM394 802l-149 -98l-134 100l61 69l80 -56l85 54z" />
    <glyph glyph-name="dcaron" unicode="&#x10f;" horiz-adv-x="692" 
d="M457 0h-177v20q0 1 3 43q-23 -36 -46.5 -54.5t-59.5 -18.5q-44 0 -75 23t-46.5 61t-22 76t-6.5 79q0 42 6 80.5t20.5 78.5t46 64.5t75.5 24.5q70 0 111 -78l-3 75v255h174v-729zM289 238q0 95 -40 95q-43 0 -43 -99q0 -95 43 -95q40 0 40 99zM698 667l-92 -221h-103
l47 221h148z" />
    <glyph glyph-name="Dcroat" unicode="&#x110;" horiz-adv-x="537" 
d="M47 667h156q148 0 227 -94q77 -91 77 -237q0 -174 -87 -264q-70 -72 -205 -72h-168v290h-40v103h40v274zM227 290v-129q96 6 96 166q0 97 -35 143q-23 30 -56 30h-5v-107h53v-103h-53z" />
    <glyph glyph-name="dcroat" unicode="&#x111;" horiz-adv-x="528" 
d="M457 499v-499h-177v20l3 43q-21 -35 -42 -52q-29 -21 -67 -21q-52 0 -88 37q-59 60 -59 180q0 132 60 192q36 36 85 36q40 0 71 -23q29 -21 43 -55q-2 64 -3 75v67h-120v105h121v125h173v-125h61v-105h-61zM250 307q-15 0 -25 -12q-19 -22 -19 -85q0 -53 20 -72
q10 -9 23 -9t21 9q19 20 19 79q0 61 -19 81q-9 9 -20 9z" />
    <glyph glyph-name="Emacron" unicode="&#x112;" horiz-adv-x="411" 
d="M381 0h-334v667h334v-157h-154v-97h138v-151h-138v-102h154v-160zM385 743h-340v94h340v-94z" />
    <glyph glyph-name="emacron" unicode="&#x113;" horiz-adv-x="481" 
d="M279 158l169 -1q-18 -81 -72 -124t-136 -43q-104 0 -158.5 64.5t-54.5 170.5q0 105 58 178t160 73t156 -71t54 -176q0 -5 -0.5 -16t-0.5 -16h-254q0 -72 40 -72q32 0 39 33zM202 290h81q-2 59 -41 59q-38 0 -40 -59zM411 553h-340v94h340v-94z" />
    <glyph glyph-name="Edotaccent" unicode="&#x116;" horiz-adv-x="411" 
d="M381 0h-334v667h334v-157h-154v-97h138v-151h-138v-102h154v-160zM291 795q0 -31 -22 -53t-53 -22q-32 0 -54.5 22t-22.5 54q0 31 22 53t54 22q31 0 53.5 -22.5t22.5 -53.5z" />
    <glyph glyph-name="edotaccent" unicode="&#x117;" horiz-adv-x="481" 
d="M279 158l169 -1q-18 -81 -72 -124t-136 -43q-104 0 -158.5 64.5t-54.5 170.5q0 105 58 178t160 73t156 -71t54 -176q0 -5 -0.5 -16t-0.5 -16h-254q0 -72 40 -72q32 0 39 33zM202 290h81q-2 59 -41 59q-38 0 -40 -59zM317 605q0 -31 -22 -53t-53 -22q-32 0 -54.5 22
t-22.5 54q0 31 22 53t54 22q31 0 53.5 -22.5t22.5 -53.5z" />
    <glyph glyph-name="Eogonek" unicode="&#x118;" horiz-adv-x="411" 
d="M47 667h334v-157h-154v-97h138v-151h-138v-102h154v-160h-56q-28 -38 -28 -66q0 -19 11 -28q10 -9 29 -9q16 0 34 9l-8 -77q-34 -12 -64 -12q-42 0 -68 19q-30 22 -30 61q0 29 19 58q15 23 40 45h-213v667z" />
    <glyph glyph-name="eogonek" unicode="&#x119;" horiz-adv-x="481" 
d="M279 158h169q-14 -80 -79 -131q-9 -7 -33.5 -23.5t-34.5 -26.5q-21 -19 -21 -42q0 -17 10 -25q9 -9 26 -9t35 9l-8 -73q-28 -12 -61 -12q-45 0 -68 20q-28 23 -28 62q0 48 50 83q-88 0 -144 54q-65 63 -65 181q0 124 75 196q56 55 142 55q90 0 144 -56q67 -71 67 -194
q0 -19 -1 -29h-254q0 -45 16 -62q10 -10 24 -10q16 0 27 11q9 9 12 22zM202 290h81q0 31 -15 47q-11 12 -26 12q-14 0 -24 -10q-16 -16 -16 -49z" />
    <glyph glyph-name="Ecaron" unicode="&#x11a;" horiz-adv-x="411" 
d="M381 0h-334v667h334v-157h-154v-97h138v-151h-138v-102h154v-160zM364 802l-149 -98l-134 100l61 69l80 -56l85 54z" />
    <glyph glyph-name="ecaron" unicode="&#x11b;" horiz-adv-x="481" 
d="M279 158l169 -1q-18 -81 -72 -124t-136 -43q-104 0 -158.5 64.5t-54.5 170.5q0 105 58 178t160 73t156 -71t54 -176q0 -5 -0.5 -16t-0.5 -16h-254q0 -72 40 -72q32 0 39 33zM202 290h81q-2 59 -41 59q-38 0 -40 -59zM385 623l-138 -117l-134 117l60 67l80 -70l74 66z" />
    <glyph glyph-name="Gcircumflex" unicode="&#x11c;" horiz-adv-x="560" 
d="M530 385v-27q0 -170 -44 -255q-29 -56 -82 -85.5t-117 -29.5q-56 0 -100.5 20t-73.5 53t-48 78t-27 92t-8 99q0 66 13.5 124.5t42 110.5t80 83t121.5 31q157 0 229 -165l-175 -64q-3 26 -16 47t-37 21q-74 0 -74 -204q0 -165 68 -165q34 0 48.5 29.5t14.5 66.5h-66v140
h251zM307 870l137 -98l-57 -66l-83 56l-82 -58l-61 66z" />
    <glyph glyph-name="gcircumflex" unicode="&#x11d;" horiz-adv-x="493" 
d="M453 467v-479q0 -80 -35 -128q-56 -75 -175 -75q-186 0 -210 169h177q0 -16 10 -27t26 -11q41 0 41 66v72q-45 -61 -109 -61q-55 0 -91 42.5t-48 93.5t-12 105q0 38 7.5 77t23.5 78t46.5 63.5t71.5 24.5q57 0 105 -71l-3 61h175zM285 235q0 101 -38 101q-41 0 -41 -98
q0 -102 41 -102q38 0 38 99zM253 690l129 -117l-58 -63l-74 66l-80 -70l-60 67z" />
    <glyph glyph-name="Gbreve" unicode="&#x11e;" horiz-adv-x="560" 
d="M530 385v-27q0 -170 -44 -255q-29 -56 -82 -85.5t-117 -29.5q-56 0 -100.5 20t-73.5 53t-48 78t-27 92t-8 99q0 66 13.5 124.5t42 110.5t80 83t121.5 31q157 0 229 -165l-175 -64q-3 26 -16 47t-37 21q-74 0 -74 -204q0 -165 68 -165q34 0 48.5 29.5t14.5 66.5h-66v140
h251zM381 867h69q-6 -69 -48.5 -109t-111.5 -40t-111.5 40t-48.5 109h69q13 -31 34 -42t57 -11t57 11t34 42z" />
    <glyph glyph-name="gbreve" unicode="&#x11f;" horiz-adv-x="493" 
d="M453 467v-479q0 -80 -35 -128q-56 -75 -175 -75q-186 0 -210 169h177q0 -16 10 -27t26 -11q41 0 41 66v72q-45 -61 -109 -61q-55 0 -91 42.5t-48 93.5t-12 105q0 38 7.5 77t23.5 78t46.5 63.5t71.5 24.5q57 0 105 -71l-3 61h175zM285 235q0 101 -38 101q-41 0 -41 -98
q0 -102 41 -102q38 0 38 99zM348 669h69q-6 -69 -48.5 -109t-111.5 -40t-111.5 40t-48.5 109h69q13 -31 34 -42t57 -11t57 11t34 42z" />
    <glyph glyph-name="Gdotaccent" unicode="&#x120;" horiz-adv-x="560" 
d="M530 385v-27q0 -170 -44 -255q-29 -56 -82 -85.5t-117 -29.5q-56 0 -100.5 20t-73.5 53t-48 78t-27 92t-8 99q0 66 13.5 124.5t42 110.5t80 83t121.5 31q157 0 229 -165l-175 -64q-3 26 -16 47t-37 21q-74 0 -74 -204q0 -165 68 -165q34 0 48.5 29.5t14.5 66.5h-66v140
h251zM362 795q0 -31 -22 -53t-53 -22q-32 0 -54.5 22t-22.5 54q0 31 22 53t54 22t54 -22.5t22 -53.5z" />
    <glyph glyph-name="gdotaccent" unicode="&#x121;" horiz-adv-x="493" 
d="M453 467v-479q0 -80 -35 -128q-56 -75 -175 -75q-186 0 -210 169h177q0 -16 10 -27t26 -11q41 0 41 66v72q-45 -61 -109 -61q-55 0 -91 42.5t-48 93.5t-12 105q0 38 7.5 77t23.5 78t46.5 63.5t71.5 24.5q57 0 105 -71l-3 61h175zM285 235q0 101 -38 101q-41 0 -41 -98
q0 -102 41 -102q38 0 38 99zM311 605q0 -31 -22 -53t-53 -22q-32 0 -54.5 22t-22.5 54q0 31 22 53t54 22q31 0 53.5 -22.5t22.5 -53.5z" />
    <glyph glyph-name="Gcommaaccent" unicode="&#x122;" horiz-adv-x="560" 
d="M530 385v-27q0 -170 -44 -255q-29 -56 -82 -85.5t-117 -29.5q-56 0 -100.5 20t-73.5 53t-48 78t-27 92t-8 99q0 66 13.5 124.5t42 110.5t80 83t121.5 31q157 0 229 -165l-175 -64q-3 26 -16 47t-37 21q-74 0 -74 -204q0 -165 68 -165q34 0 48.5 29.5t14.5 66.5h-66v140
h251zM368 -45l-80 -189h-102l35 189h147z" />
    <glyph glyph-name="gcommaaccent" unicode="&#x123;" horiz-adv-x="493" 
d="M453 467v-479q0 -80 -35 -128q-56 -75 -175 -75q-186 0 -210 169h177q0 -16 10 -27t26 -11q41 0 41 66v72q-45 -61 -109 -61q-55 0 -91 42.5t-48 93.5t-12 105q0 38 7.5 77t23.5 78t46.5 63.5t71.5 24.5q57 0 105 -71l-3 61h175zM285 235q0 101 -38 101q-41 0 -41 -98
q0 -102 41 -102q38 0 38 99zM154 513l80 189h102l-35 -189h-147z" />
    <glyph glyph-name="Hcircumflex" unicode="&#x124;" horiz-adv-x="539" 
d="M493 0h-180v268h-86v-268h-180v667h180v-236h86v236h180v-667zM277 870l137 -98l-57 -66l-83 56l-82 -58l-61 66z" />
    <glyph glyph-name="hcircumflex" unicode="&#x125;" horiz-adv-x="491" 
d="M451 0h-174v247q0 57 -27 57q-37 0 -37 -69v-235h-173v729h173v-261q0 -30 -4 -90q42 99 123 99q62 0 90.5 -46.5t28.5 -112.5v-318zM136 925l129 -117l-58 -63l-74 66l-80 -70l-60 67z" />
    <glyph glyph-name="Hbar" unicode="&#x126;" horiz-adv-x="539" 
d="M47 0v505h-50v121h50v41h180v-41h86v41h180v-41h50v-121h-50v-505h-180v268h-86v-268h-180zM313 505h-86v-84h86v84z" />
    <glyph glyph-name="hbar" unicode="&#x127;" horiz-adv-x="522" 
d="M482 0h-174v205q0 57 -27 57q-37 0 -37 -69v-193h-173v499h-61v105h61v125h173v-125h121v-105h-120l-1 -57q0 -14 -4 -106q42 99 123 99q62 0 90.5 -46.5t28.5 -112.5v-276z" />
    <glyph glyph-name="Imacron" unicode="&#x12a;" horiz-adv-x="273" 
d="M227 0h-180v667h180v-667zM307 743h-340v94h340v-94z" />
    <glyph glyph-name="imacron" unicode="&#x12b;" horiz-adv-x="253" 
d="M213 0h-173v467h173v-467zM297 553h-340v94h340v-94z" />
    <glyph glyph-name="Iogonek" unicode="&#x12e;" horiz-adv-x="273" 
d="M47 667h180v-667q-28 -38 -28 -66q0 -19 11 -28q10 -9 29 -9q16 0 34 9l-8 -77q-34 -12 -64 -12q-42 0 -68 19q-30 22 -30 61q0 29 19 58q15 23 40 45h-115v667z" />
    <glyph glyph-name="iogonek" unicode="&#x12f;" horiz-adv-x="253" 
d="M40 467h173v-467q-16 -12 -30 -31q-15 -21 -15 -36t11 -24q11 -8 27 -8q15 0 33 9l-8 -73q-28 -12 -61 -12q-42 0 -67 18q-29 21 -29 58q0 33 22 58q18 21 46 41h-102v467zM26 612q0 41 30 71t71 30t71 -30t30 -71t-30 -71t-71 -30t-71 30t-30 71z" />
    <glyph glyph-name="Idotaccent" unicode="&#x130;" horiz-adv-x="273" 
d="M227 0h-180v667h180v-667zM211 795q0 -31 -22 -53t-53 -22q-32 0 -54.5 22t-22.5 54q0 31 22 53t54 22q31 0 53.5 -22.5t22.5 -53.5z" />
    <glyph glyph-name="dotlessi" unicode="&#x131;" horiz-adv-x="253" 
d="M213 0h-173v467h173v-467z" />
    <glyph glyph-name="Jcircumflex" unicode="&#x134;" horiz-adv-x="354" 
d="M307 667v-463q0 -81 -22 -125q-45 -91 -167 -91q-57 0 -118 22v186q31 -39 72 -39q55 0 55 82v428h180zM217 870l137 -98l-57 -66l-83 56l-82 -58l-61 66z" />
    <glyph glyph-name="jcircumflex" unicode="&#x135;" horiz-adv-x="254" 
d="M214 -215h-173l-1 682h174v-682zM126 690l129 -117l-58 -63l-74 66l-80 -70l-60 67z" />
    <glyph glyph-name="Kcommaaccent" unicode="&#x136;" horiz-adv-x="541" 
d="M536 0h-194l-120 319l5 -319h-180v667h180l-5 -298l106 298h190l-142 -322zM357 -45l-80 -189h-102l35 189h147z" />
    <glyph glyph-name="kcommaaccent" unicode="&#x137;" horiz-adv-x="495" 
d="M495 0h-199q-10 26 -28 70.5t-31.5 81t-23.5 72.5v-224h-173v729h173v-466q10 32 23 65t32 75t28 64h187l-115 -215zM334 -45l-80 -189h-102l35 189h147z" />
    <glyph glyph-name="Lacute" unicode="&#x139;" horiz-adv-x="369" 
d="M362 0h-315v667h180v-507h135v-160zM264 868l-88 -148h-99l47 148h140z" />
    <glyph glyph-name="lacute" unicode="&#x13a;" horiz-adv-x="253" 
d="M213 0h-173v729h173v-729zM244 918l-88 -148h-99l47 148h140z" />
    <glyph glyph-name="Lcommaaccent" unicode="&#x13b;" horiz-adv-x="369" 
d="M362 0h-315v667h180v-507h135v-160zM287 -45l-80 -189h-102l35 189h147z" />
    <glyph glyph-name="lcommaaccent" unicode="&#x13c;" horiz-adv-x="253" 
d="M213 0h-173v729h173v-729zM204 -45l-80 -189h-102l35 189h147z" />
    <glyph glyph-name="Lcaron" unicode="&#x13d;" horiz-adv-x="477" 
d="M362 0h-315v667h180v-507h135v-160zM463 667l-90 -209h-100l46 209h144z" />
    <glyph glyph-name="lcaron" unicode="&#x13e;" horiz-adv-x="447" 
d="M213 0h-173v729h173v-729zM453 667l-92 -221h-103l47 221h148z" />
    <glyph glyph-name="Ldot" unicode="&#x13f;" horiz-adv-x="392" 
d="M362 0h-315v667h180v-507h135v-160zM409 333q0 -31 -22 -53t-53 -22q-32 0 -54.5 22t-22.5 54q0 31 22 53t54 22q31 0 53.5 -22.5t22.5 -53.5z" />
    <glyph glyph-name="ldot" unicode="&#x140;" horiz-adv-x="385" 
d="M213 0h-173v729h173v-729zM395 364q0 -31 -22 -53t-53 -22q-32 0 -54.5 22t-22.5 54q0 31 22 53t54 22q31 0 53.5 -22t22.5 -54z" />
    <glyph glyph-name="Lslash" unicode="&#x141;" horiz-adv-x="375" 
d="M369 0h-316v217l-53 -62v121l53 61v330h180v-214l89 96v-124l-89 -94v-171h136v-160z" />
    <glyph glyph-name="lslash" unicode="&#x142;" horiz-adv-x="293" 
d="M233 729v-237l47 46v-112l-47 -47v-379h-173v243l-47 -47v113l47 46v374h173z" />
    <glyph glyph-name="Nacute" unicode="&#x143;" horiz-adv-x="563" 
d="M516 0h-172q-11 31 -35 93t-38 99.5t-32 91.5t-31 100q11 -156 11 -214v-170h-172v667h172l90 -234q20 -51 55 -168q-20 164 -20 246v156h172v-667zM424 868l-88 -148h-99l47 148h140z" />
    <glyph glyph-name="nacute" unicode="&#x144;" horiz-adv-x="491" 
d="M451 0h-174v247q0 57 -27 57q-37 0 -37 -69v-235h-173v467h173q-2 -58 -4 -89q42 99 123 99q62 0 90.5 -46.5t28.5 -112.5v-318zM394 678l-88 -148h-99l47 148h140z" />
    <glyph glyph-name="Ncommaaccent" unicode="&#x145;" horiz-adv-x="563" 
d="M516 0h-172q-11 31 -35 93t-38 99.5t-32 91.5t-31 100q11 -156 11 -214v-170h-172v667h172l90 -234q20 -51 55 -168q-20 164 -20 246v156h172v-667zM357 -45l-80 -189h-102l35 189h147z" />
    <glyph glyph-name="ncommaaccent" unicode="&#x146;" horiz-adv-x="491" 
d="M451 0h-174v247q0 57 -27 57q-37 0 -37 -69v-235h-173v467h173q-2 -58 -4 -89q42 99 123 99q62 0 90.5 -46.5t28.5 -112.5v-318zM329 -45l-80 -189h-102l35 189h147z" />
    <glyph glyph-name="Ncaron" unicode="&#x147;" horiz-adv-x="563" 
d="M516 0h-172q-11 31 -35 93t-38 99.5t-32 91.5t-31 100q11 -156 11 -214v-170h-172v667h172l90 -234q20 -51 55 -168q-20 164 -20 246v156h172v-667zM434 802l-149 -98l-134 100l61 69l80 -56l85 54z" />
    <glyph glyph-name="ncaron" unicode="&#x148;" horiz-adv-x="491" 
d="M451 0h-174v247q0 57 -27 57q-37 0 -37 -69v-235h-173v467h173q-2 -58 -4 -89q42 99 123 99q62 0 90.5 -46.5t28.5 -112.5v-318zM395 623l-138 -117l-134 117l60 67l80 -70l74 66z" />
    <glyph glyph-name="Omacron" unicode="&#x14c;" horiz-adv-x="567" 
d="M537 340q0 -63 -13.5 -121.5t-41 -112t-78 -86t-117.5 -32.5q-108 0 -182 89q-75 91 -75 263q0 62 15 120t44 108t80 80.5t117 30.5q53 0 96 -20.5t71 -54t47.5 -78.5t28 -91.5t8.5 -94.5zM350 333q0 178 -65 178q-22 0 -36.5 -20.5t-21 -53t-8.5 -56.5t-2 -47
q0 -24 2 -47t7.5 -56t20 -53.5t36.5 -20.5t36.5 20.5t20.5 52.5t8 56t2 47zM454 743h-340v94h340v-94z" />
    <glyph glyph-name="omacron" unicode="&#x14d;" horiz-adv-x="487" 
d="M461 229q0 -106 -57.5 -172.5t-162.5 -66.5q-103 0 -158.5 68.5t-55.5 173.5t56.5 175t158.5 70q106 0 162.5 -69.5t56.5 -178.5zM293 233q0 38 -11 75.5t-39 37.5q-27 0 -37.5 -37.5t-10.5 -75.5t10.5 -75t38.5 -37q27 0 38 37.5t11 74.5zM414 553h-340v94h340v-94z" />
    <glyph glyph-name="Obreve" unicode="&#x14e;" horiz-adv-x="567" 
d="M537 340q0 -63 -13.5 -121.5t-41 -112t-78 -86t-117.5 -32.5q-108 0 -182 89q-75 91 -75 263q0 62 15 120t44 108t80 80.5t117 30.5q53 0 96 -20.5t71 -54t47.5 -78.5t28 -91.5t8.5 -94.5zM350 333q0 178 -65 178q-22 0 -36.5 -20.5t-21 -53t-8.5 -56.5t-2 -47
q0 -24 2 -47t7.5 -56t20 -53.5t36.5 -20.5t36.5 20.5t20.5 52.5t8 56t2 47zM374 867h69q-6 -69 -48.5 -109t-111.5 -40t-111.5 40t-48.5 109h69q13 -31 34 -42t57 -11t57 11t34 42z" />
    <glyph glyph-name="obreve" unicode="&#x14f;" horiz-adv-x="487" 
d="M461 229q0 -106 -57.5 -172.5t-162.5 -66.5q-103 0 -158.5 68.5t-55.5 173.5t56.5 175t158.5 70q106 0 162.5 -69.5t56.5 -178.5zM293 233q0 38 -11 75.5t-39 37.5q-27 0 -37.5 -37.5t-10.5 -75.5t10.5 -75t38.5 -37q27 0 38 37.5t11 74.5zM335 669h69q-6 -69 -48.5 -109
t-111.5 -40t-111.5 40t-48.5 109h69q13 -31 34 -42t57 -11t57 11t34 42z" />
    <glyph glyph-name="Ohungarumlaut" unicode="&#x150;" horiz-adv-x="567" 
d="M537 340q0 -63 -13.5 -121.5t-41 -112t-78 -86t-117.5 -32.5q-108 0 -182 89q-75 91 -75 263q0 62 15 120t44 108t80 80.5t117 30.5q53 0 96 -20.5t71 -54t47.5 -78.5t28 -91.5t8.5 -94.5zM350 333q0 178 -65 178q-22 0 -36.5 -20.5t-21 -53t-8.5 -56.5t-2 -47
q0 -24 2 -47t7.5 -56t20 -53.5t36.5 -20.5t36.5 20.5t20.5 52.5t8 56t2 47zM484 868l-88 -148h-89l47 148h130zM317 868l-88 -148h-89l47 148h130z" />
    <glyph glyph-name="ohungarumlaut" unicode="&#x151;" horiz-adv-x="487" 
d="M461 229q0 -106 -57.5 -172.5t-162.5 -66.5q-103 0 -158.5 68.5t-55.5 173.5t56.5 175t158.5 70q106 0 162.5 -69.5t56.5 -178.5zM293 233q0 38 -11 75.5t-39 37.5q-27 0 -37.5 -37.5t-10.5 -75.5t10.5 -75t38.5 -37q27 0 38 37.5t11 74.5zM439 678l-88 -148h-89l47 148
h130zM272 678l-88 -148h-89l47 148h130z" />
    <glyph glyph-name="OE" unicode="&#x152;" horiz-adv-x="708" 
d="M678 0h-325v49q-36 -57 -103 -57q-76 0 -130 56q-90 93 -90 285t93 285q56 56 133 56q67 0 97 -53v46h324v-157h-151v-97h136v-151h-136v-102h152v-160zM217 326q0 -121 35 -156q14 -14 32 -14t32 15q33 36 33 167q0 112 -27 152q-14 21 -35 21q-20 0 -34 -16
q-36 -42 -36 -169z" />
    <glyph glyph-name="oe" unicode="&#x153;" horiz-adv-x="737" 
d="M538 157h165q-18 -80 -74 -123.5t-135 -43.5q-73 0 -128 43q-48 -43 -113 -43q-110 0 -168 68t-58 179q0 107 57.5 172.5t163.5 66.5q74 0 126 -43q53 43 123 43q100 -1 157 -69t57 -170q0 -6 -0.5 -19t-0.5 -21h-257q3 -78 46 -78q30 0 39 38zM453 290h87q-8 59 -45 59
q-34 0 -42 -59zM294 234q0 15 -2 31.5t-6.5 36.5t-15.5 32.5t-26 12.5q-27 0 -37.5 -37.5t-10.5 -75.5q0 -15 2 -31.5t6.5 -36.5t15.5 -32.5t26 -12.5q27 0 37.5 38.5t10.5 74.5z" />
    <glyph glyph-name="Racute" unicode="&#x154;" horiz-adv-x="533" 
d="M521 0h-195q-93 252 -102 277q3 -44 3 -88v-189h-180v667h184q84 0 139 -23q58 -25 89 -79.5t31 -120.5q0 -120 -103 -167zM227 358h12q33 0 52.5 25t19.5 59q0 75 -84 75v-159zM384 868l-88 -148h-99l47 148h140z" />
    <glyph glyph-name="racute" unicode="&#x155;" horiz-adv-x="344" 
d="M334 478v-194q-25 15 -48 15q-34 0 -55 -27q-18 -23 -18 -72v-200h-173v467h173l-9 -91q40 99 130 102zM324 678l-88 -148h-99l47 148h140z" />
    <glyph glyph-name="Rcommaaccent" unicode="&#x156;" horiz-adv-x="533" 
d="M521 0h-195q-93 252 -102 277q3 -44 3 -88v-189h-180v667h184q84 0 139 -23q58 -25 89 -79.5t31 -120.5q0 -120 -103 -167zM227 358h12q33 0 52.5 25t19.5 59q0 75 -84 75v-159zM332 -45l-80 -189h-102l35 189h147z" />
    <glyph glyph-name="rcommaaccent" unicode="&#x157;" horiz-adv-x="344" 
d="M334 478v-194q-25 15 -48 15q-34 0 -55 -27q-18 -23 -18 -72v-200h-173v467h173l-9 -91q40 99 130 102zM284 -45l-80 -189h-102l35 189h147z" />
    <glyph glyph-name="Rcaron" unicode="&#x158;" horiz-adv-x="533" 
d="M521 0h-195q-93 252 -102 277q3 -44 3 -88v-189h-180v667h184q84 0 139 -23q58 -25 89 -79.5t31 -120.5q0 -120 -103 -167zM227 358h12q33 0 52.5 25t19.5 59q0 75 -84 75v-159zM394 802l-149 -98l-134 100l61 69l80 -56l85 54z" />
    <glyph glyph-name="rcaron" unicode="&#x159;" horiz-adv-x="344" 
d="M334 478v-194q-25 15 -48 15q-34 0 -55 -27q-18 -23 -18 -72v-200h-173v467h173l-9 -91q40 99 130 102zM325 623l-138 -117l-134 117l60 67l80 -70l74 66z" />
    <glyph glyph-name="Sacute" unicode="&#x15a;" horiz-adv-x="404" 
d="M362 645v-204q-48 73 -106 73q-18 0 -32.5 -11t-14.5 -29t17.5 -35.5t43 -35.5t51 -41t43 -61.5t17.5 -86.5q0 -95 -59 -160.5t-153 -65.5q-67 0 -136 29v209q53 -73 114 -73q21 0 37 11.5t16 32.5q0 19 -17.5 37.5t-42.5 37.5t-50 42t-42.5 61t-17.5 85q0 89 57.5 154
t145.5 65q64 0 129 -34zM374 868l-88 -148h-99l47 148h140z" />
    <glyph glyph-name="sacute" unicode="&#x15b;" horiz-adv-x="395" 
d="M370 439l-60 -127q-41 41 -71 41q-27 0 -27 -22q0 -18 26 -32t56.5 -24.5t56.5 -41.5t26 -79q0 -76 -55 -120t-133 -44q-75 0 -166 49l63 129q47 -49 87 -49q13 0 23.5 6.5t10.5 18.5q0 15 -26.5 28t-57.5 24.5t-57.5 42.5t-26.5 78q0 74 58 117t134 43q63 0 139 -38z
M364 678l-88 -148h-99l47 148h140z" />
    <glyph glyph-name="Scircumflex" unicode="&#x15c;" horiz-adv-x="404" 
d="M362 645v-204q-48 73 -106 73q-18 0 -32.5 -11t-14.5 -29t17.5 -35.5t43 -35.5t51 -41t43 -61.5t17.5 -86.5q0 -95 -59 -160.5t-153 -65.5q-67 0 -136 29v209q53 -73 114 -73q21 0 37 11.5t16 32.5q0 19 -17.5 37.5t-42.5 37.5t-50 42t-42.5 61t-17.5 85q0 89 57.5 154
t145.5 65q64 0 129 -34zM247 870l137 -98l-57 -66l-83 56l-82 -58l-61 66z" />
    <glyph glyph-name="scircumflex" unicode="&#x15d;" horiz-adv-x="395" 
d="M370 439l-60 -127q-41 41 -71 41q-27 0 -27 -22q0 -18 26 -32t56.5 -24.5t56.5 -41.5t26 -79q0 -76 -55 -120t-133 -44q-75 0 -166 49l63 129q47 -49 87 -49q13 0 23.5 6.5t10.5 18.5q0 15 -26.5 28t-57.5 24.5t-57.5 42.5t-26.5 78q0 74 58 117t134 43q63 0 139 -38z
M240 690l129 -117l-58 -63l-74 66l-80 -70l-60 67z" />
    <glyph glyph-name="Scedilla" unicode="&#x15e;" horiz-adv-x="404" 
d="M362 645v-204q-48 73 -106 73q-18 0 -32.5 -11t-14.5 -29t17.5 -35.5t43 -35.5t51 -41t43 -61.5t17.5 -86.5q0 -95 -59 -160.5t-153 -65.5q-67 0 -136 29v209q53 -73 114 -73q21 0 37 11.5t16 32.5q0 19 -17.5 37.5t-42.5 37.5t-50 42t-42.5 61t-17.5 85q0 89 57.5 154
t145.5 65q64 0 129 -34zM270 -113l-124 -124l-77 53l108 137z" />
    <glyph glyph-name="scedilla" unicode="&#x15f;" horiz-adv-x="395" 
d="M370 439l-60 -127q-41 41 -71 41q-27 0 -27 -22q0 -18 26 -32t56.5 -24.5t56.5 -41.5t26 -79q0 -76 -55 -120t-133 -44q-75 0 -166 49l63 129q47 -49 87 -49q13 0 23.5 6.5t10.5 18.5q0 15 -26.5 28t-57.5 24.5t-57.5 42.5t-26.5 78q0 74 58 117t134 43q63 0 139 -38z
M275 -106l-113 -117l-71 54l98 122z" />
    <glyph glyph-name="Scaron" unicode="&#x160;" horiz-adv-x="404" 
d="M362 645v-204q-48 73 -106 73q-18 0 -32.5 -11t-14.5 -29t17.5 -35.5t43 -35.5t51 -41t43 -61.5t17.5 -86.5q0 -95 -59 -160.5t-153 -65.5q-67 0 -136 29v209q53 -73 114 -73q21 0 37 11.5t16 32.5q0 19 -17.5 37.5t-42.5 37.5t-50 42t-42.5 61t-17.5 85q0 89 57.5 154
t145.5 65q64 0 129 -34zM384 802l-149 -98l-134 100l61 69l80 -56l85 54z" />
    <glyph glyph-name="scaron" unicode="&#x161;" horiz-adv-x="395" 
d="M370 439l-60 -127q-41 41 -71 41q-27 0 -27 -22q0 -18 26 -32t56.5 -24.5t56.5 -41.5t26 -79q0 -76 -55 -120t-133 -44q-75 0 -166 49l63 129q47 -49 87 -49q13 0 23.5 6.5t10.5 18.5q0 15 -26.5 28t-57.5 24.5t-57.5 42.5t-26.5 78q0 74 58 117t134 43q63 0 139 -38z
M366 623l-138 -117l-134 117l60 67l80 -70l74 66z" />
    <glyph glyph-name="Tcedilla" unicode="&#x162;" horiz-adv-x="378" 
d="M378 507h-99v-507h-180v507h-99v160h378v-160zM280 -113l-124 -124l-77 53l108 137z" />
    <glyph glyph-name="tcedilla" unicode="&#x163;" horiz-adv-x="301" 
d="M294 327h-57v-327h-173v327h-50v140h50v137h173v-137h57v-140zM239 -106l-113 -117l-71 54l98 122z" />
    <glyph glyph-name="Tcaron" unicode="&#x164;" horiz-adv-x="378" 
d="M279 507h99v160h-378v-160h99v-507h180v507zM344 802l-149 -98l-134 100l61 69l80 -56l85 54z" />
    <glyph glyph-name="tcaron" unicode="&#x165;" horiz-adv-x="472" 
d="M294 327h-57v-327h-173v327h-50v140h50v137h173v-137h57v-140zM473 727l-92 -221h-103l47 221h148z" />
    <glyph glyph-name="Utilde" unicode="&#x168;" horiz-adv-x="545" 
d="M499 667v-472q0 -52 -14.5 -87.5t-52.5 -67.5q-60 -52 -151 -52q-104 0 -169 58t-65 174v447h180v-431q0 -23 1.5 -37t12.5 -28t32 -14q13 0 22.5 5.5t14 12t6.5 19.5t2.5 20.5t0.5 21.5v431h180zM442 855v-14q0 -50 -28 -84.5t-77 -34.5q-27 0 -65 16.5t-52 16.5
q-27 0 -27 -35h-91v2q0 55 24 92.5t77 37.5q26 0 65.5 -16.5t55.5 -16.5q28 0 28 36h90z" />
    <glyph glyph-name="utilde" unicode="&#x169;" horiz-adv-x="499" 
d="M459 467v-287q0 -50 -14.5 -85t-52.5 -62q-61 -43 -142 -43t-142 43q-38 27 -53 62t-15 85v287h173v-274q0 -18 1.5 -28.5t10.5 -20t25 -9.5q17 0 25.5 11.5t9.5 22t1 29.5v6v263h173zM419 665v-14q0 -50 -28 -84.5t-77 -34.5q-26 0 -64 16.5t-53 16.5q-27 0 -27 -35h-91
v2q0 55 24 92.5t77 37.5q26 0 65.5 -16.5t55.5 -16.5q28 0 28 36h90z" />
    <glyph glyph-name="Umacron" unicode="&#x16a;" horiz-adv-x="545" 
d="M499 667v-472q0 -52 -14.5 -87.5t-52.5 -67.5q-60 -52 -151 -52q-104 0 -169 58t-65 174v447h180v-431q0 -23 1.5 -37t12.5 -28t32 -14q13 0 22.5 5.5t14 12t6.5 19.5t2.5 20.5t0.5 21.5v431h180zM443 743h-340v94h340v-94z" />
    <glyph glyph-name="umacron" unicode="&#x16b;" horiz-adv-x="499" 
d="M459 467v-287q0 -50 -14.5 -85t-52.5 -62q-61 -43 -142 -43t-142 43q-38 27 -53 62t-15 85v287h173v-274q0 -18 1.5 -28.5t10.5 -20t25 -9.5q17 0 25.5 11.5t9.5 22t1 29.5v6v263h173zM420 553h-340v94h340v-94z" />
    <glyph glyph-name="Ubreve" unicode="&#x16c;" horiz-adv-x="545" 
d="M499 667v-472q0 -52 -14.5 -87.5t-52.5 -67.5q-60 -52 -151 -52q-104 0 -169 58t-65 174v447h180v-431q0 -23 1.5 -37t12.5 -28t32 -14q13 0 22.5 5.5t14 12t6.5 19.5t2.5 20.5t0.5 21.5v431h180zM363 867h69q-6 -69 -48.5 -109t-111.5 -40t-111.5 40t-48.5 109h69
q13 -31 34 -42t57 -11t57 11t34 42z" />
    <glyph glyph-name="ubreve" unicode="&#x16d;" horiz-adv-x="499" 
d="M459 467v-287q0 -50 -14.5 -85t-52.5 -62q-61 -43 -142 -43t-142 43q-38 27 -53 62t-15 85v287h173v-274q0 -18 1.5 -28.5t10.5 -20t25 -9.5q17 0 25.5 11.5t9.5 22t1 29.5v6v263h173zM341 669h69q-6 -69 -48.5 -109t-111.5 -40t-111.5 40t-48.5 109h69q13 -31 34 -42
t57 -11t57 11t34 42z" />
    <glyph glyph-name="Uring" unicode="&#x16e;" horiz-adv-x="545" 
d="M499 667v-472q0 -52 -14.5 -87.5t-52.5 -67.5q-60 -52 -151 -52q-104 0 -169 58t-65 174v447h180v-431q0 -23 1.5 -37t12.5 -28t32 -14q13 0 22.5 5.5t14 12t6.5 19.5t2.5 20.5t0.5 21.5v431h180zM177 810q0 40 28 68t68 28t68 -28t28 -68t-28.5 -68t-66.5 -28
q-40 0 -68.5 28.5t-28.5 67.5zM236 810q0 -16 10.5 -26.5t26.5 -10.5t26.5 10.5t10.5 26.5t-10.5 26.5t-26.5 10.5t-26.5 -10.5t-10.5 -26.5z" />
    <glyph glyph-name="uring" unicode="&#x16f;" horiz-adv-x="499" 
d="M459 467v-287q0 -50 -14.5 -85t-52.5 -62q-61 -43 -142 -43t-142 43q-38 27 -53 62t-15 85v287h173v-274q0 -18 1.5 -28.5t10.5 -20t25 -9.5q17 0 25.5 11.5t9.5 22t1 29.5v6v263h173zM152 619q0 40 28 68t68 28t68 -28t28 -68t-28 -68t-68 -28t-68 28t-28 68zM211 619
q0 -16 10.5 -26.5t26.5 -10.5t26.5 10.5t10.5 26.5t-10.5 26.5t-26.5 10.5t-26.5 -10.5t-10.5 -26.5z" />
    <glyph glyph-name="Uhungarumlaut" unicode="&#x170;" horiz-adv-x="545" 
d="M499 667v-472q0 -52 -14.5 -87.5t-52.5 -67.5q-60 -52 -151 -52q-104 0 -169 58t-65 174v447h180v-431q0 -23 1.5 -37t12.5 -28t32 -14q13 0 22.5 5.5t14 12t6.5 19.5t2.5 20.5t0.5 21.5v431h180zM474 868l-88 -148h-89l47 148h130zM307 868l-88 -148h-89l47 148h130z
" />
    <glyph glyph-name="uhungarumlaut" unicode="&#x171;" horiz-adv-x="499" 
d="M459 467v-287q0 -50 -14.5 -85t-52.5 -62q-61 -43 -142 -43t-142 43q-38 27 -53 62t-15 85v287h173v-274q0 -18 1.5 -28.5t10.5 -20t25 -9.5q17 0 25.5 11.5t9.5 22t1 29.5v6v263h173zM444 678l-88 -148h-89l47 148h130zM277 678l-88 -148h-89l47 148h130z" />
    <glyph glyph-name="Uogonek" unicode="&#x172;" horiz-adv-x="545" 
d="M499 667v-460q0 -78 -29 -124q-14 -23 -34 -41.5t-43.5 -35t-31.5 -24.5q-23 -21 -23 -49q0 -18 11 -27t29 -9q16 0 34 9l-8 -77q-33 -12 -66 -12q-40 0 -66 20q-30 23 -30 61q0 46 48 89q-124 0 -189 63q-54 53 -54 153v464h180v-431q0 -48 13 -65q10 -14 33 -14t33 14
q13 17 13 65v431h180z" />
    <glyph glyph-name="uogonek" unicode="&#x173;" horiz-adv-x="499" 
d="M459 467v-281q0 -53 -10.5 -84t-37.5 -57q-20 -19 -50 -39t-41 -32q-17 -18 -17 -39q0 -17 10 -25q9 -9 26 -9t35 9l-8 -73q-33 -12 -63 -12q-40 0 -66 20q-28 21 -28 58q0 49 48 87q-50 0 -92 15t-57.5 26t-23.5 21q-44 45 -44 123v292h173v-276q0 -37 12 -48
q10 -8 24 -8q15 0 25 8q12 11 12 48v276h173z" />
    <glyph glyph-name="Ydieresis" unicode="&#x178;" 
d="M500 667l-154 -385v-282h-180v282l-166 385h188q52 -161 63 -206q29 106 63 206h186zM419 792q0 -29 -21.5 -50.5t-50.5 -21.5q-30 0 -52 21.5t-22 51.5t21.5 50.5t51.5 20.5t51.5 -21t21.5 -51zM227 792q0 -29 -21.5 -50.5t-50.5 -21.5q-30 0 -52 21.5t-22 51.5
t21.5 50.5t51.5 20.5t51.5 -21t21.5 -51z" />
    <glyph glyph-name="Zacute" unicode="&#x179;" horiz-adv-x="515" 
d="M498 667v-19q-18 -40 -54.5 -121.5t-58.5 -130.5t-54.5 -118t-60.5 -126q35 3 206 8v-160h-459v14l143 326q43 97 90 170h-194v157h442zM404 868l-88 -148h-99l47 148h140z" />
    <glyph glyph-name="zacute" unicode="&#x17a;" horiz-adv-x="435" 
d="M418 467l-110 -238q-22 -47 -46 -88h129v-141h-374l113 242q25 52 44 85h-132v140h376zM359 678l-88 -148h-99l47 148h140z" />
    <glyph glyph-name="Zdotaccent" unicode="&#x17b;" horiz-adv-x="515" 
d="M498 667v-19q-18 -40 -54.5 -121.5t-58.5 -130.5t-54.5 -118t-60.5 -126q35 3 206 8v-160h-459v14l143 326q43 97 90 170h-194v157h442zM352 795q0 -31 -22 -53t-53 -22q-32 0 -54.5 22t-22.5 54q0 31 22 53t54 22t54 -22.5t22 -53.5z" />
    <glyph glyph-name="zdotaccent" unicode="&#x17c;" horiz-adv-x="435" 
d="M418 467l-110 -238q-22 -47 -46 -88h129v-141h-374l113 242q25 52 44 85h-132v140h376zM308 605q0 -31 -22 -53t-53 -22q-32 0 -54.5 22t-22.5 54q0 31 22 53t54 22t54 -22.5t22 -53.5z" />
    <glyph glyph-name="Zcaron" unicode="&#x17d;" horiz-adv-x="515" 
d="M498 667v-19q-18 -40 -54.5 -121.5t-58.5 -130.5t-54.5 -118t-60.5 -126q35 3 206 8v-160h-459v14l143 326q43 97 90 170h-194v157h442zM419 802l-149 -98l-134 100l61 69l80 -56l85 54z" />
    <glyph glyph-name="zcaron" unicode="&#x17e;" horiz-adv-x="435" 
d="M418 467l-110 -238q-22 -47 -46 -88h129v-141h-374l113 242q25 52 44 85h-132v140h376zM365 623l-138 -117l-134 117l60 67l80 -70l74 66z" />
    <glyph glyph-name="uni018F" unicode="&#x18f;" horiz-adv-x="556" 
d="M30 385h310q-7 84 -32 115q-15 18 -39 18q-19 0 -35 -14q-18 -18 -23 -54l-175 55q26 72 82 120q64 54 155 54q98 0 160 -62q43 -43 68 -117.5t25 -160.5q0 -192 -87 -283q-64 -68 -168 -68q-96 0 -156 64q-85 93 -85 306v27zM340 253h-129q3 -68 27 -91q13 -13 36 -13
q22 0 36 15q28 28 30 89z" />
    <glyph glyph-name="florin" unicode="&#x192;" horiz-adv-x="532" 
d="M499 729l-22 -138q-6 0 -16.5 1.5t-15.5 1.5q-32 0 -38 -34l-18 -93h70l-18 -94h-71l-64 -332q-16 -84 -58.5 -129t-123.5 -45q-30 0 -76 13l26 143q20 -2 31 -2q22 0 33 7.5t15 28.5l61 316h-68l17 94h69l21 106q17 83 53 125t114 42q31 0 79 -11z" />
    <glyph glyph-name="uni01CF" unicode="&#x1cf;" horiz-adv-x="273" 
d="M227 0h-180v667h180v-667zM284 802l-149 -98l-134 100l61 69l80 -56l85 54z" />
    <glyph glyph-name="uni01D0" unicode="&#x1d0;" horiz-adv-x="253" 
d="M213 0h-173v467h173v-467zM265 623l-138 -117l-134 117l60 67l80 -70l74 66z" />
    <glyph glyph-name="uni01DD" unicode="&#x1dd;" horiz-adv-x="481" 
d="M197 308l-158 38q20 56 66 91q52 39 134 39q97 0 151 -54q65 -65 65 -180q0 -125 -75 -197q-56 -55 -142 -55q-90 0 -144 56q-76 79 -66 223h254q0 46 -16 62q-10 10 -27 10q-15 0 -27 -8t-15 -25zM280 176h-81q0 -31 15 -47q11 -12 26 -12q14 0 24 10q16 16 16 49z" />
    <glyph glyph-name="Gcaron" unicode="&#x1e6;" horiz-adv-x="560" 
d="M530 385v-27q0 -170 -44 -255q-29 -56 -82 -85.5t-117 -29.5q-56 0 -100.5 20t-73.5 53t-48 78t-27 92t-8 99q0 66 13.5 124.5t42 110.5t80 83t121.5 31q157 0 229 -165l-175 -64q-3 26 -16 47t-37 21q-74 0 -74 -204q0 -165 68 -165q34 0 48.5 29.5t14.5 66.5h-66v140
h251zM434 802l-149 -98l-134 100l61 69l80 -56l85 54z" />
    <glyph glyph-name="gcaron" unicode="&#x1e7;" horiz-adv-x="493" 
d="M453 467v-479q0 -80 -35 -128q-56 -75 -175 -75q-186 0 -210 169h177q0 -16 10 -27t26 -11q41 0 41 66v72q-45 -61 -109 -61q-55 0 -91 42.5t-48 93.5t-12 105q0 38 7.5 77t23.5 78t46.5 63.5t71.5 24.5q57 0 105 -71l-3 61h175zM285 235q0 101 -38 101q-41 0 -41 -98
q0 -102 41 -102q38 0 38 99zM382 623l-138 -117l-134 117l60 67l80 -70l74 66z" />
    <glyph glyph-name="AEacute" unicode="&#x1fc;" horiz-adv-x="615" 
d="M585 0h-256l-12 85h-116l-15 -85h-186l154 667h431v-157h-179l15 -97h150v-151h-124l18 -102h120v-160zM223 223h75q-29 206 -35 283q-14 -118 -40 -283zM441 868l-88 -148h-99l47 148h140z" />
    <glyph glyph-name="aeacute" unicode="&#x1fd;" horiz-adv-x="735" 
d="M78 321v135q79 21 139 21q89 0 144 -46q64 46 134 46q102 0 157.5 -71t55.5 -176q0 -21 -1 -32h-255q3 -80 46 -80q27 0 39 35l165 -3q-23 -87 -77 -124q-51 -36 -132 -36q-77 0 -138 48q-70 -48 -151 -48q-74 0 -125.5 44.5t-51.5 117.5q0 72 47.5 110.5t121.5 38.5
q41 0 89 -10q-8 57 -93 57q-60 0 -114 -27zM452 291h87q-7 65 -45 65q-16 0 -25.5 -12t-12 -23.5t-4.5 -29.5zM286 150q0 19 -13 30t-33 11q-19 0 -32 -11.5t-13 -30.5q0 -20 13.5 -30t33.5 -10q19 0 31.5 11t12.5 30zM501 678l-88 -148h-99l47 148h140z" />
    <glyph glyph-name="Scommaaccent" unicode="&#x218;" horiz-adv-x="404" 
d="M362 645v-204q-48 73 -106 73q-18 0 -32.5 -11t-14.5 -29t17.5 -35.5t43 -35.5t51 -41t43 -61.5t17.5 -86.5q0 -95 -59 -160.5t-153 -65.5q-67 0 -136 29v209q53 -73 114 -73q21 0 37 11.5t16 32.5q0 19 -17.5 37.5t-42.5 37.5t-50 42t-42.5 61t-17.5 85q0 89 57.5 154
t145.5 65q64 0 129 -34zM262 -45l-80 -189h-102l35 189h147z" />
    <glyph glyph-name="scommaaccent" unicode="&#x219;" horiz-adv-x="395" 
d="M370 439l-60 -127q-41 41 -71 41q-27 0 -27 -22q0 -18 26 -32t56.5 -24.5t56.5 -41.5t26 -79q0 -76 -55 -120t-133 -44q-75 0 -166 49l63 129q47 -49 87 -49q13 0 23.5 6.5t10.5 18.5q0 15 -26.5 28t-57.5 24.5t-57.5 42.5t-26.5 78q0 74 58 117t134 43q63 0 139 -38z
M289 -45l-80 -189h-102l35 189h147z" />
    <glyph glyph-name="Tcommaaccent" unicode="&#x21a;" horiz-adv-x="378" 
d="M378 507h-99v-507h-180v507h-99v160h378v-160zM262 -45l-80 -189h-102l35 189h147z" />
    <glyph glyph-name="tcommaaccent" unicode="&#x21b;" horiz-adv-x="301" 
d="M294 327h-57v-327h-173v327h-50v140h50v137h173v-137h57v-140zM224 -45l-80 -189h-102l35 189h147z" />
    <glyph glyph-name="uni0228" unicode="&#x228;" horiz-adv-x="411" 
d="M381 0h-334v667h334v-157h-154v-97h138v-151h-138v-102h154v-160zM319 -113l-124 -124l-77 53l108 137z" />
    <glyph glyph-name="uni0229" unicode="&#x229;" horiz-adv-x="481" 
d="M279 158l169 -1q-18 -81 -72 -124t-136 -43q-104 0 -158.5 64.5t-54.5 170.5q0 105 58 178t160 73t156 -71t54 -176q0 -5 -0.5 -16t-0.5 -16h-254q0 -72 40 -72q32 0 39 33zM202 290h81q-2 59 -41 59q-38 0 -40 -59zM322 -106l-113 -117l-71 54l98 122z" />
    <glyph glyph-name="uni0237" unicode="&#x237;" horiz-adv-x="254" 
d="M214 -215h-173l-1 682h174v-682z" />
    <glyph glyph-name="uni0259" unicode="&#x259;" horiz-adv-x="481" 
d="M197 308l-158 38q20 56 66 91q52 39 134 39q97 0 151 -54q65 -65 65 -180q0 -125 -75 -197q-56 -55 -142 -55q-90 0 -144 56q-76 79 -66 223h254q0 46 -16 62q-10 10 -27 10q-15 0 -27 -8t-15 -25zM280 176h-81q0 -31 15 -47q11 -12 26 -12q14 0 24 10q16 16 16 49z" />
    <glyph glyph-name="afii57929" unicode="&#x2bc;" horiz-adv-x="280" 
d="M243 667l-92 -221h-103l47 221h148z" />
    <glyph glyph-name="circumflex" unicode="&#x2c6;" 
d="M256 690l129 -117l-58 -63l-74 66l-80 -70l-60 67z" />
    <glyph glyph-name="caron" unicode="&#x2c7;" 
d="M385 623l-138 -117l-134 117l60 67l80 -70l74 66z" />
    <glyph glyph-name="uni02C9" unicode="&#x2c9;" horiz-adv-x="499" 
d="M420 553h-340v94h340v-94z" />
    <glyph glyph-name="breve" unicode="&#x2d8;" 
d="M341 669h69q-6 -69 -48.5 -109t-111.5 -40t-111.5 40t-48.5 109h69q13 -31 34 -42t57 -11t57 11t34 42z" />
    <glyph glyph-name="dotaccent" unicode="&#x2d9;" 
d="M326 605q0 -31 -22 -53t-53 -22q-32 0 -54.5 22t-22.5 54q0 31 22 53t54 22t54 -22.5t22 -53.5z" />
    <glyph glyph-name="ring" unicode="&#x2da;" 
d="M177 619q0 40 28 68t68 28t68 -28t28 -68t-28 -68t-68 -28t-68 28t-28 68zM236 619q0 -16 10.5 -26.5t26.5 -10.5t26.5 10.5t10.5 26.5t-10.5 26.5t-26.5 10.5t-26.5 -10.5t-10.5 -26.5z" />
    <glyph glyph-name="ogonek" unicode="&#x2db;" 
d="M236 0h61q-24 -34 -24 -64q0 -17 10 -25q10 -9 29 -9q20 0 35 9l-8 -70q-27 -12 -57 -12q-38 0 -60 16q-29 20 -29 61q0 27 17 56q17 27 26 38z" />
    <glyph glyph-name="tilde" unicode="&#x2dc;" 
d="M420 665v-14q0 -50 -28 -84.5t-77 -34.5q-27 0 -64.5 16.5t-52.5 16.5q-27 0 -27 -35h-91v2q0 55 24 92.5t77 37.5q26 0 65.5 -16.5t55.5 -16.5q28 0 28 36h90z" />
    <glyph glyph-name="hungarumlaut" unicode="&#x2dd;" 
d="M464 678l-88 -148h-89l47 148h130zM297 678l-88 -148h-89l47 148h130z" />
    <glyph glyph-name="acutecomb" unicode="&#x301;" horiz-adv-x="2" 
d="M-89 678l-88 -148h-99l47 148h140z" />
    <glyph glyph-name="uni0394" unicode="&#x394;" horiz-adv-x="667" 
d="M650 0h-634l245 667h141zM462 118l-130 390l-130 -390h260z" />
    <glyph glyph-name="uni0394" unicode="&#x2206;" horiz-adv-x="667" 
d="M650 0h-634l245 667h141zM462 118l-130 390l-130 -390h260z" />
    <glyph glyph-name="uni03A9" unicode="&#x3a9;" horiz-adv-x="667" 
d="M638 0h-269v104q134 75 134 248q0 84 -44.5 149t-124.5 65q-81 0 -125.5 -64.5t-44.5 -149.5q0 -176 135 -248v-104h-270v117h136q-72 45 -104.5 104.5t-32.5 144.5q0 135 85.5 226t219.5 91q135 0 220 -91t85 -226q0 -122 -67 -196q-25 -26 -68 -53h135v-117z" />
    <glyph glyph-name="uni03A9" unicode="&#x2126;" horiz-adv-x="667" 
d="M638 0h-269v104q134 75 134 248q0 84 -44.5 149t-124.5 65q-81 0 -125.5 -64.5t-44.5 -149.5q0 -176 135 -248v-104h-270v117h136q-72 45 -104.5 104.5t-32.5 144.5q0 135 85.5 226t219.5 91q135 0 220 -91t85 -226q0 -122 -67 -196q-25 -26 -68 -53h135v-117z" />
    <glyph glyph-name="pi" unicode="&#x3c0;" horiz-adv-x="708" 
d="M670 327h-76v-327h-172v327h-135v-327h-172v327h-77v140h632v-140z" />
    <glyph glyph-name="afii10023" unicode="&#x401;" horiz-adv-x="411" 
d="M381 0h-334v667h334v-157h-154v-97h138v-151h-138v-102h154v-160zM196 785q0 -29 -21.5 -50.5t-50.5 -21.5q-30 0 -52 21.5t-22 51.5t21.5 50.5t51.5 20.5t51.5 -21t21.5 -51zM378 785q0 -29 -21.5 -50.5t-50.5 -21.5q-30 0 -52 21.5t-22 51.5t21.5 50.5t51.5 20.5
t51.5 -21t21.5 -51z" />
    <glyph glyph-name="afii10051" unicode="&#x402;" horiz-adv-x="598" 
d="M453 507h-154v-65q0 -36 -5 -64q50 33 108 33q69 0 112 -42q59 -58 59 -168q0 -120 -59 -178q-40 -39 -107 -39q-33 0 -73 14l14 142q10 -9 23 -9q10 0 17 7q13 12 13 54q0 35 -15 51q-12 14 -34 14t-53 -17v-240h-180v507h-99v160h433v-160z" />
    <glyph glyph-name="afii10052" unicode="&#x403;" horiz-adv-x="388" 
d="M365 510h-138v-510h-180v667h318v-157zM344 868l-88 -148h-99l47 148h140z" />
    <glyph glyph-name="afii10053" unicode="&#x404;" horiz-adv-x="485" 
d="M451 214l-10 -193q-59 -33 -128 -33q-115 0 -186 68q-97 95 -97 276q0 178 89 271q73 76 199 76q74 0 130 -34v-187q-21 25 -44 37q-29 17 -64 17q-53 0 -83 -32q-26 -27 -34 -67h154v-151h-155q9 -50 40 -75q30 -25 78 -25q37 0 64 14q25 13 47 38z" />
    <glyph glyph-name="afii10054" unicode="&#x405;" horiz-adv-x="404" 
d="M362 645v-204q-48 73 -106 73q-18 0 -32.5 -11t-14.5 -29t17.5 -35.5t43 -35.5t51 -41t43 -61.5t17.5 -86.5q0 -95 -59 -160.5t-153 -65.5q-67 0 -136 29v209q53 -73 114 -73q21 0 37 11.5t16 32.5q0 19 -17.5 37.5t-42.5 37.5t-50 42t-42.5 61t-17.5 85q0 89 57.5 154
t145.5 65q64 0 129 -34z" />
    <glyph glyph-name="afii10055" unicode="&#x406;" horiz-adv-x="273" 
d="M227 0h-180v667h180v-667z" />
    <glyph glyph-name="afii10056" unicode="&#x407;" horiz-adv-x="273" 
d="M227 0h-180v667h180v-667zM261 792q0 -29 -16 -50.5t-38 -21.5q-23 0 -40 21.5t-17 51.5q0 29 17 50t39 21q23 0 39 -21t16 -51zM124 792q0 -29 -16.5 -50.5t-38.5 -21.5q-23 0 -40 21t-17 52q0 30 16.5 50.5t39.5 20.5t39.5 -21t16.5 -51z" />
    <glyph glyph-name="afii10057" unicode="&#x408;" horiz-adv-x="354" 
d="M307 667v-463q0 -81 -22 -125q-45 -91 -167 -91q-57 0 -118 22v186q31 -39 72 -39q55 0 55 82v428h180z" />
    <glyph glyph-name="afii10058" unicode="&#x409;" horiz-adv-x="821" 
d="M561 0h-208v503h-80v-221q0 -183 -70 -249q-46 -44 -127 -44q-39 0 -71 8v176q17 -14 37 -14q25 0 41 16q22 23 22 88v404h424v-245h10q141 0 203 -67q49 -53 49 -142q0 -103 -57 -158q-58 -55 -173 -55zM529 278v-133q42 -5 62 14q20 18 20 52q0 32 -18 50
q-23 23 -64 17z" />
    <glyph glyph-name="afii10059" unicode="&#x40a;" horiz-adv-x="781" 
d="M521 0h-208v278h-86v-278h-180v667h180v-245h86v245h176v-245h10q141 0 203 -67q49 -53 49 -142q0 -103 -57 -158q-58 -55 -173 -55zM489 278v-133q42 -5 62 14q20 18 20 52q0 32 -18 50q-23 23 -64 17z" />
    <glyph glyph-name="afii10060" unicode="&#x40b;" horiz-adv-x="601" 
d="M119 0v507h-99v160h433v-160h-154v-103q51 11 90 11q74 0 119 -39q33 -29 43 -67.5t10 -91.5v-217h-176v195q0 32 -13 46q-14 14 -38 14q-18 0 -35 -7v-248h-180z" />
    <glyph glyph-name="afii10061" unicode="&#x40c;" horiz-adv-x="541" 
d="M536 0h-194l-120 319l5 -319h-180v667h180l-5 -298l106 298h190l-142 -322zM424 868l-88 -148h-99l47 148h140z" />
    <glyph glyph-name="afii10062" unicode="&#x40e;" horiz-adv-x="510" 
d="M5 667h188l33 -107q26 -82 34 -147q11 79 31 150l28 104h186l-236 -667h-181l80 225zM326 874l126 -35q-15 -65 -69 -99q-44 -29 -123 -29t-123 29q-54 34 -69 99l126 35q4 -28 22 -43q17 -13 44 -13q28 0 44 13t22 43z" />
    <glyph glyph-name="afii10145" unicode="&#x40f;" horiz-adv-x="538" 
d="M227 667v-504h84v504h180v-667h-142v-130h-160v130h-142v667h180z" />
    <glyph glyph-name="afii10017" unicode="&#x410;" horiz-adv-x="532" 
d="M527 0h-186l-14 85h-121l-15 -85h-186l161 667h220zM230 227h76q-23 155 -34 280q-2 -15 -5.5 -47t-5.5 -47q-15 -103 -31 -186z" />
    <glyph glyph-name="afii10018" unicode="&#x411;" horiz-adv-x="516" 
d="M258 0h-211v667h374v-157h-194v-102h23q121 0 179 -56q57 -55 57 -149q0 -90 -57 -147q-57 -56 -171 -56zM227 272v-127q40 -7 62 15q17 17 17 49t-18 48q-23 22 -61 15z" />
    <glyph glyph-name="afii10019" unicode="&#x412;" horiz-adv-x="530" 
d="M47 667h209q91 0 143 -30q42 -24 65 -66.5t23 -92.5q0 -125 -124 -136q137 -17 137 -151q0 -87 -56.5 -139t-144.5 -52h-252v667zM227 522v-114q4 -1 11 -1q30 0 50.5 14.5t20.5 43.5t-17.5 43.5t-46.5 14.5q-12 0 -18 -1zM227 272v-127q5 -1 15 -1q32 0 53 16.5t21 48.5
t-21 48t-54 16q-3 0 -7 -0.5t-7 -0.5z" />
    <glyph glyph-name="afii10020" unicode="&#x413;" horiz-adv-x="388" 
d="M365 510h-138v-510h-180v667h318v-157z" />
    <glyph glyph-name="afii10021" unicode="&#x414;" horiz-adv-x="573" 
d="M94 667h413v-505h56v-292h-152v130h-249v-130h-152v292q27 5 44 22q40 38 40 150v333zM258 505v-161q0 -96 -16 -134q-12 -28 -35 -48h124v343h-73z" />
    <glyph glyph-name="afii10022" unicode="&#x415;" horiz-adv-x="411" 
d="M381 0h-334v667h334v-157h-154v-97h138v-151h-138v-102h154v-160z" />
    <glyph glyph-name="afii10024" unicode="&#x416;" horiz-adv-x="738" 
d="M732 0h-182l-100 321l5 -321h-170l5 321l-100 -321h-182l137 345l-140 322h180l105 -300l-5 300h170l-5 -300l105 300h178l-138 -322z" />
    <glyph glyph-name="afii10025" unicode="&#x417;" horiz-adv-x="473" 
d="M50 452v183q67 44 159 44q105 0 163 -58q53 -51 53 -137q0 -67 -35 -104q-32 -34 -77 -40q55 -4 91 -40q39 -37 39 -104q0 -96 -62 -154q-57 -54 -170 -54q-86 0 -161 37v198q26 -33 54 -50q32 -20 71 -20q40 0 58 18q15 15 15 35q0 28 -24 42q-20 12 -69 12h-29v153h31
q46 0 66 13t20 36q0 24 -20 39q-19 13 -48 13q-39 0 -72 -19q-29 -17 -53 -43z" />
    <glyph glyph-name="afii10026" unicode="&#x418;" horiz-adv-x="556" 
d="M47 0v667h170v-185q0 -49 -20 -225q43 128 69 194l85 216h158v-667h-170v178q0 50 11 214q-21 -75 -70 -201l-75 -191h-158z" />
    <glyph glyph-name="afii10027" unicode="&#x419;" horiz-adv-x="556" 
d="M47 0v667h170v-185q0 -49 -20 -225q43 128 69 194l85 216h158v-667h-170v178q0 50 11 214q-21 -75 -70 -201l-75 -191h-158zM346 874l126 -35q-15 -65 -69 -99q-44 -29 -123 -29t-123 29q-54 34 -69 99l126 35q4 -28 22 -43q17 -13 44 -13q28 0 44 13t22 43z" />
    <glyph glyph-name="afii10028" unicode="&#x41a;" horiz-adv-x="541" 
d="M536 0h-194l-120 319l5 -319h-180v667h180l-5 -298l106 298h190l-142 -322z" />
    <glyph glyph-name="afii10029" unicode="&#x41b;" horiz-adv-x="579" 
d="M105 667h428v-667h-180v503h-80v-221q0 -183 -70 -249q-46 -44 -127 -44q-39 0 -71 8v176q17 -14 37 -14q25 0 41 16q22 23 22 88v404z" />
    <glyph glyph-name="afii10030" unicode="&#x41c;" horiz-adv-x="766" 
d="M733 0h-188l-14 304q-1 20 -2 60.5t-2 60.5q-6 -65 -18 -128l-56 -297h-147l-52 321q-6 34 -12 104q0 -16 -0.5 -46.5t-1 -55t-1.5 -46.5l-16 -277h-193l78 667h224q46 -273 52 -355q6 54 15 109t25.5 138t21.5 108h222z" />
    <glyph glyph-name="afii10031" unicode="&#x41d;" horiz-adv-x="539" 
d="M493 0h-180v268h-86v-268h-180v667h180v-236h86v236h180v-667z" />
    <glyph glyph-name="afii10032" unicode="&#x41e;" horiz-adv-x="567" 
d="M537 334q0 -193 -98 -286q-63 -60 -155 -60q-93 0 -156 60q-98 93 -98 286q0 191 98 285q63 60 156 60q92 0 155 -60q98 -94 98 -285zM284 511q-19 0 -30 -12q-37 -37 -37 -165t37 -165q11 -12 30 -12q17 0 29 12q37 37 37 165t-37 165q-12 12 -29 12z" />
    <glyph glyph-name="afii10033" unicode="&#x41f;" horiz-adv-x="535" 
d="M489 0h-180v504h-82v-504h-180v667h442v-667z" />
    <glyph glyph-name="afii10034" unicode="&#x420;" horiz-adv-x="505" 
d="M47 667h174q91 0 148 -25q59 -26 89.5 -80.5t30.5 -121.5q0 -118 -71.5 -175t-190.5 -46v-219h-180v667zM227 368h9q32 0 51.5 21t19.5 54t-18 55.5t-50 22.5h-12v-153z" />
    <glyph glyph-name="afii10035" unicode="&#x421;" horiz-adv-x="445" 
d="M422 205l-11 -193q-55 -24 -107 -24q-69 0 -123 29.5t-86 79t-48.5 109t-16.5 125.5q0 95 31 172t99.5 126.5t164.5 49.5q49 0 89 -17v-190q-38 40 -83 40q-44 0 -72 -30t-36.5 -67t-8.5 -81q0 -43 8.5 -78.5t35.5 -64.5t70 -29q46 0 94 43z" />
    <glyph glyph-name="afii10036" unicode="&#x422;" horiz-adv-x="378" 
d="M378 507h-99v-507h-180v507h-99v160h378v-160z" />
    <glyph glyph-name="afii10037" unicode="&#x423;" horiz-adv-x="510" 
d="M5 667h188l33 -107q26 -82 34 -147q11 79 31 150l28 104h186l-236 -667h-181l80 225z" />
    <glyph glyph-name="afii10038" unicode="&#x424;" horiz-adv-x="730" 
d="M277 0v86q-46 1 -88 18t-57 28.5t-25 21.5q-70 70 -70 204q0 124 71 195q65 65 169 69v82h176v-82q104 -4 169 -69q71 -71 71 -195q0 -134 -70 -204q-10 -10 -25 -21.5t-57 -28.5t-88 -18v-86h-176zM439 464v-220q41 2 64 28q22 26 22 83q0 58 -23 83q-24 26 -63 26z
M291 244v220q-39 0 -63 -26q-23 -25 -23 -83q0 -57 22 -83q23 -26 64 -28z" />
    <glyph glyph-name="afii10039" unicode="&#x425;" horiz-adv-x="517" 
d="M517 0h-200q-9 24 -24 70t-18 54q-15 44 -17 55q-3 -10 -9 -29.5t-9 -29.5q-5 -17 -44 -120h-196l162 346l-153 321h200q3 -11 22.5 -69t28.5 -89q7 32 43 158h202l-152 -321z" />
    <glyph glyph-name="afii10040" unicode="&#x426;" horiz-adv-x="571" 
d="M227 667v-504h84v504h180v-504h70v-293h-160v130h-354v667h180z" />
    <glyph glyph-name="afii10041" unicode="&#x427;" horiz-adv-x="528" 
d="M302 0v265q-51 -11 -90 -11q-74 0 -119 39q-33 29 -43 67.5t-10 91.5v215h176v-193q0 -32 13 -46q14 -14 38 -14q18 0 35 7v246h180v-667h-180z" />
    <glyph glyph-name="afii10042" unicode="&#x428;" horiz-adv-x="785" 
d="M223 667v-504h82v504h176v-504h82v504h176v-667h-692v667h176z" />
    <glyph glyph-name="afii10043" unicode="&#x429;" horiz-adv-x="823" 
d="M223 667v-504h82v504h176v-504h82v504h176v-504h74v-293h-160v130h-606v667h176z" />
    <glyph glyph-name="afii10044" unicode="&#x42a;" horiz-adv-x="570" 
d="M310 0h-212v507h-83v160h263v-245h10q141 0 203 -67q49 -53 49 -142q0 -103 -57 -158q-58 -55 -173 -55zM278 278v-133q42 -5 62 14q20 18 20 52q0 32 -18 50q-23 23 -64 17z" />
    <glyph glyph-name="afii10045" unicode="&#x42b;" horiz-adv-x="752" 
d="M706 0h-180v667h180v-667zM255 0h-208v667h180v-245h6q141 0 203 -67q49 -53 49 -142q0 -103 -57 -158q-58 -55 -173 -55zM227 278v-133q42 -5 62 14q20 18 20 52q0 32 -18 50q-23 23 -64 17z" />
    <glyph glyph-name="afii10046" unicode="&#x42c;" horiz-adv-x="519" 
d="M259 0h-212v667h180v-245h10q141 0 203 -67q49 -53 49 -142q0 -103 -57 -158q-58 -55 -173 -55zM227 278v-133q42 -5 62 14q20 18 20 52q0 32 -18 50q-23 23 -64 17z" />
    <glyph glyph-name="afii10047" unicode="&#x42d;" horiz-adv-x="485" 
d="M44 18l-10 196q25 -27 47 -38q27 -14 63 -14q50 0 80 25q33 28 39 75h-155v151h154q-7 44 -38 72q-29 27 -77 27q-35 0 -66 -17q-23 -12 -44 -37v187q56 34 131 34q124 0 198 -75q89 -90 89 -262q0 -184 -97 -281q-73 -73 -196 -73q-64 0 -118 30z" />
    <glyph glyph-name="afii10048" unicode="&#x42e;" horiz-adv-x="821" 
d="M791 334q0 -193 -98 -286q-63 -60 -160 -60q-93 0 -152 58q-78 77 -87 222h-67v-268h-180v667h180v-242h71q5 55 27.5 108t55.5 86q62 60 157 60q92 0 155 -60q98 -94 98 -285zM538 511q-19 0 -30 -12q-37 -37 -37 -165t37 -165q11 -12 30 -12q17 0 29 12q37 37 37 165
t-37 165q-12 12 -29 12z" />
    <glyph glyph-name="afii10049" unicode="&#x42f;" horiz-adv-x="541" 
d="M20 0l128 263q-46 11 -77 48q-34 43 -34 115q0 106 58 170q66 71 213 71h186v-667h-180v179q0 58 4 88l-103 -267h-195zM314 358v159q-42 6 -68 -20q-20 -20 -20 -58q0 -39 22 -61q22 -20 57 -20h9z" />
    <glyph glyph-name="afii10065" unicode="&#x430;" horiz-adv-x="497" 
d="M457 0h-174q1 13 3 39.5t3 39.5q-45 -89 -120 -89q-42 0 -71.5 25t-44 65.5t-20.5 78.5t-6 77q0 40 6.5 78t21.5 76.5t45.5 62.5t72.5 24q73 0 112 -84q-1 8 -2 34t-3 40h177v-467zM281 254q0 80 -36 80q-44 0 -44 -117q0 -84 39 -84q7 0 13.5 3t10.5 9t7 12t5 16.5t3 17
t1.5 18.5t0.5 17v16v12z" />
    <glyph glyph-name="afii10066" unicode="&#x431;" horiz-adv-x="490" 
d="M327 551l-35 -10q-62 -18 -90 -45q-40 -40 -41 -100q13 34 43 54q33 22 77 22q78 0 125 -49q58 -59 58 -174q0 -132 -69 -202q-57 -57 -156 -57q-78 0 -129 46q-80 73 -80 262q0 101 16 180t68 130q18 18 43 32t38.5 19t41.5 14q64 20 76 31q16 14 17 36h128
q0 -88 -36 -133q-29 -37 -95 -56zM247 341q-18 0 -28 -16q-21 -30 -21 -97q0 -61 21 -91q10 -16 28 -16t28 16q21 30 21 91q0 67 -21 97q-10 16 -28 16z" />
    <glyph glyph-name="afii10067" unicode="&#x432;" horiz-adv-x="476" 
d="M40 467h202q95 0 139 -28q56 -36 56 -105q0 -46 -26 -70q-24 -22 -60 -24q44 -3 72 -31q29 -29 29 -74q0 -70 -43 -103q-40 -32 -111 -32h-258v467zM212 280h5q29 0 42 9q16 11 16 33q0 21 -15 30q-11 7 -43 7h-5v-79zM212 108h4q28 0 41 7q19 11 19 36q0 21 -16 32
q-10 7 -44 7h-4v-82z" />
    <glyph glyph-name="afii10068" unicode="&#x433;" horiz-adv-x="361" 
d="M341 327h-128v-327h-173v467h301v-140z" />
    <glyph glyph-name="afii10069" unicode="&#x434;" horiz-adv-x="524" 
d="M87 467h378v-331h53v-251h-138v115h-236v-115h-138v251q29 6 48 24q21 20 27 52t6 83v172zM299 136v195h-61v-77q0 -43 -8 -67q-10 -31 -34 -51h103z" />
    <glyph glyph-name="afii10070" unicode="&#x435;" horiz-adv-x="481" 
d="M279 158l169 -1q-18 -81 -72 -124t-136 -43q-104 0 -158.5 64.5t-54.5 170.5q0 105 58 178t160 73t156 -71t54 -176q0 -5 -0.5 -16t-0.5 -16h-254q0 -72 40 -72q32 0 39 33zM202 290h81q-2 59 -41 59q-38 0 -40 -59z" />
    <glyph glyph-name="afii10072" unicode="&#x436;" horiz-adv-x="712" 
d="M710 0h-192l-38 96q-22 53 -40 120v-216h-168v216q-18 -67 -40 -120l-38 -96h-192l116 239l-109 228h180l42 -104q25 -60 41 -118v222h168v-222q16 58 41 118l42 104h180l-109 -228z" />
    <glyph glyph-name="afii10073" unicode="&#x437;" horiz-adv-x="435" 
d="M89 303l-63 121q85 53 176 53q79 0 125 -27q64 -38 64 -111q0 -44 -26 -70q-25 -25 -62 -29q47 -2 76 -29q28 -26 28 -69q0 -37 -19 -69.5t-54 -53.5q-50 -29 -128 -29q-65 0 -114 19q-35 13 -72 40l65 125q21 -25 41 -36q23 -13 51 -13q25 0 38 8q14 8 14 21
q0 19 -27 25q-17 4 -47 4h-23v109h21q33 0 47 4q22 5 22 24q0 29 -47 29q-25 0 -49 -14q-16 -10 -37 -32z" />
    <glyph glyph-name="afii10074" unicode="&#x438;" horiz-adv-x="506" 
d="M40 467h166v-131q0 -53 -7 -123q16 49 35 90l74 164h158v-467h-166v125q0 53 6 129q-13 -44 -35 -94l-73 -160h-158v467z" />
    <glyph glyph-name="afii10075" unicode="&#x439;" horiz-adv-x="506" 
d="M40 467h166v-131q0 -53 -7 -123q16 49 35 90l74 164h158v-467h-166v125q0 53 6 129q-13 -44 -35 -94l-73 -160h-158v467zM307 677l115 -29q-13 -65 -66 -99q-40 -25 -102 -25t-102 25q-53 34 -66 99l115 29q3 -28 17 -42q12 -13 36 -13t36 13q14 14 17 42z" />
    <glyph glyph-name="afii10076" unicode="&#x43a;" horiz-adv-x="495" 
d="M495 0h-199l-34 80q-20 46 -49 123v-203h-173v467h173v-221q17 64 52 147l31 74h187l-113 -231z" />
    <glyph glyph-name="afii10077" unicode="&#x43b;" horiz-adv-x="505" 
d="M465 467v-467h-174v327h-60v-104q0 -144 -51 -195q-39 -39 -108 -39q-30 0 -68 10v139q10 -7 25 -7q19 0 31 11q20 20 20 89v236h385z" />
    <glyph glyph-name="afii10078" unicode="&#x43c;" horiz-adv-x="632" 
d="M375 0h-118l-38 169q-13 54 -18 107q-3 -28 -4.5 -48t-2 -36t-1.5 -24l-12 -168h-167l65 467h182l37 -167q15 -63 18 -106q4 42 18 106l37 167h182l65 -467h-167l-12 168q-5 51 -8 108q-7 -59 -18 -108z" />
    <glyph glyph-name="afii10079" unicode="&#x43d;" horiz-adv-x="490" 
d="M213 467v-159h64v159h173v-467h-173v168h-64v-168h-173v467h173z" />
    <glyph glyph-name="afii10080" unicode="&#x43e;" horiz-adv-x="487" 
d="M461 234q0 -120 -68 -187q-57 -57 -149 -57t-149 57q-68 67 -68 187q0 118 68 186q57 57 149 57t149 -57q68 -68 68 -186zM244 346q-18 0 -28 -16q-21 -30 -21 -97q0 -66 21 -96q10 -16 28 -16t28 16q21 30 21 96q0 67 -21 97q-10 16 -28 16z" />
    <glyph glyph-name="afii10081" unicode="&#x43f;" horiz-adv-x="488" 
d="M448 0h-173v327h-62v-327h-173v467h408v-467z" />
    <glyph glyph-name="afii10082" unicode="&#x440;" horiz-adv-x="495" 
d="M213 467l-4 -66q20 37 44.5 56.5t62.5 19.5q42 0 73.5 -24.5t47.5 -63t23.5 -78t7.5 -78.5q0 -40 -6.5 -78t-22 -77.5t-46.5 -63.5t-73 -24q-37 0 -62.5 18.5t-48.5 54.5q4 -52 4 -77v-201h-173v682h173zM289 240q0 94 -41 94q-40 0 -40 -98q0 -100 39 -100q42 0 42 104z
" />
    <glyph glyph-name="afii10083" unicode="&#x441;" horiz-adv-x="303" 
d="M283 152v-159q-24 -3 -47 -3q-98 0 -153.5 73t-55.5 173t61.5 170.5t159.5 70.5q11 0 35 -2v-152q-77 -5 -77 -84q0 -32 17.5 -59.5t47.5 -27.5h12z" />
    <glyph glyph-name="afii10084" unicode="&#x442;" horiz-adv-x="361" 
d="M351 327h-84v-327h-173v327h-84v140h341v-140z" />
    <glyph glyph-name="afii10085" unicode="&#x443;" horiz-adv-x="456" 
d="M456 467l-221 -682h-178l82 234l-139 448h174q48 -190 55 -265q19 128 28 164l26 101h173z" />
    <glyph glyph-name="afii10086" unicode="&#x444;" horiz-adv-x="648" 
d="M239 -215v208q-92 2 -150 63q-63 64 -63 180q0 108 58 169q58 63 155 69v193h170v-193q40 -2 76 -16.5t51 -26t25 -22.5q61 -63 61 -174q0 -114 -63 -179q-62 -62 -150 -63v-208h-170zM394 334v-201q31 1 50 22q24 27 24 79q0 56 -26 80q-20 18 -48 20zM254 133v201
q-30 -2 -50 -22q-24 -25 -24 -76q0 -56 24 -81q19 -21 50 -22z" />
    <glyph glyph-name="afii10087" unicode="&#x445;" horiz-adv-x="482" 
d="M482 0h-201q-31 79 -38 110q-17 -49 -49 -110h-194l142 240l-134 227h197q12 -33 34 -101q8 25 38 101h192l-138 -223z" />
    <glyph glyph-name="afii10088" unicode="&#x446;" horiz-adv-x="523" 
d="M278 467h174v-327h61v-255h-142v115h-331v467h174v-327h64v327z" />
    <glyph glyph-name="afii10089" unicode="&#x447;" horiz-adv-x="483" 
d="M269 0v161q-37 -10 -77 -10q-74 0 -115 37q-42 40 -42 125v154h170v-130q0 -26 7 -36q9 -12 27 -12q16 0 30 8v170h174v-467h-174z" />
    <glyph glyph-name="afii10090" unicode="&#x448;" horiz-adv-x="722" 
d="M276 467h170v-327h66v327h170v-467h-642v467h170v-327h66v327z" />
    <glyph glyph-name="afii10091" unicode="&#x449;" horiz-adv-x="753" 
d="M276 467h170v-327h66v327h170v-327h61v-255h-142v115h-561v467h170v-327h66v327z" />
    <glyph glyph-name="afii10092" unicode="&#x44a;" horiz-adv-x="526" 
d="M262 301h68q93 0 136 -41q40 -38 40 -104q0 -72 -42 -112q-45 -44 -133 -44h-243v327h-78v140h252v-166zM262 110h6q39 0 54 15q10 10 10 27q0 19 -10 28q-14 13 -54 13h-6v-83z" />
    <glyph glyph-name="afii10093" unicode="&#x44b;" horiz-adv-x="688" 
d="M663 0h-174v467h174v-467zM214 301h64q93 0 136 -41q40 -38 40 -104q0 -72 -42 -112q-45 -44 -133 -44h-239v467h174v-166zM214 110h6q39 0 54 15q10 10 10 27q0 19 -10 28q-14 13 -54 13h-6v-83z" />
    <glyph glyph-name="afii10094" unicode="&#x44c;" horiz-adv-x="478" 
d="M214 301h68q93 0 136 -41q40 -38 40 -104q0 -72 -42 -112q-45 -44 -133 -44h-243v467h174v-166zM214 110h6q39 0 54 15q10 10 10 27q0 19 -10 28q-14 13 -54 13h-6v-83z" />
    <glyph glyph-name="afii10095" unicode="&#x44d;" horiz-adv-x="391" 
d="M40 14v137q29 -29 77 -29q35 0 56 19q16 15 21 41h-105v106h105q-7 27 -24 41q-20 16 -51 16q-44 0 -79 -32v140q48 24 106 24q91 0 151 -58q68 -68 68 -185q0 -122 -70 -190q-54 -54 -146 -54q-67 0 -109 24z" />
    <glyph glyph-name="afii10096" unicode="&#x44e;" horiz-adv-x="709" 
d="M683 234q0 -120 -68 -188q-56 -56 -148 -56q-95 0 -150 57q-47 50 -55 123h-53v-170h-169v467h169v-161h54q9 70 56 117q54 54 145 54q95 0 151 -56q68 -68 68 -187zM466 346q-18 0 -28 -16q-21 -30 -21 -97q0 -66 21 -96q10 -16 28 -16t28 16q21 30 21 96q0 67 -21 97
q-10 16 -28 16z" />
    <glyph glyph-name="afii10097" unicode="&#x44f;" horiz-adv-x="483" 
d="M30 0l85 160q-38 10 -62 39q-25 32 -25 87q0 86 47 132q51 49 168 49h200v-467h-174v117q0 7 3 64q-4 -13 -21 -62l-45 -119h-176zM269 250v95h-4q-32 0 -46 -10q-19 -15 -19 -39q0 -23 16 -35q14 -11 48 -11h5z" />
    <glyph glyph-name="afii10071" unicode="&#x451;" horiz-adv-x="481" 
d="M279 158l169 -1q-18 -81 -72 -124t-136 -43q-104 0 -158.5 64.5t-54.5 170.5q0 105 58 178t160 73t156 -71t54 -176q0 -5 -0.5 -16t-0.5 -16h-254q0 -72 40 -72q32 0 39 33zM202 290h81q-2 59 -41 59q-38 0 -40 -59zM413 602q0 -29 -21.5 -50.5t-50.5 -21.5
q-30 0 -52 21.5t-22 51.5t21.5 50.5t51.5 20.5t51.5 -21t21.5 -51zM221 602q0 -29 -21.5 -50.5t-50.5 -21.5q-30 0 -52 21.5t-22 51.5t21.5 50.5t51.5 20.5t51.5 -21t21.5 -51z" />
    <glyph glyph-name="afii10099" unicode="&#x452;" horiz-adv-x="525" 
d="M245 499v-74q0 -29 -4 -90q15 40 39 64q35 36 85 36q48 0 78 -32q42 -44 42 -159v-237q0 -128 -49 -179q-42 -43 -124 -43q-38 0 -75 10v145q14 -15 33 -15t29 13q10 12 10 49v232q0 23 -7 32q-8 11 -21 11q-15 0 -24 -13q-12 -16 -12 -48v-201h-174v499h-61v105h61v125
h173v-125h121v-105h-120z" />
    <glyph glyph-name="afii10100" unicode="&#x453;" horiz-adv-x="361" 
d="M341 327h-128v-327h-173v467h301v-140zM329 678l-88 -148h-99l47 148h140z" />
    <glyph glyph-name="afii10101" unicode="&#x454;" horiz-adv-x="391" 
d="M351 151v-137q-42 -24 -109 -24q-92 0 -146 54q-70 68 -70 190q0 117 68 185q60 58 153 58q58 0 104 -24v-140q-30 32 -76 32q-30 0 -51 -16q-20 -17 -27 -41h105v-106h-105q4 -24 23 -41q23 -19 57 -19q45 0 74 29z" />
    <glyph glyph-name="afii10102" unicode="&#x455;" horiz-adv-x="395" 
d="M370 439l-60 -127q-41 41 -71 41q-27 0 -27 -22q0 -18 26 -32t56.5 -24.5t56.5 -41.5t26 -79q0 -76 -55 -120t-133 -44q-75 0 -166 49l63 129q47 -49 87 -49q13 0 23.5 6.5t10.5 18.5q0 15 -26.5 28t-57.5 24.5t-57.5 42.5t-26.5 78q0 74 58 117t134 43q63 0 139 -38z
" />
    <glyph glyph-name="afii10103" unicode="&#x456;" horiz-adv-x="253" 
d="M228 613q0 -42 -29.5 -72t-71.5 -30t-71.5 30t-29.5 72q0 41 30 70.5t71 29.5t71 -29.5t30 -70.5zM213 0h-173v467h173v-467z" />
    <glyph glyph-name="afii10104" unicode="&#x457;" horiz-adv-x="253" 
d="M213 0h-173v467h173v-467zM251 613q0 -33 -16 -56t-39 -23t-39 22.5t-16 57.5q0 34 16 56.5t38 22.5q23 0 39.5 -23t16.5 -57zM113 613q0 -34 -15.5 -56.5t-38.5 -22.5q-24 0 -40.5 22.5t-16.5 57.5q0 34 16.5 56.5t40.5 22.5q23 0 38.5 -23t15.5 -57z" />
    <glyph glyph-name="afii10105" unicode="&#x458;" horiz-adv-x="254" 
d="M228 613q0 -42 -29.5 -72t-71.5 -30t-71.5 30t-29.5 72q0 41 29.5 70.5t70.5 29.5q42 0 72 -29t30 -71zM214 -215h-173v682h173v-682z" />
    <glyph glyph-name="afii10106" unicode="&#x459;" horiz-adv-x="721" 
d="M461 301h64q93 0 136 -41q40 -38 40 -104q0 -72 -42 -112q-45 -44 -133 -44h-235v327h-60v-104q0 -144 -51 -195q-39 -39 -108 -39q-30 0 -68 10v139q10 -7 25 -7q19 0 31 11q20 20 20 89v236h381v-166zM461 110h6q39 0 54 15q10 10 10 27q0 19 -10 28q-14 13 -54 13h-6
v-83z" />
    <glyph glyph-name="afii10107" unicode="&#x45a;" horiz-adv-x="715" 
d="M451 301h68q93 0 136 -41q40 -38 40 -104q0 -72 -42 -112q-45 -44 -133 -44h-243v193h-64v-193h-173v467h173v-166h64v166h174v-166zM451 110h6q39 0 54 15q10 10 10 27q0 19 -10 28q-14 13 -54 13h-6v-83z" />
    <glyph glyph-name="afii10108" unicode="&#x45b;" horiz-adv-x="522" 
d="M482 0h-174v205q0 57 -27 57q-37 0 -37 -69v-193h-173v499h-61v105h61v125h173v-125h121v-105h-121v-57q0 -14 -4 -106q42 99 123 99q62 0 90.5 -46.5t28.5 -112.5v-276z" />
    <glyph glyph-name="afii10109" unicode="&#x45c;" horiz-adv-x="495" 
d="M495 0h-199l-34 80q-20 46 -49 123v-203h-173v467h173v-221q17 64 52 147l31 74h187l-113 -231zM394 678l-88 -148h-99l47 148h140z" />
    <glyph glyph-name="afii10110" unicode="&#x45e;" horiz-adv-x="456" 
d="M456 467l-221 -682h-178l82 234l-139 448h174q48 -190 55 -265q19 128 28 164l26 101h173zM286 677l115 -29q-13 -65 -66 -99q-40 -25 -102 -25t-102 25q-53 34 -66 99l115 29q3 -28 17 -42q12 -13 36 -13t36 13q14 14 17 42z" />
    <glyph glyph-name="afii10193" unicode="&#x45f;" horiz-adv-x="492" 
d="M278 467h174v-467h-135v-115h-142v115h-135v467h174v-327h64v327z" />
    <glyph glyph-name="afii10146" unicode="&#x462;" horiz-adv-x="576" 
d="M316 0h-212v489h-84v130h84v85h180v-85h104v-130h-104v-73h10q138 0 198 -60q54 -54 54 -149q0 -99 -57 -152q-58 -55 -173 -55zM284 278v-133q4 -1 15 -1q31 0 47 15q20 18 20 52q0 32 -18 50t-51 18q-9 0 -13 -1z" />
    <glyph glyph-name="afii10194" unicode="&#x463;" horiz-adv-x="518" 
d="M254 343v-46h68q94 0 136 -41q40 -38 40 -104q0 -75 -48 -115q-44 -37 -127 -37h-243v343h-60v124h60v200h174v-200h97v-124h-97zM254 110h6q39 0 54 15q10 10 10 27q0 19 -10 28q-14 13 -54 13h-6v-83z" />
    <glyph glyph-name="afii10147" unicode="&#x472;" horiz-adv-x="567" 
d="M537 334q0 -193 -98 -286q-63 -60 -155 -60q-93 0 -156 60q-98 93 -98 286q0 191 98 285q63 60 156 60q92 0 155 -60q98 -94 98 -285zM222 403h123q-3 75 -29 100q-13 12 -32 12q-20 0 -32 -12q-27 -27 -30 -100zM346 264h-125q0 -28 9 -58.5t24 -43.5q11 -10 29 -10
q17 0 31 12q30 27 32 100z" />
    <glyph glyph-name="afii10195" unicode="&#x473;" horiz-adv-x="487" 
d="M461 234q0 -120 -68 -187q-57 -57 -149 -57t-149 57q-68 67 -68 187q0 118 68 186q57 57 149 57t149 -57q68 -68 68 -186zM195 288h98q-2 37 -22 57q-12 12 -28 12t-26 -10q-20 -18 -22 -59zM291 182h-94q2 -44 22 -62q10 -10 25 -10t25 10q20 18 22 62z" />
    <glyph glyph-name="afii10148" unicode="&#x474;" horiz-adv-x="518" 
d="M518 667l-182 -667h-183l-153 667h189q52 -298 63 -435q6 66 10 104q8 57 18 110l42 221h196z" />
    <glyph glyph-name="afii10196" unicode="&#x475;" horiz-adv-x="446" 
d="M446 467l-136 -467h-181l-129 467h175q3 -17 15.5 -79t18.5 -96q2 -13 13 -120q11 87 53 295h171z" />
    <glyph glyph-name="afii10050" unicode="&#x490;" horiz-adv-x="445" 
d="M47 667h215v142h160v-299h-195v-510h-180v667z" />
    <glyph glyph-name="afii10098" unicode="&#x491;" horiz-adv-x="418" 
d="M40 467h211v140h142v-280h-180v-327h-173v467z" />
    <glyph glyph-name="uni0492" unicode="&#x492;" horiz-adv-x="422" 
d="M399 510h-138v-97h128v-151h-128v-262h-180v262h-66v151h66v254h318v-157z" />
    <glyph glyph-name="uni0493" unicode="&#x493;" horiz-adv-x="391" 
d="M371 467v-140h-128v-62h100v-140h-100v-125h-173v125h-50v140h50v202h301z" />
    <glyph glyph-name="uni0494" unicode="&#x494;" horiz-adv-x="526" 
d="M375 510h-148v-68q0 -36 -5 -64q50 33 108 33q69 0 112 -42q59 -58 59 -168q0 -120 -59 -178q-40 -39 -107 -39q-33 0 -73 14l14 142q10 -9 23 -9q10 0 17 7q13 12 13 54q0 35 -15 51q-12 14 -34 14t-53 -17v-240h-180v667h328v-157z" />
    <glyph glyph-name="uni0495" unicode="&#x495;" horiz-adv-x="480" 
d="M349 327h-136v-72h15q129 0 185 -69q42 -53 42 -144q0 -127 -59 -191q-58 -63 -184 -66v136q30 2 50 20q27 25 27 92q0 56 -22 80q-19 22 -54 22v-135h-173v467h309v-140z" />
    <glyph glyph-name="uni0496" unicode="&#x496;" horiz-adv-x="746" 
d="M185 667l105 -300l-5 300h170l-5 -300l105 300h178l-138 -322l72 -182h74v-293h-156v130h-35l-100 321l5 -321h-170l5 321l-100 -321h-182l137 345l-140 322h180z" />
    <glyph glyph-name="uni0497" unicode="&#x497;" horiz-adv-x="710" 
d="M523 467h180l-109 -228l50 -99h61v-255h-142v115h-43l-40 96q-22 53 -40 120v-216h-168v216q-18 -67 -40 -120l-38 -96h-192l116 239l-109 228h180l42 -104q25 -60 41 -118v222h168v-222q16 58 41 118z" />
    <glyph glyph-name="uni0498" unicode="&#x498;" horiz-adv-x="473" 
d="M50 452v183q67 44 159 44q105 0 163 -58q53 -51 53 -137q0 -67 -35 -104q-32 -34 -77 -40q55 -4 91 -40q39 -39 39 -106q0 -80 -45 -136q-37 -45 -90 -58v-130h-160v124q-52 6 -98 31v198q26 -33 54 -50q32 -20 71 -20q40 0 58 18q15 15 15 35q0 28 -24 42q-20 12 -69 12
h-29v153h31q46 0 66 13t20 36q0 24 -20 39q-19 13 -48 13q-39 0 -72 -19q-29 -17 -53 -43z" />
    <glyph glyph-name="uni0499" unicode="&#x499;" horiz-adv-x="435" 
d="M89 303l-63 121q85 53 176 53q79 0 125 -27q64 -38 64 -111q0 -44 -26 -70q-25 -25 -62 -29q47 -2 76 -29q28 -26 28 -69q0 -57 -40 -99q-28 -30 -76 -43v-115h-142v110q-70 10 -129 54l65 125q21 -25 41 -36q23 -13 51 -13q25 0 38 8q14 8 14 21q0 19 -27 25
q-17 4 -47 4h-23v109h21q33 0 47 4q22 5 22 24q0 29 -47 29q-25 0 -49 -14q-16 -10 -37 -32z" />
    <glyph glyph-name="uni049A" unicode="&#x49a;" horiz-adv-x="545" 
d="M47 667h180l-5 -298l106 298h190l-142 -322l85 -182h79v-293h-156v130h-42l-120 319l5 -319h-180v667z" />
    <glyph glyph-name="uni049B" unicode="&#x49b;" horiz-adv-x="495" 
d="M296 467h187l-113 -231l54 -96h61v-255h-142v115h-44l-37 80q-25 57 -49 123v-203h-173v467h173v-221q17 64 52 147z" />
    <glyph glyph-name="uni049C" unicode="&#x49c;" horiz-adv-x="646" 
d="M221 293l6 -293h-180v667h180l-5 -274h43v150h87v-170l101 294h186l-135 -322l137 -345h-190l-99 317v-158h-87v134h-44z" />
    <glyph glyph-name="uni049D" unicode="&#x49d;" horiz-adv-x="580" 
d="M210 181v-181h-170v467h170v-186h33v95h72v-123q17 75 45 140l31 74h178l-109 -231l115 -236h-184l-34 80q-27 67 -42 116v-118h-72v103h-33z" />
    <glyph glyph-name="uni04A0" unicode="&#x4a0;" horiz-adv-x="637" 
d="M632 0h-194l-120 319l5 -319h-180v510h-128v157h308l-5 -298l106 298h190l-142 -322z" />
    <glyph glyph-name="uni04A1" unicode="&#x4a1;" horiz-adv-x="575" 
d="M575 0h-199l-34 80q-20 46 -49 123v-203h-173v327h-110v140h283v-221q17 64 52 147l31 74h187l-113 -231z" />
    <glyph glyph-name="uni04A2" unicode="&#x4a2;" horiz-adv-x="573" 
d="M313 667h180v-504h70v-292h-160v129h-90v268h-86v-268h-180v667h180v-236h86v236z" />
    <glyph glyph-name="uni04A3" unicode="&#x4a3;" horiz-adv-x="521" 
d="M213 467v-159h64v159h173v-327h61v-255h-142v115h-92v168h-64v-168h-173v467h173z" />
    <glyph glyph-name="uni04A4" unicode="&#x4a4;" horiz-adv-x="630" 
d="M615 510h-122v-510h-180v268h-86v-268h-180v667h180v-236h86v236h302v-157z" />
    <glyph glyph-name="uni04A5" unicode="&#x4a5;" horiz-adv-x="580" 
d="M570 327h-120v-327h-173v168h-64v-168h-173v467h173v-159h64v159h293v-140z" />
    <glyph glyph-name="uni04AA" unicode="&#x4aa;" horiz-adv-x="445" 
d="M422 205l-11 -193q-19 -10 -35 -12v-130h-160v132q-67 24 -114 83q-72 92 -72 246q0 176 99 273q76 75 200 75q47 0 85 -17v-190q-37 40 -83 40q-40 0 -67 -24q-50 -45 -50 -154q0 -100 43 -143q29 -29 73 -29q47 0 92 43z" />
    <glyph glyph-name="uni04AB" unicode="&#x4ab;" horiz-adv-x="307" 
d="M287 152v-159q-9 -3 -20 -3v-105h-136v113q-52 32 -78 90q-26 57 -26 138q0 119 69 189q62 62 143 62q6 0 21.5 -1t26.5 -1v-152q-34 0 -57 -21q-24 -22 -24 -63q0 -45 27 -70q17 -17 44 -17h10z" />
    <glyph glyph-name="uni04AE" unicode="&#x4ae;" 
d="M500 667l-154 -385v-282h-180v282l-166 385h188q52 -161 63 -206q29 106 63 206h186z" />
    <glyph glyph-name="uni04AF" unicode="&#x4af;" horiz-adv-x="469" 
d="M0 467h180l26 -115q21 -90 29 -158q12 83 29 160l25 113h180l-149 -448v-234h-173v234z" />
    <glyph glyph-name="uni04B0" unicode="&#x4b0;" 
d="M500 667l-154 -367v-26h118v-143h-118v-131h-180v131h-118v143h118v26l-166 367h188q52 -161 63 -206q29 106 63 206h186z" />
    <glyph glyph-name="uni04B1" unicode="&#x4b1;" horiz-adv-x="469" 
d="M0 467h180l26 -110q20 -86 29 -158q14 95 29 160l25 108h180l-149 -397v-18h106v-105h-106v-162h-173v162h-105v105h105v18z" />
    <glyph glyph-name="uni04B2" unicode="&#x4b2;" horiz-adv-x="519" 
d="M303 667h202l-152 -321l87 -183h74v-292h-156v129h-41q-9 24 -24 70t-18 54q-15 44 -17 55q-3 -10 -9 -29.5t-9 -29.5q-5 -17 -44 -120h-196l162 346l-153 321h200q3 -11 22.5 -69t28.5 -89q7 32 43 158z" />
    <glyph glyph-name="uni04B3" unicode="&#x4b3;" horiz-adv-x="473" 
d="M205 467q12 -33 34 -101q8 25 38 101h192l-138 -223l67 -104h64v-255h-142v115h-35q-30 61 -42 110q-17 -49 -49 -110h-194l142 240l-134 227h197z" />
    <glyph glyph-name="uni04B6" unicode="&#x4b6;" horiz-adv-x="562" 
d="M392 0h-90v265q-51 -11 -90 -11q-74 0 -119 39q-33 29 -43 67.5t-10 91.5v215h176v-193q0 -32 13 -46q14 -14 38 -14q18 0 35 7v246h180v-504h70v-292h-160v129z" />
    <glyph glyph-name="uni04B7" unicode="&#x4b7;" horiz-adv-x="514" 
d="M362 0h-93v161q-37 -10 -77 -10q-74 0 -115 37q-42 40 -42 125v154h170v-130q0 -26 7 -36q9 -12 27 -12q16 0 30 8v170h174v-327h61v-255h-142v115z" />
    <glyph glyph-name="uni04B8" unicode="&#x4b8;" horiz-adv-x="598" 
d="M372 0v265q-19 -6 -38 -9v-117h-83v113q-116 -4 -170 54q-41 46 -41 131v230h172v-207q0 -25 11 -36q9 -9 28 -9v136h83v-138q20 2 38 9v245h180v-667h-180z" />
    <glyph glyph-name="uni04B9" unicode="&#x4b9;" horiz-adv-x="547" 
d="M333 0v165q-20 -8 -33 -9v-86h-72v80h-7q-107 0 -148 43q-38 39 -38 120v154h160v-136q0 -30 9 -39t24 -9v103h72v-102q17 0 33 10v173h174v-467h-174z" />
    <glyph glyph-name="uni04BA" unicode="&#x4ba;" horiz-adv-x="529" 
d="M227 667v-247q51 11 90 11q74 0 119 -39q33 -29 43 -67.5t10 -91.5v-233h-176v211q0 32 -13 46q-14 14 -38 14q-18 0 -35 -7v-264h-180v667h180z" />
    <glyph glyph-name="uni04BB" unicode="&#x4bb;" horiz-adv-x="491" 
d="M451 0h-174v247q0 57 -27 57q-37 0 -37 -69v-235h-173v729h173v-261q0 -30 -4 -90q42 99 123 99q62 0 90.5 -46.5t28.5 -112.5v-318z" />
    <glyph glyph-name="uni04C0" unicode="&#x4c0;" horiz-adv-x="253" 
d="M213 0h-173v667h173v-667z" />
    <glyph glyph-name="uni04C1" unicode="&#x4c1;" horiz-adv-x="738" 
d="M732 0h-182l-100 321l5 -321h-170l5 321l-100 -321h-182l137 345l-140 322h180l105 -300l-5 300h170l-5 -300l105 300h178l-138 -322zM435 874l126 -35q-15 -65 -69 -99q-44 -29 -123 -29t-123 29q-54 34 -69 99l126 35q4 -28 22 -43q17 -13 44 -13q28 0 44 13t22 43z
" />
    <glyph glyph-name="uni04C2" unicode="&#x4c2;" horiz-adv-x="712" 
d="M710 0h-192l-38 96q-22 53 -40 120v-216h-168v216q-18 -67 -40 -120l-38 -96h-192l116 239l-109 228h180l42 -104q25 -60 41 -118v222h168v-222q16 58 41 118l42 104h180l-109 -228zM409 677l115 -29q-13 -65 -66 -99q-40 -25 -102 -25t-102 25q-53 34 -66 99l115 29
q3 -28 17 -42q12 -13 36 -13t36 13q14 14 17 42z" />
    <glyph glyph-name="uni04C3" unicode="&#x4c3;" horiz-adv-x="572" 
d="M47 667h180l-5 -286l106 286h186l-120 -271q51 -8 86 -43q24 -24 36.5 -63.5t14 -64.5t1.5 -65v-65q0 -154 -65 -216q-41 -39 -119 -39q-47 0 -86 14l14 142q14 -9 29 -9t27 10q20 19 20 84v66q0 73 -20 98q-15 19 -42 19t-63 -20v-244h-180v667z" />
    <glyph glyph-name="uni04C4" unicode="&#x4c4;" horiz-adv-x="503" 
d="M40 467h173v-221q17 64 52 147l31 74h187l-117 -237q50 -15 79 -61q28 -45 28 -123q0 -133 -59 -195q-61 -64 -192 -66v136q29 0 50 19q27 26 27 100q0 61 -25 84q-22 19 -61 19v-143h-173v467z" />
    <glyph glyph-name="uni04C7" unicode="&#x4c7;" horiz-adv-x="539" 
d="M313 667h180v-708q0 -95 -40 -135q-37 -37 -122 -37q-45 0 -85 12v139q15 -12 31 -12q17 0 27 12q9 12 9 58v272h-86v-268h-180v667h180v-236h86v236z" />
    <glyph glyph-name="uni04C8" unicode="&#x4c8;" horiz-adv-x="490" 
d="M213 467v-159h64v159h173v-518q0 -95 -40 -131q-36 -33 -116 -33q-44 0 -78 10v125q10 -7 24 -7q19 0 29 12q8 11 8 37v206h-64v-168h-173v467h173z" />
    <glyph glyph-name="uni04D0" unicode="&#x4d0;" horiz-adv-x="532" 
d="M527 0h-186l-14 85h-121l-15 -85h-186l161 667h220zM230 227h76q-23 155 -34 280q-2 -15 -5.5 -47t-5.5 -47q-15 -103 -31 -186zM332 874l126 -35q-15 -65 -69 -99q-44 -29 -123 -29t-123 29q-54 34 -69 99l126 35q4 -28 22 -43q17 -13 44 -13q28 0 44 13t22 43z" />
    <glyph glyph-name="uni04D1" unicode="&#x4d1;" horiz-adv-x="497" 
d="M457 0h-174q1 13 3 39.5t3 39.5q-45 -89 -120 -89q-42 0 -71.5 25t-44 65.5t-20.5 78.5t-6 77q0 40 6.5 78t21.5 76.5t45.5 62.5t72.5 24q73 0 112 -84q-1 8 -2 34t-3 40h177v-467zM281 254q0 80 -36 80q-44 0 -44 -117q0 -84 39 -84q7 0 13.5 3t10.5 9t7 12t5 16.5t3 17
t1.5 18.5t0.5 17v16v12zM314 677l115 -29q-13 -65 -66 -99q-40 -25 -102 -25t-102 25q-53 34 -66 99l115 29q3 -28 17 -42q12 -13 36 -13t36 13q14 14 17 42z" />
    <glyph glyph-name="uni04D2" unicode="&#x4d2;" horiz-adv-x="532" 
d="M527 0h-186l-14 85h-121l-15 -85h-186l161 667h220zM230 227h76q-23 155 -34 280q-2 -15 -5.5 -47t-5.5 -47q-15 -103 -31 -186zM435 792q0 -29 -21.5 -50.5t-50.5 -21.5q-30 0 -52 21.5t-22 51.5t21.5 50.5t51.5 20.5t51.5 -21t21.5 -51zM243 792q0 -29 -21.5 -50.5
t-50.5 -21.5q-30 0 -52 21.5t-22 51.5t21.5 50.5t51.5 20.5t51.5 -21t21.5 -51z" />
    <glyph glyph-name="uni04D3" unicode="&#x4d3;" horiz-adv-x="497" 
d="M457 0h-174q1 13 3 39.5t3 39.5q-45 -89 -120 -89q-42 0 -71.5 25t-44 65.5t-20.5 78.5t-6 77q0 40 6.5 78t21.5 76.5t45.5 62.5t72.5 24q73 0 112 -84q-1 8 -2 34t-3 40h177v-467zM281 254q0 80 -36 80q-44 0 -44 -117q0 -84 39 -84q7 0 13.5 3t10.5 9t7 12t5 16.5t3 17
t1.5 18.5t0.5 17v16v12zM434 602q0 -29 -21.5 -50.5t-50.5 -21.5q-30 0 -52 21.5t-22 51.5t21.5 50.5t51.5 20.5t51.5 -21t21.5 -51zM242 602q0 -29 -21.5 -50.5t-50.5 -21.5q-30 0 -52 21.5t-22 51.5t21.5 50.5t51.5 20.5t51.5 -21t21.5 -51z" />
    <glyph glyph-name="uni04D4" unicode="&#x4d4;" horiz-adv-x="615" 
d="M585 0h-256l-12 85h-116l-15 -85h-186l154 667h431v-157h-179l15 -97h150v-151h-124l18 -102h120v-160zM223 223h75q-29 206 -35 283q-14 -118 -40 -283z" />
    <glyph glyph-name="uni04D5" unicode="&#x4d5;" horiz-adv-x="735" 
d="M78 321v135q79 21 139 21q89 0 144 -46q64 46 134 46q102 0 157.5 -71t55.5 -176q0 -21 -1 -32h-255q3 -80 46 -80q27 0 39 35l165 -3q-23 -87 -77 -124q-51 -36 -132 -36q-77 0 -138 48q-70 -48 -151 -48q-74 0 -125.5 44.5t-51.5 117.5q0 72 47.5 110.5t121.5 38.5
q41 0 89 -10q-8 57 -93 57q-60 0 -114 -27zM452 291h87q-7 65 -45 65q-16 0 -25.5 -12t-12 -23.5t-4.5 -29.5zM286 150q0 19 -13 30t-33 11q-19 0 -32 -11.5t-13 -30.5q0 -20 13.5 -30t33.5 -10q19 0 31.5 11t12.5 30z" />
    <glyph glyph-name="uni04D6" unicode="&#x4d6;" horiz-adv-x="411" 
d="M381 0h-334v667h334v-157h-154v-97h138v-151h-138v-102h154v-160zM275 874l126 -35q-15 -65 -69 -99q-44 -29 -123 -29t-123 29q-54 34 -69 99l126 35q4 -28 22 -43q17 -13 44 -13q28 0 44 13t22 43z" />
    <glyph glyph-name="uni04D7" unicode="&#x4d7;" horiz-adv-x="481" 
d="M279 158l169 -1q-18 -81 -72 -124t-136 -43q-104 0 -158.5 64.5t-54.5 170.5q0 105 58 178t160 73t156 -71t54 -176q0 -5 -0.5 -16t-0.5 -16h-254q0 -72 40 -72q32 0 39 33zM202 290h81q-2 59 -41 59q-38 0 -40 -59zM304 677l115 -29q-13 -65 -66 -99q-40 -25 -102 -25
t-102 25q-53 34 -66 99l115 29q3 -28 17 -42q12 -13 36 -13t36 13q14 14 17 42z" />
    <glyph glyph-name="uni04D8" unicode="&#x4d8;" horiz-adv-x="556" 
d="M30 385h310q-7 84 -32 115q-15 18 -39 18q-19 0 -35 -14q-18 -18 -23 -54l-175 55q26 72 82 120q64 54 155 54q98 0 160 -62q43 -43 68 -117.5t25 -160.5q0 -192 -87 -283q-64 -68 -168 -68q-96 0 -156 64q-85 93 -85 306v27zM340 253h-129q3 -68 27 -91q13 -13 36 -13
q22 0 36 15q28 28 30 89z" />
    <glyph glyph-name="afii10846" unicode="&#x4d9;" horiz-adv-x="481" 
d="M197 308l-158 38q20 56 66 91q52 39 134 39q97 0 151 -54q65 -65 65 -180q0 -125 -75 -197q-56 -55 -142 -55q-90 0 -144 56q-76 79 -66 223h254q0 46 -16 62q-10 10 -27 10q-15 0 -27 -8t-15 -25zM280 176h-81q0 -31 15 -47q11 -12 26 -12q14 0 24 10q16 16 16 49z" />
    <glyph glyph-name="uni04DA" unicode="&#x4da;" horiz-adv-x="556" 
d="M30 385h310q-7 84 -32 115q-15 18 -39 18q-19 0 -35 -14q-18 -18 -23 -54l-175 55q26 72 82 120q64 54 155 54q98 0 160 -62q43 -43 68 -117.5t25 -160.5q0 -192 -87 -283q-64 -68 -168 -68q-96 0 -156 64q-85 93 -85 306v27zM340 253h-129q3 -68 27 -91q13 -13 36 -13
q22 0 36 15q28 28 30 89zM439 792q0 -29 -21.5 -50.5t-50.5 -21.5q-30 0 -52 21.5t-22 51.5t21.5 50.5t51.5 20.5t51.5 -21t21.5 -51zM247 792q0 -29 -21.5 -50.5t-50.5 -21.5q-30 0 -52 21.5t-22 51.5t21.5 50.5t51.5 20.5t51.5 -21t21.5 -51z" />
    <glyph glyph-name="uni04DB" unicode="&#x4db;" horiz-adv-x="481" 
d="M197 308l-158 38q20 56 66 91q52 39 134 39q97 0 151 -54q65 -65 65 -180q0 -125 -75 -197q-56 -55 -142 -55q-90 0 -144 56q-76 79 -66 223h254q0 46 -16 62q-10 10 -27 10q-15 0 -27 -8t-15 -25zM280 176h-81q0 -31 15 -47q11 -12 26 -12q14 0 24 10q16 16 16 49z
M410 602q0 -29 -21.5 -50.5t-50.5 -21.5q-30 0 -52 21.5t-22 51.5t21.5 50.5t51.5 20.5t51.5 -21t21.5 -51zM218 602q0 -29 -21.5 -50.5t-50.5 -21.5q-30 0 -52 21.5t-22 51.5t21.5 50.5t51.5 20.5t51.5 -21t21.5 -51z" />
    <glyph glyph-name="uni04DC" unicode="&#x4dc;" horiz-adv-x="738" 
d="M732 0h-182l-100 321l5 -321h-170l5 321l-100 -321h-182l137 345l-140 322h180l105 -300l-5 300h170l-5 -300l105 300h178l-138 -322zM533 792q0 -29 -21.5 -50.5t-50.5 -21.5q-30 0 -52 21.5t-22 51.5t21.5 50.5t51.5 20.5t51.5 -21t21.5 -51zM341 792
q0 -29 -21.5 -50.5t-50.5 -21.5q-30 0 -52 21.5t-22 51.5t21.5 50.5t51.5 20.5t51.5 -21t21.5 -51z" />
    <glyph glyph-name="uni04DD" unicode="&#x4dd;" horiz-adv-x="712" 
d="M710 0h-192l-38 96q-22 53 -40 120v-216h-168v216q-18 -67 -40 -120l-38 -96h-192l116 239l-109 228h180l42 -104q25 -60 41 -118v222h168v-222q16 58 41 118l42 104h180l-109 -228zM519 602q0 -29 -21.5 -50.5t-50.5 -21.5q-30 0 -52 21.5t-22 51.5t21.5 50.5t51.5 20.5
t51.5 -21t21.5 -51zM327 602q0 -29 -21.5 -50.5t-50.5 -21.5q-30 0 -52 21.5t-22 51.5t21.5 50.5t51.5 20.5t51.5 -21t21.5 -51z" />
    <glyph glyph-name="uni04DE" unicode="&#x4de;" horiz-adv-x="473" 
d="M50 452v183q67 44 159 44q105 0 163 -58q53 -51 53 -137q0 -67 -35 -104q-32 -34 -77 -40q55 -4 91 -40q39 -37 39 -104q0 -96 -62 -154q-57 -54 -170 -54q-86 0 -161 37v198q26 -33 54 -50q32 -20 71 -20q40 0 58 18q15 15 15 35q0 28 -24 42q-20 12 -69 12h-29v153h31
q46 0 66 13t20 36q0 24 -20 39q-19 13 -48 13q-39 0 -72 -19q-29 -17 -53 -43zM384 792q0 -29 -21.5 -50.5t-50.5 -21.5q-30 0 -52 21.5t-22 51.5t21.5 50.5t51.5 20.5t51.5 -21t21.5 -51zM192 792q0 -29 -21.5 -50.5t-50.5 -21.5q-30 0 -52 21.5t-22 51.5t21.5 50.5
t51.5 20.5t51.5 -21t21.5 -51z" />
    <glyph glyph-name="uni04DF" unicode="&#x4df;" horiz-adv-x="435" 
d="M89 303l-63 121q85 53 176 53q79 0 125 -27q64 -38 64 -111q0 -44 -26 -70q-25 -25 -62 -29q47 -2 76 -29q28 -26 28 -69q0 -37 -19 -69.5t-54 -53.5q-50 -29 -128 -29q-65 0 -114 19q-35 13 -72 40l65 125q21 -25 41 -36q23 -13 51 -13q25 0 38 8q14 8 14 21
q0 19 -27 25q-17 4 -47 4h-23v109h21q33 0 47 4q22 5 22 24q0 29 -47 29q-25 0 -49 -14q-16 -10 -37 -32zM379 602q0 -29 -21.5 -50.5t-50.5 -21.5q-30 0 -52 21.5t-22 51.5t21.5 50.5t51.5 20.5t51.5 -21t21.5 -51zM187 602q0 -29 -21.5 -50.5t-50.5 -21.5q-30 0 -52 21.5
t-22 51.5t21.5 50.5t51.5 20.5t51.5 -21t21.5 -51z" />
    <glyph glyph-name="uni04E2" unicode="&#x4e2;" horiz-adv-x="556" 
d="M47 0v667h170v-185q0 -49 -20 -225q43 128 69 194l85 216h158v-667h-170v178q0 50 11 214q-21 -75 -70 -201l-75 -191h-158zM448 743h-340v94h340v-94z" />
    <glyph glyph-name="uni04E3" unicode="&#x4e3;" horiz-adv-x="506" 
d="M40 467h166v-131q0 -53 -7 -123q16 49 35 90l74 164h158v-467h-166v125q0 53 6 129q-13 -44 -35 -94l-73 -160h-158v467zM423 553h-340v94h340v-94z" />
    <glyph glyph-name="uni04E4" unicode="&#x4e4;" horiz-adv-x="556" 
d="M47 0v667h170v-185q0 -49 -20 -225q43 128 69 194l85 216h158v-667h-170v178q0 50 11 214q-21 -75 -70 -201l-75 -191h-158zM447 792q0 -29 -21.5 -50.5t-50.5 -21.5q-30 0 -52 21.5t-22 51.5t21.5 50.5t51.5 20.5t51.5 -21t21.5 -51zM255 792q0 -29 -21.5 -50.5
t-50.5 -21.5q-30 0 -52 21.5t-22 51.5t21.5 50.5t51.5 20.5t51.5 -21t21.5 -51z" />
    <glyph glyph-name="uni04E5" unicode="&#x4e5;" horiz-adv-x="506" 
d="M40 467h166v-131q0 -53 -7 -123q16 49 35 90l74 164h158v-467h-166v125q0 53 6 129q-13 -44 -35 -94l-73 -160h-158v467zM422 602q0 -29 -21.5 -50.5t-50.5 -21.5q-30 0 -52 21.5t-22 51.5t21.5 50.5t51.5 20.5t51.5 -21t21.5 -51zM230 602q0 -29 -21.5 -50.5
t-50.5 -21.5q-30 0 -52 21.5t-22 51.5t21.5 50.5t51.5 20.5t51.5 -21t21.5 -51z" />
    <glyph glyph-name="uni04E6" unicode="&#x4e6;" horiz-adv-x="567" 
d="M537 334q0 -193 -98 -286q-63 -60 -155 -60q-93 0 -156 60q-98 93 -98 286q0 191 98 285q63 60 156 60q92 0 155 -60q98 -94 98 -285zM284 511q-19 0 -30 -12q-37 -37 -37 -165t37 -165q11 -12 30 -12q17 0 29 12q37 37 37 165t-37 165q-12 12 -29 12zM452 792
q0 -29 -21.5 -50.5t-50.5 -21.5q-30 0 -52 21.5t-22 51.5t21.5 50.5t51.5 20.5t51.5 -21t21.5 -51zM260 792q0 -29 -21.5 -50.5t-50.5 -21.5q-30 0 -52 21.5t-22 51.5t21.5 50.5t51.5 20.5t51.5 -21t21.5 -51z" />
    <glyph glyph-name="uni04E7" unicode="&#x4e7;" horiz-adv-x="487" 
d="M461 234q0 -120 -68 -187q-57 -57 -149 -57t-149 57q-68 67 -68 187q0 118 68 186q57 57 149 57t149 -57q68 -68 68 -186zM244 346q-18 0 -28 -16q-21 -30 -21 -97q0 -66 21 -96q10 -16 28 -16t28 16q21 30 21 96q0 67 -21 97q-10 16 -28 16zM413 602q0 -29 -21.5 -50.5
t-50.5 -21.5q-30 0 -52 21.5t-22 51.5t21.5 50.5t51.5 20.5t51.5 -21t21.5 -51zM221 602q0 -29 -21.5 -50.5t-50.5 -21.5q-30 0 -52 21.5t-22 51.5t21.5 50.5t51.5 20.5t51.5 -21t21.5 -51z" />
    <glyph glyph-name="uni04E8" unicode="&#x4e8;" horiz-adv-x="567" 
d="M537 334q0 -193 -98 -286q-63 -60 -155 -60q-93 0 -156 60q-98 93 -98 286q0 191 98 285q63 60 156 60q92 0 155 -60q98 -94 98 -285zM222 403h123q-3 75 -29 100q-13 12 -32 12q-20 0 -32 -12q-27 -27 -30 -100zM346 264h-125q0 -28 9 -58.5t24 -43.5q11 -10 29 -10
q17 0 31 12q30 27 32 100z" />
    <glyph glyph-name="uni04E9" unicode="&#x4e9;" horiz-adv-x="487" 
d="M461 234q0 -120 -68 -187q-57 -57 -149 -57t-149 57q-68 67 -68 187q0 118 68 186q57 57 149 57t149 -57q68 -68 68 -186zM195 288h98q-2 37 -22 57q-12 12 -28 12t-26 -10q-20 -18 -22 -59zM291 182h-94q2 -44 22 -62q10 -10 25 -10t25 10q20 18 22 62z" />
    <glyph glyph-name="uni04EA" unicode="&#x4ea;" horiz-adv-x="567" 
d="M537 334q0 -193 -98 -286q-63 -60 -155 -60q-93 0 -156 60q-98 93 -98 286q0 191 98 285q63 60 156 60q92 0 155 -60q98 -94 98 -285zM222 403h123q-3 75 -29 100q-13 12 -32 12q-20 0 -32 -12q-27 -27 -30 -100zM346 264h-125q0 -28 9 -58.5t24 -43.5q11 -10 29 -10
q17 0 31 12q30 27 32 100zM452 792q0 -29 -21.5 -50.5t-50.5 -21.5q-30 0 -52 21.5t-22 51.5t21.5 50.5t51.5 20.5t51.5 -21t21.5 -51zM260 792q0 -29 -21.5 -50.5t-50.5 -21.5q-30 0 -52 21.5t-22 51.5t21.5 50.5t51.5 20.5t51.5 -21t21.5 -51z" />
    <glyph glyph-name="uni04EB" unicode="&#x4eb;" horiz-adv-x="487" 
d="M461 234q0 -120 -68 -187q-57 -57 -149 -57t-149 57q-68 67 -68 187q0 118 68 186q57 57 149 57t149 -57q68 -68 68 -186zM195 288h98q-2 37 -22 57q-12 12 -28 12t-26 -10q-20 -18 -22 -59zM291 182h-94q2 -44 22 -62q10 -10 25 -10t25 10q20 18 22 62zM413 602
q0 -29 -21.5 -50.5t-50.5 -21.5q-30 0 -52 21.5t-22 51.5t21.5 50.5t51.5 20.5t51.5 -21t21.5 -51zM221 602q0 -29 -21.5 -50.5t-50.5 -21.5q-30 0 -52 21.5t-22 51.5t21.5 50.5t51.5 20.5t51.5 -21t21.5 -51z" />
    <glyph glyph-name="uni04EE" unicode="&#x4ee;" horiz-adv-x="510" 
d="M5 667h188l33 -107q26 -82 34 -147q11 79 31 150l28 104h186l-236 -667h-181l80 225zM428 743h-340v94h340v-94z" />
    <glyph glyph-name="uni04EF" unicode="&#x4ef;" horiz-adv-x="456" 
d="M456 467l-221 -682h-178l82 234l-139 448h174q48 -190 55 -265q19 128 28 164l26 101h173zM399 553h-340v94h340v-94z" />
    <glyph glyph-name="uni04F0" unicode="&#x4f0;" horiz-adv-x="510" 
d="M5 667h188l33 -107q26 -82 34 -147q11 79 31 150l28 104h186l-236 -667h-181l80 225zM424 792q0 -29 -21.5 -50.5t-50.5 -21.5q-30 0 -52 21.5t-22 51.5t21.5 50.5t51.5 20.5t51.5 -21t21.5 -51zM232 792q0 -29 -21.5 -50.5t-50.5 -21.5q-30 0 -52 21.5t-22 51.5
t21.5 50.5t51.5 20.5t51.5 -21t21.5 -51z" />
    <glyph glyph-name="uni04F1" unicode="&#x4f1;" horiz-adv-x="456" 
d="M456 467l-221 -682h-178l82 234l-139 448h174q48 -190 55 -265q19 128 28 164l26 101h173zM397 602q0 -29 -21.5 -50.5t-50.5 -21.5q-30 0 -52 21.5t-22 51.5t21.5 50.5t51.5 20.5t51.5 -21t21.5 -51zM205 602q0 -29 -21.5 -50.5t-50.5 -21.5q-30 0 -52 21.5t-22 51.5
t21.5 50.5t51.5 20.5t51.5 -21t21.5 -51z" />
    <glyph glyph-name="uni04F2" unicode="&#x4f2;" horiz-adv-x="510" 
d="M5 667h188l33 -107q26 -82 34 -147q11 79 31 150l28 104h186l-236 -667h-181l80 225zM459 868l-88 -148h-89l47 148h130zM292 868l-88 -148h-89l47 148h130z" />
    <glyph glyph-name="uni04F3" unicode="&#x4f3;" horiz-adv-x="456" 
d="M456 467l-221 -682h-178l82 234l-139 448h174q48 -190 55 -265q19 128 28 164l26 101h173zM429 678l-88 -148h-89l47 148h130zM262 678l-88 -148h-89l47 148h130z" />
    <glyph glyph-name="uni04F4" unicode="&#x4f4;" horiz-adv-x="528" 
d="M302 0v265q-51 -11 -90 -11q-74 0 -119 39q-33 29 -43 67.5t-10 91.5v215h176v-193q0 -32 13 -46q14 -14 38 -14q18 0 35 7v246h180v-667h-180zM429 792q0 -29 -21.5 -50.5t-50.5 -21.5q-30 0 -52 21.5t-22 51.5t21.5 50.5t51.5 20.5t51.5 -21t21.5 -51zM237 792
q0 -29 -21.5 -50.5t-50.5 -21.5q-30 0 -52 21.5t-22 51.5t21.5 50.5t51.5 20.5t51.5 -21t21.5 -51z" />
    <glyph glyph-name="uni04F5" unicode="&#x4f5;" horiz-adv-x="483" 
d="M269 0v161q-37 -10 -77 -10q-74 0 -115 37q-42 40 -42 125v154h170v-130q0 -26 7 -36q9 -12 27 -12q16 0 30 8v170h174v-467h-174zM415 602q0 -29 -21.5 -50.5t-50.5 -21.5q-30 0 -52 21.5t-22 51.5t21.5 50.5t51.5 20.5t51.5 -21t21.5 -51zM223 602q0 -29 -21.5 -50.5
t-50.5 -21.5q-30 0 -52 21.5t-22 51.5t21.5 50.5t51.5 20.5t51.5 -21t21.5 -51z" />
    <glyph glyph-name="uni04F8" unicode="&#x4f8;" horiz-adv-x="752" 
d="M706 0h-180v667h180v-667zM255 0h-208v667h180v-245h6q141 0 203 -67q49 -53 49 -142q0 -103 -57 -158q-58 -55 -173 -55zM227 278v-133q42 -5 62 14q20 18 20 52q0 32 -18 50q-23 23 -64 17zM545 792q0 -29 -21.5 -50.5t-50.5 -21.5q-30 0 -52 21.5t-22 51.5t21.5 50.5
t51.5 20.5t51.5 -21t21.5 -51zM353 792q0 -29 -21.5 -50.5t-50.5 -21.5q-30 0 -52 21.5t-22 51.5t21.5 50.5t51.5 20.5t51.5 -21t21.5 -51z" />
    <glyph glyph-name="uni04F9" unicode="&#x4f9;" horiz-adv-x="688" 
d="M663 0h-174v467h174v-467zM214 301h64q93 0 136 -41q40 -38 40 -104q0 -72 -42 -112q-45 -44 -133 -44h-239v467h174v-166zM214 110h6q39 0 54 15q10 10 10 27q0 19 -10 28q-14 13 -54 13h-6v-83zM513 602q0 -29 -21.5 -50.5t-50.5 -21.5q-30 0 -52 21.5t-22 51.5
t21.5 50.5t51.5 20.5t51.5 -21t21.5 -51zM321 602q0 -29 -21.5 -50.5t-50.5 -21.5q-30 0 -52 21.5t-22 51.5t21.5 50.5t51.5 20.5t51.5 -21t21.5 -51z" />
    <glyph glyph-name="uni1E9E" unicode="&#x1e9e;" horiz-adv-x="530" 
d="M271 418l38 59q0 29 -9 43q-11 15 -32 15q-19 0 -30 -16t-11 -45v-474h-180v457q0 93 58 155q62 67 161 67q92 0 149 -46q62 -50 67 -143l-79 -99q37 -12 61 -40q36 -42 36 -136q0 -96 -69 -160q-60 -55 -160 -55v145q45 7 45 79q0 71 -45 76v118z" />
    <glyph glyph-name="uni2010" unicode="&#x2010;" horiz-adv-x="317" 
d="M267 186h-217v134h217v-134z" />
    <glyph glyph-name="uni2011" unicode="&#x2011;" horiz-adv-x="317" 
d="M267 186h-217v134h217v-134z" />
    <glyph glyph-name="figuredash" unicode="&#x2012;" horiz-adv-x="574" 
d="M504 279h-434v120h434v-120z" />
    <glyph glyph-name="endash" unicode="&#x2013;" horiz-adv-x="574" 
d="M504 193h-434v120h434v-120z" />
    <glyph glyph-name="emdash" unicode="&#x2014;" horiz-adv-x="820" 
d="M750 193h-680v120h680v-120z" />
    <glyph glyph-name="afii00208" unicode="&#x2015;" horiz-adv-x="820" 
d="M750 193h-680v120h680v-120z" />
    <glyph glyph-name="quoteleft" unicode="&#x2018;" horiz-adv-x="332" 
d="M298 721l-81 -321h-177l116 321h142z" />
    <glyph glyph-name="quoteright" unicode="&#x2019;" horiz-adv-x="324" 
d="M291 721l-116 -321h-142l81 321h177z" />
    <glyph glyph-name="quotesinglbase" unicode="&#x201a;" horiz-adv-x="325" 
d="M292 159l-117 -320h-142l82 320h177z" />
    <glyph glyph-name="quotedblleft" unicode="&#x201c;" horiz-adv-x="568" 
d="M535 721l-82 -321h-176l116 321h142zM298 721l-81 -321h-177l116 321h142z" />
    <glyph glyph-name="quotedblright" unicode="&#x201d;" horiz-adv-x="568" 
d="M535 721l-116 -321h-142l81 321h177zM298 721l-116 -321h-142l82 321h176z" />
    <glyph glyph-name="quotedblbase" unicode="&#x201e;" horiz-adv-x="562" 
d="M528 159l-116 -320h-142l82 320h176zM292 159l-117 -320h-142l82 320h177z" />
    <glyph glyph-name="dagger" unicode="&#x2020;" horiz-adv-x="533" 
d="M507 426h-160v-635h-160v635h-160v140h160v163h160v-163h160v-140z" />
    <glyph glyph-name="daggerdbl" unicode="&#x2021;" horiz-adv-x="533" 
d="M507 91h-160v-300h-160v300h-160v137h160v199h-160v138h160v164h160v-164h160v-138h-160v-199h160v-137z" />
    <glyph glyph-name="bullet" unicode="&#x2022;" horiz-adv-x="1000" 
d="M638 340q0 -57 -40 -98.5t-97 -41.5t-97.5 41.5t-40.5 98.5t40.5 98.5t97.5 41.5t97 -41.5t40 -98.5z" />
    <glyph glyph-name="ellipsis" unicode="&#x2026;" horiz-adv-x="1000" 
d="M935 90q0 -41 -30 -70.5t-71 -29.5q-42 0 -72 30t-30 72q0 41 29.5 70.5t70.5 29.5q42 0 72.5 -30t30.5 -72zM601 90q0 -41 -29.5 -70.5t-70.5 -29.5q-42 0 -72 30t-30 72q0 41 29.5 70.5t70.5 29.5q42 0 72 -30t30 -72zM268 90q0 -41 -30 -70.5t-71 -29.5q-42 0 -72 30
t-30 72q0 41 30 70.5t71 29.5q42 0 72 -30t30 -72z" />
    <glyph glyph-name="perthousand" unicode="&#x2030;" horiz-adv-x="1061" 
d="M316 502q0 -74 -36.5 -123.5t-104.5 -49.5q-72 0 -110 47.5t-38 126.5q0 76 38 122t108 46q68 0 105.5 -47.5t37.5 -121.5zM199 503q0 70 -27 70q-28 0 -28 -74q0 -73 28 -73q27 0 27 77zM555 667l-288 -667h-92l290 667h90zM701 168q0 -74 -36.5 -123.5t-104.5 -49.5
q-72 0 -110 47.5t-38 126.5q0 76 38 122t108 46q68 0 105.5 -47.5t37.5 -121.5zM584 169q0 70 -27 70q-28 0 -28 -74q0 -73 28 -73q27 0 27 77zM1035 168q0 -74 -36.5 -123.5t-104.5 -49.5q-72 0 -110 47.5t-38 126.5q0 76 38 122t108 46q68 0 105.5 -47.5t37.5 -121.5z
M918 169q0 70 -27 70q-28 0 -28 -74q0 -73 28 -73q27 0 27 77z" />
    <glyph glyph-name="guilsinglleft" unicode="&#x2039;" horiz-adv-x="283" 
d="M256 71l-78 -58l-151 226l151 226l78 -58l-113 -168z" />
    <glyph glyph-name="guilsinglright" unicode="&#x203a;" horiz-adv-x="283" 
d="M27 71l113 168l-113 168l78 58l151 -226l-151 -226z" />
    <glyph glyph-name="fraction" unicode="&#x2044;" horiz-adv-x="60" 
d="M220 667l-288 -667h-92l290 667h90z" />
    <glyph glyph-name="Euro" unicode="&#x20ac;" horiz-adv-x="532" 
d="M511 205l-11 -193q-56 -24 -107 -24q-105 0 -172 64t-91 171h-105l31 78h64q-1 11 -1 34q0 16 1 24h-94l32 78h72q25 112 98 177t186 65q48 0 89 -17v-190q-38 40 -83 40q-71 0 -101 -75h175l-38 -78h-152q-1 -8 -1 -25q0 -22 1 -33h134l-31 -78h-83q30 -61 93 -61
q46 0 94 43z" />
    <glyph glyph-name="uni20B4" unicode="&#x20b4;" horiz-adv-x="532" 
d="M107 505v140q42 15 62 21q48 13 101 13q78 0 122 -31q48 -34 48 -96q0 -54 -34 -97h80v-94h-122l-46 -66h168v-93h-204q-14 -16 -14 -35q0 -21 17 -32q13 -9 39 -9q31 0 63 9q28 9 49 21v-140q-35 -12 -66 -19q-47 -9 -88 -9q-89 0 -138 32q-57 37 -57 109q0 42 21 73
h-62v93h116l46 66h-162v94h204q13 16 13 37q0 25 -17 39q-16 13 -42 13q-27 0 -57 -15q-22 -11 -40 -24z" />
    <glyph glyph-name="uni20B6" unicode="&#x20b6;" horiz-adv-x="532" 
d="M250 667q90 0 148 -25q58 -26 89 -79t31 -113q0 -118 -65.5 -163t-196.5 -45v-66h140v-93h-140v-83h-180v83h-71v93h71v66h-71v110h71v315h174zM256 352h19q28 0 44.5 23.5t16.5 59.5t-15.5 61t-42.5 25h-22v-169z" />
    <glyph glyph-name="uni20B6" unicode="&#x20cf;" horiz-adv-x="532" 
d="M250 667q90 0 148 -25q58 -26 89 -79t31 -113q0 -118 -65.5 -163t-196.5 -45v-66h140v-93h-140v-83h-180v83h-71v93h71v66h-71v110h71v315h174zM256 352h19q28 0 44.5 23.5t16.5 59.5t-15.5 61t-42.5 25h-22v-169z" />
    <glyph glyph-name="uni20B6" unicode="&#x20ce;" horiz-adv-x="532" 
d="M250 667q90 0 148 -25q58 -26 89 -79t31 -113q0 -118 -65.5 -163t-196.5 -45v-66h140v-93h-140v-83h-180v83h-71v93h71v66h-71v110h71v315h174zM256 352h19q28 0 44.5 23.5t16.5 59.5t-15.5 61t-42.5 25h-22v-169z" />
    <glyph glyph-name="uni20B6" unicode="&#x20cd;" horiz-adv-x="532" 
d="M250 667q90 0 148 -25q58 -26 89 -79t31 -113q0 -118 -65.5 -163t-196.5 -45v-66h140v-93h-140v-83h-180v83h-71v93h71v66h-71v110h71v315h174zM256 352h19q28 0 44.5 23.5t16.5 59.5t-15.5 61t-42.5 25h-22v-169z" />
    <glyph glyph-name="uni20B6" unicode="&#x20cc;" horiz-adv-x="532" 
d="M250 667q90 0 148 -25q58 -26 89 -79t31 -113q0 -118 -65.5 -163t-196.5 -45v-66h140v-93h-140v-83h-180v83h-71v93h71v66h-71v110h71v315h174zM256 352h19q28 0 44.5 23.5t16.5 59.5t-15.5 61t-42.5 25h-22v-169z" />
    <glyph glyph-name="uni20B6" unicode="&#x20cb;" horiz-adv-x="532" 
d="M250 667q90 0 148 -25q58 -26 89 -79t31 -113q0 -118 -65.5 -163t-196.5 -45v-66h140v-93h-140v-83h-180v83h-71v93h71v66h-71v110h71v315h174zM256 352h19q28 0 44.5 23.5t16.5 59.5t-15.5 61t-42.5 25h-22v-169z" />
    <glyph glyph-name="uni20B6" unicode="&#x20ca;" horiz-adv-x="532" 
d="M250 667q90 0 148 -25q58 -26 89 -79t31 -113q0 -118 -65.5 -163t-196.5 -45v-66h140v-93h-140v-83h-180v83h-71v93h71v66h-71v110h71v315h174zM256 352h19q28 0 44.5 23.5t16.5 59.5t-15.5 61t-42.5 25h-22v-169z" />
    <glyph glyph-name="uni20B6" unicode="&#x20c9;" horiz-adv-x="532" 
d="M250 667q90 0 148 -25q58 -26 89 -79t31 -113q0 -118 -65.5 -163t-196.5 -45v-66h140v-93h-140v-83h-180v83h-71v93h71v66h-71v110h71v315h174zM256 352h19q28 0 44.5 23.5t16.5 59.5t-15.5 61t-42.5 25h-22v-169z" />
    <glyph glyph-name="uni20B6" unicode="&#x20c8;" horiz-adv-x="532" 
d="M250 667q90 0 148 -25q58 -26 89 -79t31 -113q0 -118 -65.5 -163t-196.5 -45v-66h140v-93h-140v-83h-180v83h-71v93h71v66h-71v110h71v315h174zM256 352h19q28 0 44.5 23.5t16.5 59.5t-15.5 61t-42.5 25h-22v-169z" />
    <glyph glyph-name="uni20B6" unicode="&#x20c7;" horiz-adv-x="532" 
d="M250 667q90 0 148 -25q58 -26 89 -79t31 -113q0 -118 -65.5 -163t-196.5 -45v-66h140v-93h-140v-83h-180v83h-71v93h71v66h-71v110h71v315h174zM256 352h19q28 0 44.5 23.5t16.5 59.5t-15.5 61t-42.5 25h-22v-169z" />
    <glyph glyph-name="uni20B6" unicode="&#x20c6;" horiz-adv-x="532" 
d="M250 667q90 0 148 -25q58 -26 89 -79t31 -113q0 -118 -65.5 -163t-196.5 -45v-66h140v-93h-140v-83h-180v83h-71v93h71v66h-71v110h71v315h174zM256 352h19q28 0 44.5 23.5t16.5 59.5t-15.5 61t-42.5 25h-22v-169z" />
    <glyph glyph-name="uni20B6" unicode="&#x20c5;" horiz-adv-x="532" 
d="M250 667q90 0 148 -25q58 -26 89 -79t31 -113q0 -118 -65.5 -163t-196.5 -45v-66h140v-93h-140v-83h-180v83h-71v93h71v66h-71v110h71v315h174zM256 352h19q28 0 44.5 23.5t16.5 59.5t-15.5 61t-42.5 25h-22v-169z" />
    <glyph glyph-name="uni20B6" unicode="&#x20c4;" horiz-adv-x="532" 
d="M250 667q90 0 148 -25q58 -26 89 -79t31 -113q0 -118 -65.5 -163t-196.5 -45v-66h140v-93h-140v-83h-180v83h-71v93h71v66h-71v110h71v315h174zM256 352h19q28 0 44.5 23.5t16.5 59.5t-15.5 61t-42.5 25h-22v-169z" />
    <glyph glyph-name="uni20B6" unicode="&#x20c3;" horiz-adv-x="532" 
d="M250 667q90 0 148 -25q58 -26 89 -79t31 -113q0 -118 -65.5 -163t-196.5 -45v-66h140v-93h-140v-83h-180v83h-71v93h71v66h-71v110h71v315h174zM256 352h19q28 0 44.5 23.5t16.5 59.5t-15.5 61t-42.5 25h-22v-169z" />
    <glyph glyph-name="uni20B6" unicode="&#x20c2;" horiz-adv-x="532" 
d="M250 667q90 0 148 -25q58 -26 89 -79t31 -113q0 -118 -65.5 -163t-196.5 -45v-66h140v-93h-140v-83h-180v83h-71v93h71v66h-71v110h71v315h174zM256 352h19q28 0 44.5 23.5t16.5 59.5t-15.5 61t-42.5 25h-22v-169z" />
    <glyph glyph-name="uni20B6" unicode="&#x20c1;" horiz-adv-x="532" 
d="M250 667q90 0 148 -25q58 -26 89 -79t31 -113q0 -118 -65.5 -163t-196.5 -45v-66h140v-93h-140v-83h-180v83h-71v93h71v66h-71v110h71v315h174zM256 352h19q28 0 44.5 23.5t16.5 59.5t-15.5 61t-42.5 25h-22v-169z" />
    <glyph glyph-name="uni20B6" unicode="&#x20c0;" horiz-adv-x="532" 
d="M250 667q90 0 148 -25q58 -26 89 -79t31 -113q0 -118 -65.5 -163t-196.5 -45v-66h140v-93h-140v-83h-180v83h-71v93h71v66h-71v110h71v315h174zM256 352h19q28 0 44.5 23.5t16.5 59.5t-15.5 61t-42.5 25h-22v-169z" />
    <glyph glyph-name="uni20B6" unicode="&#x20bf;" horiz-adv-x="532" 
d="M250 667q90 0 148 -25q58 -26 89 -79t31 -113q0 -118 -65.5 -163t-196.5 -45v-66h140v-93h-140v-83h-180v83h-71v93h71v66h-71v110h71v315h174zM256 352h19q28 0 44.5 23.5t16.5 59.5t-15.5 61t-42.5 25h-22v-169z" />
    <glyph glyph-name="uni20B6" unicode="&#x20be;" horiz-adv-x="532" 
d="M250 667q90 0 148 -25q58 -26 89 -79t31 -113q0 -118 -65.5 -163t-196.5 -45v-66h140v-93h-140v-83h-180v83h-71v93h71v66h-71v110h71v315h174zM256 352h19q28 0 44.5 23.5t16.5 59.5t-15.5 61t-42.5 25h-22v-169z" />
    <glyph glyph-name="uni20B6" unicode="&#x20bd;" horiz-adv-x="532" 
d="M250 667q90 0 148 -25q58 -26 89 -79t31 -113q0 -118 -65.5 -163t-196.5 -45v-66h140v-93h-140v-83h-180v83h-71v93h71v66h-71v110h71v315h174zM256 352h19q28 0 44.5 23.5t16.5 59.5t-15.5 61t-42.5 25h-22v-169z" />
    <glyph glyph-name="uni20B6" unicode="&#x20bc;" horiz-adv-x="532" 
d="M250 667q90 0 148 -25q58 -26 89 -79t31 -113q0 -118 -65.5 -163t-196.5 -45v-66h140v-93h-140v-83h-180v83h-71v93h71v66h-71v110h71v315h174zM256 352h19q28 0 44.5 23.5t16.5 59.5t-15.5 61t-42.5 25h-22v-169z" />
    <glyph glyph-name="uni20B6" unicode="&#x20bb;" horiz-adv-x="532" 
d="M250 667q90 0 148 -25q58 -26 89 -79t31 -113q0 -118 -65.5 -163t-196.5 -45v-66h140v-93h-140v-83h-180v83h-71v93h71v66h-71v110h71v315h174zM256 352h19q28 0 44.5 23.5t16.5 59.5t-15.5 61t-42.5 25h-22v-169z" />
    <glyph glyph-name="uni20B6" unicode="&#x20ba;" horiz-adv-x="532" 
d="M250 667q90 0 148 -25q58 -26 89 -79t31 -113q0 -118 -65.5 -163t-196.5 -45v-66h140v-93h-140v-83h-180v83h-71v93h71v66h-71v110h71v315h174zM256 352h19q28 0 44.5 23.5t16.5 59.5t-15.5 61t-42.5 25h-22v-169z" />
    <glyph glyph-name="uni20B6" unicode="&#x20b9;" horiz-adv-x="532" 
d="M250 667q90 0 148 -25q58 -26 89 -79t31 -113q0 -118 -65.5 -163t-196.5 -45v-66h140v-93h-140v-83h-180v83h-71v93h71v66h-71v110h71v315h174zM256 352h19q28 0 44.5 23.5t16.5 59.5t-15.5 61t-42.5 25h-22v-169z" />
    <glyph glyph-name="uni20B6" unicode="&#x20b7;" horiz-adv-x="532" 
d="M250 667q90 0 148 -25q58 -26 89 -79t31 -113q0 -118 -65.5 -163t-196.5 -45v-66h140v-93h-140v-83h-180v83h-71v93h71v66h-71v110h71v315h174zM256 352h19q28 0 44.5 23.5t16.5 59.5t-15.5 61t-42.5 25h-22v-169z" />
    <glyph glyph-name="uni20B8" unicode="&#x20b8;" horiz-adv-x="532" 
d="M458 357h-104v-357h-180v357h-99v150h383v-150zM458 557h-383v110h383v-110z" />
    <glyph glyph-name="afii61352" unicode="&#x2116;" horiz-adv-x="879" 
d="M516 0h-172q-11 31 -35 93t-38 99.5t-32 91.5t-31 100q11 -156 11 -214v-170h-172v667h172l90 -234q6 -17 55 -168q-20 164 -20 246v156h172v-667zM849 515q0 -70 -37.5 -114.5t-107.5 -44.5q-69 0 -106 45t-37 115t37.5 116.5t105.5 46.5q70 0 107.5 -46t37.5 -118z
M830 196h-250v100h250v-100zM737 517q0 76 -32 76q-18 0 -25 -25.5t-7 -50.5q0 -73 32 -73q18 0 25 24.5t7 48.5z" />
    <glyph glyph-name="uni2117" unicode="&#x2117;" horiz-adv-x="761" 
d="M250 529h108q78 0 119 -39q36 -36 36 -95q0 -55 -30 -87q-34 -37 -114 -37h-10v-117h-109v375zM359 357h2q20 0 31 11q12 12 12 33q0 20 -12 30q-11 10 -30 10h-3v-84zM727 333q0 -141 -100 -244q-102 -104 -247 -104t-247 104q-100 102 -100 245q0 141 100 244
q102 104 247 104t247 -104q100 -102 100 -245zM380 609q-106 0 -183 -75q-84 -82 -84 -201t84 -201q77 -75 183 -75t183 75q84 82 84 201t-84 201q-77 75 -183 75z" />
    <glyph glyph-name="trademark" unicode="&#x2122;" horiz-adv-x="666" 
d="M651 287h-116l-9 195l-38 -195h-91l-31 185l-11 -185h-119l45 380h137l28 -164l32 164h135zM225 571h-60v-284h-111v284h-57v96h228v-96z" />
    <glyph glyph-name="partialdiff" unicode="&#x2202;" 
d="M55 557l17 112q188 -20 288 -106q127 -109 127 -294q0 -120 -64.5 -199t-181.5 -79q-96 0 -164 66.5t-68 162.5q0 89 59 150.5t148 61.5q75 0 121 -45q-62 149 -282 170zM243 323h-10q-9 0 -30 -8q-28 -12 -44 -38.5t-16 -58.5q0 -46 28 -78t73 -32t73.5 32t28.5 77
t-29 75.5t-74 30.5z" />
    <glyph glyph-name="product" unicode="&#x220f;" horiz-adv-x="733" 
d="M693 -250h-293v117h80v766h-226v-766h78v-117h-292v117h83v766h-83v117h653v-117h-82v-766h82v-117z" />
    <glyph glyph-name="summation" unicode="&#x2211;" horiz-adv-x="667" 
d="M629 -250h-608v130l243 387l-243 353v130h599v-247h-117l-13 130h-323l250 -366l-250 -400h332l8 133h122v-250z" />
    <glyph glyph-name="minus" unicode="&#x2212;" 
d="M467 280h-434v120h434v-120z" />
    <glyph glyph-name="uni2215" unicode="&#x2215;" horiz-adv-x="625" 
d="M583 729l-508 -945h-120l508 945h120z" />
    <glyph glyph-name="uni2219" unicode="&#x2219;" horiz-adv-x="327" 
d="M281 339q0 -48 -35 -82t-83 -34q-49 0 -83.5 34.5t-34.5 83.5q0 48 34.5 82t82.5 34q49 0 84 -34.5t35 -83.5z" />
    <glyph glyph-name="radical" unicode="&#x221a;" horiz-adv-x="667" 
d="M667 710h-179l-165 -710h-172l-57 271h-94v116h202l18 -84q11 -52 13 -146h11q9 142 43 290l88 380h292v-117z" />
    <glyph glyph-name="infinity" unicode="&#x221e;" horiz-adv-x="667" 
d="M650 340q0 -71 -45.5 -117.5t-116.5 -46.5q-82 0 -151 79q-72 -79 -157 -79q-71 0 -117 46t-46 117t46 117t116 46q80 0 151 -78q71 78 156 78q72 0 118 -45t46 -117zM516 340q0 20 -15 33t-35 13q-36 0 -69 -47q36 -46 69 -46q20 0 35 13.5t15 33.5zM269 339
q-32 46 -68 46q-20 0 -35 -13t-15 -33t15 -33t35 -13q36 0 68 46z" />
    <glyph glyph-name="integral" unicode="&#x222b;" 
d="M454 740l-24 -116q-30 10 -56 10q-33 0 -45 -18.5t-12 -52.5v-538q0 -7 0.5 -35t0 -40t-2 -36.5t-5.5 -39.5t-11 -33.5t-18 -31.5q-47 -59 -141 -59q-42 0 -94 10l24 116q30 -10 56 -10q17 0 28.5 5.5t17 12.5t8 21.5t3 23t0.5 26.5v44v532q0 71 11 111q16 55 61 81.5
t106 26.5q31 0 93 -10z" />
    <glyph glyph-name="approxequal" unicode="&#x2248;" 
d="M420 528l73 -43q-30 -65 -64.5 -99.5t-94.5 -34.5q-30 0 -95 25t-87 25q-28 0 -43.5 -15.5t-30.5 -45.5l-71 47q26 66 59 102.5t93 36.5q34 0 95.5 -24.5t93.5 -24.5q26 0 42 12.5t30 38.5zM420 324l73 -42q-30 -65 -64.5 -99.5t-94.5 -34.5q-32 0 -94.5 25t-87.5 25
q-19 0 -34 -9.5t-22 -20t-18 -31.5l-71 46q27 68 59.5 104t92.5 36q34 0 96.5 -25t92.5 -25q41 0 72 51z" />
    <glyph glyph-name="notequal" unicode="&#x2260;" 
d="M467 171h-241l-49 -95h-102l47 95h-88v117h141l34 67h-175v116h228l55 108h102l-54 -108h102v-116h-155l-34 -67h189v-117z" />
    <glyph glyph-name="lessequal" unicode="&#x2264;" 
d="M467 145l-434 208v109l434 207v-121l-297 -141l296 -141zM467 0h-434v117h434v-117z" />
    <glyph glyph-name="greaterequal" unicode="&#x2265;" 
d="M467 353l-434 -208v121l297 141l-296 141l-1 121l434 -207v-109zM467 0h-434v117h434v-117z" />
    <glyph glyph-name="dotmath" unicode="&#x22c5;" horiz-adv-x="327" 
d="M281 339q0 -48 -35 -82t-83 -34q-49 0 -83.5 34.5t-34.5 83.5q0 48 34.5 82t82.5 34q49 0 84 -34.5t35 -83.5z" />
    <glyph glyph-name="lozenge" unicode="&#x25ca;" horiz-adv-x="667" 
d="M593 334l-260 -360l-259 360l259 359zM441 334l-108 148l-107 -148l107 -148z" />
    <glyph glyph-name="openbullet" unicode="&#x25e6;" 
d="M404 509q0 -63 -45.5 -108t-108.5 -45t-108.5 45t-45.5 108t45.5 107t108.5 44t108.5 -44t45.5 -107zM327 509q0 31 -23 53t-54 22t-54 -22t-23 -53q0 -32 22.5 -54t54.5 -22t54.5 22.5t22.5 53.5z" />
    <glyph glyph-name="uniF400" unicode="&#xf400;" horiz-adv-x="2" 
d="M-89 678l-88 -148h-99l47 148h140z" />
    <glyph glyph-name="uniF401" unicode="&#xf401;" horiz-adv-x="2" 
d="M-119 868l-88 -148h-99l47 148h140z" />
    <glyph glyph-name="uniF406" unicode="&#xf406;" 
d="M341 867h69q-6 -69 -48.5 -109t-111.5 -40t-111.5 40t-48.5 109h69q13 -31 34 -42t57 -11t57 11t34 42z" />
    <glyph glyph-name="uniF407" unicode="&#xf407;" 
d="M382 -113l-124 -124l-77 53l108 137z" />
    <glyph glyph-name="uniF408" unicode="&#xf408;" 
d="M257 870l137 -98l-57 -66l-83 56l-82 -58l-61 66z" />
    <glyph glyph-name="uniF409" unicode="&#xf409;" horiz-adv-x="250" 
d="M217 -45l-80 -189h-102l35 189h147z" />
    <glyph glyph-name="uniF40A" unicode="&#xf40a;" horiz-adv-x="256" 
d="M223 667l-90 -209h-100l46 209h144z" />
    <glyph glyph-name="uniF40B" unicode="&#xf40b;" 
d="M326 795q0 -31 -22 -53t-53 -22q-32 0 -54.5 22t-22.5 54q0 31 22 53t54 22t54 -22.5t22 -53.5z" />
    <glyph glyph-name="uniF40C" unicode="&#xf40c;" 
d="M177 810q0 40 28 68t68 28t68 -28t28 -68t-28.5 -68t-66.5 -28q-40 0 -68.5 28.5t-28.5 67.5zM236 810q0 -16 10.5 -26.5t26.5 -10.5t26.5 10.5t10.5 26.5t-10.5 26.5t-26.5 10.5t-26.5 -10.5t-10.5 -26.5z" />
    <glyph glyph-name="uniF40D" unicode="&#xf40d;" 
d="M420 855v-14q0 -50 -28 -84.5t-77 -34.5q-27 0 -64.5 16.5t-52.5 16.5q-27 0 -27 -35h-91v2q0 55 24 92.5t77 37.5q26 0 65.5 -16.5t55.5 -16.5q28 0 28 36h90z" />
    <glyph glyph-name="uniF40E" unicode="&#xf40e;" 
d="M347 -92l-8 -70q-21 -9 -43 -9q-40 0 -71.5 21t-31.5 59q0 46 53 91h61q-34 -30 -34 -63q0 -35 40 -35q17 0 34 6z" />
    <glyph glyph-name="uniF4C6" unicode="&#xf4c6;" horiz-adv-x="528" 
d="M216 667v-193q0 -32 13 -46q14 -14 38 -14q18 0 35 7v246h180v-708q0 -95 -40 -135q-37 -37 -118 -37q-49 0 -89 12v139q12 -12 29 -12q18 0 28 12t10 49v278q-51 -11 -90 -11q-74 0 -119 39q-33 29 -43 67.5t-10 91.5v215h176z" />
    <glyph glyph-name="uniF4C7" unicode="&#xf4c7;" horiz-adv-x="483" 
d="M269 467h174v-524q0 -86 -38 -123q-36 -35 -118 -35q-42 0 -78 10v125q10 -7 24 -7q17 0 26 9q10 9 10 34v205q-37 -10 -77 -10q-74 0 -115 37q-42 40 -42 125v154h170v-130q0 -26 7 -36q9 -12 27 -12q16 0 30 8v170z" />
    <glyph glyph-name="uniF4CC" unicode="&#xf4cc;" horiz-adv-x="510" 
d="M5 667h188l33 -107q26 -82 34 -147q11 79 31 150l28 104h186l-236 -667h-181l80 225zM394 868l-88 -148h-99l47 148h140z" />
    <glyph glyph-name="uniF4CD" unicode="&#xf4cd;" horiz-adv-x="456" 
d="M456 467l-221 -682h-178l82 234l-139 448h174q48 -190 55 -265q19 128 28 164l26 101h173zM369 678l-88 -148h-99l47 148h140z" />
    <glyph glyph-name="dollar.fitted" unicode="&#xf5f5;" horiz-adv-x="388" 
d="M352 646v-202q-56 71 -109 71q-18 0 -31.5 -10.5t-13.5 -28.5q0 -19 17.5 -36.5t43 -35.5t50.5 -41t42.5 -61.5t17.5 -87.5q0 -78 -45 -140q-29 -41 -83 -67v-101h-84v85q-45 2 -72 7.5t-65 22.5v208q48 -75 115 -75q22 0 37.5 11t15.5 32q0 18 -17.5 37t-42 39t-49 44.5
t-42 62t-17.5 82.5q0 88 54 151q31 37 89 61v93h83v-88q55 -7 106 -33z" />
    <glyph glyph-name="Euro.fitted" unicode="&#xf5f6;" horiz-adv-x="528" 
d="M496 205l-11 -193q-56 -24 -107 -24q-105 0 -172 64t-91 171h-105l31 78h64q-1 11 -1 34q0 16 1 24h-94l32 78h72q25 112 98 177t186 65q48 0 89 -17v-190q-38 40 -83 40q-71 0 -101 -75h175l-38 -78h-152q-1 -8 -1 -25q0 -22 1 -33h134l-31 -78h-83q31 -61 93 -61
q46 0 94 43z" />
    <glyph glyph-name="cent.fitted" unicode="&#xf5f7;" horiz-adv-x="294" 
d="M268 273v-161q-9 -2 -25 -2t-23 -1v-86h-84v105q-46 26 -72 60q-53 70 -53 161q0 93 48 160q16 23 32 35.5t45 26.5v108h84v-86q2 0 7 0.5t8 0.5q11 0 33 -4v-148q-37 -2 -57 -25t-20 -61q0 -32 17.5 -57.5t47.5 -25.5h12z" />
    <glyph glyph-name="sterling.fitted" unicode="&#xf5f8;" horiz-adv-x="497" 
d="M388 159l89 -48q-45 -123 -158 -123q-39 0 -85 17q-5 2 -18 7.5t-18.5 7.5t-16.5 4t-21 2q-39 0 -86 -30l-50 82q46 33 78 48q18 30 18 67q0 41 -17 95h-62v93h33q-24 76 -24 117q0 79 57.5 129t138.5 50q107 0 195 -93l-96 -96q-32 50 -67 50q-22 0 -35 -16.5t-13 -38.5
q0 -16 11.5 -52t13.5 -50h161v-93h-150q0 -74 -43 -129q36 -2 75 -21q22 -11 36 -11q33 0 54 32z" />
    <glyph glyph-name="yen.fitted" unicode="&#xf5f9;" horiz-adv-x="539" 
d="M519 667l-85 -212h79v-94h-117l-26 -66h143v-93h-148v-202h-180v202h-160v93h154l-28 66h-126v94h85l-91 212h188q52 -161 63 -206q29 106 63 206h186z" />
    <glyph glyph-name="florin.fitted" unicode="&#xf5fa;" horiz-adv-x="469" 
d="M460 729l-22 -138q-6 0 -16 1.5t-16 1.5q-32 0 -38 -34l-18 -93h70l-18 -94h-71l-64 -332q-16 -84 -58.5 -129t-123.5 -45q-30 0 -76 13l26 143q20 -2 31 -2q22 0 33 7.5t15 28.5l61 316h-68l17 94h69l21 106q17 83 53 125t114 42q31 0 79 -11z" />
    <glyph glyph-name="uni20B4.fitted" unicode="&#xf5fb;" horiz-adv-x="485" 
d="M83 505v140q42 15 62 21q48 13 101 13q78 0 122 -31q48 -34 48 -96q0 -54 -34 -97h80v-94h-122l-46 -66h168v-93h-204q-14 -16 -14 -35q0 -21 17 -32q13 -9 39 -9q31 0 63 9q28 9 49 21v-140q-35 -12 -66 -19q-47 -9 -88 -9q-89 0 -138 32q-57 37 -57 109q0 42 21 73h-62
v93h116l46 66h-162v94h204q13 16 13 37q0 25 -17 39q-16 13 -42 13q-27 0 -57 -15q-22 -11 -40 -24z" />
    <glyph glyph-name="uni20B6.fitted" unicode="&#xf5fc;" horiz-adv-x="553" 
d="M269 667q90 0 148 -25q58 -26 89 -79t31 -113q0 -118 -65.5 -163t-196.5 -45v-66h140v-93h-140v-83h-180v83h-71v93h71v66h-71v110h71v315h174zM275 352h19q28 0 44.5 23.5t16.5 59.5t-15.5 61t-42.5 25h-22v-169z" />
    <glyph glyph-name="uni20B8.fitted" unicode="&#xf5fd;" horiz-adv-x="425" 
d="M404 357h-104v-357h-180v357h-99v150h383v-150zM404 557h-383v110h383v-110z" />
    <glyph glyph-name="uniF639" unicode="&#xf639;" horiz-adv-x="521" 
d="M496 336q0 -61 -11 -117t-35 -110.5t-71 -87.5t-112 -33q-55 0 -98 22t-69.5 56.5t-44 82t-24 94t-6.5 96.5q0 61 12 117.5t38 108t74.5 83t113.5 31.5t112.5 -32t72.5 -85t36.5 -109t11.5 -117zM318 314v42q0 167 -60 167q-56 0 -56 -165q0 -48 4 -87q0 -3 1 -13.5
t1.5 -16.5t2 -17.5t3.5 -19.5l4.5 -18t6.5 -16.5t9 -13t11.5 -9.5t14.5 -3q58 0 58 170z" />
    <glyph glyph-name="uniF63A" unicode="&#xf63a;" horiz-adv-x="515" 
d="M227 425h-175q-1 8 -1 24q0 99 61.5 164.5t160.5 65.5q95 0 154.5 -61.5t59.5 -156.5q0 -152 -175 -313q36 3 166 5v-153h-458l182 243q33 44 51 71t38 73t20 84q0 23 -10.5 41.5t-31.5 18.5q-43 0 -43 -82q0 -16 1 -24z" />
    <glyph glyph-name="uniF63B" unicode="&#xf63b;" horiz-adv-x="490" 
d="M207 477h-174q7 92 65.5 147t150.5 55q85 0 146.5 -55t61.5 -139q0 -94 -81 -140q89 -52 89 -155q0 -93 -65.5 -147.5t-160.5 -54.5q-93 0 -156 53.5t-63 144.5v10h176q0 -60 44 -60q24 0 36.5 18.5t12.5 43.5q0 33 -19.5 51.5t-52.5 18.5q-10 0 -32 -2v142q7 -1 22 -1
q37 0 55.5 15.5t18.5 52.5q0 55 -39 55q-33 0 -35 -53z" />
    <glyph glyph-name="uniF63C" unicode="&#xf63c;" horiz-adv-x="515" 
d="M491 135h-57v-135h-180v135h-242v141l201 391h221v-388h57v-144zM161 279h99q2 133 7 200q-63 -134 -106 -200z" />
    <glyph glyph-name="uniF63D" unicode="&#xf63d;" horiz-adv-x="485" 
d="M249 510l-14 -75q10 1 30 1q85 0 140 -60.5t55 -145.5q0 -105 -73.5 -173.5t-179.5 -68.5q-95 0 -184 52l22 158q76 -46 142 -46q38 0 65.5 19t27.5 56q0 40 -31.5 57t-75.5 17q-56 0 -117 -23l51 389h332v-157h-190z" />
    <glyph glyph-name="uniF63E" unicode="&#xf63e;" horiz-adv-x="491" 
d="M383 667l-107 -190q-14 -25 -33 -52q34 18 64 18q76 0 120 -66.5t44 -146.5q0 -106 -63.5 -174t-168.5 -68q-101 0 -159.5 69t-58.5 172q0 40 9 82.5t34.5 101.5t36 82.5t50 97t39.5 74.5h193zM298 227q0 86 -51 86q-50 0 -50 -89q0 -92 50 -92q51 0 51 95z" />
    <glyph glyph-name="uniF63F" unicode="&#xf63f;" horiz-adv-x="530" 
d="M523 667l-300 -667h-194l161 355q30 68 86 155h-226v157h473z" />
    <glyph glyph-name="uniF640" unicode="&#xf640;" horiz-adv-x="505" 
d="M480 190q0 -91 -67.5 -146.5t-160.5 -55.5q-90 0 -158.5 56.5t-68.5 144.5q0 112 113 158q-100 34 -100 140q0 86 62 139t149 53q88 0 153.5 -51.5t65.5 -136.5q0 -100 -92 -144q104 -44 104 -157zM290 477q0 22 -9 40t-29 18q-36 0 -36 -56q0 -23 8.5 -41.5t28.5 -18.5
t28.5 18t8.5 40zM296 210q0 25 -10.5 46t-33.5 21q-22 0 -33 -22t-11 -47t11 -45.5t34 -20.5t33 21t10 47z" />
    <glyph glyph-name="uniF641" unicode="&#xf641;" horiz-adv-x="491" 
d="M301 0h-193q105 189 139 242q-32 -19 -63 -19q-76 0 -120 66.5t-44 146.5q0 105 63.5 174t168.5 69q101 0 159.5 -69t58.5 -172q0 -40 -9 -82.5t-34.5 -101.5t-36 -82.5t-50 -97t-39.5 -74.5zM294 443q0 92 -49 92q-52 0 -52 -95q0 -87 52 -87q49 0 49 90z" />
    <glyph glyph-name="uniF6BA" unicode="&#xf6ba;" horiz-adv-x="317" 
d="M267 272h-217v134h217v-134z" />
    <glyph glyph-name="uniF6BB" unicode="&#xf6bb;" horiz-adv-x="574" 
d="M504 279h-434v120h434v-120z" />
    <glyph glyph-name="uniF6BC" unicode="&#xf6bc;" horiz-adv-x="820" 
d="M750 279h-680v120h680v-120z" />
    <glyph glyph-name="uniF6C3" unicode="&#xf6c3;" horiz-adv-x="272" 
d="M239 -45l-80 -189h-102l35 189h147z" />
    <glyph glyph-name="uniF6C9" unicode="&#xf6c9;" 
d="M384 868l-88 -148h-99l47 148h140z" />
    <glyph glyph-name="uniF6CA" unicode="&#xf6ca;" horiz-adv-x="502" 
d="M394 802l-149 -98l-134 100l61 69l80 -56l85 54z" />
    <glyph glyph-name="uniF6CB" unicode="&#xf6cb;" 
d="M419 792q0 -29 -21.5 -50.5t-50.5 -21.5q-30 0 -52 21.5t-22 51.5t21.5 50.5t51.5 20.5t51.5 -21t21.5 -51zM227 792q0 -29 -21.5 -50.5t-50.5 -21.5q-30 0 -52 21.5t-22 51.5t21.5 50.5t51.5 20.5t51.5 -21t21.5 -51z" />
    <glyph glyph-name="uniF6CE" unicode="&#xf6ce;" 
d="M304 720h-100l-87 148h139z" />
    <glyph glyph-name="uniF6CF" unicode="&#xf6cf;" 
d="M464 868l-88 -148h-89l47 148h130zM297 868l-88 -148h-89l47 148h130z" />
    <glyph glyph-name="uniF6D0" unicode="&#xf6d0;" horiz-adv-x="499" 
d="M420 743h-340v94h340v-94z" />
    <glyph glyph-name="uniF6D1" unicode="&#xf6d1;" horiz-adv-x="478" 
d="M305 874l126 -35q-15 -65 -69 -99q-44 -29 -123 -29t-123 29q-54 34 -69 99l126 35q4 -28 22 -43q17 -13 44 -13q28 0 44 13t22 43z" />
    <glyph glyph-name="uniF6D4" unicode="&#xf6d4;" horiz-adv-x="432" 
d="M269 677l115 -29q-13 -65 -66 -99q-40 -25 -102 -25t-102 25q-53 34 -66 99l115 29q3 -28 17 -42q12 -13 36 -13t36 13q14 14 17 42z" />
    <glyph glyph-name="uniF6DC" unicode="&#xf6dc;" horiz-adv-x="306" 
d="M271 0h-180v510h-72v157h252v-667z" />
    <glyph glyph-name="uniF6DE" unicode="&#xf6de;" horiz-adv-x="615" 
d="M562 193h-510v120h510v-120z" />
    <glyph glyph-name="nbspace" horiz-adv-x="233" 
 />
    <glyph glyph-name="hyphenminus" horiz-adv-x="317" 
d="M267 186h-217v134h217v-134z" />
    <glyph glyph-name="dotlessi1" horiz-adv-x="253" 
d="M213 0h-173v467h173v-467z" />
    </font>
</defs>
</svg>
