<?xml version="1.0" standalone="no"?>
<!DOCTYPE svg PUBLIC "-//W3C//DTD SVG 1.1//EN" "http://www.w3.org/Graphics/SVG/1.1/DTD/svg11.dtd" >
<svg xmlns="http://www.w3.org/2000/svg" xmlns:xlink="http://www.w3.org/1999/xlink" version="1.1">
<metadata>
Created by FontForge 20170731 at Fri Mar 29 22:15:47 2013
 By Aleksey,,,
Copyright (c) 1995 ParaGraph Intl., (c) 1998 ParaType Inc., ParaType Ltd. All rights reserved.
</metadata>
<defs>
<font id="FuturaPTCond-Book" horiz-adv-x="500" >
  <font-face 
    font-family="Futura PT Cond Book"
    font-weight="400"
    font-stretch="condensed"
    units-per-em="1000"
    panose-1="2 11 4 6 2 2 4 2 2 3"
    ascent="763"
    descent="-237"
    x-height="447"
    cap-height="667"
    bbox="-219 -250 750 913"
    underline-thickness="50"
    underline-position="-200"
    unicode-range="U+0020-FB02"
  />
<missing-glyph horiz-adv-x="233" 
 />
    <glyph glyph-name="afii10017.var.accented" unicode="&#x410;`" horiz-adv-x="325" 
d="M324 0h-66l-25 137h-141l-25 -137h-66l132 667h58zM223 191l-44 235q-14 75 -19 157q-7 -104 -58 -392h121zM277 817l-115 -103l-35 26l96 120z" />
    <glyph glyph-name="afii10022.var.accented" unicode="&#x415;`" horiz-adv-x="301" 
d="M263 0h-208v667h208v-57h-146v-235h142v-57h-142v-261h146v-57zM265 817l-115 -103l-35 26l96 120z" />
    <glyph glyph-name="afii10026.var.accented" unicode="&#x418;`" horiz-adv-x="393" 
d="M55 0v667h62v-452q0 -29 -6 -84q5 18 10 35.5t8 27t6 18.5l142 455h62v-667h-62v431q0 27 6 105q-13 -51 -27 -94l-139 -442h-62zM311 817l-115 -103l-35 26l96 120z" />
    <glyph glyph-name="afii10032.var.accented" unicode="&#x41e;`" horiz-adv-x="404" 
d="M366 336q0 -38 -1 -65.5t-5.5 -72.5t-15.5 -77.5t-28 -64t-46 -48.5t-67 -17q-165 0 -165 342q0 343 164 343t164 -340zM303 358q0 258 -100 258q-102 0 -102 -282q0 -283 102 -283q80 0 94 155q6 60 6 152zM317 817l-115 -103l-35 26l96 120z" />
    <glyph glyph-name="afii10037.var.accented" unicode="&#x423;`" horiz-adv-x="341" 
d="M8 667h68l64 -211q24 -77 39 -143q12 62 34 145l56 209h64l-188 -667h-62l64 224zM285 817l-115 -103l-35 26l96 120z" />
    <glyph glyph-name="afii10045.var.accented" unicode="&#x42b;`" horiz-adv-x="483" 
d="M429 0h-62v667h62v-667zM117 667v-289h37q73 0 114 -40q49 -48 49 -149q0 -116 -56 -161q-35 -28 -107 -28h-99v667h62zM117 53h33q50 0 73 23q30 30 30 103q0 88 -35 119q-25 23 -71 23h-30v-268zM356 817l-115 -103l-35 26l96 120z" />
    <glyph glyph-name="afii10047.var.accented" unicode="&#x42d;`" horiz-adv-x="332" 
d="M18 24v76q39 -49 91 -49q36 0 60 25q28 29 46 105q13 60 15 137h-169v57h168q0 59 -12 112q-15 69 -48 102q-27 27 -66 27q-49 0 -85 -49v77q45 32 95 32q63 0 106 -45q75 -77 75 -280q0 -104 -17 -182q-21 -99 -67 -142q-39 -36 -100 -36q-53 0 -92 33zM231 817
l-115 -103l-35 26l96 120z" />
    <glyph glyph-name="afii10048.var.accented" unicode="&#x42e;`" horiz-adv-x="568" 
d="M202 344h-85v-344h-62v667h62v-266h87q0 60 15.5 130t56.5 109q38 36 90 36t90 -36q74 -72 74 -306q0 -235 -74 -307q-38 -36 -90 -36t-90 36q-74 72 -74 307v10zM265 333q0 -60 2 -98t13.5 -88.5t34.5 -73.5q22 -22 51 -22t51 22q50 52 50 260q0 209 -50 261
q-22 22 -51 22t-51 -22q-23 -23 -34.5 -73.5t-13.5 -89t-2 -98.5zM399 817l-115 -103l-35 26l96 120z" />
    <glyph glyph-name="afii10049.var.accented" unicode="&#x42f;`" horiz-adv-x="357" 
d="M16 0l148 314q-53 0 -90 36q-42 40 -42 133q0 101 43 144q39 40 128 40h100v-667h-68v320l-148 -320h-71zM235 369v241h-36q-52 0 -74 -22q-27 -27 -27 -103q0 -69 30 -96q22 -20 63 -20h44zM293 817l-115 -103l-35 26l96 120z" />
    <glyph glyph-name="afii10023.var.accented" unicode="&#x401;`" horiz-adv-x="298" 
d="M263 0h-208v667h208v-57h-146v-235h142v-57h-142v-261h146v-57zM222 832l-84 -109l-21 14l69 123zM114 773q0 -14 -10 -24t-24 -10t-23.5 10t-9.5 24t9.5 24t23.5 10t24 -10t10 -24zM271 773q0 -14 -9.5 -24t-23.5 -10t-24 10.5t-10 23.5t10 23.5t24 10.5t23.5 -10
t9.5 -24z" />
    <glyph glyph-name="afii10065.var.accented" unicode="&#x430;`" horiz-adv-x="327" 
d="M277 0h-57v36q-32 -43 -76 -43q-29 0 -50 16.5t-31.5 38t-16 56t-6.5 57t-1 54.5q0 36 1 60.5t7 61.5t17 60t32.5 40t52.5 17q41 0 71 -37v30h57v-447zM226 226q0 40 -2 67.5t-7.5 56.5t-19 44t-34.5 15q-66 0 -66 -159q0 -72 3 -108q2 -22 4.5 -34t8.5 -31t18.5 -28.5
t30.5 -9.5q22 0 36 15q28 28 28 172zM280 610l-115 -103l-35 26l96 120z" />
    <glyph glyph-name="afii10070.var.accented" unicode="&#x435;`" horiz-adv-x="313" 
d="M219 152h57q-7 -159 -113 -159q-130 0 -130 229q0 37 5 71.5t17 73.5t39 63t65 24q37 0 63 -21.5t37.5 -57t16 -68t4.5 -67.5q0 -4 -0.5 -14t-0.5 -14h-189v-10q0 -22 2.5 -44t9 -50t22 -45t37.5 -17q55 0 58 106zM91 260h133q-7 142 -64 142q-62 0 -69 -142zM273 610
l-115 -103l-35 26l96 120z" />
    <glyph glyph-name="afii10074.var.accented" unicode="&#x438;`" horiz-adv-x="336" 
d="M286 0h-56v278q0 19 2 64q-7 -31 -21 -67l-105 -275h-56v447h56v-276q0 -37 -2 -69q9 33 21 66l105 279h56v-447zM285 610l-115 -103l-35 26l96 120z" />
    <glyph glyph-name="afii10080.var.accented" unicode="&#x43e;`" horiz-adv-x="323" 
d="M289 221q0 -228 -125 -228q-41 0 -69 23t-40.5 61t-17 73t-4.5 74q0 30 2.5 57.5t10.5 60.5t22 56.5t38.5 39.5t57.5 16q125 0 125 -233zM231 224q0 178 -68 178q-71 0 -71 -183q0 -173 71 -173q68 0 68 178zM278 610l-115 -103l-35 26l96 120z" />
    <glyph glyph-name="afii10085.var.accented" unicode="&#x443;`" horiz-adv-x="289" 
d="M283 447l-160 -627h-60l50 192l-106 435h57l56 -248q13 -54 21 -112q3 23 18 84l65 276h59zM261 610l-115 -103l-35 26l96 120z" />
    <glyph glyph-name="afii10093.var.accented" unicode="&#x44b;`" horiz-adv-x="425" 
d="M375 0h-56v447h56v-447zM50 0v447h56v-171h20q72 0 110 -36t38 -110q0 -65 -31 -97q-32 -33 -97 -33h-96zM106 52h32q41 0 58 16q21 19 21 68q0 41 -20 64q-22 26 -66 26h-25v-174zM329 610l-115 -103l-35 26l96 120z" />
    <glyph glyph-name="afii10095.var.accented" unicode="&#x44d;`" horiz-adv-x="280" 
d="M36 19v72q11 -20 28 -32q17 -13 40 -13q26 0 43 19q38 40 38 144h-117v52h116q-5 92 -38 123q-18 18 -44 18q-21 0 -39 -14q-17 -13 -27 -29v70q32 25 74 25q47 0 79 -32q57 -56 57 -189q0 -152 -62 -211q-32 -29 -76 -29q-39 0 -72 26zM226 610l-115 -103l-35 26l96 120
z" />
    <glyph glyph-name="afii10096.var.accented" unicode="&#x44e;`" horiz-adv-x="453" 
d="M107 261h57q5 118 52 165q29 28 75 28q45 0 74 -28q54 -52 54 -202t-54 -203q-29 -28 -73 -28q-47 0 -76 28q-53 52 -53 189h-56v-210h-57v447h57v-186zM290 402q-19 0 -33 -14q-37 -37 -37 -164t37 -164q14 -14 33 -14q20 0 34 14q36 41 36 164t-36 164q-14 14 -34 14z
M343 610l-115 -103l-35 26l96 120z" />
    <glyph glyph-name="afii10097.var.accented" unicode="&#x44f;`" horiz-adv-x="296" 
d="M20 0l110 187q-45 2 -76 31q-32 32 -32 90q0 66 38 104q36 35 110 35h76v-447h-56v185l-104 -185h-66zM190 234v161h-29q-40 0 -58 -18q-21 -21 -21 -67q0 -39 20 -59q18 -17 56 -17h32zM265 610l-115 -103l-35 26l96 120z" />
    <glyph glyph-name="afii10071.var.accented" unicode="&#x451;`" horiz-adv-x="313" 
d="M219 152h57q-7 -159 -113 -159q-130 0 -130 229q0 37 5 71.5t17 73.5t39 63t65 24q37 0 63 -21.5t37.5 -57t16 -68t4.5 -67.5q0 -4 -0.5 -14t-0.5 -14h-189v-10q0 -22 2.5 -44t9 -50t22 -45t37.5 -17q55 0 58 106zM91 260h133q-7 95 -29 123q-14 19 -35 19
q-62 0 -69 -142zM223 618l-90 -103l-22 18l71 120zM107 563q0 -15 -10.5 -26t-26.5 -11t-26.5 11t-10.5 26q0 16 10.5 26.5t26.5 10.5t26.5 -10.5t10.5 -26.5zM280 563q0 -15 -10.5 -26t-26.5 -11t-26.5 11t-10.5 26q0 16 10.5 26.5t26.5 10.5t26.5 -10.5t10.5 -26.5z" />
    <glyph glyph-name="fi" unicode="fi" horiz-adv-x="350" 
d="M200 395h-77v-395h-56v395h-51v52h51v179q0 114 83 114q27 0 50 -10v-62q-24 20 -41 20q-36 0 -36 -55v-186h77v-52zM298 0h-57v447h57v-447zM311 587q0 -17 -12 -29t-29 -12t-29.5 12t-12.5 29q0 18 12 30.5t30 12.5q17 0 29 -13t12 -30z" />
    <glyph glyph-name="fl" unicode="fl" horiz-adv-x="349" 
d="M200 395h-77v-395h-56v395h-51v52h51v179q0 114 83 114q27 0 50 -10v-62q-24 20 -41 20q-36 0 -36 -55v-186h77v-52zM298 0h-57v729h57v-729z" />
    <glyph glyph-name=".notdef" horiz-adv-x="233" 
 />
    <glyph glyph-name=".null" horiz-adv-x="0" 
 />
    <glyph glyph-name="nonmarkingreturn" horiz-adv-x="333" 
 />
    <glyph glyph-name="space" unicode=" " horiz-adv-x="233" 
 />
    <glyph glyph-name="exclam" unicode="!" horiz-adv-x="237" 
d="M148 167h-60v500h60v-500zM163 38q0 -19 -13 -32t-32 -13q-18 0 -31.5 13.5t-13.5 31.5q0 19 13 32t32 13t32 -13t13 -32z" />
    <glyph glyph-name="quotedbl" unicode="&#x22;" horiz-adv-x="305" 
d="M248 667l-10 -269h-42l-10 269h62zM119 667l-10 -269h-42l-10 269h62z" />
    <glyph glyph-name="numbersign" unicode="#" horiz-adv-x="600" 
d="M569 466l-8 -52h-111l-23 -148h112l-8 -52h-112l-32 -214h-59l33 214h-149l-32 -214h-58l32 214h-114l8 52h114l23 148h-114l7 52h115l30 201h58l-31 -201h149l31 201h58l-30 -201h111zM391 414h-149l-22 -148h149z" />
    <glyph glyph-name="dollar" unicode="$" horiz-adv-x="366" 
d="M306 636l-31 -47q-46 30 -88 30q-44 0 -71 -28.5t-27 -73.5q0 -36 13.5 -63.5t35 -45.5t48 -34t52.5 -33t47.5 -37.5t35 -53t13.5 -74.5q0 -70 -35.5 -120.5t-96.5 -61.5v-85h-49v83q-64 10 -112 57l36 43q54 -44 97 -44q46 0 74 36t28 89q0 37 -18 65.5t-45.5 45.5
t-59 38.5t-59 43t-45.5 59.5t-18 88q0 130 122 160v78h49v-76q50 -3 104 -39z" />
    <glyph glyph-name="percent" unicode="%" horiz-adv-x="514" 
d="M425 667l-289 -667h-46l289 667h46zM386 296q-15 0 -24 -10q-17 -18 -17 -119q0 -102 17 -120q9 -10 24 -10t24 10q17 18 17 120q0 101 -17 119q-9 10 -24 10zM474 166q0 -59 -6 -95t-26 -56t-56 -20q-35 0 -55 20t-26 56t-6 95t6 95t26 56t55 20q36 0 56 -20t26 -56
t6 -95zM127 630q-15 0 -24 -10q-17 -18 -17 -119q0 -102 17 -120q9 -10 24 -10t24 10q17 18 17 120q0 101 -17 119q-9 10 -24 10zM215 500q0 -59 -6 -95t-26 -56t-56 -20q-35 0 -55 20t-26 56t-6 95t6 95t26 56t55 20q36 0 56 -20t26 -56t6 -95z" />
    <glyph glyph-name="ampersand" unicode="&#x26;" horiz-adv-x="444" 
d="M386 192l41 -42q-25 -34 -59 -69l41 -81h-65l-20 37q-51 -46 -110 -46q-71 0 -116 54.5t-45 126.5q0 58 25 102.5t74 89.5q-61 108 -61 180q0 56 38.5 94t93.5 38q52 0 86 -36t34 -88q0 -43 -20 -83t-41 -62t-57 -53l115 -218q26 28 46 56zM283 554q0 28 -18 48t-45 20
q-31 0 -51.5 -22.5t-20.5 -53.5q0 -28 8.5 -57t16.5 -44.5t24 -43.5q86 70 86 153zM296 90l-117 220q-68 -72 -68 -139q0 -45 28 -82.5t72 -37.5q40 0 85 39z" />
    <glyph glyph-name="quotesingle" unicode="'" horiz-adv-x="175" 
d="M119 667l-10 -269h-42l-10 269h62z" />
    <glyph glyph-name="parenleft" unicode="(" horiz-adv-x="260" 
d="M220 -158l-48 -23q-56 98 -87.5 221.5t-31.5 237.5t31.5 237.5t87.5 221.5l48 -23q-110 -253 -110 -436t110 -436z" />
    <glyph glyph-name="parenright" unicode=")" horiz-adv-x="260" 
d="M40 714l49 23q56 -99 87 -220.5t31 -238.5t-31 -238.5t-87 -220.5l-49 23q110 215 110 436t-110 436z" />
    <glyph glyph-name="asterisk" unicode="*" horiz-adv-x="367" 
d="M326 613l-114 -37l70 -97l-29 -21l-70 97l-70 -97l-29 21l71 97l-114 37l11 34l114 -37v119h35v-119l114 37z" />
    <glyph glyph-name="plus" unicode="+" 
d="M467 305h-189v-176h-56v176h-189v53h189v175h56v-175h189v-53z" />
    <glyph glyph-name="comma" unicode="," horiz-adv-x="177" 
d="M137 55l-88 -197l-43 20l69 205z" />
    <glyph glyph-name="hyphen" unicode="-" horiz-adv-x="238" 
d="M188 233h-138v58h138v-58z" />
    <glyph glyph-name="period" unicode="." horiz-adv-x="177" 
d="M133 38q0 -19 -13 -32t-32 -13q-18 0 -31.5 13.5t-13.5 31.5q0 19 13 32t32 13t32 -13t13 -32z" />
    <glyph glyph-name="slash" unicode="/" horiz-adv-x="408" 
d="M409 729l-390 -902h-58l391 902h57z" />
    <glyph glyph-name="zero" unicode="0" horiz-adv-x="366" 
d="M333 356q0 -365 -151 -365q-40 0 -69 25.5t-44 60.5t-23.5 85t-10.5 84.5t-2 72.5q0 33 1.5 64t6.5 75t16.5 80t28.5 68.5t44.5 51t63.5 18.5q28 0 51 -13.5t37 -32.5t24.5 -50.5t15.5 -57t7.5 -62t3 -56t0.5 -48.5zM273 378q0 241 -82 241q-26 0 -45 -25.5t-29 -59.5
t-15.5 -80t-7 -75t-1.5 -56q0 -147 29 -219q23 -56 64 -56q38 0 57 50q30 78 30 280z" />
    <glyph glyph-name="one" unicode="1" horiz-adv-x="366" 
d="M224 0h-62v609h-86v58h148v-667z" />
    <glyph glyph-name="two" unicode="2" horiz-adv-x="366" 
d="M47 485q0 40 5.5 71t19 60t41.5 44.5t69 15.5q64 0 100 -41.5t36 -106.5q0 -46 -15.5 -98t-28.5 -80.5t-44 -89.5l-102 -201h182v-59h-273l137 282q57 115 70 167q11 42 11 79q0 38 -17 64.5t-53 26.5q-77 0 -77 -122v-12h-61z" />
    <glyph glyph-name="three" unicode="3" horiz-adv-x="366" 
d="M107 511h-57q1 71 31 118t96 47q68 0 100.5 -42t32.5 -112q0 -117 -76 -153q27 -12 45.5 -32.5t26.5 -48.5t10.5 -52.5t2.5 -56.5q0 -188 -139 -188q-138 0 -138 165v27h61q0 -28 2 -45.5t8.5 -40.5t23.5 -34.5t44 -11.5q78 0 78 140q0 147 -112 147h-30v55h26q30 0 48 5
t34 24q25 30 25 96q0 98 -73 98q-22 0 -37 -9t-21.5 -26t-9 -32.5t-2.5 -37.5z" />
    <glyph glyph-name="four" unicode="4" horiz-adv-x="366" 
d="M323 179h-50v-179h-61v179h-175v63l175 425h61v-431h50v-57zM95 236h117q0 22 -0.5 67t-0.5 68q0 110 8 198q-14 -53 -38 -115z" />
    <glyph glyph-name="five" unicode="5" horiz-adv-x="366" 
d="M155 609l-24 -204q18 3 35 3q53 0 89 -34t49.5 -79.5t13.5 -97.5q0 -84 -41 -145t-125 -61q-59 0 -104 33l17 61q44 -34 90 -34q37 0 60.5 26t31.5 56.5t8 64.5q0 62 -25.5 106t-86.5 44q-27 0 -82 -12l39 331h199v-58h-144z" />
    <glyph glyph-name="six" unicode="6" horiz-adv-x="366" 
d="M264 667l-87 -205q-44 -102 -46 -107q31 23 65 23q45 0 76 -29q48 -46 48 -169q0 -112 -46 -156q-33 -33 -89 -33q-52 0 -86 32q-53 51 -53 176q0 65 17 130q9 35 41 112l95 226h65zM106 185q0 -88 33 -120q20 -20 49 -20q28 0 47 21q25 28 25 118q0 89 -30 121
q-20 20 -47 20q-28 0 -47 -21q-30 -33 -30 -119z" />
    <glyph glyph-name="seven" unicode="7" horiz-adv-x="366" 
d="M329 667l-205 -667h-65l188 609h-192v58h274z" />
    <glyph glyph-name="eight" unicode="8" horiz-adv-x="366" 
d="M323 188q0 -39 -7 -71.5t-22 -62t-44.5 -46.5t-70.5 -17q-52 0 -84.5 32.5t-42.5 74t-10 92.5q0 145 85 179q-70 44 -70 143q0 70 33.5 117t100.5 47q65 0 95.5 -48t30.5 -117q0 -102 -70 -142q45 -25 60.5 -71t15.5 -110zM257 507q0 112 -71 112q-69 0 -69 -103
q0 -119 71 -119q69 0 69 110zM263 197q0 144 -80 144q-25 0 -42 -15.5t-24.5 -41t-10.5 -47.5t-3 -46q0 -33 4.5 -61.5t23.5 -55t51 -26.5q27 0 45 14.5t25 40.5t9 46t2 48z" />
    <glyph glyph-name="nine" unicode="9" horiz-adv-x="366" 
d="M102 0l130 312q-33 -23 -66 -23q-36 0 -61 19.5t-37 52t-17 63.5t-5 65q0 187 133 187q75 0 108 -56t33 -137q0 -115 -53 -241l-101 -242h-64zM260 482q0 23 -3 45t-11.5 45t-25.5 37t-42 14q-22 0 -37.5 -15.5t-22.5 -40t-10 -46t-3 -43.5q0 -136 78 -136q77 0 77 140z
" />
    <glyph glyph-name="colon" unicode=":" horiz-adv-x="177" 
d="M133 409q0 -19 -13 -32t-32 -13q-18 0 -31.5 13.5t-13.5 31.5q0 19 13 32t32 13t32 -13t13 -32zM133 38q0 -19 -13 -32t-32 -13q-18 0 -31.5 13.5t-13.5 31.5q0 19 13 32t32 13t32 -13t13 -32z" />
    <glyph glyph-name="semicolon" unicode=";" horiz-adv-x="177" 
d="M137 409q0 -19 -13 -32t-32 -13t-32 13t-13 32t13 32t32 13t32 -13t13 -32zM137 55l-88 -197l-43 20l69 205z" />
    <glyph glyph-name="less" unicode="&#x3c;" 
d="M467 106l-434 198v50l434 198v-57l-372 -166l372 -166v-57z" />
    <glyph glyph-name="equal" unicode="=" 
d="M467 390h-434v51h434v-51zM467 243h-434v51h434v-51z" />
    <glyph glyph-name="greater" unicode="&#x3e;" 
d="M467 304l-434 -198v57l372 166l-372 166v57l434 -198v-50z" />
    <glyph glyph-name="question" unicode="?" horiz-adv-x="332" 
d="M53 498v47q0 131 115 131q60 0 88 -39q23 -32 23 -116q0 -28 -1 -45t-4 -43t-10.5 -41.5t-19.5 -31.5t-32.5 -24t-48.5 -9v-160h-59v214q6 0 17 -0.5t16 -0.5q35 0 51 9q5 3 9.5 8.5t8 13.5t5.5 15.5t3.5 18t2.5 18t1 19v17.5v16.5v13.5q0 93 -52 93q-13 0 -22.5 -4
t-15 -13.5t-9 -17.5t-5 -23t-2 -22.5t0 -24t0.5 -19.5h-60zM181 38q0 -19 -13 -32t-32 -13q-18 0 -31.5 13.5t-13.5 31.5q0 19 13 32t32 13t32 -13t13 -32z" />
    <glyph glyph-name="at" unicode="@" horiz-adv-x="733" 
d="M607 77l13 -38q-108 -52 -229 -52q-155 0 -256.5 95.5t-101.5 249.5q0 145 100.5 244t245.5 99q132 0 224 -82.5t92 -213.5q0 -49 -15 -95q-17 -56 -56.5 -99t-91.5 -43q-31 0 -50.5 19.5t-21.5 50.5q-45 -73 -125 -73q-64 0 -102 47.5t-38 113.5q0 80 49 142t126 62
q87 0 114 -84l14 71h42l-41 -216q-7 -37 -7 -47q0 -21 11 -35.5t32 -14.5q38 0 67 37.5t42 82.5q11 41 11 80q0 116 -79.5 186.5t-196.5 70.5q-128 0 -216 -88t-88 -216q0 -126 83 -214q86 -91 232 -91q107 0 217 51zM466 356q0 45 -24 75t-68 30q-58 0 -94.5 -49.5
t-36.5 -109.5q0 -49 26 -84.5t74 -35.5q60 0 91.5 54.5t31.5 119.5z" />
    <glyph glyph-name="A" unicode="A" horiz-adv-x="325" 
d="M324 0h-66l-25 137h-141l-25 -137h-66l132 667h58zM223 191l-44 235q-14 75 -19 157q-7 -104 -58 -392h121z" />
    <glyph glyph-name="B" unicode="B" horiz-adv-x="351" 
d="M55 667h97q67 0 98 -23q51 -38 51 -147q0 -56 -18 -94.5t-64 -60.5q59 -16 78.5 -55.5t19.5 -108.5q0 -107 -55 -150q-36 -28 -105 -28h-102v667zM117 372h33q55 0 71.5 31t16.5 91q0 29 -2 46t-9 36t-25 28t-46 9h-39v-241zM117 53h33q59 0 81 32t22 95q0 137 -100 137
h-36v-264z" />
    <glyph glyph-name="C" unicode="C" horiz-adv-x="320" 
d="M302 81v-62q-43 -28 -87 -28q-72 0 -120 65q-57 78 -57 260q0 360 184 360q46 0 80 -21v-68q-44 29 -77 29q-124 0 -124 -280q0 -181 44 -244q28 -41 75 -41q37 0 82 30z" />
    <glyph glyph-name="D" unicode="D" horiz-adv-x="371" 
d="M55 667h78q93 0 134.5 -40t56.5 -134q9 -63 9 -170q0 -57 -2 -94.5t-15 -91.5t-38 -84q-45 -53 -141 -53h-82v667zM117 57h29q29 0 50.5 9.5t34.5 29t21.5 39t11.5 49t4 49t1 48.5q0 113 -5 173q-2 28 -5.5 47.5t-12 41.5t-20.5 35.5t-33.5 22.5t-49.5 9h-26v-553z" />
    <glyph glyph-name="E" unicode="E" horiz-adv-x="301" 
d="M263 0h-208v667h208v-57h-146v-235h142v-57h-142v-261h146v-57z" />
    <glyph glyph-name="F" unicode="F" horiz-adv-x="295" 
d="M267 610h-150v-235h142v-57h-142v-318h-62v667h212v-57z" />
    <glyph glyph-name="G" unicode="G" horiz-adv-x="374" 
d="M336 352v-134q0 -65 -5 -97q-9 -60 -44 -95t-93 -35q-78 0 -115 64q-41 71 -41 295q0 32 0.5 54.5t4 59.5t9.5 63t18 56t28.5 49t42.5 31.5t59 12.5q57 0 88 -33t47 -93l-61 -24q-17 90 -74 90q-99 0 -99 -243q0 -196 21 -257q22 -65 76 -65q26 0 42.5 13t23 37t8.5 42.5
t2 45.5v106h-91v57h153z" />
    <glyph glyph-name="H" unicode="H" horiz-adv-x="385" 
d="M331 0h-62v344h-152v-344h-62v667h62v-266h152v266h62v-667z" />
    <glyph glyph-name="I" unicode="I" horiz-adv-x="171" 
d="M117 0h-62v667h62v-667z" />
    <glyph glyph-name="J" unicode="J" horiz-adv-x="224" 
d="M169 667v-571q0 -19 -1 -29q-7 -77 -95 -77q-34 0 -72 18v64q33 -28 62 -28q20 0 30.5 11.5t12 23t1.5 32.5v556h62z" />
    <glyph glyph-name="K" unicode="K" horiz-adv-x="329" 
d="M321 0h-70l-134 336v-336h-62v667h62v-303l134 303h69l-144 -318z" />
    <glyph glyph-name="L" unicode="L" horiz-adv-x="263" 
d="M261 0h-206v667h62v-610h144v-57z" />
    <glyph glyph-name="M" unicode="M" horiz-adv-x="499" 
d="M478 0h-61l-47 433q-2 18 -3 38t-1.5 45t-1.5 38q-3 -57 -14 -121l-74 -433h-51q-8 49 -26.5 155t-31 187t-21.5 156q-1 10 -2 28.5t-2 27.5v-23q0 -49 -6 -97l-54 -434h-61l94 667h53l72 -458q12 -82 13 -105q3 52 12 103l78 460h53z" />
    <glyph glyph-name="N" unicode="N" horiz-adv-x="387" 
d="M332 0h-54l-148 440q-16 48 -27 94q6 -52 6 -105v-429h-54v667h54l151 -453q5 -15 14 -44.5t10 -34.5q-6 41 -6 82v450h54v-667z" />
    <glyph glyph-name="O" unicode="O" horiz-adv-x="404" 
d="M366 336q0 -38 -1 -65.5t-5.5 -72.5t-15.5 -77.5t-28 -64t-46 -48.5t-67 -17q-165 0 -165 342q0 343 164 343t164 -340zM303 358q0 258 -100 258q-102 0 -102 -282q0 -283 102 -283q80 0 94 155q6 60 6 152z" />
    <glyph glyph-name="P" unicode="P" horiz-adv-x="329" 
d="M55 667h80q97 0 133 -43t36 -142q0 -88 -37 -125.5t-125 -37.5h-25v-319h-62v667zM117 376h41q28 0 45.5 9t25.5 27.5t10 36t2 45.5q0 59 -19 87.5t-75 28.5h-30v-234z" />
    <glyph glyph-name="Q" unicode="Q" horiz-adv-x="404" 
d="M366 -18l-49 -31l-40 62q-32 -22 -76 -22q-163 0 -163 342q0 343 164 343t164 -336q0 -202 -49 -282zM234 188l46 -72q23 78 23 213q0 73 -5 126q-14 161 -95 161q-102 0 -102 -282v-33.5t1 -40.5t4 -48t7 -46t12 -45.5t18.5 -35t26 -26t34.5 -8.5q24 0 40 13l-59 92z
" />
    <glyph glyph-name="R" unicode="R" horiz-adv-x="376" 
d="M353 0h-71l-155 326v-326h-68v667h84q80 0 115 -19q72 -38 72 -160q0 -158 -132 -168zM127 375h41q56 0 74.5 29t18.5 88q0 63 -20.5 90.5t-80.5 27.5h-33v-235z" />
    <glyph glyph-name="S" unicode="S" horiz-adv-x="326" 
d="M278 640v-78q-46 54 -99 54q-44 0 -70 -32t-26 -77q0 -42 23.5 -74.5t57 -55.5t67 -47t57 -62.5t23.5 -89.5q0 -75 -46.5 -131.5t-120.5 -56.5q-57 0 -105 35v80q52 -54 108 -54q46 0 73.5 35.5t27.5 83.5q0 42 -23.5 74t-57 54.5t-67 47t-57 63t-23.5 90.5
q0 72 42 124.5t112 52.5q54 0 104 -36z" />
    <glyph glyph-name="T" unicode="T" horiz-adv-x="265" 
d="M263 610h-100v-610h-62v610h-100v57h262v-57z" />
    <glyph glyph-name="U" unicode="U" horiz-adv-x="390" 
d="M335 667v-491q0 -58 -9 -92q-12 -45 -47 -69t-84 -24q-48 0 -83 24t-48 69q-9 30 -9 93v490h62v-499q0 -34 4 -56.5t22.5 -41.5t51.5 -19q14 0 25.5 3t19.5 10t14 13t9.5 18.5t5.5 19.5t3 23t1 22.5v24v20.5v462h62z" />
    <glyph glyph-name="V" unicode="V" horiz-adv-x="326" 
d="M325 667l-135 -667h-55l-134 667h64l84 -442q6 -33 15 -134q7 77 17 132l80 444h64z" />
    <glyph glyph-name="W" unicode="W" horiz-adv-x="506" 
d="M504 667l-117 -667h-57l-65 433q-9 61 -12 124q0 -1 -3 -38q-1 -30 -11 -88l-75 -431h-56l-107 667h64l60 -420q4 -25 8 -75q2 -41 4 -50q3 30 19 130l71 415h54l62 -422q2 -11 3.5 -23t3 -27t2.5 -23q4 -31 7 -50q5 42 17 126l65 419h63z" />
    <glyph glyph-name="X" unicode="X" horiz-adv-x="318" 
d="M317 0h-66l-66 189q-17 49 -26 95q-9 -41 -28 -97l-63 -187h-67l130 339l-130 328h67l59 -165q22 -60 32 -117q6 39 32 113l60 169h66l-127 -328z" />
    <glyph glyph-name="Y" unicode="Y" horiz-adv-x="316" 
d="M315 667l-122 -378v-289h-62v289l-130 378h67l62 -191q18 -56 32 -123q8 53 29 122l57 192h67z" />
    <glyph glyph-name="Z" unicode="Z" horiz-adv-x="279" 
d="M271 667l-187 -610h169v-57h-245l185 610h-167v57h245z" />
    <glyph glyph-name="bracketleft" unicode="[" horiz-adv-x="267" 
d="M234 -173h-161v902h161v-46h-102v-810h102v-46z" />
    <glyph glyph-name="backslash" unicode="\" horiz-adv-x="408" 
d="M-1 729h57l391 -902h-58z" />
    <glyph glyph-name="bracketright" unicode="]" horiz-adv-x="267" 
d="M194 -173h-161v46h102v810h-102v46h161v-902z" />
    <glyph glyph-name="asciicircum" unicode="^" 
d="M469 372h-64l-156 250l-155 -250h-63l182 295h74z" />
    <glyph glyph-name="underscore" unicode="_" 
d="M500 -124h-500v50h500v-50z" />
    <glyph glyph-name="grave" unicode="`" 
d="M285 533l-35 -26l-115 103l54 43z" />
    <glyph glyph-name="a" unicode="a" horiz-adv-x="327" 
d="M277 0h-57v36q-32 -43 -76 -43q-29 0 -50 16.5t-31.5 38t-16 56t-6.5 57t-1 54.5q0 36 1 60.5t7 61.5t17 60t32.5 40t52.5 17q41 0 71 -37v30h57v-447zM226 226q0 40 -2 67.5t-7.5 56.5t-19 44t-34.5 15q-66 0 -66 -159q0 -72 3 -108q2 -22 4.5 -34t8.5 -31t18.5 -28.5
t30.5 -9.5q22 0 36 15q28 28 28 172z" />
    <glyph glyph-name="b" unicode="b" horiz-adv-x="321" 
d="M106 729v-312q30 37 72 37q38 0 62.5 -21.5t33.5 -62t11.5 -68t2.5 -70.5q0 -48 -2.5 -80t-11.5 -73.5t-32 -63.5t-59 -22q-42 0 -77 43v-36h-56v729h56zM230 247q0 162 -66 162q-21 0 -34.5 -15t-19 -44t-7.5 -56.5t-2 -67.5q0 -144 28 -172q14 -15 36 -15
q18 0 30.5 9.5t18.5 28.5t8.5 31t4.5 34q3 35 3 105z" />
    <glyph glyph-name="c" unicode="c" horiz-adv-x="246" 
d="M226 86v-70q-30 -23 -64 -23q-37 0 -64 23t-40 59.5t-19 71.5t-6 69q0 38 5 74t18 76t41 64t68 24q32 0 61 -17v-66q-29 31 -56 31q-25 0 -42 -20t-24 -52.5t-9.5 -58t-2.5 -50.5q0 -23 3 -48.5t10 -56.5t23.5 -50.5t40.5 -19.5q30 0 57 40z" />
    <glyph glyph-name="d" unicode="d" horiz-adv-x="321" 
d="M271 0h-56v36q-32 -43 -77 -43q-25 0 -43.5 10.5t-29.5 31.5t-18 41.5t-10 50.5t-3.5 48.5t-0.5 44.5q0 31 0.5 48.5t3.5 50t10 52t18.5 41t31.5 32t47 10.5q41 0 71 -37v312h56v-729zM220 223q0 88 -12 137t-51 49q-65 0 -65 -159q0 -72 3 -108q2 -20 4 -33.5t8 -32
t18.5 -28t30.5 -9.5q23 0 37 15q27 27 27 169z" />
    <glyph glyph-name="e" unicode="e" horiz-adv-x="313" 
d="M219 152h57q-7 -159 -113 -159q-130 0 -130 229q0 37 5 71.5t17 73.5t39 63t65 24q37 0 63 -21.5t37.5 -57t16 -68t4.5 -67.5q0 -4 -0.5 -14t-0.5 -14h-189v-10q0 -22 2.5 -44t9 -50t22 -45t37.5 -17q55 0 58 106zM91 260h133q-7 142 -64 142q-62 0 -69 -142z" />
    <glyph glyph-name="f" unicode="f" horiz-adv-x="204" 
d="M200 395h-77v-395h-56v395h-51v52h51v179q0 114 83 114q27 0 50 -10v-62q-24 20 -41 20q-36 0 -36 -55v-186h77v-52z" />
    <glyph glyph-name="g" unicode="g" horiz-adv-x="331" 
d="M281 447v-496q0 -131 -117 -131q-57 0 -86.5 33t-29.5 91q0 12 1 17h57q0 -42 11.5 -65t49.5 -23q20 0 32 7t17 21t6.5 26.5t1.5 32.5v72q-29 -32 -71 -32q-27 0 -47.5 11t-32.5 32.5t-19.5 42t-10.5 52t-3.5 49.5t-0.5 46q0 221 111 221q44 0 74 -38v31h57zM230 250
q0 158 -68 158q-40 0 -52.5 -53t-12.5 -143q0 -166 70 -166q52 0 60 96q3 37 3 108z" />
    <glyph glyph-name="h" unicode="h" horiz-adv-x="330" 
d="M280 0h-56v325q0 18 -1 29t-5.5 25.5t-15.5 21.5t-28 7q-35 0 -53 -29q-15 -23 -15 -78v-301h-56v729h56v-318q38 43 87 43q50 0 68.5 -30.5t18.5 -84.5v-339z" />
    <glyph glyph-name="i" unicode="i" horiz-adv-x="155" 
d="M106 0h-57v447h57v-447zM119 587q0 -17 -12 -29t-29 -12t-29.5 12t-12.5 29q0 18 12 30.5t30 12.5q17 0 29 -13t12 -30z" />
    <glyph glyph-name="j" unicode="j" horiz-adv-x="159" 
d="M110 -180h-58v627h58v-627zM123 587q0 -17 -12.5 -29t-29.5 -12t-29.5 12t-12.5 29q0 18 12 30.5t30 12.5t30 -12.5t12 -30.5z" />
    <glyph glyph-name="k" unicode="k" horiz-adv-x="300" 
d="M316 0h-71l-139 214v-214h-56v729h56v-464l112 182h63l-128 -200z" />
    <glyph glyph-name="l" unicode="l" horiz-adv-x="157" 
d="M107 0h-57v729h57v-729z" />
    <glyph glyph-name="m" unicode="m" horiz-adv-x="508" 
d="M458 343v-343h-56v331q0 77 -52 77q-19 0 -32 -8.5t-20 -20t-10.5 -30t-4.5 -31.5t-1 -32v-286h-57v330q0 78 -47 78q-25 0 -40.5 -12t-22 -35t-8 -40.5t-1.5 -43.5v-277h-56v447h56v-37q42 44 87 44q55 0 82 -52q39 52 92 52q51 0 71 -29t20 -82z" />
    <glyph glyph-name="n" unicode="n" horiz-adv-x="330" 
d="M280 0h-56v325q0 18 -1 29t-5.5 25.5t-15.5 21.5t-28 7q-35 0 -53 -29q-15 -22 -15 -78v-301h-56v447h56v-36q38 43 87 43q51 0 69 -33.5t18 -89.5v-331z" />
    <glyph glyph-name="o" unicode="o" horiz-adv-x="323" 
d="M289 221q0 -228 -125 -228q-41 0 -69 23t-40.5 61t-17 73t-4.5 74q0 30 2.5 57.5t10.5 60.5t22 56.5t38.5 39.5t57.5 16q125 0 125 -233zM231 224q0 178 -68 178q-71 0 -71 -183q0 -173 71 -173q68 0 68 178z" />
    <glyph glyph-name="p" unicode="p" horiz-adv-x="321" 
d="M106 447v-30q28 37 71 37q26 0 46 -10t31.5 -30.5t19 -39.5t10.5 -49t3.5 -47.5t0.5 -45.5q0 -48 -2.5 -80t-11.5 -73.5t-32 -63.5t-59 -22q-42 0 -77 43v-216h-56v627h56zM230 247q0 162 -66 162q-21 0 -34.5 -15t-19 -44t-7.5 -56.5t-2 -67.5q0 -144 28 -172
q14 -15 36 -15q18 0 30.5 9.5t18.5 28.5t8.5 31t4.5 34q3 35 3 105z" />
    <glyph glyph-name="q" unicode="q" horiz-adv-x="327" 
d="M277 -180h-57v216q-32 -43 -76 -43q-29 0 -50 16.5t-31.5 38t-16 56t-6.5 57t-1 54.5t0.5 50.5t3.5 51.5t10 53t18.5 41.5t31.5 32t46 10.5q41 0 71 -37v30h57v-627zM226 226q0 41 -2 69t-8 56.5t-19.5 43t-33.5 14.5q-66 0 -66 -159q0 -72 3 -108q2 -22 4.5 -34t8.5 -31
t18.5 -28.5t30.5 -9.5q22 0 36 15q28 28 28 172z" />
    <glyph glyph-name="r" unicode="r" horiz-adv-x="195" 
d="M182 454v-65q-22 0 -37 -7.5t-22.5 -17t-11.5 -27.5t-4.5 -30.5t-0.5 -35.5v-271h-56v447h56v-58q28 63 76 65z" />
    <glyph glyph-name="s" unicode="s" horiz-adv-x="249" 
d="M219 425v-69q-38 46 -77 46q-24 0 -39.5 -17t-15.5 -42q0 -24 15 -44.5t36 -37.5t42 -35.5t36 -46t15 -60.5q0 -53 -34 -89.5t-86 -36.5q-44 0 -83 31v66q42 -44 79 -44q29 0 47 20t18 49q0 24 -15 46.5t-36 40.5t-42 37.5t-36 45.5t-15 56q0 49 31 81t80 32q40 0 80 -29
z" />
    <glyph glyph-name="t" unicode="t" horiz-adv-x="199" 
d="M198 395h-75v-395h-56v395h-48v52h48v127h56v-127h75v-52z" />
    <glyph glyph-name="u" unicode="u" horiz-adv-x="332" 
d="M282 447v-338q0 -54 -31.5 -85t-84.5 -31t-84.5 31t-31.5 85v338h56v-303q0 -22 1.5 -35.5t7 -30t19 -24.5t34.5 -8t33.5 9t17.5 27.5t6 31.5t1 36v297h56z" />
    <glyph glyph-name="v" unicode="v" horiz-adv-x="276" 
d="M269 447l-99 -447h-61l-102 447h58l59 -267q9 -43 16 -96q11 68 16 94l55 269h58z" />
    <glyph glyph-name="w" unicode="w" horiz-adv-x="439" 
d="M429 447l-98 -447h-58l-57 372q-2 -12 -4.5 -35t-4.5 -35l-49 -302h-58l-90 447h57l50 -271q8 -40 13 -94q1 19 13 92l45 273h58q6 -35 19 -113.5t22 -137.5t15 -114q1 6 6 41t9 54l55 270h57z" />
    <glyph glyph-name="x" unicode="x" horiz-adv-x="279" 
d="M272 0h-63l-49 127q-19 51 -22 66q-4 -24 -20 -67l-48 -126h-63l102 229l-91 218h62q5 -13 21.5 -57t26 -73.5t15.5 -58.5q4 19 9 38t13 40.5t13 35t16 40t15 35.5h63l-100 -218z" />
    <glyph glyph-name="y" unicode="y" horiz-adv-x="289" 
d="M283 447l-160 -627h-60l50 192l-106 435h57l56 -248q13 -54 21 -112q3 23 18 84l65 276h59z" />
    <glyph glyph-name="z" unicode="z" horiz-adv-x="271" 
d="M266 447l-180 -395h151v-52h-232l176 395h-153v52h238z" />
    <glyph glyph-name="braceleft" unicode="{" 
d="M361 -173h-17q-76 0 -105 35.5t-29 113.5v185q0 40 -11.5 63t-46.5 32v45q34 9 46 31.5t12 60.5v200q0 79 35.5 107.5t115.5 28.5v-48q-54 -1 -74.5 -20t-20.5 -72v-199q0 -44 -12 -70t-49 -43q36 -18 48.5 -45t12.5 -71v-190q0 -55 20 -75.5t75 -20.5v-48z" />
    <glyph glyph-name="bar" unicode="|" 
d="M278 -250h-56v1000h56v-1000z" />
    <glyph glyph-name="braceright" unicode="}" horiz-adv-x="501" 
d="M164 -173h-17v48q55 0 75 20.5t20 75.5v190q0 44 12.5 71t48.5 45q-37 17 -49 43t-12 70v199q0 53 -20.5 72t-74.5 20v48q80 0 115.5 -28.5t35.5 -107.5v-200q0 -38 12 -60.5t46 -31.5v-45q-35 -9 -46.5 -32t-11.5 -63v-185q0 -78 -29 -113.5t-105 -35.5z" />
    <glyph glyph-name="asciitilde" unicode="~" horiz-adv-x="667" 
d="M537 721l36 -21q-53 -106 -138 -106q-38 0 -108 35t-104 35q-52 0 -94 -75l-35 22q25 51 55 79.5t78 28.5q40 0 110.5 -35t103.5 -35t54.5 19t41.5 53z" />
    <glyph glyph-name="uni00A0" unicode="&#xa0;" horiz-adv-x="233" 
 />
    <glyph glyph-name="exclamdown" unicode="&#xa1;" horiz-adv-x="237" 
d="M163 409q0 -19 -13 -32t-32 -13q-18 0 -31.5 13.5t-13.5 31.5q0 19 13 32t32 13t32 -13t13 -32zM148 -220h-60v500h60v-500z" />
    <glyph glyph-name="cent" unicode="&#xa2;" horiz-adv-x="366" 
d="M278 206v-70q-17 -14 -41 -19v-92h-49v92q-104 39 -104 219q0 119 40 184q23 37 64 50v83h49v-82q19 -3 41 -13v-67q-28 30 -57 30q-25 0 -42 -20t-23.5 -52.5t-9 -57.5t-2.5 -51q0 -23 2.5 -48t10 -56t24 -50.5t39.5 -19.5q29 0 58 40z" />
    <glyph glyph-name="sterling" unicode="&#xa3;" horiz-adv-x="366" 
d="M292 89l52 -17q-3 -44 -30 -69q-24 -22 -56 -22q-28 0 -56 18l-34 22q-30 19 -45 19q-14 0 -26 -12q-11 -11 -16 -28l-52 30q13 28 35 48q21 21 51 21q6 0 16 -2q26 39 26 80q0 56 -48 121h-79v42h59q-19 37 -29 66q-17 47 -17 99q0 83 47 130q41 41 106 41q57 0 94 -37
q43 -41 44 -108l-58 -12q-2 50 -28 76q-21 21 -55 21t-57 -21q-30 -30 -30 -87q0 -40 17 -88q12 -33 36 -80h105v-42h-84q37 -54 37 -108q0 -35 -12 -66q-8 -21 -25 -43l43 -30q18 -11 34 -11q17 0 26 17q7 13 9 32z" />
    <glyph glyph-name="currency" unicode="&#xa4;" horiz-adv-x="667" 
d="M103 355q0 74 52 142l-93 93l33 33l93 -93q70 54 145 54q78 0 145 -53l92 91l33 -32l-92 -92q52 -69 52 -144q0 -74 -52 -142l93 -93l-32 -33l-93 93q-69 -53 -145 -53q-74 0 -144 52l-92 -92l-33 33l92 92q-54 67 -54 144zM156 355q0 -73 52 -125.5t125 -52.5
t125.5 52.5t52.5 125.5t-52.5 125.5t-125.5 52.5t-125 -52.5t-52 -125.5z" />
    <glyph glyph-name="yen" unicode="&#xa5;" horiz-adv-x="366" 
d="M350 269h-135v-269h-57v269h-142v42h136l-23 65h-113v42h99l-86 249h64l63 -195q19 -58 30 -119q9 51 30 122l57 192h64l-81 -249h94v-42h-108l-21 -65h129v-42z" />
    <glyph glyph-name="brokenbar" unicode="&#xa6;" 
d="M278 345h-56v405h56v-405zM278 -250h-56v405h56v-405z" />
    <glyph glyph-name="section" unicode="&#xa7;" horiz-adv-x="367" 
d="M312 603h-60q-8 84 -67 84q-33 0 -50.5 -26.5t-17.5 -61.5q0 -37 21.5 -65.5t49.5 -43.5t60.5 -38t47.5 -47q29 -47 29 -128q0 -144 -92 -173q75 -46 75 -143q0 -59 -33.5 -100t-90.5 -41q-37 0 -67 19.5t-45 54.5q-11 26 -15 74h58q4 -94 68 -94q34 0 51.5 27t17.5 63
t-15.5 61t-39 37t-50.5 29t-50.5 35.5t-39 59t-15.5 97.5q0 62 23.5 110.5t77.5 63.5q-83 55 -83 146q0 58 34.5 97.5t91.5 39.5q71 0 106 -60q16 -28 20 -77zM268 269q0 151 -85 151q-25 0 -42.5 -13.5t-26 -36t-12 -44.5t-3.5 -45q0 -140 84 -140q85 0 85 128z" />
    <glyph glyph-name="dieresis" unicode="&#xa8;" 
d="M357 557q0 -18 -12.5 -31t-30.5 -13t-30.5 13t-12.5 31t12.5 30.5t30.5 12.5t30.5 -12.5t12.5 -30.5zM229 557q0 -18 -12.5 -31t-30.5 -13t-30.5 13t-12.5 31t12.5 30.5t30.5 12.5t30.5 -12.5t12.5 -30.5z" />
    <glyph glyph-name="copyright" unicode="&#xa9;" horiz-adv-x="756" 
d="M723 333q0 -143 -101.5 -244t-243.5 -101t-243.5 101t-101.5 244t101.5 244.5t244.5 101.5q142 0 243 -102t101 -244zM683 333q0 127 -88.5 218.5t-215.5 91.5q-128 0 -217 -91t-89 -219q0 -127 89.5 -218t215.5 -91q127 0 216 91t89 218zM434 199v-52q-28 -19 -61 -19
q-48 0 -81 41q-37 47 -37 160q0 210 122 210q9 0 16 -1.5t11.5 -3t12.5 -4.5t14 -5l3 -1v-55q-32 22 -54 22q-72 0 -72 -156q0 -159 68 -159q22 0 58 23z" />
    <glyph glyph-name="ordfeminine" unicode="&#xaa;" horiz-adv-x="240" 
d="M193 372h-43v18q-19 -22 -47 -22q-25 0 -41 15.5t-22 44t-7.5 47t-1.5 47.5q0 23 0.5 37t4.5 38t11.5 38t22.5 25t37 11q27 0 43 -19v15h43v-295zM193 297h-158v33h158v-33zM153 519q0 25 -1 40.5t-4 36t-11.5 30.5t-21.5 10q-40 0 -40 -119q0 -114 39 -114q12 0 23 9
q16 17 16 107z" />
    <glyph glyph-name="guillemotleft" unicode="&#xab;" horiz-adv-x="325" 
d="M292 66l-39 -23l-108 194l108 188l39 -21l-95 -167zM180 66l-38 -23l-109 194l109 188l38 -21l-95 -167z" />
    <glyph glyph-name="logicalnot" unicode="&#xac;" 
d="M467 0h-57v215h-377v52h434v-267z" />
    <glyph glyph-name="uni00AD" unicode="&#xad;" horiz-adv-x="238" 
d="M188 233h-138v58h138v-58z" />
    <glyph glyph-name="registered" unicode="&#xae;" horiz-adv-x="756" 
d="M482 131h-51l-85 176v-176h-49v405h53q63 0 90 -24.5t27 -87.5q0 -43 -18 -72t-58 -32zM346 363h21q30 0 39.5 15.5t9.5 48.5q0 35 -10.5 50t-44.5 15h-15v-129zM683 333q0 127 -88.5 218.5t-215.5 91.5q-128 0 -217 -91t-89 -219q0 -127 89.5 -218t215.5 -91
q127 0 216 91t89 218zM723 333q0 -143 -101.5 -244t-243.5 -101t-243.5 101t-101.5 244t101.5 244.5t244.5 101.5q142 0 243 -102t101 -244z" />
    <glyph glyph-name="macron" unicode="&#xaf;" 
d="M362 520h-224v55h224v-55z" />
    <glyph glyph-name="degree" unicode="&#xb0;" 
d="M388 537q0 -56 -41 -95.5t-97 -39.5t-97 39.5t-41 95.5q0 57 40.5 96t97.5 39t97.5 -39t40.5 -96zM349 537q0 41 -29 69t-70 28t-70 -28t-29 -69q0 -40 29.5 -68.5t69.5 -28.5t69.5 28.5t29.5 68.5z" />
    <glyph glyph-name="plusminus" unicode="&#xb1;" 
d="M467 342h-189v-176h-56v176h-189v53h189v176h56v-176h189v-53zM467 71h-434v53h434v-53z" />
    <glyph glyph-name="twosuperior" unicode="&#xb2;" horiz-adv-x="252" 
d="M83 553h-44q0 55 17.5 87.5t68.5 32.5q43 0 66 -25.5t23 -68.5q0 -26 -9.5 -56.5t-18.5 -49t-27 -51.5l-62 -115h112v-41h-179l88 172q1 2 9.5 18t10.5 21t9 19t9.5 22t6 20t5 22.5t1.5 20.5q0 52 -42 52q-45 0 -45 -72q0 -5 1 -8z" />
    <glyph glyph-name="threesuperior" unicode="&#xb3;" horiz-adv-x="252" 
d="M82 569h-42q0 45 19.5 74.5t62.5 29.5q42 0 64.5 -25t22.5 -68q0 -34 -8.5 -54.5t-34.5 -37.5q48 -27 48 -108q0 -55 -20 -86.5t-71 -31.5q-52 0 -70 31.5t-18 87.5h44q0 -18 1 -27.5t4.5 -23.5t13 -20.5t25.5 -6.5q47 0 47 77q0 87 -67 87h-21v38q47 0 65 12t18 57
q0 57 -42 57q-14 0 -23 -4.5t-12.5 -14.5t-4.5 -19t-1 -24z" />
    <glyph glyph-name="acute" unicode="&#xb4;" 
d="M365 610l-115 -103l-35 26l96 120z" />
    <glyph glyph-name="mu" unicode="&#xb5;" 
d="M445 0h-56v94q-24 -53 -58.5 -80t-88.5 -27q-86 0 -134 77v-244h-56v627h56v-244q0 -71 19 -106q17 -31 49 -48t68 -17q73 0 117 68q28 45 28 114v233h56v-447z" />
    <glyph glyph-name="mu" unicode="&#x3bc;" 
d="M445 0h-56v94q-24 -53 -58.5 -80t-88.5 -27q-86 0 -134 77v-244h-56v627h56v-244q0 -71 19 -106q17 -31 49 -48t68 -17q73 0 117 68q28 45 28 114v233h56v-447z" />
    <glyph glyph-name="paragraph" unicode="&#xb6;" horiz-adv-x="556" 
d="M487 621h-56v-721h-50v721h-111v-721h-51v413h-16q-79 0 -131.5 48.5t-52.5 126.5q0 92 61 135.5t157 43.5h250v-46z" />
    <glyph glyph-name="periodcentered" unicode="&#xb7;" horiz-adv-x="204" 
d="M160 343q0 -24 -17 -41t-41 -17t-41.5 17t-17.5 41q0 25 17 42t42 17q24 0 41 -17.5t17 -41.5z" />
    <glyph glyph-name="cedilla" unicode="&#xb8;" horiz-adv-x="493" 
d="M303 -62l-77 -123l-36 21l67 127z" />
    <glyph glyph-name="onesuperior" unicode="&#xb9;" horiz-adv-x="253" 
d="M155 267h-45v359h-55v41h100v-400z" />
    <glyph glyph-name="ordmasculine" unicode="&#xba;" horiz-adv-x="240" 
d="M207 518q0 -150 -85 -150q-88 0 -88 152q0 26 3.5 49t12 47.5t27 39.5t45.5 15q85 0 85 -153zM204 297h-167v33h167v-33zM163 519q0 112 -42 112q-44 0 -44 -115q0 -109 44 -109q42 0 42 112z" />
    <glyph glyph-name="guillemotright" unicode="&#xbb;" horiz-adv-x="325" 
d="M292 237l-108 -194l-39 23l95 171l-95 167l39 21zM180 237l-108 -194l-39 23l95 171l-95 167l39 21z" />
    <glyph glyph-name="onequarter" unicode="&#xbc;" horiz-adv-x="622" 
d="M587 106h-31v-106h-45v106h-109v40l110 254h44v-255h31v-39zM156 267h-45v359h-55v41h100v-400zM446 145h65q0 108 2 165q-12 -33 -37 -93zM480 667l-289 -667h-46l289 667h46z" />
    <glyph glyph-name="onehalf" unicode="&#xbd;" horiz-adv-x="622" 
d="M452 287h-44q0 43 6 63q17 56 80 56q43 0 66 -25.5t23 -68.5q0 -54 -52 -150l-65 -121h112v-41h-179l88 172q1 2 9.5 18t10.5 21t9 19t9.5 22t6 20t5 22.5t1.5 20.5q0 52 -42 52q-45 0 -45 -72q0 -5 1 -8zM480 667l-289 -667h-46l289 667h46zM156 267h-45v359h-55v41h100
v-400z" />
    <glyph glyph-name="threequarters" unicode="&#xbe;" horiz-adv-x="621" 
d="M585 106h-30v-106h-45v106h-110v40l111 254h44v-255h30v-39zM82 569h-42q0 45 19.5 74.5t62.5 29.5q42 0 64.5 -25t22.5 -68q0 -34 -8.5 -54.5t-34.5 -37.5q48 -27 48 -108q0 -55 -20 -86.5t-71 -31.5q-52 0 -70 31.5t-18 87.5h44q0 -18 1 -27.5t4.5 -23.5t13 -20.5
t25.5 -6.5q47 0 47 77q0 87 -67 87h-21v38q47 0 65 12t18 57q0 57 -42 57q-14 0 -23 -4.5t-12.5 -14.5t-4.5 -19t-1 -24zM444 145h66q0 110 2 165q-9 -23 -68 -165zM480 667l-289 -667h-46l289 667h46z" />
    <glyph glyph-name="questiondown" unicode="&#xbf;" horiz-adv-x="331" 
d="M240 409q0 -19 -13 -32t-32 -13t-32 13t-13 32t13 32t32 13t32 -13t13 -32zM278 -51v-47q0 -60 -28 -95.5t-87 -35.5q-58 0 -87 39q-23 32 -23 116q0 35 1 54.5t7 49.5t17.5 46.5t34 29.5t55.5 14v161h59v-215q-5 0 -16 0.5t-17 0.5q-35 0 -51 -9q-5 -3 -9.5 -8.5t-8 -13
t-5.5 -15t-3.5 -18t-2.5 -18t-1 -19v-17.5v-16.5v-13.5q0 -94 53 -94t53 91v33h59z" />
    <glyph glyph-name="Agrave" unicode="&#xc0;" horiz-adv-x="325" 
d="M324 0h-66l-25 137h-141l-25 -137h-66l132 667h58zM223 191l-44 235q-14 75 -19 157q-7 -104 -58 -392h121zM205 740l-35 -26l-115 103l54 43z" />
    <glyph glyph-name="Aacute" unicode="&#xc1;" horiz-adv-x="325" 
d="M324 0h-66l-25 137h-141l-25 -137h-66l132 667h58zM223 191l-44 235q-14 75 -19 157q-7 -104 -58 -392h121zM278 817l-115 -103l-35 26l96 120z" />
    <glyph glyph-name="Acircumflex" unicode="&#xc2;" horiz-adv-x="325" 
d="M324 0h-66l-25 137h-141l-25 -137h-66l132 667h58zM223 191l-44 235q-14 75 -19 157q-7 -104 -58 -392h121zM276 752l-40 -38l-74 69l-74 -69l-38 38l112 107z" />
    <glyph glyph-name="Atilde" unicode="&#xc3;" horiz-adv-x="325" 
d="M324 0h-66l-25 137h-141l-25 -137h-66l132 667h58zM223 191l-44 235q-14 75 -19 157q-7 -104 -58 -392h121zM221 802h57q-2 -33 -19.5 -57.5t-48.5 -24.5q-19 0 -49.5 17t-40.5 17q-16 0 -16 -25h-56q3 33 21 55t49 22q17 0 47 -16t39 -16q17 0 17 28z" />
    <glyph glyph-name="Adieresis" unicode="&#xc4;" horiz-adv-x="325" 
d="M324 0h-66l-25 137h-141l-25 -137h-66l132 667h58zM223 191l-44 235q-14 75 -19 157q-7 -104 -58 -392h121zM267 764q0 -18 -12.5 -31t-30.5 -13t-30.5 13t-12.5 31t12.5 30.5t30.5 12.5t30.5 -12.5t12.5 -30.5zM139 764q0 -18 -12.5 -31t-30.5 -13t-30.5 13t-12.5 31
t12.5 30.5t30.5 12.5t30.5 -12.5t12.5 -30.5z" />
    <glyph glyph-name="Aring" unicode="&#xc5;" horiz-adv-x="325" 
d="M324 0h-66l-25 137h-141l-25 -137h-66l132 667h58zM223 191l-44 235q-14 75 -19 157q-7 -104 -58 -392h121zM243 794q0 -33 -23.5 -56.5t-56.5 -23.5t-56.5 23.5t-23.5 56.5t23.5 56.5t56.5 23.5t56.5 -23.5t23.5 -56.5zM203 794q0 16 -11.5 28t-28.5 12t-28.5 -12
t-11.5 -28t11.5 -28t28.5 -12t28.5 12t11.5 28z" />
    <glyph glyph-name="AE" unicode="&#xc6;" horiz-adv-x="462" 
d="M471 0h-207l-22 137h-151l-24 -137h-66l131 667h222l11 -57h-143l42 -235h135l11 -57h-136l47 -261h141zM233 190l-47 282q-13 74 -15 123q-4 -20 -9.5 -60.5t-9.5 -61.5l-51 -283h132z" />
    <glyph glyph-name="Ccedilla" unicode="&#xc7;" horiz-adv-x="320" 
d="M302 81v-62q-43 -28 -87 -28q-72 0 -120 65q-57 78 -57 260q0 360 184 360q46 0 80 -21v-68q-44 29 -77 29q-124 0 -124 -280q0 -181 44 -244q28 -41 75 -41q37 0 82 30zM262 -62l-77 -123l-36 21l67 127z" />
    <glyph glyph-name="Egrave" unicode="&#xc8;" horiz-adv-x="301" 
d="M263 0h-208v667h208v-57h-146v-235h142v-57h-142v-261h146v-57zM215 740l-35 -26l-115 103l54 43z" />
    <glyph glyph-name="Eacute" unicode="&#xc9;" horiz-adv-x="301" 
d="M263 0h-208v667h208v-57h-146v-235h142v-57h-142v-261h146v-57zM261 817l-115 -103l-35 26l96 120z" />
    <glyph glyph-name="Ecircumflex" unicode="&#xca;" horiz-adv-x="301" 
d="M263 0h-208v667h208v-57h-146v-235h142v-57h-142v-261h146v-57zM278 752l-40 -38l-74 69l-74 -69l-38 38l112 107z" />
    <glyph glyph-name="Edieresis" unicode="&#xcb;" horiz-adv-x="301" 
d="M263 0h-208v667h208v-57h-146v-235h142v-57h-142v-261h146v-57zM272 764q0 -18 -12.5 -31t-30.5 -13t-30.5 13t-12.5 31t12.5 30.5t30.5 12.5t30.5 -12.5t12.5 -30.5zM144 764q0 -18 -12.5 -31t-30.5 -13t-30.5 13t-12.5 31t12.5 30.5t30.5 12.5t30.5 -12.5t12.5 -30.5z
" />
    <glyph glyph-name="Igrave" unicode="&#xcc;" horiz-adv-x="171" 
d="M117 0h-62v667h62v-667zM121 740l-35 -26l-115 103l54 43z" />
    <glyph glyph-name="Iacute" unicode="&#xcd;" horiz-adv-x="171" 
d="M117 0h-62v667h62v-667zM201 817l-115 -103l-35 26l96 120z" />
    <glyph glyph-name="Icircumflex" unicode="&#xce;" horiz-adv-x="171" 
d="M117 0h-62v667h62v-667zM199 752l-40 -38l-74 69l-74 -69l-38 38l112 107z" />
    <glyph glyph-name="Idieresis" unicode="&#xcf;" horiz-adv-x="171" 
d="M117 0h-62v667h62v-667zM193 764q0 -18 -12.5 -31t-30.5 -13t-30.5 13t-12.5 31t12.5 30.5t30.5 12.5t30.5 -12.5t12.5 -30.5zM65 764q0 -18 -12.5 -31t-30.5 -13t-30.5 13t-12.5 31t12.5 30.5t30.5 12.5t30.5 -12.5t12.5 -30.5z" />
    <glyph glyph-name="Eth" unicode="&#xd0;" horiz-adv-x="371" 
d="M55 667h78q90 0 132.5 -38t57.5 -128q10 -60 10 -166q0 -151 -18 -210q-21 -68 -63 -96.5t-115 -28.5h-82v321h-47v50h47v296zM117 57h29q50 0 77 28q21 22 32.5 63.5t13 72t1.5 79.5q0 169 -18 229q-14 43 -38.5 62t-69.5 19h-27v-239h90v-50h-90v-264z" />
    <glyph glyph-name="Ntilde" unicode="&#xd1;" horiz-adv-x="387" 
d="M332 0h-54l-148 440q-16 48 -27 94q6 -52 6 -105v-429h-54v667h54l151 -453q5 -15 14 -44.5t10 -34.5q-6 41 -6 82v450h54v-667zM252 802h57q-2 -33 -19.5 -57.5t-48.5 -24.5q-19 0 -49.5 17t-40.5 17q-16 0 -16 -25h-56q3 33 21 55t49 22q17 0 47 -16t39 -16q17 0 17 28
z" />
    <glyph glyph-name="Ograve" unicode="&#xd2;" horiz-adv-x="404" 
d="M366 336q0 -38 -1 -65.5t-5.5 -72.5t-15.5 -77.5t-28 -64t-46 -48.5t-67 -17q-165 0 -165 342q0 343 164 343t164 -340zM303 358q0 258 -100 258q-102 0 -102 -282q0 -283 102 -283q80 0 94 155q6 60 6 152zM255 740l-35 -26l-115 103l54 43z" />
    <glyph glyph-name="Oacute" unicode="&#xd3;" horiz-adv-x="404" 
d="M366 336q0 -38 -1 -65.5t-5.5 -72.5t-15.5 -77.5t-28 -64t-46 -48.5t-67 -17q-165 0 -165 342q0 343 164 343t164 -340zM303 358q0 258 -100 258q-102 0 -102 -282q0 -283 102 -283q80 0 94 155q6 60 6 152zM317 817l-115 -103l-35 26l96 120z" />
    <glyph glyph-name="Ocircumflex" unicode="&#xd4;" horiz-adv-x="404" 
d="M366 336q0 -38 -1 -65.5t-5.5 -72.5t-15.5 -77.5t-28 -64t-46 -48.5t-67 -17q-165 0 -165 342q0 343 164 343t164 -340zM303 358q0 258 -100 258q-102 0 -102 -282q0 -283 102 -283q80 0 94 155q6 60 6 152zM315 752l-40 -38l-74 69l-74 -69l-38 38l112 107z" />
    <glyph glyph-name="Otilde" unicode="&#xd5;" horiz-adv-x="404" 
d="M366 336q0 -38 -1 -65.5t-5.5 -72.5t-15.5 -77.5t-28 -64t-46 -48.5t-67 -17q-165 0 -165 342q0 343 164 343t164 -340zM303 358q0 258 -100 258q-102 0 -102 -282q0 -283 102 -283q80 0 94 155q6 60 6 152zM260 802h57q-2 -33 -19.5 -57.5t-48.5 -24.5q-19 0 -49.5 17
t-40.5 17q-16 0 -16 -25h-56q3 33 21 55t49 22q17 0 47 -16t39 -16q17 0 17 28z" />
    <glyph glyph-name="Odieresis" unicode="&#xd6;" horiz-adv-x="404" 
d="M366 336q0 -38 -1 -65.5t-5.5 -72.5t-15.5 -77.5t-28 -64t-46 -48.5t-67 -17q-165 0 -165 342q0 343 164 343t164 -340zM303 358q0 258 -100 258q-102 0 -102 -282q0 -283 102 -283q80 0 94 155q6 60 6 152zM309 764q0 -18 -12.5 -31t-30.5 -13t-30.5 13t-12.5 31
t12.5 30.5t30.5 12.5t30.5 -12.5t12.5 -30.5zM181 764q0 -18 -12.5 -31t-30.5 -13t-30.5 13t-12.5 31t12.5 30.5t30.5 12.5t30.5 -12.5t12.5 -30.5z" />
    <glyph glyph-name="multiply" unicode="&#xd7;" 
d="M422 466l-135 -135l135 -134l-37 -38l-135 135l-135 -135l-37 38l135 134l-135 135l37 38l135 -135l135 135z" />
    <glyph glyph-name="Oslash" unicode="&#xd8;" horiz-adv-x="428" 
d="M390 656l-42 -89q30 -80 30 -235q0 -31 -0.5 -55t-4 -61.5t-10 -65.5t-18.5 -59.5t-29 -52t-43 -34t-58 -13.5q-70 0 -109 60l-29 -59l-39 19l43 89q-31 83 -31 236q0 340 163 340q74 0 110 -60l28 59zM123 180l167 373q-22 63 -75 63q-102 0 -102 -271q0 -96 10 -165z
M306 486l-166 -372q24 -63 74 -63q83 0 97 168q4 52 4 119q0 74 -9 148z" />
    <glyph glyph-name="Ugrave" unicode="&#xd9;" horiz-adv-x="390" 
d="M335 667v-491q0 -58 -9 -92q-12 -45 -47 -69t-84 -24q-48 0 -83 24t-48 69q-9 30 -9 93v490h62v-499q0 -34 4 -56.5t22.5 -41.5t51.5 -19q14 0 25.5 3t19.5 10t14 13t9.5 18.5t5.5 19.5t3 23t1 22.5v24v20.5v462h62zM230 740l-35 -26l-115 103l54 43z" />
    <glyph glyph-name="Uacute" unicode="&#xda;" horiz-adv-x="390" 
d="M335 667v-491q0 -58 -9 -92q-12 -45 -47 -69t-84 -24q-48 0 -83 24t-48 69q-9 30 -9 93v490h62v-499q0 -34 4 -56.5t22.5 -41.5t51.5 -19q14 0 25.5 3t19.5 10t14 13t9.5 18.5t5.5 19.5t3 23t1 22.5v24v20.5v462h62zM310 817l-115 -103l-35 26l96 120z" />
    <glyph glyph-name="Ucircumflex" unicode="&#xdb;" horiz-adv-x="390" 
d="M335 667v-491q0 -58 -9 -92q-12 -45 -47 -69t-84 -24q-48 0 -83 24t-48 69q-9 30 -9 93v490h62v-499q0 -34 4 -56.5t22.5 -41.5t51.5 -19q14 0 25.5 3t19.5 10t14 13t9.5 18.5t5.5 19.5t3 23t1 22.5v24v20.5v462h62zM308 752l-40 -38l-74 69l-74 -69l-38 38l112 107z" />
    <glyph glyph-name="Udieresis" unicode="&#xdc;" horiz-adv-x="390" 
d="M335 667v-491q0 -58 -9 -92q-12 -45 -47 -69t-84 -24q-48 0 -83 24t-48 69q-9 30 -9 93v490h62v-499q0 -34 4 -56.5t22.5 -41.5t51.5 -19q14 0 25.5 3t19.5 10t14 13t9.5 18.5t5.5 19.5t3 23t1 22.5v24v20.5v462h62zM302 764q0 -18 -12.5 -31t-30.5 -13t-30.5 13
t-12.5 31t12.5 30.5t30.5 12.5t30.5 -12.5t12.5 -30.5zM174 764q0 -18 -12.5 -31t-30.5 -13t-30.5 13t-12.5 31t12.5 30.5t30.5 12.5t30.5 -12.5t12.5 -30.5z" />
    <glyph glyph-name="Yacute" unicode="&#xdd;" horiz-adv-x="316" 
d="M315 667l-122 -378v-289h-62v289l-130 378h67l62 -191q18 -56 32 -123q8 53 29 122l57 192h67zM265 817l-115 -103l-35 26l96 120z" />
    <glyph glyph-name="Thorn" unicode="&#xde;" horiz-adv-x="329" 
d="M117 667v-117q104 0 145.5 -37.5t41.5 -141.5q0 -91 -35.5 -129.5t-125.5 -38.5h-26v-203h-62v667h62zM117 260h41q50 0 66.5 28t16.5 83q0 62 -18 92t-75 30h-31v-233z" />
    <glyph glyph-name="germandbls" unicode="&#xdf;" horiz-adv-x="336" 
d="M55 447v117q0 37 4 63.5t15 54.5t36 43t63 15q121 0 121 -172q0 -122 -64 -150q16 -6 27 -16q45 -37 45 -199q0 -203 -126 -203h-21v56h17q20 0 33.5 9t20.5 25.5t10 31t5 34.5q3 32 3 84q0 149 -71 149h-18v58h17q39 0 51.5 28.5t12.5 82.5q0 130 -64 130q-21 0 -34 -11
t-18 -33t-6 -36t-1 -37v-571h-58v389h-51v58h51z" />
    <glyph glyph-name="agrave" unicode="&#xe0;" horiz-adv-x="327" 
d="M277 0h-57v36q-32 -43 -76 -43q-29 0 -50 16.5t-31.5 38t-16 56t-6.5 57t-1 54.5q0 36 1 60.5t7 61.5t17 60t32.5 40t52.5 17q41 0 71 -37v30h57v-447zM226 226q0 40 -2 67.5t-7.5 56.5t-19 44t-34.5 15q-66 0 -66 -159q0 -72 3 -108q2 -22 4.5 -34t8.5 -31t18.5 -28.5
t30.5 -9.5q22 0 36 15q28 28 28 172zM215 533l-35 -26l-115 103l54 43z" />
    <glyph glyph-name="aacute" unicode="&#xe1;" horiz-adv-x="327" 
d="M277 0h-57v36q-32 -43 -76 -43q-29 0 -50 16.5t-31.5 38t-16 56t-6.5 57t-1 54.5q0 36 1 60.5t7 61.5t17 60t32.5 40t52.5 17q41 0 71 -37v30h57v-447zM226 226q0 40 -2 67.5t-7.5 56.5t-19 44t-34.5 15q-66 0 -66 -159q0 -72 3 -108q2 -22 4.5 -34t8.5 -31t18.5 -28.5
t30.5 -9.5q22 0 36 15q28 28 28 172zM265 610l-115 -103l-35 26l96 120z" />
    <glyph glyph-name="acircumflex" unicode="&#xe2;" horiz-adv-x="327" 
d="M277 0h-57v36q-32 -43 -76 -43q-29 0 -50 16.5t-31.5 38t-16 56t-6.5 57t-1 54.5q0 36 1 60.5t7 61.5t17 60t32.5 40t52.5 17q41 0 71 -37v30h57v-447zM226 226q0 40 -2 67.5t-7.5 56.5t-19 44t-34.5 15q-66 0 -66 -159q0 -72 3 -108q2 -22 4.5 -34t8.5 -31t18.5 -28.5
t30.5 -9.5q22 0 36 15q28 28 28 172zM273 545l-40 -38l-74 69l-74 -69l-38 38l112 107z" />
    <glyph glyph-name="atilde" unicode="&#xe3;" horiz-adv-x="327" 
d="M277 0h-57v36q-32 -43 -76 -43q-29 0 -50 16.5t-31.5 38t-16 56t-6.5 57t-1 54.5q0 36 1 60.5t7 61.5t17 60t32.5 40t52.5 17q41 0 71 -37v30h57v-447zM226 226q0 40 -2 67.5t-7.5 56.5t-19 44t-34.5 15q-66 0 -66 -159q0 -72 3 -108q2 -22 4.5 -34t8.5 -31t18.5 -28.5
t30.5 -9.5q22 0 36 15q28 28 28 172zM218 595h57q-2 -33 -19.5 -57.5t-48.5 -24.5q-19 0 -49.5 17t-40.5 17q-16 0 -16 -25h-56q3 33 21 55t49 22q17 0 47 -16t39 -16q17 0 17 28z" />
    <glyph glyph-name="adieresis" unicode="&#xe4;" horiz-adv-x="327" 
d="M277 0h-57v36q-32 -43 -76 -43q-29 0 -50 16.5t-31.5 38t-16 56t-6.5 57t-1 54.5q0 36 1 60.5t7 61.5t17 60t32.5 40t52.5 17q41 0 71 -37v30h57v-447zM226 226q0 40 -2 67.5t-7.5 56.5t-19 44t-34.5 15q-66 0 -66 -159q0 -72 3 -108q2 -22 4.5 -34t8.5 -31t18.5 -28.5
t30.5 -9.5q22 0 36 15q28 28 28 172zM267 557q0 -18 -12.5 -31t-30.5 -13t-30.5 13t-12.5 31t12.5 30.5t30.5 12.5t30.5 -12.5t12.5 -30.5zM139 557q0 -18 -12.5 -31t-30.5 -13t-30.5 13t-12.5 31t12.5 30.5t30.5 12.5t30.5 -12.5t12.5 -30.5z" />
    <glyph glyph-name="aring" unicode="&#xe5;" horiz-adv-x="327" 
d="M277 0h-57v36q-32 -43 -76 -43q-29 0 -50 16.5t-31.5 38t-16 56t-6.5 57t-1 54.5q0 36 1 60.5t7 61.5t17 60t32.5 40t52.5 17q41 0 71 -37v30h57v-447zM226 226q0 40 -2 67.5t-7.5 56.5t-19 44t-34.5 15q-66 0 -66 -159q0 -72 3 -108q2 -22 4.5 -34t8.5 -31t18.5 -28.5
t30.5 -9.5q22 0 36 15q28 28 28 172zM235 587q0 -33 -23.5 -56.5t-56.5 -23.5t-56.5 23.5t-23.5 56.5t23.5 56.5t56.5 23.5t56.5 -23.5t23.5 -56.5zM195 587q0 17 -11.5 28.5t-28.5 11.5t-28.5 -11.5t-11.5 -28.5t11.5 -28.5t28.5 -11.5t28.5 11.5t11.5 28.5z" />
    <glyph glyph-name="ae" unicode="&#xe6;" horiz-adv-x="508" 
d="M474 214h-197q0 -24 3 -48t10 -54t24 -48.5t41 -18.5q57 0 60 110h53q-1 -38 -12 -73t-38 -62t-66 -27q-62 0 -97 74q-15 -34 -43.5 -54t-64.5 -20q-58 0 -86 47t-28 110q0 61 27 104.5t85 43.5q51 0 80 -37v13q0 128 -87 128q-34 0 -78 -36v62q37 26 81 26q80 0 114 -75
q13 32 38.5 53.5t57.5 21.5q120 0 123 -240zM279 261h139q0 20 -3 41.5t-10 45t-22 39t-36 15.5q-26 0 -42.5 -28t-21 -57t-4.5 -56zM226 145q0 42 -16.5 74.5t-54.5 32.5q-67 0 -67 -102q0 -41 15 -72.5t52 -31.5t54 30t17 69z" />
    <glyph glyph-name="ccedilla" unicode="&#xe7;" horiz-adv-x="246" 
d="M226 86v-70q-30 -23 -64 -23q-37 0 -64 23t-40 59.5t-19 71.5t-6 69q0 38 5 74t18 76t41 64t68 24q32 0 61 -17v-66q-29 31 -56 31q-25 0 -42 -20t-24 -52.5t-9.5 -58t-2.5 -50.5q0 -23 3 -48.5t10 -56.5t23.5 -50.5t40.5 -19.5q30 0 57 40zM210 -62l-77 -123l-36 21
l67 127z" />
    <glyph glyph-name="egrave" unicode="&#xe8;" horiz-adv-x="313" 
d="M219 152h57q-7 -159 -113 -159q-130 0 -130 229q0 37 5 71.5t17 73.5t39 63t65 24q37 0 63 -21.5t37.5 -57t16 -68t4.5 -67.5q0 -4 -0.5 -14t-0.5 -14h-189v-10q0 -22 2.5 -44t9 -50t22 -45t37.5 -17q55 0 58 106zM91 260h133q-7 142 -64 142q-62 0 -69 -142zM215 533
l-35 -26l-115 103l54 43z" />
    <glyph glyph-name="eacute" unicode="&#xe9;" horiz-adv-x="313" 
d="M219 152h57q-7 -159 -113 -159q-130 0 -130 229q0 37 5 71.5t17 73.5t39 63t65 24q37 0 63 -21.5t37.5 -57t16 -68t4.5 -67.5q0 -4 -0.5 -14t-0.5 -14h-189v-10q0 -22 2.5 -44t9 -50t22 -45t37.5 -17q55 0 58 106zM91 260h133q-7 142 -64 142q-62 0 -69 -142zM265 610
l-115 -103l-35 26l96 120z" />
    <glyph glyph-name="ecircumflex" unicode="&#xea;" horiz-adv-x="313" 
d="M219 152h57q-7 -159 -113 -159q-130 0 -130 229q0 37 5 71.5t17 73.5t39 63t65 24q37 0 63 -21.5t37.5 -57t16 -68t4.5 -67.5q0 -4 -0.5 -14t-0.5 -14h-189v-10q0 -22 2.5 -44t9 -50t22 -45t37.5 -17q55 0 58 106zM91 260h133q-7 142 -64 142q-62 0 -69 -142zM272 545
l-40 -38l-74 69l-74 -69l-38 38l112 107z" />
    <glyph glyph-name="edieresis" unicode="&#xeb;" horiz-adv-x="313" 
d="M219 152h57q-7 -159 -113 -159q-130 0 -130 229q0 37 5 71.5t17 73.5t39 63t65 24q37 0 63 -21.5t37.5 -57t16 -68t4.5 -67.5q0 -4 -0.5 -14t-0.5 -14h-189v-10q0 -22 2.5 -44t9 -50t22 -45t37.5 -17q55 0 58 106zM91 260h133q-7 142 -64 142q-62 0 -69 -142zM266 557
q0 -18 -12.5 -31t-30.5 -13t-30.5 13t-12.5 31t12.5 30.5t30.5 12.5t30.5 -12.5t12.5 -30.5zM138 557q0 -18 -12.5 -31t-30.5 -13t-30.5 13t-12.5 31t12.5 30.5t30.5 12.5t30.5 -12.5t12.5 -30.5z" />
    <glyph glyph-name="igrave" unicode="&#xec;" horiz-adv-x="155" 
d="M106 0h-57v447h57v-447zM114 533l-35 -26l-115 103l54 43z" />
    <glyph glyph-name="iacute" unicode="&#xed;" horiz-adv-x="155" 
d="M106 0h-57v447h57v-447zM194 610l-115 -103l-35 26l96 120z" />
    <glyph glyph-name="icircumflex" unicode="&#xee;" horiz-adv-x="155" 
d="M106 0h-57v447h57v-447zM192 545l-40 -38l-74 69l-74 -69l-38 38l112 107z" />
    <glyph glyph-name="idieresis" unicode="&#xef;" horiz-adv-x="155" 
d="M106 0h-57v447h57v-447zM186 557q0 -18 -12.5 -31t-30.5 -13t-30.5 13t-12.5 31t12.5 30.5t30.5 12.5t30.5 -12.5t12.5 -30.5zM58 557q0 -18 -12.5 -31t-30.5 -13t-30.5 13t-12.5 31t12.5 30.5t30.5 12.5t30.5 -12.5t12.5 -30.5z" />
    <glyph glyph-name="eth" unicode="&#xf0;" horiz-adv-x="323" 
d="M267 688l-57 -35q40 -49 57 -113q22 -109 22 -316q0 -121 -32 -176q-33 -55 -92 -55q-41 0 -69 22.5t-41 61t-17.5 73t-4.5 74.5q0 38 4.5 72t17 73t40 62t66.5 23q42 0 62 -34q-5 79 -15.5 123t-39.5 82l-65 -44l-24 38l56 37q-36 30 -85 49l23 35q52 -17 104 -56l66 41
zM231 224q0 178 -70 178t-70 -178q0 -179 72 -179q31 0 48 38q20 47 20 141z" />
    <glyph glyph-name="ntilde" unicode="&#xf1;" horiz-adv-x="330" 
d="M280 0h-56v325q0 18 -1 29t-5.5 25.5t-15.5 21.5t-28 7q-35 0 -53 -29q-15 -22 -15 -78v-301h-56v447h56v-36q38 43 87 43q51 0 69 -33.5t18 -89.5v-331zM233 595h57q-2 -33 -19.5 -57.5t-48.5 -24.5q-19 0 -49.5 17t-40.5 17q-16 0 -16 -25h-56q3 33 21 55t49 22
q17 0 47 -16t39 -16q17 0 17 28z" />
    <glyph glyph-name="ograve" unicode="&#xf2;" horiz-adv-x="323" 
d="M289 221q0 -228 -125 -228q-41 0 -69 23t-40.5 61t-17 73t-4.5 74q0 30 2.5 57.5t10.5 60.5t22 56.5t38.5 39.5t57.5 16q125 0 125 -233zM231 224q0 178 -68 178q-71 0 -71 -183q0 -173 71 -173q68 0 68 178zM215 533l-35 -26l-115 103l54 43z" />
    <glyph glyph-name="oacute" unicode="&#xf3;" horiz-adv-x="323" 
d="M289 221q0 -228 -125 -228q-41 0 -69 23t-40.5 61t-17 73t-4.5 74q0 30 2.5 57.5t10.5 60.5t22 56.5t38.5 39.5t57.5 16q125 0 125 -233zM231 224q0 178 -68 178q-71 0 -71 -183q0 -173 71 -173q68 0 68 178zM269 610l-115 -103l-35 26l96 120z" />
    <glyph glyph-name="ocircumflex" unicode="&#xf4;" horiz-adv-x="323" 
d="M289 221q0 -228 -125 -228q-41 0 -69 23t-40.5 61t-17 73t-4.5 74q0 30 2.5 57.5t10.5 60.5t22 56.5t38.5 39.5t57.5 16q125 0 125 -233zM231 224q0 178 -68 178q-71 0 -71 -183q0 -173 71 -173q68 0 68 178zM277 545l-40 -38l-74 69l-74 -69l-38 38l112 107z" />
    <glyph glyph-name="otilde" unicode="&#xf5;" horiz-adv-x="323" 
d="M289 221q0 -228 -125 -228q-41 0 -69 23t-40.5 61t-17 73t-4.5 74q0 30 2.5 57.5t10.5 60.5t22 56.5t38.5 39.5t57.5 16q125 0 125 -233zM231 224q0 178 -68 178q-71 0 -71 -183q0 -173 71 -173q68 0 68 178zM222 595h57q-2 -33 -19.5 -57.5t-48.5 -24.5q-19 0 -49.5 17
t-40.5 17q-16 0 -16 -25h-56q3 33 21 55t49 22q17 0 47 -16t39 -16q17 0 17 28z" />
    <glyph glyph-name="odieresis" unicode="&#xf6;" horiz-adv-x="323" 
d="M289 221q0 -228 -125 -228q-41 0 -69 23t-40.5 61t-17 73t-4.5 74q0 30 2.5 57.5t10.5 60.5t22 56.5t38.5 39.5t57.5 16q125 0 125 -233zM231 224q0 178 -68 178q-71 0 -71 -183q0 -173 71 -173q68 0 68 178zM271 557q0 -18 -12.5 -31t-30.5 -13t-30.5 13t-12.5 31
t12.5 30.5t30.5 12.5t30.5 -12.5t12.5 -30.5zM143 557q0 -18 -12.5 -31t-30.5 -13t-30.5 13t-12.5 31t12.5 30.5t30.5 12.5t30.5 -12.5t12.5 -30.5z" />
    <glyph glyph-name="divide" unicode="&#xf7;" 
d="M292 517q0 -17 -12.5 -30t-29.5 -13t-29.5 13t-12.5 30t12.5 29.5t29.5 12.5t29.5 -12.5t12.5 -29.5zM467 305h-434v53h434v-53zM292 146q0 -17 -12.5 -30t-29.5 -13t-29.5 13t-12.5 30t12.5 29.5t29.5 12.5t29.5 -12.5t12.5 -29.5z" />
    <glyph glyph-name="oslash" unicode="&#xf8;" horiz-adv-x="351" 
d="M318 435l-35 -60q21 -57 21 -154q0 -228 -125 -228q-57 0 -90 44l-25 -40l-31 18l36 62q-21 60 -21 146q0 39 4.5 73.5t17 73t40.5 61.5t68 23q52 0 85 -42l24 42zM111 141l116 218q-18 43 -50 43q-71 0 -71 -180q0 -36 5 -81zM240 304l-116 -214q17 -44 53 -44
q69 0 69 174q0 28 -6 84z" />
    <glyph glyph-name="ugrave" unicode="&#xf9;" horiz-adv-x="332" 
d="M282 447v-338q0 -54 -31.5 -85t-84.5 -31t-84.5 31t-31.5 85v338h56v-303q0 -22 1.5 -35.5t7 -30t19 -24.5t34.5 -8t33.5 9t17.5 27.5t6 31.5t1 36v297h56zM215 533l-35 -26l-115 103l54 43z" />
    <glyph glyph-name="uacute" unicode="&#xfa;" horiz-adv-x="332" 
d="M282 447v-338q0 -54 -31.5 -85t-84.5 -31t-84.5 31t-31.5 85v338h56v-303q0 -22 1.5 -35.5t7 -30t19 -24.5t34.5 -8t33.5 9t17.5 27.5t6 31.5t1 36v297h56zM275 610l-115 -103l-35 26l96 120z" />
    <glyph glyph-name="ucircumflex" unicode="&#xfb;" horiz-adv-x="332" 
d="M282 447v-338q0 -54 -31.5 -85t-84.5 -31t-84.5 31t-31.5 85v338h56v-303q0 -22 1.5 -35.5t7 -30t19 -24.5t34.5 -8t33.5 9t17.5 27.5t6 31.5t1 36v297h56zM281 545l-40 -38l-74 69l-74 -69l-38 38l112 107z" />
    <glyph glyph-name="udieresis" unicode="&#xfc;" horiz-adv-x="332" 
d="M282 447v-338q0 -54 -31.5 -85t-84.5 -31t-84.5 31t-31.5 85v338h56v-303q0 -22 1.5 -35.5t7 -30t19 -24.5t34.5 -8t33.5 9t17.5 27.5t6 31.5t1 36v297h56zM275 557q0 -18 -12.5 -31t-30.5 -13t-30.5 13t-12.5 31t12.5 30.5t30.5 12.5t30.5 -12.5t12.5 -30.5zM147 557
q0 -18 -12.5 -31t-30.5 -13t-30.5 13t-12.5 31t12.5 30.5t30.5 12.5t30.5 -12.5t12.5 -30.5z" />
    <glyph glyph-name="yacute" unicode="&#xfd;" horiz-adv-x="289" 
d="M283 447l-160 -627h-60l50 192l-106 435h57l56 -248q13 -54 21 -112q3 23 18 84l65 276h59zM257 610l-115 -103l-35 26l96 120z" />
    <glyph glyph-name="thorn" unicode="&#xfe;" horiz-adv-x="324" 
d="M106 729v-312q28 37 71 37q26 0 46 -10t31.5 -30.5t19 -39.5t10.5 -49t3.5 -47.5t0.5 -45.5q0 -48 -2.5 -80t-11.5 -73.5t-32 -63.5t-59 -22q-42 0 -77 43v-216h-56v909h56zM230 247q0 162 -66 162q-20 0 -33.5 -14.5t-19.5 -43t-8 -56.5t-2 -69q0 -144 28 -172
q14 -15 36 -15q18 0 30.5 9.5t18.5 28.5t8.5 31t4.5 34q3 35 3 105z" />
    <glyph glyph-name="ydieresis" unicode="&#xff;" horiz-adv-x="289" 
d="M283 447l-160 -627h-60l50 192l-106 435h57l56 -248q13 -54 21 -112q3 23 18 84l65 276h59zM261 557q0 -18 -12.5 -31t-30.5 -13t-30.5 13t-12.5 31t12.5 30.5t30.5 12.5t30.5 -12.5t12.5 -30.5zM133 557q0 -18 -12.5 -31t-30.5 -13t-30.5 13t-12.5 31t12.5 30.5
t30.5 12.5t30.5 -12.5t12.5 -30.5z" />
    <glyph glyph-name="Amacron" unicode="&#x100;" horiz-adv-x="325" 
d="M324 0h-66l-25 137h-141l-25 -137h-66l132 667h58zM223 191l-44 235q-14 75 -19 157q-7 -104 -58 -392h121zM275 727h-224v55h224v-55z" />
    <glyph glyph-name="amacron" unicode="&#x101;" horiz-adv-x="327" 
d="M277 0h-57v36q-32 -43 -76 -43q-29 0 -50 16.5t-31.5 38t-16 56t-6.5 57t-1 54.5q0 36 1 60.5t7 61.5t17 60t32.5 40t52.5 17q41 0 71 -37v30h57v-447zM226 226q0 40 -2 67.5t-7.5 56.5t-19 44t-34.5 15q-66 0 -66 -159q0 -72 3 -108q2 -22 4.5 -34t8.5 -31t18.5 -28.5
t30.5 -9.5q22 0 36 15q28 28 28 172zM278 520h-224v55h224v-55z" />
    <glyph glyph-name="Abreve" unicode="&#x102;" horiz-adv-x="325" 
d="M324 0h-66l-25 137h-141l-25 -137h-66l132 667h58zM223 191l-44 235q-14 75 -19 157q-7 -104 -58 -392h121zM238 810h48q-5 -46 -40 -69t-83 -23t-83 23t-40 69h48q17 -41 75 -41t75 41z" />
    <glyph glyph-name="abreve" unicode="&#x103;" horiz-adv-x="327" 
d="M277 0h-57v36q-32 -43 -76 -43q-29 0 -50 16.5t-31.5 38t-16 56t-6.5 57t-1 54.5q0 36 1 60.5t7 61.5t17 60t32.5 40t52.5 17q41 0 71 -37v30h57v-447zM226 226q0 40 -2 67.5t-7.5 56.5t-19 44t-34.5 15q-66 0 -66 -159q0 -72 3 -108q2 -22 4.5 -34t8.5 -31t18.5 -28.5
t30.5 -9.5q22 0 36 15q28 28 28 172zM232 599h48q-5 -46 -40 -69t-83 -23t-83 23t-40 69h48q17 -41 75 -41t75 41z" />
    <glyph glyph-name="Aogonek" unicode="&#x104;" horiz-adv-x="325" 
d="M133 667h58l133 -667h-20q-24 -24 -34 -39q-14 -19 -14 -36q0 -12 9 -21q9 -7 23 -7q15 0 30 8v-48q-20 -9 -40 -9q-35 0 -54 20q-17 18 -17 45q0 25 17 48q15 20 34 39l-25 137h-141l-25 -137h-66zM223 191l-44 235q-13 65 -19 157q-10 -131 -36 -271l-22 -121h121z" />
    <glyph glyph-name="aogonek" unicode="&#x105;" horiz-adv-x="327" 
d="M217 447h58v-447h-13q0 -1 -5.5 -6t-13.5 -13.5t-13 -16.5q-13 -22 -13 -35t10 -23q10 -8 23 -8q17 0 35 10v-47q-21 -11 -44 -11q-31 0 -49 14q-23 18 -23 48q0 20 16 47q11 19 32 41v36q-25 -43 -76 -43q-44 0 -70 36q-35 47 -35 193v6q0 153 43 198q26 28 68 28
q46 0 70 -37v30zM223 226v12q0 44 -1 66.5t-8 50t-22 41.5q-14 13 -32 13q-19 0 -33 -14q-33 -36 -33 -145v-39q0 -124 30 -157q14 -15 35 -15q24 0 37 15q27 27 27 172z" />
    <glyph glyph-name="Cacute" unicode="&#x106;" horiz-adv-x="320" 
d="M302 81v-62q-43 -28 -87 -28q-72 0 -120 65q-57 78 -57 260q0 360 184 360q46 0 80 -21v-68q-44 29 -77 29q-124 0 -124 -280q0 -181 44 -244q28 -41 75 -41q37 0 82 30zM335 817l-115 -103l-35 26l96 120z" />
    <glyph glyph-name="cacute" unicode="&#x107;" horiz-adv-x="246" 
d="M226 86v-70q-30 -23 -64 -23q-37 0 -64 23t-40 59.5t-19 71.5t-6 69q0 38 5 74t18 76t41 64t68 24q32 0 61 -17v-66q-29 31 -56 31q-25 0 -42 -20t-24 -52.5t-9.5 -58t-2.5 -50.5q0 -23 3 -48.5t10 -56.5t23.5 -50.5t40.5 -19.5q30 0 57 40zM275 610l-115 -103l-35 26
l96 120z" />
    <glyph glyph-name="Ccircumflex" unicode="&#x108;" horiz-adv-x="320" 
d="M302 81v-62q-43 -28 -87 -28q-72 0 -120 65q-57 78 -57 260q0 360 184 360q46 0 80 -21v-68q-44 29 -77 29q-124 0 -124 -280q0 -181 44 -244q28 -41 75 -41q37 0 82 30zM333 752l-40 -38l-74 69l-74 -69l-38 38l112 107z" />
    <glyph glyph-name="ccircumflex" unicode="&#x109;" horiz-adv-x="246" 
d="M226 86v-70q-30 -23 -64 -23q-37 0 -64 23t-40 59.5t-19 71.5t-6 69q0 38 5 74t18 76t41 64t68 24q32 0 61 -17v-66q-29 31 -56 31q-25 0 -42 -20t-24 -52.5t-9.5 -58t-2.5 -50.5q0 -23 3 -48.5t10 -56.5t23.5 -50.5t40.5 -19.5q30 0 57 40zM273 545l-40 -38l-74 69
l-74 -69l-38 38l112 107z" />
    <glyph glyph-name="Cdotaccent" unicode="&#x10a;" horiz-adv-x="320" 
d="M302 81v-62q-43 -28 -87 -28q-72 0 -120 65q-57 78 -57 260q0 360 184 360q46 0 80 -21v-68q-44 29 -77 29q-124 0 -124 -280q0 -181 44 -244q28 -41 75 -41q37 0 82 30zM258 766q0 -19 -13.5 -32.5t-32.5 -13.5t-32 13.5t-13 32.5t13 32t32 13t32.5 -13t13.5 -32z" />
    <glyph glyph-name="cdotaccent" unicode="&#x10b;" horiz-adv-x="246" 
d="M226 86v-70q-30 -23 -64 -23q-37 0 -64 23t-40 59.5t-19 71.5t-6 69q0 38 5 74t18 76t41 64t68 24q32 0 61 -17v-66q-29 31 -56 31q-25 0 -42 -20t-24 -52.5t-9.5 -58t-2.5 -50.5q0 -23 3 -48.5t10 -56.5t23.5 -50.5t40.5 -19.5q30 0 57 40zM203 559q0 -19 -13.5 -32.5
t-32.5 -13.5t-32 13.5t-13 32.5t13 32t32 13t32.5 -13t13.5 -32z" />
    <glyph glyph-name="Ccaron" unicode="&#x10c;" horiz-adv-x="320" 
d="M302 81v-62q-43 -28 -87 -28q-72 0 -120 65q-57 78 -57 260q0 360 184 360q46 0 80 -21v-68q-44 29 -77 29q-124 0 -124 -280q0 -181 44 -244q28 -41 75 -41q37 0 82 30zM333 821l-114 -107l-112 107l38 38l74 -69l74 69z" />
    <glyph glyph-name="ccaron" unicode="&#x10d;" horiz-adv-x="246" 
d="M226 86v-70q-30 -23 -64 -23q-37 0 -64 23t-40 59.5t-19 71.5t-6 69q0 38 5 74t18 76t41 64t68 24q32 0 61 -17v-66q-29 31 -56 31q-25 0 -42 -20t-24 -52.5t-9.5 -58t-2.5 -50.5q0 -23 3 -48.5t10 -56.5t23.5 -50.5t40.5 -19.5q30 0 57 40zM273 614l-114 -107l-112 107
l38 38l74 -69l74 69z" />
    <glyph glyph-name="Dcaron" unicode="&#x10e;" horiz-adv-x="371" 
d="M55 667h78q93 0 134.5 -40t56.5 -134q9 -63 9 -170q0 -57 -2 -94.5t-15 -91.5t-38 -84q-45 -53 -141 -53h-82v667zM117 57h29q29 0 50.5 9.5t34.5 29t21.5 39t11.5 49t4 49t1 48.5q0 113 -5 173q-2 28 -5.5 47.5t-12 41.5t-20.5 35.5t-33.5 22.5t-49.5 9h-26v-553z
M273 821l-114 -107l-112 107l38 38l74 -69l74 69z" />
    <glyph glyph-name="dcaron" unicode="&#x10f;" horiz-adv-x="422" 
d="M271 0h-56v36q-32 -43 -77 -43q-25 0 -43.5 10.5t-29.5 31.5t-18 41.5t-10 50.5t-3.5 48.5t-0.5 44.5q0 31 0.5 48.5t3.5 50t10 52t18.5 41t31.5 32t47 10.5q41 0 71 -37v312h56v-729zM220 223q0 88 -12 137t-51 49q-65 0 -65 -159q0 -72 3 -108q2 -20 4 -33.5t8 -32
t18.5 -28t30.5 -9.5q23 0 37 15q27 27 27 169zM432 648l-74 -164l-39 19l55 173z" />
    <glyph glyph-name="Dcroat" unicode="&#x110;" horiz-adv-x="371" 
d="M55 667h78q90 0 132.5 -38t57.5 -128q10 -60 10 -166q0 -151 -18 -210q-21 -68 -63 -96.5t-115 -28.5h-82v321h-47v50h47v296zM117 57h29q50 0 77 28q21 22 32.5 63.5t13 72t1.5 79.5q0 169 -18 229q-14 43 -38.5 62t-69.5 19h-27v-239h90v-50h-90v-264z" />
    <glyph glyph-name="dcroat" unicode="&#x111;" horiz-adv-x="325" 
d="M272 0h-57v36q-30 -43 -76 -43q-30 0 -51 17t-31.5 39.5t-16 58t-6.5 58t-1 54.5q0 23 0.5 38t3.5 43.5t10 47.5t18.5 39.5t31.5 31t47 10.5q43 0 71 -37v139h-103v52h103v145h57v-145h49v-52h-49v-532zM220 223q0 33 -1 53t-6.5 49.5t-19.5 44.5t-36 15q-65 0 -65 -153
q0 -54 3 -90q2 -20 4 -33.5t8 -32t18.5 -28t30.5 -9.5q23 0 38 15q26 28 26 169z" />
    <glyph glyph-name="Emacron" unicode="&#x112;" horiz-adv-x="301" 
d="M263 0h-208v667h208v-57h-146v-235h142v-57h-142v-261h146v-57zM274 727h-224v55h224v-55z" />
    <glyph glyph-name="emacron" unicode="&#x113;" horiz-adv-x="313" 
d="M219 152h57q-7 -159 -113 -159q-130 0 -130 229q0 37 5 71.5t17 73.5t39 63t65 24q37 0 63 -21.5t37.5 -57t16 -68t4.5 -67.5q0 -4 -0.5 -14t-0.5 -14h-189v-10q0 -22 2.5 -44t9 -50t22 -45t37.5 -17q55 0 58 106zM91 260h133q-7 142 -64 142q-62 0 -69 -142zM271 520
h-224v55h224v-55z" />
    <glyph glyph-name="Edotaccent" unicode="&#x116;" horiz-adv-x="301" 
d="M263 0h-208v667h208v-57h-146v-235h142v-57h-142v-261h146v-57zM208 766q0 -19 -13.5 -32.5t-32.5 -13.5t-32 13.5t-13 32.5t13 32t32 13t32.5 -13t13.5 -32z" />
    <glyph glyph-name="edotaccent" unicode="&#x117;" horiz-adv-x="313" 
d="M219 152h57q-7 -159 -113 -159q-130 0 -130 229q0 37 5 71.5t17 73.5t39 63t65 24q37 0 63 -21.5t37.5 -57t16 -68t4.5 -67.5q0 -4 -0.5 -14t-0.5 -14h-189v-10q0 -22 2.5 -44t9 -50t22 -45t37.5 -17q55 0 58 106zM91 260h133q-7 142 -64 142q-62 0 -69 -142zM205 559
q0 -19 -13.5 -32.5t-32.5 -13.5t-32 13.5t-13 32.5t13 32t32 13t32.5 -13t13.5 -32z" />
    <glyph glyph-name="Eogonek" unicode="&#x118;" horiz-adv-x="301" 
d="M259 318h-142v-261h146v-57h-14q-12 -10 -35 -33q-17 -19 -17 -38q0 -14 9 -23t26 -9q16 0 31 8v-48q-20 -9 -44 -9q-35 0 -54 20q-17 17 -17 44q0 26 18 51q12 16 37 37h-148v667h208v-57h-146v-235h142v-57z" />
    <glyph glyph-name="eogonek" unicode="&#x119;" horiz-adv-x="313" 
d="M219 152h57q-1 -69 -32 -119q-8 -13 -24.5 -32.5t-22.5 -27.5q-19 -25 -19 -43q0 -15 10 -24q10 -8 23 -8q17 0 35 10v-47q-20 -11 -46 -11q-27 0 -47 14q-23 17 -23 47q0 23 15 46q3 6 14.5 20t12.5 16q-55 0 -87 33q-52 53 -52 191q0 152 58 209q28 28 70 28
q39 0 68 -29q52 -52 52 -171q0 -16 -2 -42h-189v-4q0 -48 8 -88q9 -41 26 -58q16 -16 39 -16q19 0 31 14q25 28 25 92zM91 260h133q-1 35 -9.5 74.5t-23.5 54.5q-13 13 -31 13q-17 0 -32 -13q-17 -15 -26.5 -54t-10.5 -75z" />
    <glyph glyph-name="Ecaron" unicode="&#x11a;" horiz-adv-x="301" 
d="M263 0h-208v667h208v-57h-146v-235h142v-57h-142v-261h146v-57zM278 821l-114 -107l-112 107l38 38l74 -69l74 69z" />
    <glyph glyph-name="ecaron" unicode="&#x11b;" horiz-adv-x="313" 
d="M219 152h57q-7 -159 -113 -159q-130 0 -130 229q0 37 5 71.5t17 73.5t39 63t65 24q37 0 63 -21.5t37.5 -57t16 -68t4.5 -67.5q0 -4 -0.5 -14t-0.5 -14h-189v-10q0 -22 2.5 -44t9 -50t22 -45t37.5 -17q55 0 58 106zM91 260h133q-7 142 -64 142q-62 0 -69 -142zM272 614
l-114 -107l-112 107l38 38l74 -69l74 69z" />
    <glyph glyph-name="Gcircumflex" unicode="&#x11c;" horiz-adv-x="374" 
d="M336 352v-134q0 -65 -5 -97q-9 -60 -44 -95t-93 -35q-78 0 -115 64q-41 71 -41 295q0 32 0.5 54.5t4 59.5t9.5 63t18 56t28.5 49t42.5 31.5t59 12.5q57 0 88 -33t47 -93l-61 -24q-17 90 -74 90q-99 0 -99 -243q0 -196 21 -257q22 -65 76 -65q26 0 42.5 13t23 37t8.5 42.5
t2 45.5v106h-91v57h153zM313 752l-40 -38l-74 69l-74 -69l-38 38l112 107z" />
    <glyph glyph-name="gcircumflex" unicode="&#x11d;" horiz-adv-x="331" 
d="M281 447v-496q0 -131 -117 -131q-57 0 -86.5 33t-29.5 91q0 12 1 17h57q0 -42 11.5 -65t49.5 -23q20 0 32 7t17 21t6.5 26.5t1.5 32.5v72q-29 -32 -71 -32q-27 0 -47.5 11t-32.5 32.5t-19.5 42t-10.5 52t-3.5 49.5t-0.5 46q0 221 111 221q44 0 74 -38v31h57zM230 250
q0 158 -68 158q-40 0 -52.5 -53t-12.5 -143q0 -166 70 -166q52 0 60 96q3 37 3 108zM281 545l-40 -38l-74 69l-74 -69l-38 38l112 107z" />
    <glyph glyph-name="Gbreve" unicode="&#x11e;" horiz-adv-x="374" 
d="M336 352v-134q0 -65 -5 -97q-9 -60 -44 -95t-93 -35q-78 0 -115 64q-41 71 -41 295q0 32 0.5 54.5t4 59.5t9.5 63t18 56t28.5 49t42.5 31.5t59 12.5q57 0 88 -33t47 -93l-61 -24q-17 90 -74 90q-99 0 -99 -243q0 -196 21 -257q22 -65 76 -65q26 0 42.5 13t23 37t8.5 42.5
t2 45.5v106h-91v57h153zM275 810h48q-5 -46 -40 -69t-83 -23t-83 23t-40 69h48q17 -41 75 -41t75 41z" />
    <glyph glyph-name="gbreve" unicode="&#x11f;" horiz-adv-x="331" 
d="M281 447v-496q0 -131 -117 -131q-57 0 -86.5 33t-29.5 91q0 12 1 17h57q0 -42 11.5 -65t49.5 -23q20 0 32 7t17 21t6.5 26.5t1.5 32.5v72q-29 -32 -71 -32q-27 0 -47.5 11t-32.5 32.5t-19.5 42t-10.5 52t-3.5 49.5t-0.5 46q0 221 111 221q44 0 74 -38v31h57zM230 250
q0 158 -68 158q-40 0 -52.5 -53t-12.5 -143q0 -166 70 -166q52 0 60 96q3 37 3 108zM243 599h48q-5 -46 -40 -69t-83 -23t-83 23t-40 69h48q17 -41 75 -41t75 41z" />
    <glyph glyph-name="Gdotaccent" unicode="&#x120;" horiz-adv-x="374" 
d="M336 352v-134q0 -65 -5 -97q-9 -60 -44 -95t-93 -35q-78 0 -115 64q-41 71 -41 295q0 32 0.5 54.5t4 59.5t9.5 63t18 56t28.5 49t42.5 31.5t59 12.5q57 0 88 -33t47 -93l-61 -24q-17 90 -74 90q-99 0 -99 -243q0 -196 21 -257q22 -65 76 -65q26 0 42.5 13t23 37t8.5 42.5
t2 45.5v106h-91v57h153zM240 766q0 -19 -13.5 -32.5t-32.5 -13.5t-32 13.5t-13 32.5t13 32t32 13t32.5 -13t13.5 -32z" />
    <glyph glyph-name="gdotaccent" unicode="&#x121;" horiz-adv-x="331" 
d="M281 447v-496q0 -131 -117 -131q-57 0 -86.5 33t-29.5 91q0 12 1 17h57q0 -42 11.5 -65t49.5 -23q20 0 32 7t17 21t6.5 26.5t1.5 32.5v72q-29 -32 -71 -32q-27 0 -47.5 11t-32.5 32.5t-19.5 42t-10.5 52t-3.5 49.5t-0.5 46q0 221 111 221q44 0 74 -38v31h57zM230 250
q0 158 -68 158q-40 0 -52.5 -53t-12.5 -143q0 -166 70 -166q52 0 60 96q3 37 3 108zM200 559q0 -19 -13.5 -32.5t-32.5 -13.5t-32 13.5t-13 32.5t13 32t32 13t32.5 -13t13.5 -32z" />
    <glyph glyph-name="Gcommaaccent" unicode="&#x122;" horiz-adv-x="374" 
d="M336 352v-134q0 -65 -5 -97q-9 -60 -44 -95t-93 -35q-78 0 -115 64q-41 71 -41 295q0 32 0.5 54.5t4 59.5t9.5 63t18 56t28.5 49t42.5 31.5t59 12.5q57 0 88 -33t47 -93l-61 -24q-17 90 -74 90q-99 0 -99 -243q0 -196 21 -257q22 -65 76 -65q26 0 42.5 13t23 37t8.5 42.5
t2 45.5v106h-91v57h153zM245 -77l-72 -154l-39 19l53 163z" />
    <glyph glyph-name="gcommaaccent" unicode="&#x123;" horiz-adv-x="331" 
d="M281 447v-496q0 -131 -117 -131q-57 0 -86.5 33t-29.5 91q0 12 1 17h57q0 -42 11.5 -65t49.5 -23q20 0 32 7t17 21t6.5 26.5t1.5 32.5v72q-29 -32 -71 -32q-27 0 -47.5 11t-32.5 32.5t-19.5 42t-10.5 52t-3.5 49.5t-0.5 46q0 221 111 221q44 0 74 -38v31h57zM230 250
q0 158 -68 158q-40 0 -52.5 -53t-12.5 -143q0 -166 70 -166q52 0 60 96q3 37 3 108zM109 530l72 154l39 -19l-53 -163z" />
    <glyph glyph-name="Hcircumflex" unicode="&#x124;" horiz-adv-x="385" 
d="M331 0h-62v344h-152v-344h-62v667h62v-266h152v266h62v-667zM306 752l-40 -38l-74 69l-74 -69l-38 38l112 107z" />
    <glyph glyph-name="hcircumflex" unicode="&#x125;" horiz-adv-x="330" 
d="M280 0h-56v325q0 18 -1 29t-5.5 25.5t-15.5 21.5t-28 7q-35 0 -53 -29q-15 -23 -15 -78v-301h-56v729h56v-318q38 43 87 43q50 0 68.5 -30.5t18.5 -84.5v-339zM193 775l-40 -38l-74 69l-74 -69l-38 38l112 107z" />
    <glyph glyph-name="Hbar" unicode="&#x126;" horiz-adv-x="385" 
d="M331 0h-62v344h-152v-344h-62v562h-50v47h50v58h62v-58h152v58h62v-58h50v-47h-50v-562zM269 562h-152v-161h152v161z" />
    <glyph glyph-name="hbar" unicode="&#x127;" horiz-adv-x="340" 
d="M290 0h-56v297q0 20 -1 30t-5 26t-15 23.5t-29 7.5q-35 0 -54 -29q-15 -23 -15 -78v-277h-56v532h-49v52h49v145h56v-145h104v-52h-104v-145q40 43 87 43q50 0 69 -30.5t19 -84.5v-315z" />
    <glyph glyph-name="Imacron" unicode="&#x12a;" horiz-adv-x="171" 
d="M117 0h-62v667h62v-667zM196 727h-224v55h224v-55z" />
    <glyph glyph-name="imacron" unicode="&#x12b;" horiz-adv-x="155" 
d="M106 0h-57v447h57v-447zM191 520h-224v55h224v-55z" />
    <glyph glyph-name="Iogonek" unicode="&#x12e;" horiz-adv-x="171" 
d="M55 667h62v-667q-12 -10 -35 -33q-17 -19 -17 -38q0 -14 9 -23t26 -9q16 0 31 8v-48q-20 -9 -44 -9q-35 0 -54 20q-17 17 -17 44q0 26 18 51q12 16 37 37h-16v667z" />
    <glyph glyph-name="iogonek" unicode="&#x12f;" horiz-adv-x="155" 
d="M50 447h56v-447q-18 -17 -31 -35q-14 -21 -14 -37q0 -14 10 -22t23 -8q17 0 35 10v-47q-21 -11 -44 -11q-31 0 -49 14q-23 18 -23 48q0 20 16 47q11 19 32 41h-11v447zM36 588q0 16 12 29t29 13q18 0 30.5 -12.5t12.5 -29.5t-12.5 -29.5t-30.5 -12.5q-17 0 -29 13t-12 29
z" />
    <glyph glyph-name="Idotaccent" unicode="&#x130;" horiz-adv-x="171" 
d="M117 0h-62v667h62v-667zM132 766q0 -19 -13.5 -32.5t-32.5 -13.5t-32 13.5t-13 32.5t13 32t32 13t32.5 -13t13.5 -32z" />
    <glyph glyph-name="dotlessi" unicode="&#x131;" horiz-adv-x="155" 
d="M106 0h-57v447h57v-447z" />
    <glyph glyph-name="Jcircumflex" unicode="&#x134;" horiz-adv-x="224" 
d="M169 667v-571q0 -19 -1 -29q-7 -77 -95 -77q-34 0 -72 18v64q33 -28 62 -28q20 0 30.5 11.5t12 23t1.5 32.5v556h62zM246 752l-40 -38l-74 69l-74 -69l-38 38l112 107z" />
    <glyph glyph-name="jcircumflex" unicode="&#x135;" horiz-adv-x="159" 
d="M110 -180h-58v627h58v-627zM194 545l-40 -38l-74 69l-74 -69l-38 38l112 107z" />
    <glyph glyph-name="Kcommaaccent" unicode="&#x136;" horiz-adv-x="329" 
d="M321 0h-70l-134 336v-336h-62v667h62v-303l134 303h69l-144 -318zM231 -77l-72 -154l-39 19l53 163z" />
    <glyph glyph-name="kcommaaccent" unicode="&#x137;" horiz-adv-x="300" 
d="M316 0h-71l-139 214v-214h-56v729h56v-464l112 182h63l-128 -200zM221 -77l-72 -154l-39 19l53 163z" />
    <glyph glyph-name="Lacute" unicode="&#x139;" horiz-adv-x="263" 
d="M261 0h-206v667h62v-610h144v-57zM215 817l-115 -103l-35 26l96 120z" />
    <glyph glyph-name="lacute" unicode="&#x13a;" horiz-adv-x="157" 
d="M107 0h-57v729h57v-729zM194 870l-115 -103l-35 26l96 120z" />
    <glyph glyph-name="Lcommaaccent" unicode="&#x13b;" horiz-adv-x="263" 
d="M261 0h-206v667h62v-610h144v-57zM206 -77l-72 -154l-39 19l53 163z" />
    <glyph glyph-name="lcommaaccent" unicode="&#x13c;" horiz-adv-x="157" 
d="M107 0h-57v729h57v-729zM127 -77l-72 -154l-39 19l53 163z" />
    <glyph glyph-name="Lcaron" unicode="&#x13d;" horiz-adv-x="263" 
d="M261 0h-206v667h62v-610h144v-57zM282 648l-83 -186l-39 19l64 195z" />
    <glyph glyph-name="lcaron" unicode="&#x13e;" horiz-adv-x="242" 
d="M107 0h-57v729h57v-729zM252 648l-74 -164l-39 19l55 173z" />
    <glyph glyph-name="Ldot" unicode="&#x13f;" horiz-adv-x="263" 
d="M261 0h-206v667h62v-610h144v-57zM258 334q0 -19 -13.5 -32.5t-32.5 -13.5t-32 13.5t-13 32.5t13 32t32 13t32.5 -13t13.5 -32z" />
    <glyph glyph-name="ldot" unicode="&#x140;" horiz-adv-x="228" 
d="M107 0h-57v729h57v-729zM238 365q0 -19 -13.5 -32.5t-32.5 -13.5t-32 13.5t-13 32.5t13 32t32 13t32.5 -13t13.5 -32z" />
    <glyph glyph-name="Lslash" unicode="&#x141;" horiz-adv-x="263" 
d="M262 0h-206v280l-49 -70v64l49 70v323h62v-273l86 104v-64l-86 -104v-273h144v-57z" />
    <glyph glyph-name="lslash" unicode="&#x142;" horiz-adv-x="170" 
d="M164 458l-50 -69v-389h-57v335l-50 -70v66l50 69v329h57v-275l50 69v-65z" />
    <glyph glyph-name="Nacute" unicode="&#x143;" horiz-adv-x="387" 
d="M332 0h-54l-148 440q-16 48 -27 94q6 -52 6 -105v-429h-54v667h54l151 -453q5 -15 14 -44.5t10 -34.5q-6 41 -6 82v450h54v-667zM299 817l-115 -103l-35 26l96 120z" />
    <glyph glyph-name="nacute" unicode="&#x144;" horiz-adv-x="330" 
d="M280 0h-56v325q0 18 -1 29t-5.5 25.5t-15.5 21.5t-28 7q-35 0 -53 -29q-15 -22 -15 -78v-301h-56v447h56v-36q38 43 87 43q51 0 69 -33.5t18 -89.5v-331zM282 610l-115 -103l-35 26l96 120z" />
    <glyph glyph-name="Ncommaaccent" unicode="&#x145;" horiz-adv-x="387" 
d="M332 0h-54l-148 440q-16 48 -27 94q6 -52 6 -105v-429h-54v667h54l151 -453q5 -15 14 -44.5t10 -34.5q-6 41 -6 82v450h54v-667zM241 -77l-72 -154l-39 19l53 163z" />
    <glyph glyph-name="ncommaaccent" unicode="&#x146;" horiz-adv-x="330" 
d="M280 0h-56v325q0 18 -1 29t-5.5 25.5t-15.5 21.5t-28 7q-35 0 -53 -29q-15 -22 -15 -78v-301h-56v447h56v-36q38 43 87 43q51 0 69 -33.5t18 -89.5v-331zM215 -77l-72 -154l-39 19l53 163z" />
    <glyph glyph-name="Ncaron" unicode="&#x147;" horiz-adv-x="387" 
d="M332 0h-54l-148 440q-16 48 -27 94q6 -52 6 -105v-429h-54v667h54l151 -453q5 -15 14 -44.5t10 -34.5q-6 41 -6 82v450h54v-667zM307 821l-114 -107l-112 107l38 38l74 -69l74 69z" />
    <glyph glyph-name="ncaron" unicode="&#x148;" horiz-adv-x="330" 
d="M280 0h-56v325q0 18 -1 29t-5.5 25.5t-15.5 21.5t-28 7q-35 0 -53 -29q-15 -22 -15 -78v-301h-56v447h56v-36q38 43 87 43q51 0 69 -33.5t18 -89.5v-331zM288 614l-114 -107l-112 107l38 38l74 -69l74 69z" />
    <glyph glyph-name="Omacron" unicode="&#x14c;" horiz-adv-x="404" 
d="M366 336q0 -38 -1 -65.5t-5.5 -72.5t-15.5 -77.5t-28 -64t-46 -48.5t-67 -17q-165 0 -165 342q0 343 164 343t164 -340zM303 358q0 258 -100 258q-102 0 -102 -282q0 -283 102 -283q80 0 94 155q6 60 6 152zM314 727h-224v55h224v-55z" />
    <glyph glyph-name="omacron" unicode="&#x14d;" horiz-adv-x="323" 
d="M289 221q0 -228 -125 -228q-41 0 -69 23t-40.5 61t-17 73t-4.5 74q0 30 2.5 57.5t10.5 60.5t22 56.5t38.5 39.5t57.5 16q125 0 125 -233zM231 224q0 178 -68 178q-71 0 -71 -183q0 -173 71 -173q68 0 68 178zM276 520h-224v55h224v-55z" />
    <glyph glyph-name="Obreve" unicode="&#x14e;" horiz-adv-x="404" 
d="M366 336q0 -38 -1 -65.5t-5.5 -72.5t-15.5 -77.5t-28 -64t-46 -48.5t-67 -17q-165 0 -165 342q0 343 164 343t164 -340zM303 358q0 258 -100 258q-102 0 -102 -282q0 -283 102 -283q80 0 94 155q6 60 6 152zM277 810h48q-5 -46 -40 -69t-83 -23t-83 23t-40 69h48
q17 -41 75 -41t75 41z" />
    <glyph glyph-name="obreve" unicode="&#x14f;" horiz-adv-x="323" 
d="M289 221q0 -228 -125 -228q-41 0 -69 23t-40.5 61t-17 73t-4.5 74q0 30 2.5 57.5t10.5 60.5t22 56.5t38.5 39.5t57.5 16q125 0 125 -233zM231 224q0 178 -68 178q-71 0 -71 -183q0 -173 71 -173q68 0 68 178zM239 599h48q-5 -46 -40 -69t-83 -23t-83 23t-40 69h48
q17 -41 75 -41t75 41z" />
    <glyph glyph-name="Ohungarumlaut" unicode="&#x150;" horiz-adv-x="404" 
d="M366 336q0 -38 -1 -65.5t-5.5 -72.5t-15.5 -77.5t-28 -64t-46 -48.5t-67 -17q-165 0 -165 342q0 343 164 343t164 -340zM303 358q0 258 -100 258q-102 0 -102 -282q0 -283 102 -283q80 0 94 155q6 60 6 152zM333 830l-70 -116l-37 13l51 125zM230 830l-69 -116l-37 13
l50 125z" />
    <glyph glyph-name="ohungarumlaut" unicode="&#x151;" horiz-adv-x="323" 
d="M289 221q0 -228 -125 -228q-41 0 -69 23t-40.5 61t-17 73t-4.5 74q0 30 2.5 57.5t10.5 60.5t22 56.5t38.5 39.5t57.5 16q125 0 125 -233zM231 224q0 178 -68 178q-71 0 -71 -183q0 -173 71 -173q68 0 68 178zM288 623l-70 -116l-37 13l51 125zM185 623l-69 -116l-37 13
l50 125z" />
    <glyph glyph-name="OE" unicode="&#x152;" horiz-adv-x="541" 
d="M503 0h-206v69q-33 -79 -106 -79q-153 0 -153 350q0 336 158 336q64 0 101 -69v60h206v-57h-147v-235h143v-57h-143v-261h147v-57zM295 302q0 99 -9 174q-16 140 -87 140q-40 0 -62 -43q-36 -69 -36 -268q0 -254 97 -254t97 251z" />
    <glyph glyph-name="oe" unicode="&#x153;" horiz-adv-x="502" 
d="M469 214h-192q3 -168 77 -168q53 0 53 108h52q1 -9 1 -27q0 -52 -29.5 -93t-79.5 -41q-39 0 -64.5 27t-36.5 68q-9 -41 -33 -68t-62 -27q-37 0 -63 24.5t-38 64t-16.5 74.5t-4.5 71q0 35 5 69.5t17 72.5t37.5 61.5t62.5 23.5q38 0 62 -27t33 -67q9 40 36 67t66 27
q117 0 117 -240zM415 261v8q0 18 -3 38.5t-10 43t-21.5 37t-33.5 14.5q-21 0 -35.5 -15.5t-21.5 -39.5t-9.5 -45t-2.5 -41h137zM224 220q0 24 -2 48t-8 58t-21 55t-37 21t-37 -20t-21 -51t-8.5 -55t-2.5 -46q0 -23 2 -48.5t8.5 -59t22 -55t37.5 -21.5q21 0 35.5 20.5
t20.5 52t8.5 55.5t2.5 46z" />
    <glyph glyph-name="Racute" unicode="&#x154;" horiz-adv-x="376" 
d="M353 0h-71l-155 326v-326h-68v667h84q80 0 115 -19q72 -38 72 -160q0 -158 -132 -168zM127 375h41q56 0 74.5 29t18.5 88q0 63 -20.5 90.5t-80.5 27.5h-33v-235zM285 817l-115 -103l-35 26l96 120z" />
    <glyph glyph-name="racute" unicode="&#x155;" horiz-adv-x="195" 
d="M182 454v-65q-22 0 -37 -7.5t-22.5 -17t-11.5 -27.5t-4.5 -30.5t-0.5 -35.5v-271h-56v447h56v-58q28 63 76 65zM225 610l-115 -103l-35 26l96 120z" />
    <glyph glyph-name="Rcommaaccent" unicode="&#x156;" horiz-adv-x="376" 
d="M353 0h-71l-155 326v-326h-68v667h84q80 0 115 -19q72 -38 72 -160q0 -158 -132 -168zM127 375h41q56 0 74.5 29t18.5 88q0 63 -20.5 90.5t-80.5 27.5h-33v-235zM251 -77l-72 -154l-39 19l53 163z" />
    <glyph glyph-name="rcommaaccent" unicode="&#x157;" horiz-adv-x="195" 
d="M182 454v-65q-22 0 -37 -7.5t-22.5 -17t-11.5 -27.5t-4.5 -30.5t-0.5 -35.5v-271h-56v447h56v-58q28 63 76 65zM141 -77l-72 -154l-39 19l53 163z" />
    <glyph glyph-name="Rcaron" unicode="&#x158;" horiz-adv-x="376" 
d="M353 0h-71l-155 326v-326h-68v667h84q80 0 115 -19q72 -38 72 -160q0 -158 -132 -168zM127 375h41q56 0 74.5 29t18.5 88q0 63 -20.5 90.5t-80.5 27.5h-33v-235zM283 821l-114 -107l-112 107l38 38l74 -69l74 69z" />
    <glyph glyph-name="rcaron" unicode="&#x159;" horiz-adv-x="195" 
d="M182 454v-65q-22 0 -37 -7.5t-22.5 -17t-11.5 -27.5t-4.5 -30.5t-0.5 -35.5v-271h-56v447h56v-58q28 63 76 65zM223 614l-114 -107l-112 107l38 38l74 -69l74 69z" />
    <glyph glyph-name="Sacute" unicode="&#x15a;" horiz-adv-x="326" 
d="M278 640v-78q-46 54 -99 54q-44 0 -70 -32t-26 -77q0 -42 23.5 -74.5t57 -55.5t67 -47t57 -62.5t23.5 -89.5q0 -75 -46.5 -131.5t-120.5 -56.5q-57 0 -105 35v80q52 -54 108 -54q46 0 73.5 35.5t27.5 83.5q0 42 -23.5 74t-57 54.5t-67 47t-57 63t-23.5 90.5
q0 72 42 124.5t112 52.5q54 0 104 -36zM290 817l-115 -103l-35 26l96 120z" />
    <glyph glyph-name="sacute" unicode="&#x15b;" horiz-adv-x="249" 
d="M219 425v-69q-38 46 -77 46q-24 0 -39.5 -17t-15.5 -42q0 -24 15 -44.5t36 -37.5t42 -35.5t36 -46t15 -60.5q0 -53 -34 -89.5t-86 -36.5q-44 0 -83 31v66q42 -44 79 -44q29 0 47 20t18 49q0 24 -15 46.5t-36 40.5t-42 37.5t-36 45.5t-15 56q0 49 31 81t80 32q40 0 80 -29
zM241 610l-115 -103l-35 26l96 120z" />
    <glyph glyph-name="Scircumflex" unicode="&#x15c;" horiz-adv-x="326" 
d="M278 640v-78q-46 54 -99 54q-44 0 -70 -32t-26 -77q0 -42 23.5 -74.5t57 -55.5t67 -47t57 -62.5t23.5 -89.5q0 -75 -46.5 -131.5t-120.5 -56.5q-57 0 -105 35v80q52 -54 108 -54q46 0 73.5 35.5t27.5 83.5q0 42 -23.5 74t-57 54.5t-67 47t-57 63t-23.5 90.5
q0 72 42 124.5t112 52.5q54 0 104 -36zM286 752l-40 -38l-74 69l-74 -69l-38 38l112 107z" />
    <glyph glyph-name="scircumflex" unicode="&#x15d;" horiz-adv-x="249" 
d="M219 425v-69q-38 46 -77 46q-24 0 -39.5 -17t-15.5 -42q0 -24 15 -44.5t36 -37.5t42 -35.5t36 -46t15 -60.5q0 -53 -34 -89.5t-86 -36.5q-44 0 -83 31v66q42 -44 79 -44q29 0 47 20t18 49q0 24 -15 46.5t-36 40.5t-42 37.5t-36 45.5t-15 56q0 49 31 81t80 32q40 0 80 -29
zM253 545l-40 -38l-74 69l-74 -69l-38 38l112 107z" />
    <glyph glyph-name="Scedilla" unicode="&#x15e;" horiz-adv-x="326" 
d="M278 640v-78q-46 54 -99 54q-44 0 -70 -32t-26 -77q0 -42 23.5 -74.5t57 -55.5t67 -47t57 -62.5t23.5 -89.5q0 -75 -46.5 -131.5t-120.5 -56.5q-57 0 -105 35v80q52 -54 108 -54q46 0 73.5 35.5t27.5 83.5q0 42 -23.5 74t-57 54.5t-67 47t-57 63t-23.5 90.5
q0 72 42 124.5t112 52.5q54 0 104 -36zM190 -62l-77 -123l-36 21l67 127z" />
    <glyph glyph-name="scedilla" unicode="&#x15f;" horiz-adv-x="249" 
d="M219 425v-69q-38 46 -77 46q-24 0 -39.5 -17t-15.5 -42q0 -24 15 -44.5t36 -37.5t42 -35.5t36 -46t15 -60.5q0 -53 -34 -89.5t-86 -36.5q-44 0 -83 31v66q42 -44 79 -44q29 0 47 20t18 49q0 24 -15 46.5t-36 40.5t-42 37.5t-36 45.5t-15 56q0 49 31 81t80 32q40 0 80 -29
zM159 -62l-77 -123l-36 21l67 127z" />
    <glyph glyph-name="Scaron" unicode="&#x160;" horiz-adv-x="326" 
d="M278 640v-78q-46 54 -99 54q-44 0 -70 -32t-26 -77q0 -42 23.5 -74.5t57 -55.5t67 -47t57 -62.5t23.5 -89.5q0 -75 -46.5 -131.5t-120.5 -56.5q-57 0 -105 35v80q52 -54 108 -54q46 0 73.5 35.5t27.5 83.5q0 42 -23.5 74t-57 54.5t-67 47t-57 63t-23.5 90.5
q0 72 42 124.5t112 52.5q54 0 104 -36zM286 821l-114 -107l-112 107l38 38l74 -69l74 69z" />
    <glyph glyph-name="scaron" unicode="&#x161;" horiz-adv-x="249" 
d="M219 425v-69q-38 46 -77 46q-24 0 -39.5 -17t-15.5 -42q0 -24 15 -44.5t36 -37.5t42 -35.5t36 -46t15 -60.5q0 -53 -34 -89.5t-86 -36.5q-44 0 -83 31v66q42 -44 79 -44q29 0 47 20t18 49q0 24 -15 46.5t-36 40.5t-42 37.5t-36 45.5t-15 56q0 49 31 81t80 32q40 0 80 -29
zM253 614l-114 -107l-112 107l38 38l74 -69l74 69z" />
    <glyph glyph-name="Tcedilla" unicode="&#x162;" horiz-adv-x="265" 
d="M263 610h-100v-610h-62v610h-100v57h262v-57zM182 -62l-77 -123l-36 21l67 127z" />
    <glyph glyph-name="tcedilla" unicode="&#x163;" horiz-adv-x="199" 
d="M198 395h-75v-395h-56v395h-48v52h48v127h56v-127h75v-52zM142 -62l-77 -123l-36 21l67 127z" />
    <glyph glyph-name="Tcaron" unicode="&#x164;" horiz-adv-x="265" 
d="M263 610h-100v-610h-62v610h-100v57h262v-57zM246 821l-114 -107l-112 107l38 38l74 -69l74 69z" />
    <glyph glyph-name="tcaron" unicode="&#x165;" horiz-adv-x="262" 
d="M198 395h-75v-395h-56v395h-48v52h48v127h56v-127h75v-52zM272 648l-74 -164l-39 19l55 173z" />
    <glyph glyph-name="Utilde" unicode="&#x168;" horiz-adv-x="390" 
d="M335 667v-491q0 -58 -9 -92q-12 -45 -47 -69t-84 -24q-48 0 -83 24t-48 69q-9 30 -9 93v490h62v-499q0 -34 4 -56.5t22.5 -41.5t51.5 -19q14 0 25.5 3t19.5 10t14 13t9.5 18.5t5.5 19.5t3 23t1 22.5v24v20.5v462h62zM253 802h57q-2 -33 -19.5 -57.5t-48.5 -24.5
q-19 0 -49.5 17t-40.5 17q-16 0 -16 -25h-56q3 33 21 55t49 22q17 0 47 -16t39 -16q17 0 17 28z" />
    <glyph glyph-name="utilde" unicode="&#x169;" horiz-adv-x="332" 
d="M282 447v-338q0 -54 -31.5 -85t-84.5 -31t-84.5 31t-31.5 85v338h56v-303q0 -22 1.5 -35.5t7 -30t19 -24.5t34.5 -8t33.5 9t17.5 27.5t6 31.5t1 36v297h56zM226 595h57q-2 -33 -19.5 -57.5t-48.5 -24.5q-19 0 -49.5 17t-40.5 17q-16 0 -16 -25h-56q3 33 21 55t49 22
q17 0 47 -16t39 -16q17 0 17 28z" />
    <glyph glyph-name="Umacron" unicode="&#x16a;" horiz-adv-x="390" 
d="M335 667v-491q0 -58 -9 -92q-12 -45 -47 -69t-84 -24q-48 0 -83 24t-48 69q-9 30 -9 93v490h62v-499q0 -34 4 -56.5t22.5 -41.5t51.5 -19q14 0 25.5 3t19.5 10t14 13t9.5 18.5t5.5 19.5t3 23t1 22.5v24v20.5v462h62zM307 727h-224v55h224v-55z" />
    <glyph glyph-name="umacron" unicode="&#x16b;" horiz-adv-x="332" 
d="M282 447v-338q0 -54 -31.5 -85t-84.5 -31t-84.5 31t-31.5 85v338h56v-303q0 -22 1.5 -35.5t7 -30t19 -24.5t34.5 -8t33.5 9t17.5 27.5t6 31.5t1 36v297h56zM280 520h-224v55h224v-55z" />
    <glyph glyph-name="Ubreve" unicode="&#x16c;" horiz-adv-x="390" 
d="M335 667v-491q0 -58 -9 -92q-12 -45 -47 -69t-84 -24q-48 0 -83 24t-48 69q-9 30 -9 93v490h62v-499q0 -34 4 -56.5t22.5 -41.5t51.5 -19q14 0 25.5 3t19.5 10t14 13t9.5 18.5t5.5 19.5t3 23t1 22.5v24v20.5v462h62zM270 810h48q-5 -46 -40 -69t-83 -23t-83 23t-40 69h48
q17 -41 75 -41t75 41z" />
    <glyph glyph-name="ubreve" unicode="&#x16d;" horiz-adv-x="332" 
d="M282 447v-338q0 -54 -31.5 -85t-84.5 -31t-84.5 31t-31.5 85v338h56v-303q0 -22 1.5 -35.5t7 -30t19 -24.5t34.5 -8t33.5 9t17.5 27.5t6 31.5t1 36v297h56zM243 599h48q-5 -46 -40 -69t-83 -23t-83 23t-40 69h48q17 -41 75 -41t75 41z" />
    <glyph glyph-name="Uring" unicode="&#x16e;" horiz-adv-x="390" 
d="M335 667v-491q0 -58 -9 -92q-12 -45 -47 -69t-84 -24q-48 0 -83 24t-48 69q-9 30 -9 93v490h62v-499q0 -34 4 -56.5t22.5 -41.5t51.5 -19q14 0 25.5 3t19.5 10t14 13t9.5 18.5t5.5 19.5t3 23t1 22.5v24v20.5v462h62zM276 794q0 -33 -23.5 -56.5t-56.5 -23.5t-56.5 23.5
t-23.5 56.5t23.5 56.5t56.5 23.5t56.5 -23.5t23.5 -56.5zM236 794q0 16 -12 28t-28 12t-28 -12t-12 -28t12 -28t28 -12t28 12t12 28z" />
    <glyph glyph-name="uring" unicode="&#x16f;" horiz-adv-x="332" 
d="M282 447v-338q0 -54 -31.5 -85t-84.5 -31t-84.5 31t-31.5 85v338h56v-303q0 -22 1.5 -35.5t7 -30t19 -24.5t34.5 -8t33.5 9t17.5 27.5t6 31.5t1 36v297h56zM249 587q0 -33 -23.5 -56.5t-56.5 -23.5t-56.5 23.5t-23.5 56.5t23.5 56.5t56.5 23.5t56.5 -23.5t23.5 -56.5z
M209 587q0 17 -11.5 28.5t-28.5 11.5t-28.5 -11.5t-11.5 -28.5t11.5 -28.5t28.5 -11.5t28.5 11.5t11.5 28.5z" />
    <glyph glyph-name="Uhungarumlaut" unicode="&#x170;" horiz-adv-x="390" 
d="M335 667v-491q0 -58 -9 -92q-12 -45 -47 -69t-84 -24q-48 0 -83 24t-48 69q-9 30 -9 93v490h62v-499q0 -34 4 -56.5t22.5 -41.5t51.5 -19q14 0 25.5 3t19.5 10t14 13t9.5 18.5t5.5 19.5t3 23t1 22.5v24v20.5v462h62zM323 830l-70 -116l-37 13l51 125zM220 830l-69 -116
l-37 13l50 125z" />
    <glyph glyph-name="uhungarumlaut" unicode="&#x171;" horiz-adv-x="332" 
d="M282 447v-338q0 -54 -31.5 -85t-84.5 -31t-84.5 31t-31.5 85v338h56v-303q0 -22 1.5 -35.5t7 -30t19 -24.5t34.5 -8t33.5 9t17.5 27.5t6 31.5t1 36v297h56zM294 623l-70 -116l-37 13l51 125zM191 623l-69 -116l-37 13l50 125z" />
    <glyph glyph-name="Uogonek" unicode="&#x172;" horiz-adv-x="390" 
d="M335 667v-491q0 -84 -20 -121q-15 -27 -49 -55q-27 -22 -36 -33q-16 -18 -16 -38q0 -14 9 -23t26 -9q16 0 31 8v-48q-20 -9 -44 -9q-35 0 -54 20q-17 17 -17 44t18 51q1 1 3.5 4t8 9.5t13.5 14.5q-74 0 -110 35q-28 26 -35.5 61t-7.5 89v491h62v-488q0 -87 27 -111
q20 -17 51 -17t51 17q27 24 27 111v488h62z" />
    <glyph glyph-name="uogonek" unicode="&#x173;" horiz-adv-x="332" 
d="M282 447v-332q0 -49 -23 -82q-7 -11 -23 -27t-29 -31q-22 -25 -22 -45q0 -15 10 -24q10 -8 23 -8q17 0 35 10v-47q-20 -11 -46 -11q-27 0 -47 14q-23 17 -23 47q0 19 15 45q8 14 27 37q-66 0 -99 33q-30 30 -30 95v326h56v-306q0 -60 19 -80q14 -15 41 -15t41 15
q19 20 19 80v306h56z" />
    <glyph glyph-name="Ydieresis" unicode="&#x178;" horiz-adv-x="316" 
d="M315 667l-122 -378v-289h-62v289l-130 378h67l62 -191q18 -56 32 -123q8 53 29 122l57 192h67zM269 764q0 -18 -12.5 -31t-30.5 -13t-30.5 13t-12.5 31t12.5 30.5t30.5 12.5t30.5 -12.5t12.5 -30.5zM141 764q0 -18 -12.5 -31t-30.5 -13t-30.5 13t-12.5 31t12.5 30.5
t30.5 12.5t30.5 -12.5t12.5 -30.5z" />
    <glyph glyph-name="Zacute" unicode="&#x179;" horiz-adv-x="279" 
d="M271 667l-187 -610h169v-57h-245l185 610h-167v57h245zM255 817l-115 -103l-35 26l96 120z" />
    <glyph glyph-name="zacute" unicode="&#x17a;" horiz-adv-x="271" 
d="M266 447l-180 -395h151v-52h-232l176 395h-153v52h238zM253 610l-115 -103l-35 26l96 120z" />
    <glyph glyph-name="Zdotaccent" unicode="&#x17b;" horiz-adv-x="279" 
d="M271 667l-187 -610h169v-57h-245l185 610h-167v57h245zM186 766q0 -19 -13.5 -32.5t-32.5 -13.5t-32 13.5t-13 32.5t13 32t32 13t32.5 -13t13.5 -32z" />
    <glyph glyph-name="zdotaccent" unicode="&#x17c;" horiz-adv-x="271" 
d="M266 447l-180 -395h151v-52h-232l176 395h-153v52h238zM192 559q0 -19 -13.5 -32.5t-32.5 -13.5t-32 13.5t-13 32.5t13 32t32 13t32.5 -13t13.5 -32z" />
    <glyph glyph-name="Zcaron" unicode="&#x17d;" horiz-adv-x="279" 
d="M271 667l-187 -610h169v-57h-245l185 610h-167v57h245zM263 821l-114 -107l-112 107l38 38l74 -69l74 69z" />
    <glyph glyph-name="zcaron" unicode="&#x17e;" horiz-adv-x="271" 
d="M266 447l-180 -395h151v-52h-232l176 395h-153v52h238zM263 614l-114 -107l-112 107l38 38l74 -69l74 69z" />
    <glyph glyph-name="uni018F" unicode="&#x18f;" horiz-adv-x="374" 
d="M38 352h235v21q0 172 -48 221q-21 22 -51 22t-49 -24q-20 -25 -26 -71l-61 24q14 62 51 99q32 32 85 32q58 0 94 -36q30 -30 46 -83t19 -96t3 -111q0 -110 -8 -179q-12 -103 -53 -144q-35 -36 -95 -36q-58 0 -92 34q-50 50 -50 199v128zM272 295h-172v-85q0 -107 30 -139
q20 -20 50 -20q31 0 51 18q25 23 34 94q7 63 7 132z" />
    <glyph glyph-name="florin" unicode="&#x192;" horiz-adv-x="366" 
d="M364 729l-10 -59q-19 17 -38 17q-16 0 -26.5 -10.5t-13.5 -19.5t-7 -29l-36 -181h77l-9 -42h-76l-83 -424q-11 -55 -33 -84.5t-71 -29.5q-21 0 -50 11l11 59q19 -17 39 -17q35 0 46 59l84 426h-73l8 42h73q27 147 35 179q7 29 12.5 44.5t17 34t29.5 27t44 8.5
q29 0 50 -11z" />
    <glyph glyph-name="uni01CF" unicode="&#x1cf;" horiz-adv-x="171" 
d="M117 0h-62v667h62v-667zM199 821l-114 -107l-112 107l38 38l74 -69l74 69z" />
    <glyph glyph-name="uni01D0" unicode="&#x1d0;" horiz-adv-x="155" 
d="M106 0h-57v447h57v-447zM192 614l-114 -107l-112 107l38 38l74 -69l74 69z" />
    <glyph glyph-name="uni01DD" unicode="&#x1dd;" horiz-adv-x="315" 
d="M36 235h189v10q0 106 -33 140q-15 16 -40 16q-21 0 -37 -17q-20 -20 -28 -78l-54 22q9 55 40 91q30 35 78 35q47 0 79 -33q52 -55 52 -190q0 -153 -58 -210q-29 -28 -70 -28q-39 0 -68 29q-30 30 -42 91t-8 122zM224 187h-133q1 -35 9.5 -74.5t23.5 -54.5q13 -13 31 -13
q17 0 32 13q17 15 26.5 54t10.5 75z" />
    <glyph glyph-name="Gcaron" unicode="&#x1e6;" horiz-adv-x="374" 
d="M336 352v-134q0 -65 -5 -97q-9 -60 -44 -95t-93 -35q-78 0 -115 64q-41 71 -41 295q0 32 0.5 54.5t4 59.5t9.5 63t18 56t28.5 49t42.5 31.5t59 12.5q57 0 88 -33t47 -93l-61 -24q-17 90 -74 90q-99 0 -99 -243q0 -196 21 -257q22 -65 76 -65q26 0 42.5 13t23 37t8.5 42.5
t2 45.5v106h-91v57h153zM313 821l-114 -107l-112 107l38 38l74 -69l74 69z" />
    <glyph glyph-name="gcaron" unicode="&#x1e7;" horiz-adv-x="331" 
d="M281 447v-496q0 -131 -117 -131q-57 0 -86.5 33t-29.5 91q0 12 1 17h57q0 -42 11.5 -65t49.5 -23q20 0 32 7t17 21t6.5 26.5t1.5 32.5v72q-29 -32 -71 -32q-27 0 -47.5 11t-32.5 32.5t-19.5 42t-10.5 52t-3.5 49.5t-0.5 46q0 221 111 221q44 0 74 -38v31h57zM230 250
q0 158 -68 158q-40 0 -52.5 -53t-12.5 -143q0 -166 70 -166q52 0 60 96q3 37 3 108zM281 614l-114 -107l-112 107l38 38l74 -69l74 69z" />
    <glyph glyph-name="AEacute" unicode="&#x1fc;" horiz-adv-x="462" 
d="M471 0h-207l-22 137h-151l-24 -137h-66l131 667h222l11 -57h-143l42 -235h135l11 -57h-136l47 -261h141zM233 190l-47 282q-13 74 -15 123q-4 -20 -9.5 -60.5t-9.5 -61.5l-51 -283h132zM346 817l-115 -103l-35 26l96 120z" />
    <glyph glyph-name="aeacute" unicode="&#x1fd;" horiz-adv-x="508" 
d="M474 214h-197q0 -24 3 -48t10 -54t24 -48.5t41 -18.5q57 0 60 110h53q-1 -38 -12 -73t-38 -62t-66 -27q-62 0 -97 74q-15 -34 -43.5 -54t-64.5 -20q-58 0 -86 47t-28 110q0 61 27 104.5t85 43.5q51 0 80 -37v13q0 128 -87 128q-34 0 -78 -36v62q37 26 81 26q80 0 114 -75
q13 32 38.5 53.5t57.5 21.5q120 0 123 -240zM279 261h139q0 20 -3 41.5t-10 45t-22 39t-36 15.5q-26 0 -42.5 -28t-21 -57t-4.5 -56zM226 145q0 42 -16.5 74.5t-54.5 32.5q-67 0 -67 -102q0 -41 15 -72.5t52 -31.5t54 30t17 69zM369 610l-115 -103l-35 26l96 120z" />
    <glyph glyph-name="Scommaaccent" unicode="&#x218;" horiz-adv-x="326" 
d="M278 640v-78q-46 54 -99 54q-44 0 -70 -32t-26 -77q0 -42 23.5 -74.5t57 -55.5t67 -47t57 -62.5t23.5 -89.5q0 -75 -46.5 -131.5t-120.5 -56.5q-57 0 -105 35v80q52 -54 108 -54q46 0 73.5 35.5t27.5 83.5q0 42 -23.5 74t-57 54.5t-67 47t-57 63t-23.5 90.5
q0 72 42 124.5t112 52.5q54 0 104 -36zM210 -77l-72 -154l-39 19l53 163z" />
    <glyph glyph-name="scommaaccent" unicode="&#x219;" horiz-adv-x="249" 
d="M219 425v-69q-38 46 -77 46q-24 0 -39.5 -17t-15.5 -42q0 -24 15 -44.5t36 -37.5t42 -35.5t36 -46t15 -60.5q0 -53 -34 -89.5t-86 -36.5q-44 0 -83 31v66q42 -44 79 -44q29 0 47 20t18 49q0 24 -15 46.5t-36 40.5t-42 37.5t-36 45.5t-15 56q0 49 31 81t80 32q40 0 80 -29
zM184 -77l-72 -154l-39 19l53 163z" />
    <glyph glyph-name="Tcommaaccent" unicode="&#x21a;" horiz-adv-x="265" 
d="M263 610h-100v-610h-62v610h-100v57h262v-57zM181 -77l-72 -154l-39 19l53 163z" />
    <glyph glyph-name="tcommaaccent" unicode="&#x21b;" horiz-adv-x="199" 
d="M198 395h-75v-395h-56v395h-48v52h48v127h56v-127h75v-52zM146 -77l-72 -154l-39 19l53 163z" />
    <glyph glyph-name="uni0228" unicode="&#x228;" horiz-adv-x="301" 
d="M263 0h-208v667h208v-57h-146v-235h142v-57h-142v-261h146v-57zM204 -62l-77 -123l-36 21l67 127z" />
    <glyph glyph-name="uni0229" unicode="&#x229;" horiz-adv-x="313" 
d="M219 152h57q-7 -159 -113 -159q-130 0 -130 229q0 37 5 71.5t17 73.5t39 63t65 24q37 0 63 -21.5t37.5 -57t16 -68t4.5 -67.5q0 -4 -0.5 -14t-0.5 -14h-189v-10q0 -22 2.5 -44t9 -50t22 -45t37.5 -17q55 0 58 106zM91 260h133q-7 142 -64 142q-62 0 -69 -142zM211 -62
l-77 -123l-36 21l67 127z" />
    <glyph glyph-name="uni0237" unicode="&#x237;" horiz-adv-x="159" 
d="M110 -180h-58v627h58v-627z" />
    <glyph glyph-name="uni0259" unicode="&#x259;" horiz-adv-x="315" 
d="M36 235h189v10q0 106 -33 140q-15 16 -40 16q-21 0 -37 -17q-20 -20 -28 -78l-54 22q9 55 40 91q30 35 78 35q47 0 79 -33q52 -55 52 -190q0 -153 -58 -210q-29 -28 -70 -28q-39 0 -68 29q-30 30 -42 91t-8 122zM224 187h-133q1 -35 9.5 -74.5t23.5 -54.5q13 -13 31 -13
q17 0 32 13q17 15 26.5 54t10.5 75z" />
    <glyph glyph-name="afii57929" unicode="&#x2bc;" horiz-adv-x="196" 
d="M162 648l-74 -164l-39 19l55 173z" />
    <glyph glyph-name="circumflex" unicode="&#x2c6;" 
d="M363 545l-40 -38l-74 69l-74 -69l-38 38l112 107z" />
    <glyph glyph-name="caron" unicode="&#x2c7;" 
d="M363 614l-114 -107l-112 107l38 38l74 -69l74 69z" />
    <glyph glyph-name="uni02C9" unicode="&#x2c9;" 
d="M362 520h-224v55h224v-55z" />
    <glyph glyph-name="breve" unicode="&#x2d8;" 
d="M325 599h48q-5 -46 -40 -69t-83 -23t-83 23t-40 69h48q17 -41 75 -41t75 41z" />
    <glyph glyph-name="dotaccent" unicode="&#x2d9;" 
d="M296 559q0 -19 -13.5 -32.5t-32.5 -13.5t-32 13.5t-13 32.5t13 32t32 13t32.5 -13t13.5 -32z" />
    <glyph glyph-name="ring" unicode="&#x2da;" horiz-adv-x="499" 
d="M330 587q0 -33 -23.5 -56.5t-56.5 -23.5t-56.5 23.5t-23.5 56.5t23.5 56.5t56.5 23.5t56.5 -23.5t23.5 -56.5zM290 587q0 17 -12 28.5t-28 11.5t-28 -11.5t-12 -28.5t12 -28.5t28 -11.5t28 11.5t12 28.5z" />
    <glyph glyph-name="ogonek" unicode="&#x2db;" horiz-adv-x="497" 
d="M330 -95v-48q-21 -9 -45 -9q-36 0 -60 22q-18 18 -18 44q0 22 11 46q10 21 24 40h45q-11 -16 -21 -34q-10 -22 -10 -37t10 -24q9 -8 26 -8q22 0 38 8z" />
    <glyph glyph-name="tilde" unicode="&#x2dc;" 
d="M308 595h57q-2 -33 -19.5 -57.5t-48.5 -24.5q-19 0 -49.5 17t-40.5 17q-16 0 -16 -25h-56q3 33 21 55t49 22q17 0 47 -16t39 -16q17 0 17 28z" />
    <glyph glyph-name="hungarumlaut" unicode="&#x2dd;" 
d="M388 623l-70 -116l-37 13l51 125zM285 623l-69 -116l-37 13l50 125z" />
    <glyph glyph-name="acutecomb" unicode="&#x301;" horiz-adv-x="2" 
d="M-59 610l-115 -103l-35 26l96 120z" />
    <glyph glyph-name="uni0394" unicode="&#x394;" horiz-adv-x="667" 
d="M636 0h-605l271 667h61zM554 52l-221 546l-221 -546h442z" />
    <glyph glyph-name="uni0394" unicode="&#x2206;" horiz-adv-x="667" 
d="M636 0h-605l271 667h61zM554 52l-221 546l-221 -546h442z" />
    <glyph glyph-name="uni03A9" unicode="&#x3a9;" horiz-adv-x="667" 
d="M638 0h-258v47q200 111 200 309q0 109 -69 192.5t-176 83.5q-111 0 -179.5 -82t-68.5 -195q0 -197 200 -308v-47h-259v51h191q-191 111 -191 310q0 133 86.5 227.5t218.5 94.5t218.5 -94.5t86.5 -227.5q0 -201 -191 -310h191v-51z" />
    <glyph glyph-name="uni03A9" unicode="&#x2126;" horiz-adv-x="667" 
d="M638 0h-258v47q200 111 200 309q0 109 -69 192.5t-176 83.5q-111 0 -179.5 -82t-68.5 -195q0 -197 200 -308v-47h-259v51h191q-191 111 -191 310q0 133 86.5 227.5t218.5 94.5t218.5 -94.5t86.5 -227.5q0 -201 -191 -310h191v-51z" />
    <glyph glyph-name="pi" unicode="&#x3c0;" horiz-adv-x="556" 
d="M531 396h-72v-396h-57v396h-246v-396h-57v396h-74v51h506v-51z" />
    <glyph glyph-name="afii10023" unicode="&#x401;" horiz-adv-x="299" 
d="M261 0h-208v667h208v-57h-146v-235h142v-57h-142v-261h146v-57zM258 753q0 -18 -12.5 -30.5t-29.5 -12.5t-29.5 12.5t-12.5 30.5q0 17 12.5 29t29.5 12t29.5 -12t12.5 -29zM138 753q0 -18 -12.5 -30.5t-29.5 -12.5t-29.5 12.5t-12.5 30.5q0 17 12.5 29t29.5 12t29.5 -12
t12.5 -29z" />
    <glyph glyph-name="afii10051" unicode="&#x402;" horiz-adv-x="439" 
d="M340 610h-158v-219q38 14 75 14q62 0 103 -39q51 -51 51 -171q0 -131 -53 -179q-30 -28 -79 -28q-37 0 -70 18l19 59q21 -17 46 -17q29 0 45 18q29 32 29 122q0 104 -36 138q-24 22 -63 22q-35 0 -67 -17v-331h-62v610h-100v57h320v-57z" />
    <glyph glyph-name="afii10052" unicode="&#x403;" horiz-adv-x="295" 
d="M267 610h-150v-610h-62v667h212v-57zM270 817l-115 -103l-35 26l96 120z" />
    <glyph glyph-name="afii10053" unicode="&#x404;" horiz-adv-x="338" 
d="M314 100v-76q-39 -33 -92 -33q-61 0 -100 36q-47 45 -67 140q-17 75 -17 182q0 205 75 282q43 45 106 45q50 0 95 -32v-77q-36 49 -85 49q-39 0 -66 -27q-33 -33 -48 -102q-12 -53 -12 -112h168v-57h-169q2 -77 15 -137q18 -76 46 -105q24 -25 60 -25q52 0 91 49z" />
    <glyph glyph-name="afii10054" unicode="&#x405;" horiz-adv-x="326" 
d="M278 640v-78q-46 54 -99 54q-44 0 -70 -32t-26 -77q0 -42 23.5 -74.5t57 -55.5t67 -47t57 -62.5t23.5 -89.5q0 -75 -46.5 -131.5t-120.5 -56.5q-57 0 -105 35v80q52 -54 108 -54q46 0 73.5 35.5t27.5 83.5q0 42 -23.5 74t-57 54.5t-67 47t-57 63t-23.5 90.5
q0 72 42 124.5t112 52.5q54 0 104 -36z" />
    <glyph glyph-name="afii10055" unicode="&#x406;" horiz-adv-x="171" 
d="M117 0h-62v667h62v-667z" />
    <glyph glyph-name="afii10056" unicode="&#x407;" horiz-adv-x="171" 
d="M117 0h-62v667h62v-667zM160 764q0 -18 -9.5 -31t-22.5 -13t-21.5 13t-8.5 31t8.5 30.5t21.5 12.5t22.5 -12.5t9.5 -30.5zM74 764q0 -18 -9 -31t-22 -13t-22.5 13t-9.5 31t9.5 30.5t22.5 12.5t22 -12.5t9 -30.5z" />
    <glyph glyph-name="afii10057" unicode="&#x408;" horiz-adv-x="224" 
d="M169 667v-571q0 -19 -1 -29q-7 -77 -95 -77q-34 0 -72 18v64q33 -28 62 -28q20 0 30.5 11.5t12 23t1.5 32.5v556h62z" />
    <glyph glyph-name="afii10058" unicode="&#x409;" horiz-adv-x="582" 
d="M352 378h37q73 0 114 -40q49 -48 49 -149q0 -116 -56 -161q-35 -28 -107 -28h-99v610h-134v-344q0 -98 -6 -147q-9 -69 -39 -100q-25 -25 -65 -25q-24 0 -42 10v65q16 -15 36 -15q21 0 34 16q16 19 20 69q4 52 4 101v427h254v-289zM352 53h33q50 0 73 23q30 30 30 103
q0 88 -35 119q-25 23 -71 23h-30v-268z" />
    <glyph glyph-name="afii10059" unicode="&#x40a;" horiz-adv-x="557" 
d="M327 667v-284h37q73 0 114 -40q49 -48 49 -149q0 -122 -56 -166q-35 -28 -107 -28h-99v326h-148v-326h-62v667h62v-284h148v284h62zM327 53h33q50 0 73 23q30 30 30 108q0 86 -35 119q-25 23 -71 23h-30v-273z" />
    <glyph glyph-name="afii10060" unicode="&#x40b;" horiz-adv-x="439" 
d="M120 0v610h-100v57h320v-57h-158v-219q42 14 78 14q64 0 99 -28q25 -21 32.5 -52.5t7.5 -81.5v-243h-63v240q0 70 -23 90q-21 18 -62 18q-37 0 -69 -17v-331h-62z" />
    <glyph glyph-name="afii10061" unicode="&#x40c;" horiz-adv-x="329" 
d="M321 0h-70l-134 336v-336h-62v667h62v-303l134 303h69l-144 -318zM280 817l-115 -103l-35 26l96 120z" />
    <glyph glyph-name="afii10062" unicode="&#x40e;" horiz-adv-x="341" 
d="M8 667h68l64 -211q24 -77 39 -143q12 62 34 145l56 209h64l-188 -667h-62l64 224zM240 806l53 -22q-12 -39 -46 -62q-30 -19 -73 -19q-44 0 -73 19q-36 23 -46 62l53 22q6 -24 24 -37q15 -12 42 -12q26 0 42 12t24 37z" />
    <glyph glyph-name="afii10145" unicode="&#x40f;" horiz-adv-x="382" 
d="M327 667v-667h-105v-130h-62v130h-105v667h62v-610h148v610h62z" />
    <glyph glyph-name="afii10017" unicode="&#x410;" horiz-adv-x="325" 
d="M324 0h-66l-25 137h-141l-25 -137h-66l132 667h58zM223 191l-44 235q-14 75 -19 157q-7 -104 -58 -392h121z" />
    <glyph glyph-name="afii10018" unicode="&#x411;" horiz-adv-x="344" 
d="M55 667h224v-57h-162v-232h40q70 0 109 -39q48 -48 48 -150q0 -117 -56 -161q-35 -28 -107 -28h-96v667zM117 53h30q49 0 73 23q30 29 30 106q0 84 -33 116q-23 23 -72 23h-28v-268z" />
    <glyph glyph-name="afii10019" unicode="&#x412;" horiz-adv-x="351" 
d="M55 667h97q67 0 98 -23q51 -38 51 -147q0 -56 -18 -94.5t-64 -60.5q59 -16 78.5 -55.5t19.5 -108.5q0 -107 -55 -150q-36 -28 -105 -28h-102v667zM117 372h33q55 0 71.5 31t16.5 91q0 29 -2 46t-9 36t-25 28t-46 9h-39v-241zM117 53h33q59 0 81 32t22 95q0 137 -100 137
h-36v-264z" />
    <glyph glyph-name="afii10020" unicode="&#x413;" horiz-adv-x="295" 
d="M267 610h-150v-610h-62v667h212v-57z" />
    <glyph glyph-name="afii10021" unicode="&#x414;" horiz-adv-x="407" 
d="M96 667h249v-610h52v-187h-62v130h-273v-130h-58v187q39 24 62 64q14 25 21 60t8 59t1 68v359zM154 610v-259q0 -143 -17 -202q-17 -54 -53 -92h199v553h-129z" />
    <glyph glyph-name="afii10022" unicode="&#x415;" horiz-adv-x="301" 
d="M263 0h-208v667h208v-57h-146v-235h142v-57h-142v-261h146v-57z" />
    <glyph glyph-name="afii10024" unicode="&#x416;" horiz-adv-x="466" 
d="M462 0h-66l-132 336v-336h-62v336l-132 -336h-66l143 349l-138 318h65l128 -303v303h62v-303l128 303h65l-138 -318z" />
    <glyph glyph-name="afii10025" unicode="&#x417;" horiz-adv-x="349" 
d="M101 370h17q51 0 78 26q31 29 31 92q0 64 -27 96q-26 30 -68 30q-34 0 -59 -19q-19 -14 -35 -38v85q45 34 104 34q68 0 106 -42q44 -47 44 -132q0 -68 -23 -105q-20 -34 -59 -50q42 -7 69 -37q36 -40 36 -110q0 -110 -56 -166q-43 -43 -113 -43q-68 0 -116 37v87
q41 -62 109 -62q50 0 78 34q30 36 30 101q0 66 -35 98q-29 27 -91 27h-20v57z" />
    <glyph glyph-name="afii10026" unicode="&#x418;" horiz-adv-x="393" 
d="M55 0v667h62v-452q0 -29 -6 -84q5 18 10 35.5t8 27t6 18.5l142 455h62v-667h-62v431q0 27 6 105q-13 -51 -27 -94l-139 -442h-62z" />
    <glyph glyph-name="afii10027" unicode="&#x419;" horiz-adv-x="393" 
d="M55 0v667h62v-452q0 -29 -6 -84q5 18 10 35.5t8 27t6 18.5l142 455h62v-667h-62v431q0 27 6 105q-13 -51 -27 -94l-139 -442h-62zM263 807l53 -22q-12 -39 -46 -62q-30 -19 -73 -19q-44 0 -73 19q-36 23 -46 62l53 22q6 -24 24 -37q15 -12 42 -12q26 0 42 12t24 37z" />
    <glyph glyph-name="afii10028" unicode="&#x41a;" horiz-adv-x="329" 
d="M321 0h-70l-134 336v-336h-62v667h62v-303l134 303h69l-144 -318z" />
    <glyph glyph-name="afii10029" unicode="&#x41b;" horiz-adv-x="408" 
d="M98 667h256v-667h-62v610h-136v-344q0 -98 -6 -147q-9 -69 -39 -100q-25 -25 -65 -25q-24 0 -42 10v65q16 -15 36 -15q21 0 34 16q16 19 20 69q4 52 4 101v427z" />
    <glyph glyph-name="afii10030" unicode="&#x41c;" horiz-adv-x="499" 
d="M478 0h-61l-47 433q-2 18 -3 38t-1.5 45t-1.5 38q-3 -57 -14 -121l-74 -433h-51q-8 49 -26.5 155t-31 187t-21.5 156q-1 10 -2 28.5t-2 27.5v-23q0 -49 -6 -97l-54 -434h-61l94 667h53l72 -458q12 -82 13 -105q3 52 12 103l78 460h53z" />
    <glyph glyph-name="afii10031" unicode="&#x41d;" horiz-adv-x="385" 
d="M331 0h-62v344h-152v-344h-62v667h62v-266h152v266h62v-667z" />
    <glyph glyph-name="afii10032" unicode="&#x41e;" horiz-adv-x="404" 
d="M366 336q0 -38 -1 -65.5t-5.5 -72.5t-15.5 -77.5t-28 -64t-46 -48.5t-67 -17q-165 0 -165 342q0 343 164 343t164 -340zM303 358q0 258 -100 258q-102 0 -102 -282q0 -283 102 -283q80 0 94 155q6 60 6 152z" />
    <glyph glyph-name="afii10033" unicode="&#x41f;" horiz-adv-x="379" 
d="M325 0h-62v610h-146v-610h-62v667h270v-667z" />
    <glyph glyph-name="afii10034" unicode="&#x420;" horiz-adv-x="329" 
d="M55 667h80q97 0 133 -43t36 -142q0 -88 -37 -125.5t-125 -37.5h-25v-319h-62v667zM117 376h41q28 0 45.5 9t25.5 27.5t10 36t2 45.5q0 59 -19 87.5t-75 28.5h-30v-234z" />
    <glyph glyph-name="afii10035" unicode="&#x421;" horiz-adv-x="320" 
d="M302 81v-62q-43 -28 -87 -28q-72 0 -120 65q-57 78 -57 260q0 360 184 360q46 0 80 -21v-68q-44 29 -77 29q-124 0 -124 -280q0 -181 44 -244q28 -41 75 -41q37 0 82 30z" />
    <glyph glyph-name="afii10036" unicode="&#x422;" horiz-adv-x="265" 
d="M263 610h-100v-610h-62v610h-100v57h262v-57z" />
    <glyph glyph-name="afii10037" unicode="&#x423;" horiz-adv-x="341" 
d="M8 667h68l64 -211q24 -77 39 -143q12 62 34 145l56 209h64l-188 -667h-62l64 224z" />
    <glyph glyph-name="afii10038" unicode="&#x424;" horiz-adv-x="510" 
d="M224 0v84q-76 4 -126 53q-68 66 -68 220q0 148 69 215q49 48 125 52v70h62v-70q76 -4 125 -52q69 -65 69 -209q0 -156 -68 -224q-50 -48 -126 -55v-84h-62zM284 567v-426q54 2 88 37q48 48 48 181q0 123 -51 173q-32 32 -85 35zM226 141v426q-53 -3 -85 -35
q-51 -50 -51 -174q0 -127 48 -179q33 -37 88 -38z" />
    <glyph glyph-name="afii10039" unicode="&#x425;" horiz-adv-x="318" 
d="M317 0h-66l-66 189q-17 49 -26 95q-9 -41 -28 -97l-63 -187h-67l130 339l-130 328h67l59 -165q22 -60 32 -117q6 39 32 113l60 169h66l-127 -328z" />
    <glyph glyph-name="afii10040" unicode="&#x426;" horiz-adv-x="395" 
d="M327 667v-610h54v-187h-62v130h-264v667h62v-610h148v610h62z" />
    <glyph glyph-name="afii10041" unicode="&#x427;" horiz-adv-x="374" 
d="M320 667v-667h-62v337q-35 -8 -74 -8q-66 0 -99 28q-25 21 -32.5 52.5t-7.5 81.5v176h63v-169q0 -75 22 -95q19 -17 66 -17q33 0 62 7v274h62z" />
    <glyph glyph-name="afii10042" unicode="&#x428;" horiz-adv-x="584" 
d="M55 667h62v-610h144v610h62v-610h144v610h62v-667h-474v667z" />
    <glyph glyph-name="afii10043" unicode="&#x429;" horiz-adv-x="603" 
d="M55 667h62v-610h144v610h62v-610h144v610h62v-610h60v-187h-62v130h-472v667z" />
    <glyph glyph-name="afii10044" unicode="&#x42a;" horiz-adv-x="380" 
d="M150 667v-289h37q73 0 114 -40q49 -48 49 -149q0 -116 -56 -161q-35 -28 -107 -28h-99v610h-86v57h148zM150 53h33q50 0 73 23q30 30 30 103q0 88 -35 119q-25 23 -71 23h-30v-268z" />
    <glyph glyph-name="afii10045" unicode="&#x42b;" horiz-adv-x="483" 
d="M429 0h-62v667h62v-667zM117 667v-289h37q73 0 114 -40q49 -48 49 -149q0 -116 -56 -161q-35 -28 -107 -28h-99v667h62zM117 53h33q50 0 73 23q30 30 30 103q0 88 -35 119q-25 23 -71 23h-30v-268z" />
    <glyph glyph-name="afii10046" unicode="&#x42c;" horiz-adv-x="347" 
d="M117 667v-289h37q73 0 114 -40q49 -48 49 -149q0 -116 -56 -161q-35 -28 -107 -28h-99v667h62zM117 53h33q50 0 73 23q30 30 30 103q0 88 -35 119q-25 23 -71 23h-30v-268z" />
    <glyph glyph-name="afii10047" unicode="&#x42d;" horiz-adv-x="332" 
d="M18 24v76q39 -49 91 -49q36 0 60 25q28 29 46 105q13 60 15 137h-169v57h168q0 59 -12 112q-15 69 -48 102q-27 27 -66 27q-49 0 -85 -49v77q45 32 95 32q63 0 106 -45q75 -77 75 -280q0 -104 -17 -182q-21 -99 -67 -142q-39 -36 -100 -36q-53 0 -92 33z" />
    <glyph glyph-name="afii10048" unicode="&#x42e;" horiz-adv-x="568" 
d="M202 344h-85v-344h-62v667h62v-266h87q0 60 15.5 130t56.5 109q38 36 90 36t90 -36q74 -72 74 -306q0 -235 -74 -307q-38 -36 -90 -36t-90 36q-74 72 -74 307v10zM265 333q0 -60 2 -98t13.5 -88.5t34.5 -73.5q22 -22 51 -22t51 22q50 52 50 260q0 209 -50 261
q-22 22 -51 22t-51 -22q-23 -23 -34.5 -73.5t-13.5 -89t-2 -98.5z" />
    <glyph glyph-name="afii10049" unicode="&#x42f;" horiz-adv-x="357" 
d="M16 0l148 314q-53 0 -90 36q-42 40 -42 133q0 101 43 144q39 40 128 40h100v-667h-68v320l-148 -320h-71zM235 369v241h-36q-52 0 -74 -22q-27 -27 -27 -103q0 -69 30 -96q22 -20 63 -20h44z" />
    <glyph glyph-name="afii10065" unicode="&#x430;" horiz-adv-x="327" 
d="M277 0h-57v36q-32 -43 -76 -43q-29 0 -50 16.5t-31.5 38t-16 56t-6.5 57t-1 54.5q0 36 1 60.5t7 61.5t17 60t32.5 40t52.5 17q41 0 71 -37v30h57v-447zM226 226q0 40 -2 67.5t-7.5 56.5t-19 44t-34.5 15q-66 0 -66 -159q0 -72 3 -108q2 -22 4.5 -34t8.5 -31t18.5 -28.5
t30.5 -9.5q22 0 36 15q28 28 28 172z" />
    <glyph glyph-name="afii10066" unicode="&#x431;" horiz-adv-x="334" 
d="M98 398q11 26 33 41t49 15q37 0 67 -28q51 -48 51 -206q0 -148 -53 -199q-29 -28 -75 -28t-75 28q-34 33 -44.5 91t-10.5 150q0 90 8 175q9 90 36 131q26 41 88 67q51 21 60 29q15 12 15 36h53q0 -49 -27 -76q-21 -21 -69 -40q-44 -17 -62 -37q-44 -45 -44 -149zM170 401
q-18 0 -34 -14q-36 -34 -36 -164q0 -128 36 -163q14 -14 34 -14t34 14q36 35 36 163q0 122 -31 159q-16 19 -39 19z" />
    <glyph glyph-name="afii10067" unicode="&#x432;" horiz-adv-x="304" 
d="M50 447h89q63 0 92 -30q29 -29 29 -85q0 -48 -29 -76q-12 -12 -33 -22q30 -7 48 -25q28 -27 28 -84q0 -63 -30 -93q-32 -32 -91 -32h-103v447zM106 259h23q42 0 58 16q15 15 15 53q0 39 -15 53t-49 14h-32v-136zM106 52h27q45 0 62 16q19 17 19 56q0 42 -21 63
q-20 19 -60 19h-27v-154z" />
    <glyph glyph-name="afii10068" unicode="&#x433;" horiz-adv-x="246" 
d="M50 0v447h181v-52h-125v-395h-56z" />
    <glyph glyph-name="afii10069" unicode="&#x434;" horiz-adv-x="332" 
d="M74 447h209v-395h41v-156h-53v104h-216v-104h-53v156q38 19 56 60q16 36 16 110v225zM227 52v343h-101v-169q0 -67 -9 -100q-11 -42 -43 -74h153z" />
    <glyph glyph-name="afii10070" unicode="&#x435;" horiz-adv-x="313" 
d="M219 152h57q-7 -159 -113 -159q-130 0 -130 229q0 37 5 71.5t17 73.5t39 63t65 24q37 0 63 -21.5t37.5 -57t16 -68t4.5 -67.5q0 -4 -0.5 -14t-0.5 -14h-189v-10q0 -22 2.5 -44t9 -50t22 -45t37.5 -17q55 0 58 106zM91 260h133q-7 142 -64 142q-62 0 -69 -142z" />
    <glyph glyph-name="afii10072" unicode="&#x436;" horiz-adv-x="421" 
d="M419 0h-65l-115 205v-205h-57v205l-115 -205h-65l135 233l-127 214h61l111 -195v195h57v-195l111 195h61l-127 -214z" />
    <glyph glyph-name="afii10073" unicode="&#x437;" horiz-adv-x="279" 
d="M176 231q27 -7 46 -25q32 -29 32 -83q0 -59 -41 -98q-35 -32 -89 -32t-94 35v72q18 -23 37 -38q23 -16 49 -16q37 0 56 21q20 22 20 55q0 43 -24 62q-19 16 -66 16h-17v54h19q35 0 56 16q21 17 21 55t-18 57q-17 19 -48 19q-27 0 -48 -18q-16 -14 -32 -37v72q36 36 87 36
q52 0 83 -31q33 -34 33 -90q0 -43 -19 -69q-16 -21 -43 -33z" />
    <glyph glyph-name="afii10074" unicode="&#x438;" horiz-adv-x="336" 
d="M286 0h-56v278q0 19 2 64q-7 -31 -21 -67l-105 -275h-56v447h56v-276q0 -37 -2 -69q9 33 21 66l105 279h56v-447z" />
    <glyph glyph-name="afii10075" unicode="&#x439;" horiz-adv-x="336" 
d="M286 0h-56v278q0 19 2 64q-7 -31 -21 -67l-105 -275h-56v447h56v-276q0 -37 -2 -69q9 33 21 66l105 279h56v-447zM228 597l47 -23q-12 -36 -41 -56q-25 -18 -66 -18t-66 18q-29 20 -41 56l47 23q4 -22 21 -36q13 -11 40 -11q25 0 38 11q16 12 21 36z" />
    <glyph glyph-name="afii10076" unicode="&#x43a;" horiz-adv-x="306" 
d="M106 447v-195l119 195h65l-135 -215l149 -232h-69l-129 205v-205h-56v447h56z" />
    <glyph glyph-name="afii10077" unicode="&#x43b;" horiz-adv-x="340" 
d="M290 447v-447h-56v395h-103v-190q0 -49 -4 -93q-6 -64 -35 -93q-24 -23 -59 -23q-13 0 -29 4v58q9 -9 24 -9q16 0 27 11q23 24 23 123v264h212z" />
    <glyph glyph-name="afii10078" unicode="&#x43c;" horiz-adv-x="408" 
d="M229 0h-50l-58 270q-7 29 -12 70q-1 -24 -7 -72l-31 -268h-53l62 447h50l61 -283q10 -45 13 -80q3 35 13 80l61 283h50l62 -447h-53l-31 268q-6 48 -7 72q-3 -32 -12 -70z" />
    <glyph glyph-name="afii10079" unicode="&#x43d;" horiz-adv-x="330" 
d="M280 0h-56v209h-118v-209h-56v447h56v-186h118v186h56v-447z" />
    <glyph glyph-name="afii10080" unicode="&#x43e;" horiz-adv-x="323" 
d="M289 221q0 -228 -125 -228q-41 0 -69 23t-40.5 61t-17 73t-4.5 74q0 30 2.5 57.5t10.5 60.5t22 56.5t38.5 39.5t57.5 16q125 0 125 -233zM231 224q0 178 -68 178q-71 0 -71 -183q0 -173 71 -173q68 0 68 178z" />
    <glyph glyph-name="afii10081" unicode="&#x43f;" horiz-adv-x="326" 
d="M276 0h-56v395h-114v-395h-56v447h226v-447z" />
    <glyph glyph-name="afii10082" unicode="&#x440;" horiz-adv-x="321" 
d="M106 447v-30q28 37 71 37q26 0 46 -10t31.5 -30.5t19 -39.5t10.5 -49t3.5 -47.5t0.5 -45.5q0 -48 -2.5 -80t-11.5 -73.5t-32 -63.5t-59 -22q-42 0 -77 43v-216h-56v627h56zM230 247q0 162 -66 162q-21 0 -34.5 -15t-19 -44t-7.5 -56.5t-2 -67.5q0 -144 28 -172
q14 -15 36 -15q18 0 30.5 9.5t18.5 28.5t8.5 31t4.5 34q3 35 3 105z" />
    <glyph glyph-name="afii10083" unicode="&#x441;" horiz-adv-x="246" 
d="M226 86v-70q-30 -23 -64 -23q-37 0 -64 23t-40 59.5t-19 71.5t-6 69q0 38 5 74t18 76t41 64t68 24q32 0 61 -17v-66q-29 31 -56 31q-25 0 -42 -20t-24 -52.5t-9.5 -58t-2.5 -50.5q0 -23 3 -48.5t10 -56.5t23.5 -50.5t40.5 -19.5q30 0 57 40z" />
    <glyph glyph-name="afii10084" unicode="&#x442;" horiz-adv-x="245" 
d="M237 395h-86v-395h-57v395h-86v52h229v-52z" />
    <glyph glyph-name="afii10085" unicode="&#x443;" horiz-adv-x="289" 
d="M283 447l-160 -627h-60l50 192l-106 435h57l56 -248q13 -54 21 -112q3 23 18 84l65 276h59z" />
    <glyph glyph-name="afii10086" unicode="&#x444;" horiz-adv-x="413" 
d="M178 -180v173q-52 2 -91 41q-59 59 -59 194q0 128 55 183q38 38 95 43v213h57v-213q56 -4 95 -43q55 -54 55 -183q0 -69 -13 -113.5t-46 -78.5q-39 -40 -91 -43v-173h-57zM233 402v-356q36 1 58 25q40 40 40 160q0 109 -38 146q-24 24 -60 25zM180 46v356q-36 -1 -60 -25
q-38 -37 -38 -150q0 -117 42 -158q24 -23 56 -23z" />
    <glyph glyph-name="afii10087" unicode="&#x445;" horiz-adv-x="279" 
d="M272 0h-63l-49 127q-19 51 -22 66q-4 -24 -20 -67l-48 -126h-63l102 229l-91 218h62q5 -13 21.5 -57t26 -73.5t15.5 -58.5q4 19 9 38t13 40.5t13 35t16 40t15 35.5h63l-100 -218z" />
    <glyph glyph-name="afii10088" unicode="&#x446;" horiz-adv-x="337" 
d="M277 447v-395h50v-156h-56v104h-221v447h56v-395h115v395h56z" />
    <glyph glyph-name="afii10089" unicode="&#x447;" horiz-adv-x="308" 
d="M202 0v211q-27 -9 -61 -9q-52 0 -81 25q-30 27 -30 103v117h56v-123q0 -41 15 -55t48 -14q25 0 53 8v184h56v-447h-56z" />
    <glyph glyph-name="afii10090" unicode="&#x448;" horiz-adv-x="501" 
d="M279 447v-395h116v395h56v-447h-401v447h56v-395h116v395h57z" />
    <glyph glyph-name="afii10091" unicode="&#x449;" horiz-adv-x="512" 
d="M279 447v-395h116v395h57v-395h54v-156h-56v104h-400v447h56v-395h117v395h56z" />
    <glyph glyph-name="afii10092" unicode="&#x44a;" horiz-adv-x="341" 
d="M97 0v395h-89v52h145v-171h20q71 0 109 -36q39 -37 39 -109q0 -65 -32 -98t-96 -33h-96zM153 52h32q41 0 58 16q21 19 21 66q0 43 -20 66q-22 26 -66 26h-25v-174z" />
    <glyph glyph-name="afii10093" unicode="&#x44b;" horiz-adv-x="425" 
d="M375 0h-56v447h56v-447zM50 0v447h56v-171h20q72 0 110 -36t38 -110q0 -65 -31 -97q-32 -33 -97 -33h-96zM106 52h32q41 0 58 16q21 19 21 68q0 41 -20 64q-22 26 -66 26h-25v-174z" />
    <glyph glyph-name="afii10094" unicode="&#x44c;" horiz-adv-x="293" 
d="M50 0v447h56v-171h19q72 0 110 -36t38 -109q0 -66 -31 -98q-32 -33 -97 -33h-95zM106 52h31q42 0 59 16q20 19 20 69q0 41 -19 63q-22 26 -67 26h-24v-174z" />
    <glyph glyph-name="afii10095" unicode="&#x44d;" horiz-adv-x="280" 
d="M36 19v72q11 -20 28 -32q17 -13 40 -13q26 0 43 19q38 40 38 144h-117v52h116q-5 92 -38 123q-18 18 -44 18q-21 0 -39 -14q-17 -13 -27 -29v70q32 25 74 25q47 0 79 -32q57 -56 57 -189q0 -152 -62 -211q-32 -29 -76 -29q-39 0 -72 26z" />
    <glyph glyph-name="afii10096" unicode="&#x44e;" horiz-adv-x="453" 
d="M107 261h57q5 118 52 165q29 28 75 28q45 0 74 -28q54 -52 54 -202t-54 -203q-29 -28 -73 -28q-47 0 -76 28q-53 52 -53 189h-56v-210h-57v447h57v-186zM290 402q-19 0 -33 -14q-37 -37 -37 -164t37 -164q14 -14 33 -14q20 0 34 14q36 41 36 164t-36 164q-14 14 -34 14z
" />
    <glyph glyph-name="afii10097" unicode="&#x44f;" horiz-adv-x="296" 
d="M20 0l110 187q-45 2 -76 31q-32 32 -32 90q0 66 38 104q36 35 110 35h76v-447h-56v185l-104 -185h-66zM190 234v161h-29q-40 0 -58 -18q-21 -21 -21 -67q0 -39 20 -59q18 -17 56 -17h32z" />
    <glyph glyph-name="afii10071" unicode="&#x451;" horiz-adv-x="313" 
d="M219 152h57q-7 -159 -113 -159q-130 0 -130 229q0 37 5 71.5t17 73.5t39 63t65 24q37 0 63 -21.5t37.5 -57t16 -68t4.5 -67.5q0 -4 -0.5 -14t-0.5 -14h-189v-10q0 -22 2.5 -44t9 -50t22 -45t37.5 -17q55 0 58 106zM91 260h133q-7 142 -64 142q-62 0 -69 -142zM263 558
q0 -18 -12.5 -31t-30.5 -13t-30 13t-12 31q0 17 12 29.5t30 12.5t30.5 -12.5t12.5 -29.5zM136 558q0 -18 -12 -31t-30 -13t-30.5 13t-12.5 31q0 17 12.5 29.5t30.5 12.5t30 -12.5t12 -29.5z" />
    <glyph glyph-name="afii10099" unicode="&#x452;" horiz-adv-x="340" 
d="M59 729h56v-145h104v-52h-104v-145q16 17 36 29q25 14 54 14q37 0 60 -23q25 -27 25 -92v-357q0 -85 -35 -117q-23 -21 -59 -21q-23 0 -43 10v57q15 -11 33 -11q20 0 32 10q16 14 16 72v341q0 53 -14 70q-13 15 -35 15q-28 0 -47 -19q-23 -24 -23 -88v-277h-56v532h-49
v52h49v145z" />
    <glyph glyph-name="afii10100" unicode="&#x453;" horiz-adv-x="246" 
d="M50 0v447h181v-52h-125v-395h-56zM239 610l-115 -103l-35 26l96 120z" />
    <glyph glyph-name="afii10101" unicode="&#x454;" horiz-adv-x="280" 
d="M244 91v-72q-33 -26 -72 -26q-44 0 -76 29q-62 58 -62 203q0 141 57 197q32 32 79 32q42 0 74 -25v-70q-10 16 -27 29q-18 14 -39 14q-26 0 -44 -18q-38 -38 -38 -123h116v-52h-117q0 -103 38 -144q17 -19 43 -19q23 0 40 13q17 12 28 32z" />
    <glyph glyph-name="afii10102" unicode="&#x455;" horiz-adv-x="249" 
d="M219 425v-69q-38 46 -77 46q-24 0 -39.5 -17t-15.5 -42q0 -24 15 -44.5t36 -37.5t42 -35.5t36 -46t15 -60.5q0 -53 -34 -89.5t-86 -36.5q-44 0 -83 31v66q42 -44 79 -44q29 0 47 20t18 49q0 24 -15 46.5t-36 40.5t-42 37.5t-36 45.5t-15 56q0 49 31 81t80 32q40 0 80 -29
z" />
    <glyph glyph-name="afii10103" unicode="&#x456;" horiz-adv-x="155" 
d="M119 587q0 -17 -12 -29t-29 -12t-29.5 12t-12.5 29q0 18 12 30.5t30 12.5q17 0 29 -13t12 -30zM106 0h-57v447h57v-447z" />
    <glyph glyph-name="afii10104" unicode="&#x457;" horiz-adv-x="155" 
d="M106 0h-57v447h57v-447zM147 588q0 -18 -8 -31t-21 -13q-12 0 -20 13t-8 31q0 17 8 29.5t20 12.5q13 0 21 -12t8 -30zM66 588q0 -18 -8.5 -31t-19.5 -13q-13 0 -21.5 13t-8.5 31q0 17 8.5 29.5t21.5 12.5q11 0 19.5 -12.5t8.5 -29.5z" />
    <glyph glyph-name="afii10105" unicode="&#x458;" horiz-adv-x="159" 
d="M110 -180h-58v627h58v-627zM123 587q0 -17 -12.5 -29t-29.5 -12t-29.5 12t-12.5 29q0 18 12 30.5t30 12.5t30 -12.5t12 -30.5z" />
    <glyph glyph-name="afii10106" unicode="&#x459;" horiz-adv-x="478" 
d="M234 0v395h-103v-190q0 -50 -4 -93q-6 -65 -35 -93q-24 -23 -59 -23q-13 0 -29 4v58q9 -9 24 -9q17 0 27 11q23 24 23 117v270h212v-171h20q71 0 109 -36q39 -37 39 -109q0 -65 -32 -98t-96 -33h-96zM290 52h32q41 0 58 16q21 19 21 69q0 39 -20 63q-22 26 -66 26h-25
v-174z" />
    <glyph glyph-name="afii10107" unicode="&#x45a;" horiz-adv-x="468" 
d="M224 0v221h-118v-221h-56v447h56v-174h118v174h57v-174h19q73 0 110 -36q38 -37 38 -108q0 -64 -31 -96q-32 -33 -97 -33h-96zM281 52h31q41 0 58 16q21 19 21 62q0 47 -25 72q-19 19 -59 19h-26v-169z" />
    <glyph glyph-name="afii10108" unicode="&#x45b;" horiz-adv-x="340" 
d="M290 0h-56v301q0 18 -1 29t-5.5 25.5t-15.5 21.5t-28 7q-35 0 -54 -29q-15 -23 -15 -78v-277h-56v532h-49v52h49v145h56v-145h104v-52h-104v-145q40 43 87 43q50 0 69 -30.5t19 -84.5v-315z" />
    <glyph glyph-name="afii10109" unicode="&#x45c;" horiz-adv-x="306" 
d="M106 447v-195l119 195h65l-135 -215l149 -232h-69l-129 205v-205h-56v447h56zM275 610l-115 -103l-35 26l96 120z" />
    <glyph glyph-name="afii10110" unicode="&#x45e;" horiz-adv-x="289" 
d="M283 447l-160 -627h-60l50 192l-106 435h57l56 -248q13 -54 21 -112q3 23 18 84l65 276h59zM207 597l47 -23q-12 -36 -41 -56q-25 -18 -66 -18t-66 18q-29 20 -41 56l47 23q4 -22 21 -36q13 -11 40 -11q25 0 38 11q16 12 21 36z" />
    <glyph glyph-name="afii10193" unicode="&#x45f;" horiz-adv-x="326" 
d="M276 447v-447h-85v-104h-57v104h-84v447h56v-395h114v395h56z" />
    <glyph glyph-name="afii10146" unicode="&#x462;" horiz-adv-x="407" 
d="M177 542v-164h37q73 0 114 -40q49 -48 49 -149q0 -116 -56 -161q-35 -28 -107 -28h-99v542h-100v57h98v95h64v-95h134v-57h-134zM177 53h33q50 0 73 23q30 30 30 103q0 88 -35 119q-25 23 -71 23h-30v-268z" />
    <glyph glyph-name="afii10194" unicode="&#x463;" horiz-adv-x="321" 
d="M77 0v395h-67v52h67v220h56v-220h105v-52h-105v-119h20q72 0 110 -36t38 -109q0 -65 -32 -98t-96 -33h-96zM133 52h32q41 0 58 16q21 19 21 69q0 39 -20 63q-22 26 -66 26h-25v-174z" />
    <glyph glyph-name="afii10147" unicode="&#x472;" horiz-adv-x="404" 
d="M366 334q0 -235 -74 -307q-38 -36 -90 -36t-90 36q-74 72 -74 307q0 234 74 306q38 36 90 36t90 -36q74 -72 74 -306zM202 616q-29 0 -51 -22q-50 -52 -50 -211h202q-3 163 -50 211q-22 22 -51 22zM303 326h-202q-1 -27 0 -65t13 -100t37 -88q22 -22 51 -22t51 22
q32 33 42.5 109.5t7.5 143.5z" />
    <glyph glyph-name="afii10195" unicode="&#x473;" horiz-adv-x="323" 
d="M289 224q0 -152 -53 -203q-29 -28 -75 -28t-75 28q-53 51 -53 203q0 151 53 202q29 28 75 28t75 -28q53 -51 53 -202zM161 402q-20 0 -34 -14q-31 -31 -35 -127h138q-4 96 -35 127q-14 14 -34 14zM231 209h-140q0 -113 36 -149q14 -14 34 -14t34 14q36 36 36 149z" />
    <glyph glyph-name="afii10148" unicode="&#x474;" horiz-adv-x="326" 
d="M325 667l-135 -667h-55l-134 667h64l84 -442q6 -33 15 -134q7 77 17 132l80 444h64z" />
    <glyph glyph-name="afii10196" unicode="&#x475;" horiz-adv-x="276" 
d="M269 447l-99 -447h-61l-102 447h58l59 -267q9 -43 16 -96q11 68 16 94l55 269h58z" />
    <glyph glyph-name="afii10050" unicode="&#x490;" horiz-adv-x="309" 
d="M55 0v667h168v121h62v-178h-168v-610h-62z" />
    <glyph glyph-name="afii10098" unicode="&#x491;" horiz-adv-x="256" 
d="M50 0v447h139v99h57v-151h-139v-395h-57z" />
    <glyph glyph-name="uni0492" unicode="&#x492;" horiz-adv-x="318" 
d="M290 610h-150v-234h116v-57h-116v-319h-62v319h-58v57h58v291h212v-57z" />
    <glyph glyph-name="uni0493" unicode="&#x493;" horiz-adv-x="262" 
d="M67 0v193h-47v52h47v202h180v-52h-124v-150h105v-52h-105v-193h-56z" />
    <glyph glyph-name="uni0494" unicode="&#x494;" horiz-adv-x="374" 
d="M281 610h-164v-219q39 14 75 14q62 0 103 -39q51 -51 51 -171q0 -131 -53 -179q-30 -28 -79 -28q-37 0 -70 18l19 59q21 -17 46 -17q29 0 45 18q29 32 29 122q0 104 -36 138q-24 22 -63 22q-35 0 -67 -17v-331h-62v667h226v-57z" />
    <glyph glyph-name="uni0495" unicode="&#x495;" horiz-adv-x="293" 
d="M50 0v447h180v-52h-124v-134h19q65 0 99 -32q49 -46 49 -162q0 -143 -66 -208q-30 -28 -72 -39v63q17 3 34 18q45 44 45 166q0 91 -30 120q-19 19 -59 19h-19v-206h-56z" />
    <glyph glyph-name="uni0496" unicode="&#x496;" horiz-adv-x="485" 
d="M392 667h65l-138 -318l114 -292h48v-187h-62v130h-27l-128 336v-336h-62v336l-132 -336h-66l143 349l-138 318h65l128 -303v303h62v-303z" />
    <glyph glyph-name="uni0497" unicode="&#x497;" horiz-adv-x="440" 
d="M350 447h61l-127 -214l101 -181h50v-156h-56v104h-29l-111 205v-205h-57v205l-115 -205h-65l135 233l-127 214h61l111 -195v195h57v-195z" />
    <glyph glyph-name="uni0498" unicode="&#x498;" horiz-adv-x="349" 
d="M101 370h17q51 0 78 26q31 29 31 92q0 64 -27 96q-26 30 -68 30q-34 0 -59 -19q-19 -14 -35 -38v85q45 34 104 34q68 0 106 -42q44 -47 44 -132q0 -68 -23 -105q-20 -34 -59 -50q42 -7 69 -37q36 -40 36 -110q0 -108 -56 -166q-34 -36 -81 -40v-124h-62v124q-48 3 -86 34
v87q41 -62 109 -62q50 0 78 34q30 36 30 101q0 66 -35 98q-29 27 -91 27h-20v57z" />
    <glyph glyph-name="uni0499" unicode="&#x499;" horiz-adv-x="279" 
d="M176 231q27 -7 46 -25q32 -28 32 -83q0 -52 -32 -89q-24 -30 -66 -38v-100h-56v100q-39 4 -70 32v72q18 -23 37 -38q23 -16 49 -16q37 0 56 21q20 22 20 55q0 43 -24 62q-19 16 -66 16h-17v54h19q35 0 56 16q21 17 21 55t-18 57q-17 19 -48 19q-27 0 -48 -18
q-16 -14 -32 -37v72q36 36 87 36q52 0 83 -31q33 -34 33 -90q0 -43 -19 -69q-16 -21 -43 -33z" />
    <glyph glyph-name="uni049A" unicode="&#x49a;" horiz-adv-x="346" 
d="M55 667h62v-303l134 303h69l-144 -318l118 -292h48v-187h-62v130h-32l-131 336v-336h-62v667z" />
    <glyph glyph-name="uni049B" unicode="&#x49b;" horiz-adv-x="322" 
d="M106 447v-195l119 195h66l-136 -215l112 -180h50v-156h-56v104h-30l-125 205v-205h-56v447h56z" />
    <glyph glyph-name="uni049C" unicode="&#x49c;" horiz-adv-x="423" 
d="M117 321v-321h-62v667h62v-288h41v137h56v-152l134 303h66l-144 -318l145 -349h-67l-134 336v-176h-56v161h-41z" />
    <glyph glyph-name="uni049D" unicode="&#x49d;" horiz-adv-x="359" 
d="M106 202v-202h-56v447h56v-195h32v93h47v-93l100 195h62l-113 -210l123 -237h-66l-106 205v-116h-47v113h-32z" />
    <glyph glyph-name="uni04A0" unicode="&#x4a0;" horiz-adv-x="389" 
d="M381 0h-70l-134 336v-336h-62v610h-100v57h162v-303l134 303h69l-144 -318z" />
    <glyph glyph-name="uni04A1" unicode="&#x4a1;" horiz-adv-x="362" 
d="M161 252l120 195h65l-135 -215l149 -232h-69l-130 205v-205h-56v395h-95v52h151v-195z" />
    <glyph glyph-name="uni04A2" unicode="&#x4a2;" horiz-adv-x="399" 
d="M55 667h62v-266h152v266h62v-610h54v-187h-62v130h-54v344h-152v-344h-62v667z" />
    <glyph glyph-name="uni04A3" unicode="&#x4a3;" horiz-adv-x="341" 
d="M50 447h56v-186h119v186h56v-395h50v-156h-56v104h-50v209h-119v-209h-56v447z" />
    <glyph glyph-name="uni04A4" unicode="&#x4a4;" horiz-adv-x="467" 
d="M331 610v-610h-62v344h-152v-344h-62v667h62v-266h152v266h188v-57h-126z" />
    <glyph glyph-name="uni04A5" unicode="&#x4a5;" horiz-adv-x="404" 
d="M225 0v209h-118v-209h-57v447h57v-186h118v186h169v-52h-113v-395h-56z" />
    <glyph glyph-name="uni04AA" unicode="&#x4aa;" horiz-adv-x="320" 
d="M302 81v-62q-24 -18 -51 -24v-125h-62v125q-45 9 -76 40q-75 75 -75 282q0 237 81 317q42 42 105 42q41 0 78 -21v-68q-41 29 -77 29q-38 0 -65 -27q-59 -59 -59 -237q0 -219 57 -276q25 -25 62 -25q41 0 82 30z" />
    <glyph glyph-name="uni04AB" unicode="&#x4ab;" horiz-adv-x="246" 
d="M226 86v-70q-15 -14 -31 -18v-102h-56v100q-37 7 -60 40q-46 63 -46 186q0 134 54 196q31 36 78 36q33 0 61 -17v-66q-26 31 -58 31q-17 0 -31 -12q-45 -39 -45 -167q0 -51 9.5 -90t16 -50.5t12.5 -17.5q18 -19 39 -19q30 0 57 40z" />
    <glyph glyph-name="uni04AE" unicode="&#x4ae;" horiz-adv-x="316" 
d="M315 667l-122 -378v-289h-62v289l-130 378h67l62 -191q18 -56 32 -123q8 53 29 122l57 192h67z" />
    <glyph glyph-name="uni04AF" unicode="&#x4af;" horiz-adv-x="292" 
d="M8 447h59l47 -172q27 -102 33 -135q12 62 34 140l46 167h59l-110 -378v-249h-58v249z" />
    <glyph glyph-name="uni04B0" unicode="&#x4b0;" horiz-adv-x="316" 
d="M315 667l-122 -378v-30h102v-54h-102v-205h-62v205h-102v54h102v30l-130 378h67l62 -191q18 -56 32 -123q8 53 29 122l57 192h67z" />
    <glyph glyph-name="uni04B1" unicode="&#x4b1;" horiz-adv-x="292" 
d="M8 447h59l47 -172q27 -102 33 -135q12 62 34 140l46 167h59l-110 -370v-25h75v-52h-75v-180h-58v180h-75v52h75v25z" />
    <glyph glyph-name="uni04B2" unicode="&#x4b2;" horiz-adv-x="340" 
d="M68 667l59 -165q22 -60 32 -117q6 39 32 113l60 169h66l-127 -328l104 -282h42v-187h-62v130h-23l-66 189q-17 49 -26 95q-9 -41 -28 -97l-63 -187h-67l130 339l-130 328h67z" />
    <glyph glyph-name="uni04B3" unicode="&#x4b3;" horiz-adv-x="300" 
d="M18 447h62q53 -143 63 -189q5 23 13 50t15 45t20 49t18 45h63l-100 -218l77 -177h47v-156h-53v104h-34l-49 127q-19 51 -22 66q-4 -24 -20 -67l-48 -126h-63l103 229z" />
    <glyph glyph-name="uni04B6" unicode="&#x4b6;" horiz-adv-x="388" 
d="M320 667v-610h54v-187h-62v130h-54v337q-35 -8 -74 -8q-66 0 -99 28q-25 21 -32.5 52.5t-7.5 81.5v176h63v-169q0 -75 22 -95q19 -17 66 -17q33 0 62 7v274h62z" />
    <glyph glyph-name="uni04B7" unicode="&#x4b7;" horiz-adv-x="319" 
d="M253 0h-50v211q-27 -9 -62 -9q-55 0 -81 25q-30 28 -30 103v117h56v-123q0 -41 15 -55t48 -14q30 0 54 8v184h56v-395h50v-156h-56v104z" />
    <glyph glyph-name="uni04B8" unicode="&#x4b8;" horiz-adv-x="389" 
d="M335 667v-667h-62v337q-24 -6 -41 -6v-152h-56v151q-59 0 -91 27q-25 21 -32.5 52.5t-7.5 81.5v176h63v-171q0 -72 18 -91q17 -18 50 -18v141h56v-141q22 0 41 6v274h62z" />
    <glyph glyph-name="uni04B9" unicode="&#x4b9;" horiz-adv-x="316" 
d="M210 0v211q-12 -5 -31 -7v-105h-48v105q-47 0 -73 26q-28 28 -28 91v126h56v-123q0 -37 11 -50q11 -14 34 -16v95h48v-96q14 0 31 6v184h56v-447h-56z" />
    <glyph glyph-name="uni04BA" unicode="&#x4ba;" horiz-adv-x="374" 
d="M55 0v667h62v-276q42 14 78 14q64 0 99 -28q25 -21 32.5 -52.5t7.5 -81.5v-243h-63v236q0 73 -23 94q-21 18 -62 18q-37 0 -69 -17v-331h-62z" />
    <glyph glyph-name="uni04BB" unicode="&#x4bb;" horiz-adv-x="330" 
d="M280 0h-56v321q0 20 -1 30t-5 26t-15 23.5t-29 7.5q-35 0 -53 -29q-15 -23 -15 -78v-301h-56v729h56v-318q38 43 87 43q50 0 68.5 -30.5t18.5 -84.5v-339z" />
    <glyph glyph-name="uni04C0" unicode="&#x4c0;" horiz-adv-x="157" 
d="M107 0h-57v667h57v-667z" />
    <glyph glyph-name="uni04C1" unicode="&#x4c1;" horiz-adv-x="466" 
d="M462 0h-66l-132 336v-336h-62v336l-132 -336h-66l143 349l-138 318h65l128 -303v303h62v-303l128 303h65l-138 -318zM299 806l53 -22q-12 -39 -46 -62q-30 -19 -73 -19q-44 0 -73 19q-36 23 -46 62l53 22q6 -24 24 -37q15 -12 42 -12q26 0 42 12t24 37z" />
    <glyph glyph-name="uni04C2" unicode="&#x4c2;" horiz-adv-x="421" 
d="M419 0h-65l-115 205v-205h-57v205l-115 -205h-65l135 233l-127 214h61l111 -195v195h57v-195l111 195h61l-127 -214zM272 597l47 -23q-12 -36 -41 -56q-25 -18 -66 -18t-66 18q-29 20 -41 56l47 23q4 -22 21 -36q13 -11 40 -11q25 0 38 11q16 12 21 36z" />
    <glyph glyph-name="uni04C3" unicode="&#x4c3;" horiz-adv-x="373" 
d="M55 667h62v-303l138 303h69l-126 -266q54 0 93 -35q24 -22 36.5 -60.5t14 -67.5t1.5 -84v-83q0 -155 -53 -203q-31 -28 -79 -28q-37 0 -70 18l19 59q22 -17 46 -17q28 0 45 18q29 32 29 147v87q0 69 -6.5 109t-27.5 60q-23 23 -65 23q-29 0 -64 -13v-331h-62v667z" />
    <glyph glyph-name="uni04C4" unicode="&#x4c4;" horiz-adv-x="292" 
d="M106 447v-195l119 195h65l-121 -193q39 -7 64 -34q41 -45 41 -152q0 -142 -64 -206q-31 -31 -75 -42v63q17 3 34 18q45 44 45 152q0 103 -28 131q-21 21 -68 21h-12v-205h-56v447h56z" />
    <glyph glyph-name="uni04C7" unicode="&#x4c7;" horiz-adv-x="385" 
d="M269 667h62v-741q0 -19 -1 -29q-7 -77 -95 -77q-34 0 -72 18v64q33 -28 62 -28q28 0 36 19t8 60v391h-152v-344h-62v667h62v-266h152v266z" />
    <glyph glyph-name="uni04C8" unicode="&#x4c8;" horiz-adv-x="330" 
d="M50 447h56v-186h118v186h56v-489q0 -80 -31 -112q-25 -26 -63 -26q-23 0 -43 10v57q15 -11 35 -11q19 0 29 8q17 15 17 74v251h-118v-209h-56v447z" />
    <glyph glyph-name="uni04D0" unicode="&#x4d0;" horiz-adv-x="325" 
d="M324 0h-66l-25 137h-141l-25 -137h-66l132 667h58zM223 191l-44 235q-14 75 -19 157q-7 -104 -58 -392h121zM229 806l53 -22q-12 -39 -46 -62q-30 -19 -73 -19q-44 0 -73 19q-36 23 -46 62l53 22q6 -24 24 -37q15 -12 42 -12q26 0 42 12t24 37z" />
    <glyph glyph-name="uni04D1" unicode="&#x4d1;" horiz-adv-x="327" 
d="M277 0h-57v36q-32 -43 -76 -43q-29 0 -50 16.5t-31.5 38t-16 56t-6.5 57t-1 54.5q0 36 1 60.5t7 61.5t17 60t32.5 40t52.5 17q41 0 71 -37v30h57v-447zM226 226q0 40 -2 67.5t-7.5 56.5t-19 44t-34.5 15q-66 0 -66 -159q0 -72 3 -108q2 -22 4.5 -34t8.5 -31t18.5 -28.5
t30.5 -9.5q22 0 36 15q28 28 28 172zM217 597l47 -23q-12 -36 -41 -56q-25 -18 -66 -18t-66 18q-29 20 -41 56l47 23q4 -22 21 -36q13 -11 40 -11q25 0 38 11q16 12 21 36z" />
    <glyph glyph-name="uni04D2" unicode="&#x4d2;" horiz-adv-x="325" 
d="M324 0h-66l-25 137h-141l-25 -137h-66l132 667h58zM223 191l-44 235q-14 75 -19 157q-7 -104 -58 -392h121zM270 764q0 -18 -12.5 -31t-30.5 -13t-30.5 13t-12.5 31t12.5 30.5t30.5 12.5t30.5 -12.5t12.5 -30.5zM142 764q0 -18 -12.5 -31t-30.5 -13t-30.5 13t-12.5 31
t12.5 30.5t30.5 12.5t30.5 -12.5t12.5 -30.5z" />
    <glyph glyph-name="uni04D3" unicode="&#x4d3;" horiz-adv-x="327" 
d="M277 0h-57v36q-32 -43 -76 -43q-29 0 -50 16.5t-31.5 38t-16 56t-6.5 57t-1 54.5q0 36 1 60.5t7 61.5t17 60t32.5 40t52.5 17q41 0 71 -37v30h57v-447zM226 226q0 40 -2 67.5t-7.5 56.5t-19 44t-34.5 15q-66 0 -66 -159q0 -72 3 -108q2 -22 4.5 -34t8.5 -31t18.5 -28.5
t30.5 -9.5q22 0 36 15q28 28 28 172zM273 557q0 -18 -12.5 -31t-30.5 -13t-30.5 13t-12.5 31t12.5 30.5t30.5 12.5t30.5 -12.5t12.5 -30.5zM145 557q0 -18 -12.5 -31t-30.5 -13t-30.5 13t-12.5 31t12.5 30.5t30.5 12.5t30.5 -12.5t12.5 -30.5z" />
    <glyph glyph-name="uni04D4" unicode="&#x4d4;" horiz-adv-x="462" 
d="M471 0h-207l-22 137h-151l-24 -137h-66l131 667h222l11 -57h-143l42 -235h135l11 -57h-136l47 -261h141zM233 190l-47 282q-13 74 -15 123q-4 -20 -9.5 -60.5t-9.5 -61.5l-51 -283h132z" />
    <glyph glyph-name="uni04D5" unicode="&#x4d5;" horiz-adv-x="508" 
d="M474 214h-197q0 -24 3 -48t10 -54t24 -48.5t41 -18.5q57 0 60 110h53q-1 -38 -12 -73t-38 -62t-66 -27q-62 0 -97 74q-15 -34 -43.5 -54t-64.5 -20q-58 0 -86 47t-28 110q0 61 27 104.5t85 43.5q51 0 80 -37v13q0 128 -87 128q-34 0 -78 -36v62q37 26 81 26q80 0 114 -75
q13 32 38.5 53.5t57.5 21.5q120 0 123 -240zM279 261h139q0 20 -3 41.5t-10 45t-22 39t-36 15.5q-26 0 -42.5 -28t-21 -57t-4.5 -56zM226 145q0 42 -16.5 74.5t-54.5 32.5q-67 0 -67 -102q0 -41 15 -72.5t52 -31.5t54 30t17 69z" />
    <glyph glyph-name="uni04D6" unicode="&#x4d6;" horiz-adv-x="301" 
d="M263 0h-208v667h208v-57h-146v-235h142v-57h-142v-261h146v-57zM225 806l53 -22q-12 -39 -46 -62q-30 -19 -73 -19q-44 0 -73 19q-36 23 -46 62l53 22q6 -24 24 -37q15 -12 42 -12q26 0 42 12t24 37z" />
    <glyph glyph-name="uni04D7" unicode="&#x4d7;" horiz-adv-x="313" 
d="M219 152h57q-7 -159 -113 -159q-130 0 -130 229q0 37 5 71.5t17 73.5t39 63t65 24q37 0 63 -21.5t37.5 -57t16 -68t4.5 -67.5q0 -4 -0.5 -14t-0.5 -14h-189v-10q0 -22 2.5 -44t9 -50t22 -45t37.5 -17q55 0 58 106zM91 260h133q-7 142 -64 142q-62 0 -69 -142zM217 597
l47 -23q-12 -36 -41 -56q-25 -18 -66 -18t-66 18q-29 20 -41 56l47 23q4 -22 21 -36q13 -11 40 -11q25 0 38 11q16 12 21 36z" />
    <glyph glyph-name="uni04D8" unicode="&#x4d8;" horiz-adv-x="374" 
d="M38 352h235v12v9q0 172 -48 221q-21 22 -51 22t-49 -24q-20 -25 -26 -71l-61 24q14 62 51 99q32 32 85 32q58 0 94 -36q30 -30 46 -83t19 -96t3 -111q0 -110 -8 -179q-12 -103 -53 -144q-35 -36 -95 -36q-58 0 -92 34q-50 50 -50 199v128zM272 295h-172v-85
q0 -107 30 -139q20 -20 50 -20q31 0 51 18q25 23 34 94q7 63 7 132z" />
    <glyph glyph-name="afii10846" unicode="&#x4d9;" horiz-adv-x="315" 
d="M36 235h189v10q0 106 -33 140q-15 16 -40 16q-21 0 -37 -17q-20 -20 -28 -78l-54 22q9 55 40 91q30 35 78 35q47 0 79 -33q52 -55 52 -190q0 -153 -58 -210q-29 -28 -70 -28q-39 0 -68 29q-30 30 -42 91t-8 122zM224 187h-133q1 -35 9.5 -74.5t23.5 -54.5q13 -13 31 -13
q17 0 32 13q17 15 26.5 54t10.5 75z" />
    <glyph glyph-name="uni04DA" unicode="&#x4da;" horiz-adv-x="374" 
d="M38 352h235v12v9q0 172 -48 221q-21 22 -51 22t-49 -24q-20 -25 -26 -71l-61 24q14 62 51 99q32 32 85 32q58 0 94 -36q30 -30 46 -83t19 -96t3 -111q0 -110 -8 -179q-12 -103 -53 -144q-35 -36 -95 -36q-58 0 -92 34q-50 50 -50 199v128zM272 295h-172v-85
q0 -107 30 -139q20 -20 50 -20q31 0 51 18q25 23 34 94q7 63 7 132zM282 764q0 -18 -12.5 -31t-30.5 -13t-30.5 13t-12.5 31t12.5 30.5t30.5 12.5t30.5 -12.5t12.5 -30.5zM154 764q0 -18 -12.5 -31t-30.5 -13t-30.5 13t-12.5 31t12.5 30.5t30.5 12.5t30.5 -12.5t12.5 -30.5z
" />
    <glyph glyph-name="uni04DB" unicode="&#x4db;" horiz-adv-x="315" 
d="M36 235h189v10q0 106 -33 140q-15 16 -40 16q-21 0 -37 -17q-20 -20 -28 -78l-54 22q9 55 40 91q30 35 78 35q47 0 79 -33q52 -55 52 -190q0 -153 -58 -210q-29 -28 -70 -28q-39 0 -68 29q-30 30 -42 91t-8 122zM224 187h-133q1 -35 9.5 -74.5t23.5 -54.5q13 -13 31 -13
q17 0 32 13q17 15 26.5 54t10.5 75zM262 557q0 -18 -12.5 -31t-30.5 -13t-30.5 13t-12.5 31t12.5 30.5t30.5 12.5t30.5 -12.5t12.5 -30.5zM134 557q0 -18 -12.5 -31t-30.5 -13t-30.5 13t-12.5 31t12.5 30.5t30.5 12.5t30.5 -12.5t12.5 -30.5z" />
    <glyph glyph-name="uni04DC" unicode="&#x4dc;" horiz-adv-x="466" 
d="M462 0h-66l-132 336v-336h-62v336l-132 -336h-66l143 349l-138 318h65l128 -303v303h62v-303l128 303h65l-138 -318zM340 764q0 -18 -12.5 -31t-30.5 -13t-30.5 13t-12.5 31t12.5 30.5t30.5 12.5t30.5 -12.5t12.5 -30.5zM212 764q0 -18 -12.5 -31t-30.5 -13t-30.5 13
t-12.5 31t12.5 30.5t30.5 12.5t30.5 -12.5t12.5 -30.5z" />
    <glyph glyph-name="uni04DD" unicode="&#x4dd;" horiz-adv-x="421" 
d="M419 0h-65l-115 205v-205h-57v205l-115 -205h-65l135 233l-127 214h61l111 -195v195h57v-195l111 195h61l-127 -214zM321 557q0 -18 -12.5 -31t-30.5 -13t-30.5 13t-12.5 31t12.5 30.5t30.5 12.5t30.5 -12.5t12.5 -30.5zM193 557q0 -18 -12.5 -31t-30.5 -13t-30.5 13
t-12.5 31t12.5 30.5t30.5 12.5t30.5 -12.5t12.5 -30.5z" />
    <glyph glyph-name="uni04DE" unicode="&#x4de;" horiz-adv-x="349" 
d="M101 370h17q51 0 78 26q31 29 31 92q0 64 -27 96q-26 30 -68 30q-34 0 -59 -19q-19 -14 -35 -38v85q45 34 104 34q68 0 106 -42q44 -47 44 -132q0 -68 -23 -105q-20 -34 -59 -50q42 -7 69 -37q36 -40 36 -110q0 -110 -56 -166q-43 -43 -113 -43q-68 0 -116 37v87
q41 -62 109 -62q50 0 78 34q30 36 30 101q0 66 -35 98q-29 27 -91 27h-20v57zM257 764q0 -18 -12.5 -31t-30.5 -13t-30.5 13t-12.5 31t12.5 30.5t30.5 12.5t30.5 -12.5t12.5 -30.5zM129 764q0 -18 -12.5 -31t-30.5 -13t-30.5 13t-12.5 31t12.5 30.5t30.5 12.5t30.5 -12.5
t12.5 -30.5z" />
    <glyph glyph-name="uni04DF" unicode="&#x4df;" horiz-adv-x="279" 
d="M176 231q27 -7 46 -25q32 -29 32 -83q0 -59 -41 -98q-35 -32 -89 -32t-94 35v72q18 -23 37 -38q23 -16 49 -16q37 0 56 21q20 22 20 55q0 43 -24 62q-19 16 -66 16h-17v54h19q35 0 56 16q21 17 21 55t-18 57q-17 19 -48 19q-27 0 -48 -18q-16 -14 -32 -37v72q36 36 87 36
q52 0 83 -31q33 -34 33 -90q0 -43 -19 -69q-16 -21 -43 -33zM237 557q0 -18 -12.5 -31t-30.5 -13t-30.5 13t-12.5 31t12.5 30.5t30.5 12.5t30.5 -12.5t12.5 -30.5zM109 557q0 -18 -12.5 -31t-30.5 -13t-30.5 13t-12.5 31t12.5 30.5t30.5 12.5t30.5 -12.5t12.5 -30.5z" />
    <glyph glyph-name="uni04E2" unicode="&#x4e2;" horiz-adv-x="393" 
d="M55 0v667h62v-452q0 -29 -6 -84q5 18 10 35.5t8 27t6 18.5l142 455h62v-667h-62v431q0 27 6 105q-13 -51 -27 -94l-139 -442h-62zM309 727h-224v55h224v-55z" />
    <glyph glyph-name="uni04E3" unicode="&#x4e3;" horiz-adv-x="336" 
d="M286 0h-56v278q0 19 2 64q-7 -31 -21 -67l-105 -275h-56v447h56v-276q0 -37 -2 -69q9 33 21 66l105 279h56v-447zM282 520h-224v55h224v-55z" />
    <glyph glyph-name="uni04E4" unicode="&#x4e4;" horiz-adv-x="393" 
d="M55 0v667h62v-452q0 -29 -6 -84q5 18 10 35.5t8 27t6 18.5l142 455h62v-667h-62v431q0 27 6 105q-13 -51 -27 -94l-139 -442h-62zM304 764q0 -18 -12.5 -31t-30.5 -13t-30.5 13t-12.5 31t12.5 30.5t30.5 12.5t30.5 -12.5t12.5 -30.5zM176 764q0 -18 -12.5 -31t-30.5 -13
t-30.5 13t-12.5 31t12.5 30.5t30.5 12.5t30.5 -12.5t12.5 -30.5z" />
    <glyph glyph-name="uni04E5" unicode="&#x4e5;" horiz-adv-x="336" 
d="M286 0h-56v278q0 19 2 64q-7 -31 -21 -67l-105 -275h-56v447h56v-276q0 -37 -2 -69q9 33 21 66l105 279h56v-447zM277 557q0 -18 -12.5 -31t-30.5 -13t-30.5 13t-12.5 31t12.5 30.5t30.5 12.5t30.5 -12.5t12.5 -30.5zM149 557q0 -18 -12.5 -31t-30.5 -13t-30.5 13
t-12.5 31t12.5 30.5t30.5 12.5t30.5 -12.5t12.5 -30.5z" />
    <glyph glyph-name="uni04E6" unicode="&#x4e6;" horiz-adv-x="404" 
d="M366 336q0 -38 -1 -65.5t-5.5 -72.5t-15.5 -77.5t-28 -64t-46 -48.5t-67 -17q-165 0 -165 342q0 343 164 343t164 -340zM303 358q0 258 -100 258q-102 0 -102 -282q0 -283 102 -283q80 0 94 155q6 60 6 152zM309 764q0 -18 -12.5 -31t-30.5 -13t-30.5 13t-12.5 31
t12.5 30.5t30.5 12.5t30.5 -12.5t12.5 -30.5zM181 764q0 -18 -12.5 -31t-30.5 -13t-30.5 13t-12.5 31t12.5 30.5t30.5 12.5t30.5 -12.5t12.5 -30.5z" />
    <glyph glyph-name="uni04E7" unicode="&#x4e7;" horiz-adv-x="323" 
d="M289 221q0 -228 -125 -228q-41 0 -69 23t-40.5 61t-17 73t-4.5 74q0 30 2.5 57.5t10.5 60.5t22 56.5t38.5 39.5t57.5 16q125 0 125 -233zM231 224q0 178 -68 178q-71 0 -71 -183q0 -173 71 -173q68 0 68 178zM271 557q0 -18 -12.5 -31t-30.5 -13t-30.5 13t-12.5 31
t12.5 30.5t30.5 12.5t30.5 -12.5t12.5 -30.5zM143 557q0 -18 -12.5 -31t-30.5 -13t-30.5 13t-12.5 31t12.5 30.5t30.5 12.5t30.5 -12.5t12.5 -30.5z" />
    <glyph glyph-name="uni04E8" unicode="&#x4e8;" horiz-adv-x="404" 
d="M366 334q0 -235 -74 -307q-38 -36 -90 -36t-90 36q-74 72 -74 307q0 234 74 306q38 36 90 36t90 -36q74 -72 74 -306zM202 616q-29 0 -51 -22q-50 -52 -50 -211h202q-3 163 -50 211q-22 22 -51 22zM303 326h-202q-1 -27 0 -65t13 -100t37 -88q22 -22 51 -22t51 22
q32 33 42.5 109.5t7.5 143.5z" />
    <glyph glyph-name="uni04E9" unicode="&#x4e9;" horiz-adv-x="323" 
d="M289 224q0 -152 -53 -203q-29 -28 -75 -28t-75 28q-53 51 -53 203q0 151 53 202q29 28 75 28t75 -28q53 -51 53 -202zM161 402q-20 0 -34 -14q-31 -31 -35 -127h138q-4 96 -35 127q-14 14 -34 14zM231 209h-140q-1 -37 7.5 -83t28.5 -66q14 -14 34 -14t34 14
q36 36 36 149z" />
    <glyph glyph-name="uni04EA" unicode="&#x4ea;" horiz-adv-x="404" 
d="M366 334q0 -235 -74 -307q-38 -36 -90 -36t-90 36q-74 72 -74 307q0 234 74 306q38 36 90 36t90 -36q74 -72 74 -306zM202 616q-29 0 -51 -22q-50 -52 -50 -211h202q-3 163 -50 211q-22 22 -51 22zM303 326h-202q-1 -27 0 -65t13 -100t37 -88q22 -22 51 -22t51 22
q32 33 42.5 109.5t7.5 143.5zM309 764q0 -18 -12.5 -31t-30.5 -13t-30.5 13t-12.5 31t12.5 30.5t30.5 12.5t30.5 -12.5t12.5 -30.5zM181 764q0 -18 -12.5 -31t-30.5 -13t-30.5 13t-12.5 31t12.5 30.5t30.5 12.5t30.5 -12.5t12.5 -30.5z" />
    <glyph glyph-name="uni04EB" unicode="&#x4eb;" horiz-adv-x="323" 
d="M289 224q0 -152 -53 -203q-29 -28 -75 -28t-75 28q-53 51 -53 203q0 151 53 202q29 28 75 28t75 -28q53 -51 53 -202zM161 402q-20 0 -34 -14q-31 -31 -35 -127h138q-4 96 -35 127q-14 14 -34 14zM231 209h-140q-1 -37 7.5 -83t28.5 -66q14 -14 34 -14t34 14
q36 36 36 149zM271 557q0 -18 -12.5 -31t-30.5 -13t-30.5 13t-12.5 31t12.5 30.5t30.5 12.5t30.5 -12.5t12.5 -30.5zM143 557q0 -18 -12.5 -31t-30.5 -13t-30.5 13t-12.5 31t12.5 30.5t30.5 12.5t30.5 -12.5t12.5 -30.5z" />
    <glyph glyph-name="uni04EE" unicode="&#x4ee;" horiz-adv-x="341" 
d="M8 667h68l64 -211q24 -77 39 -143q12 62 34 145l56 209h64l-188 -667h-62l64 224zM287 727h-224v55h224v-55z" />
    <glyph glyph-name="uni04EF" unicode="&#x4ef;" horiz-adv-x="289" 
d="M283 447l-160 -627h-60l50 192l-106 435h57l56 -248q13 -54 21 -112q3 23 18 84l65 276h59zM259 520h-224v55h224v-55z" />
    <glyph glyph-name="uni04F0" unicode="&#x4f0;" horiz-adv-x="341" 
d="M8 667h68l64 -211q24 -77 39 -143q12 62 34 145l56 209h64l-188 -667h-62l64 224zM287 764q0 -18 -12.5 -31t-30.5 -13t-30.5 13t-12.5 31t12.5 30.5t30.5 12.5t30.5 -12.5t12.5 -30.5zM159 764q0 -18 -12.5 -31t-30.5 -13t-30.5 13t-12.5 31t12.5 30.5t30.5 12.5
t30.5 -12.5t12.5 -30.5z" />
    <glyph glyph-name="uni04F1" unicode="&#x4f1;" horiz-adv-x="289" 
d="M283 447l-160 -627h-60l50 192l-106 435h57l56 -248q13 -54 21 -112q3 23 18 84l65 276h59zM261 557q0 -18 -12.5 -31t-30.5 -13t-30.5 13t-12.5 31t12.5 30.5t30.5 12.5t30.5 -12.5t12.5 -30.5zM133 557q0 -18 -12.5 -31t-30.5 -13t-30.5 13t-12.5 31t12.5 30.5
t30.5 12.5t30.5 -12.5t12.5 -30.5z" />
    <glyph glyph-name="uni04F2" unicode="&#x4f2;" horiz-adv-x="341" 
d="M8 667h68l64 -211q24 -77 39 -143q12 62 34 145l56 209h64l-188 -667h-62l64 224zM298 830l-70 -116l-37 13l51 125zM195 830l-69 -116l-37 13l50 125z" />
    <glyph glyph-name="uni04F3" unicode="&#x4f3;" horiz-adv-x="289" 
d="M283 447l-160 -627h-60l50 192l-106 435h57l56 -248q13 -54 21 -112q3 23 18 84l65 276h59zM274 623l-70 -116l-37 13l51 125zM171 623l-69 -116l-37 13l50 125z" />
    <glyph glyph-name="uni04F4" unicode="&#x4f4;" horiz-adv-x="374" 
d="M320 667v-667h-62v337q-35 -8 -74 -8q-66 0 -99 28q-25 21 -32.5 52.5t-7.5 81.5v176h63v-169q0 -75 22 -95q19 -17 66 -17q33 0 62 7v274h62zM294 764q0 -18 -12.5 -31t-30.5 -13t-30.5 13t-12.5 31t12.5 30.5t30.5 12.5t30.5 -12.5t12.5 -30.5zM166 764
q0 -18 -12.5 -31t-30.5 -13t-30.5 13t-12.5 31t12.5 30.5t30.5 12.5t30.5 -12.5t12.5 -30.5z" />
    <glyph glyph-name="uni04F5" unicode="&#x4f5;" horiz-adv-x="308" 
d="M202 0v211q-27 -9 -61 -9q-52 0 -81 25q-30 27 -30 103v117h56v-123q0 -41 15 -55t48 -14q25 0 53 8v184h56v-447h-56zM252 557q0 -18 -12.5 -31t-30.5 -13t-30.5 13t-12.5 31t12.5 30.5t30.5 12.5t30.5 -12.5t12.5 -30.5zM124 557q0 -18 -12.5 -31t-30.5 -13t-30.5 13
t-12.5 31t12.5 30.5t30.5 12.5t30.5 -12.5t12.5 -30.5z" />
    <glyph glyph-name="uni04F8" unicode="&#x4f8;" horiz-adv-x="483" 
d="M429 0h-62v667h62v-667zM117 667v-289h37q73 0 114 -40q49 -48 49 -149q0 -116 -56 -161q-35 -28 -107 -28h-99v667h62zM117 53h33q50 0 73 23q30 30 30 103q0 88 -35 119q-25 23 -71 23h-30v-268zM349 764q0 -18 -12.5 -31t-30.5 -13t-30.5 13t-12.5 31t12.5 30.5
t30.5 12.5t30.5 -12.5t12.5 -30.5zM221 764q0 -18 -12.5 -31t-30.5 -13t-30.5 13t-12.5 31t12.5 30.5t30.5 12.5t30.5 -12.5t12.5 -30.5z" />
    <glyph glyph-name="uni04F9" unicode="&#x4f9;" horiz-adv-x="425" 
d="M375 0h-56v447h56v-447zM50 0v447h56v-171h20q72 0 110 -36t38 -110q0 -65 -31 -97q-32 -33 -97 -33h-96zM106 52h32q41 0 58 16q21 19 21 68q0 41 -20 64q-22 26 -66 26h-25v-174zM322 557q0 -18 -12.5 -31t-30.5 -13t-30.5 13t-12.5 31t12.5 30.5t30.5 12.5t30.5 -12.5
t12.5 -30.5zM194 557q0 -18 -12.5 -31t-30.5 -13t-30.5 13t-12.5 31t12.5 30.5t30.5 12.5t30.5 -12.5t12.5 -30.5z" />
    <glyph glyph-name="uni1E9E" unicode="&#x1e9e;" horiz-adv-x="359" 
d="M55 0v510q0 84 35 124q37 42 93 42q61 0 94 -38q31 -35 36 -105v-26l-86 -113q53 -13 78 -69q20 -45 20 -117q0 -120 -40 -167q-21 -25 -45 -33t-65 -8h-6v53h5q42 0 59 19q28 32 28 138q0 78 -19 109q-19 32 -60 32h-13v45l79 112v24q-1 41 -13 62q-17 28 -51 28
q-32 0 -51 -28q-16 -25 -16 -78v-516h-62z" />
    <glyph glyph-name="uni2010" unicode="&#x2010;" horiz-adv-x="238" 
d="M188 233h-138v58h138v-58z" />
    <glyph glyph-name="uni2011" unicode="&#x2011;" horiz-adv-x="238" 
d="M188 233h-138v58h138v-58z" />
    <glyph glyph-name="figuredash" unicode="&#x2012;" horiz-adv-x="574" 
d="M504 313h-434v50h434v-50z" />
    <glyph glyph-name="endash" unicode="&#x2013;" horiz-adv-x="574" 
d="M504 237h-434v50h434v-50z" />
    <glyph glyph-name="emdash" unicode="&#x2014;" horiz-adv-x="820" 
d="M750 287v-50h-680v50h680z" />
    <glyph glyph-name="afii00208" unicode="&#x2015;" horiz-adv-x="820" 
d="M750 287v-50h-680v50h680z" />
    <glyph glyph-name="quoteleft" unicode="&#x2018;" horiz-adv-x="205" 
d="M171 655l-69 -205l-62 29l88 197z" />
    <glyph glyph-name="quoteright" unicode="&#x2019;" horiz-adv-x="205" 
d="M171 647l-88 -197l-43 20l69 206z" />
    <glyph glyph-name="quotesinglbase" unicode="&#x201a;" horiz-adv-x="205" 
d="M165 55l-89 -197l-43 20l69 205z" />
    <glyph glyph-name="quotedblleft" unicode="&#x201c;" horiz-adv-x="323" 
d="M289 655l-69 -205l-62 29l88 197zM171 655l-69 -205l-62 29l88 197z" />
    <glyph glyph-name="quotedblright" unicode="&#x201d;" horiz-adv-x="323" 
d="M289 647l-88 -197l-43 20l69 206zM171 647l-88 -197l-43 20l69 206z" />
    <glyph glyph-name="quotedblbase" unicode="&#x201e;" horiz-adv-x="323" 
d="M283 55l-89 -197l-43 20l69 205zM165 55l-89 -197l-43 20l69 205z" />
    <glyph glyph-name="dagger" unicode="&#x2020;" horiz-adv-x="367" 
d="M303 473h-93v-646h-53v646h-94v46h94v210h53v-210h93v-46z" />
    <glyph glyph-name="daggerdbl" unicode="&#x2021;" horiz-adv-x="367" 
d="M303 136h-93v-309h-53v309h-94v47h94v290h-94v46h94v210h53v-210h93v-46h-93v-290h93v-47z" />
    <glyph glyph-name="bullet" unicode="&#x2022;" horiz-adv-x="1000" 
d="M638 340q0 -57 -40 -98.5t-97 -41.5t-97.5 41.5t-40.5 98.5t40.5 98.5t97.5 41.5t97 -41.5t40 -98.5z" />
    <glyph glyph-name="ellipsis" unicode="&#x2026;" horiz-adv-x="490" 
d="M453 38q0 -19 -13 -32t-32 -13q-18 0 -31.5 13.5t-13.5 31.5q0 19 13 32t32 13t32 -13t13 -32zM290 38q0 -19 -13 -32t-32 -13q-18 0 -31.5 13.5t-13.5 31.5q0 19 13 32t32 13t32 -13t13 -32zM127 38q0 -19 -13 -32t-32 -13q-18 0 -31.5 13.5t-13.5 31.5q0 19 13 32
t32 13t32 -13t13 -32z" />
    <glyph glyph-name="perthousand" unicode="&#x2030;" horiz-adv-x="748" 
d="M215 500q0 -59 -6 -95t-26 -56t-56 -20q-35 0 -55 20t-26 56t-6 95t6 95t26 56t55 20q36 0 56 -20t26 -56t6 -95zM127 630q-15 0 -24 -10q-17 -18 -17 -119q0 -102 17 -120q9 -10 24 -10t24 10q17 18 17 120q0 101 -17 119q-9 10 -24 10zM425 667l-289 -667h-46l289 667
h46zM474 166q0 -59 -6 -95t-26 -56t-56 -20q-35 0 -55 20t-26 56t-6 95t6 95t26 56t55 20q36 0 56 -20t26 -56t6 -95zM386 296q-15 0 -24 -10q-17 -18 -17 -119q0 -102 17 -120q9 -10 24 -10t24 10q17 18 17 120q0 101 -17 119q-9 10 -24 10zM708 166q0 -59 -6 -95t-26 -56
t-56 -20q-35 0 -55 20t-26 56t-6 95t6 95t26 56t55 20q36 0 56 -20t26 -56t6 -95zM620 296q-15 0 -24 -10q-17 -18 -17 -119q0 -102 17 -120q9 -10 24 -10t24 10q17 18 17 120q0 101 -17 119q-9 10 -24 10z" />
    <glyph glyph-name="guilsinglleft" unicode="&#x2039;" horiz-adv-x="213" 
d="M180 66l-38 -23l-109 194l109 188l38 -21l-95 -167z" />
    <glyph glyph-name="guilsinglright" unicode="&#x203a;" horiz-adv-x="213" 
d="M180 237l-108 -194l-39 23l95 171l-95 167l39 21z" />
    <glyph glyph-name="fraction" unicode="&#x2044;" horiz-adv-x="121" 
d="M228 667l-289 -667h-46l289 667h46z" />
    <glyph glyph-name="Euro" unicode="&#x20ac;" horiz-adv-x="366" 
d="M332 19q-43 -28 -87 -28q-72 0 -120 65q-50 68 -56 213h-59l18 42h40q0 43 1 65h-53l17 42h39q24 258 180 258q46 0 80 -21v-68q-46 29 -77 29q-34 0 -59 -19.5t-37.5 -52t-18 -63.5t-6.5 -63h183l-17 -42h-168q-1 -11 -1 -34v-31h141l-18 -42h-121q0 -39 5.5 -74
t17.5 -69t36.5 -54.5t57.5 -20.5q35 0 82 30v-62z" />
    <glyph glyph-name="uni20B4" unicode="&#x20b4;" horiz-adv-x="366" 
d="M60 570v70q21 13 47 23q35 13 74 13q63 0 98 -35q39 -39 39 -117q0 -58 -34 -106h59v-42h-87l-62 -65h149v-42h-179q-53 -50 -53 -122q0 -49 31 -76q23 -21 62 -21q33 0 64 14q29 12 49 31v-70q-35 -19 -52 -24q-33 -11 -70 -11q-67 0 -107 37q-43 40 -43 114
q0 73 45 128h-62v42h92l62 65h-154v42h184q40 39 40 103q0 48 -22 72q-21 23 -54 23q-34 0 -70 -16q-26 -12 -46 -30z" />
    <glyph glyph-name="uni20B6" unicode="&#x20b6;" horiz-adv-x="366" 
d="M151 216v-216h-62v216h-59v42h59v65h-59v53h59v291h73q96 0 135 -38q41 -40 41 -146q0 -82 -34 -119q-38 -41 -128 -41h-25v-65h100v-42h-100zM151 376h41q39 0 58 18q25 23 25 93q0 76 -24 100q-23 23 -70 23h-30v-234z" />
    <glyph glyph-name="uni20B6" unicode="&#x20cf;" horiz-adv-x="366" 
d="M151 216v-216h-62v216h-59v42h59v65h-59v53h59v291h73q96 0 135 -38q41 -40 41 -146q0 -82 -34 -119q-38 -41 -128 -41h-25v-65h100v-42h-100zM151 376h41q39 0 58 18q25 23 25 93q0 76 -24 100q-23 23 -70 23h-30v-234z" />
    <glyph glyph-name="uni20B6" unicode="&#x20ce;" horiz-adv-x="366" 
d="M151 216v-216h-62v216h-59v42h59v65h-59v53h59v291h73q96 0 135 -38q41 -40 41 -146q0 -82 -34 -119q-38 -41 -128 -41h-25v-65h100v-42h-100zM151 376h41q39 0 58 18q25 23 25 93q0 76 -24 100q-23 23 -70 23h-30v-234z" />
    <glyph glyph-name="uni20B6" unicode="&#x20cd;" horiz-adv-x="366" 
d="M151 216v-216h-62v216h-59v42h59v65h-59v53h59v291h73q96 0 135 -38q41 -40 41 -146q0 -82 -34 -119q-38 -41 -128 -41h-25v-65h100v-42h-100zM151 376h41q39 0 58 18q25 23 25 93q0 76 -24 100q-23 23 -70 23h-30v-234z" />
    <glyph glyph-name="uni20B6" unicode="&#x20cc;" horiz-adv-x="366" 
d="M151 216v-216h-62v216h-59v42h59v65h-59v53h59v291h73q96 0 135 -38q41 -40 41 -146q0 -82 -34 -119q-38 -41 -128 -41h-25v-65h100v-42h-100zM151 376h41q39 0 58 18q25 23 25 93q0 76 -24 100q-23 23 -70 23h-30v-234z" />
    <glyph glyph-name="uni20B6" unicode="&#x20cb;" horiz-adv-x="366" 
d="M151 216v-216h-62v216h-59v42h59v65h-59v53h59v291h73q96 0 135 -38q41 -40 41 -146q0 -82 -34 -119q-38 -41 -128 -41h-25v-65h100v-42h-100zM151 376h41q39 0 58 18q25 23 25 93q0 76 -24 100q-23 23 -70 23h-30v-234z" />
    <glyph glyph-name="uni20B6" unicode="&#x20ca;" horiz-adv-x="366" 
d="M151 216v-216h-62v216h-59v42h59v65h-59v53h59v291h73q96 0 135 -38q41 -40 41 -146q0 -82 -34 -119q-38 -41 -128 -41h-25v-65h100v-42h-100zM151 376h41q39 0 58 18q25 23 25 93q0 76 -24 100q-23 23 -70 23h-30v-234z" />
    <glyph glyph-name="uni20B6" unicode="&#x20c9;" horiz-adv-x="366" 
d="M151 216v-216h-62v216h-59v42h59v65h-59v53h59v291h73q96 0 135 -38q41 -40 41 -146q0 -82 -34 -119q-38 -41 -128 -41h-25v-65h100v-42h-100zM151 376h41q39 0 58 18q25 23 25 93q0 76 -24 100q-23 23 -70 23h-30v-234z" />
    <glyph glyph-name="uni20B6" unicode="&#x20c8;" horiz-adv-x="366" 
d="M151 216v-216h-62v216h-59v42h59v65h-59v53h59v291h73q96 0 135 -38q41 -40 41 -146q0 -82 -34 -119q-38 -41 -128 -41h-25v-65h100v-42h-100zM151 376h41q39 0 58 18q25 23 25 93q0 76 -24 100q-23 23 -70 23h-30v-234z" />
    <glyph glyph-name="uni20B6" unicode="&#x20c7;" horiz-adv-x="366" 
d="M151 216v-216h-62v216h-59v42h59v65h-59v53h59v291h73q96 0 135 -38q41 -40 41 -146q0 -82 -34 -119q-38 -41 -128 -41h-25v-65h100v-42h-100zM151 376h41q39 0 58 18q25 23 25 93q0 76 -24 100q-23 23 -70 23h-30v-234z" />
    <glyph glyph-name="uni20B6" unicode="&#x20c6;" horiz-adv-x="366" 
d="M151 216v-216h-62v216h-59v42h59v65h-59v53h59v291h73q96 0 135 -38q41 -40 41 -146q0 -82 -34 -119q-38 -41 -128 -41h-25v-65h100v-42h-100zM151 376h41q39 0 58 18q25 23 25 93q0 76 -24 100q-23 23 -70 23h-30v-234z" />
    <glyph glyph-name="uni20B6" unicode="&#x20c5;" horiz-adv-x="366" 
d="M151 216v-216h-62v216h-59v42h59v65h-59v53h59v291h73q96 0 135 -38q41 -40 41 -146q0 -82 -34 -119q-38 -41 -128 -41h-25v-65h100v-42h-100zM151 376h41q39 0 58 18q25 23 25 93q0 76 -24 100q-23 23 -70 23h-30v-234z" />
    <glyph glyph-name="uni20B6" unicode="&#x20c4;" horiz-adv-x="366" 
d="M151 216v-216h-62v216h-59v42h59v65h-59v53h59v291h73q96 0 135 -38q41 -40 41 -146q0 -82 -34 -119q-38 -41 -128 -41h-25v-65h100v-42h-100zM151 376h41q39 0 58 18q25 23 25 93q0 76 -24 100q-23 23 -70 23h-30v-234z" />
    <glyph glyph-name="uni20B6" unicode="&#x20c3;" horiz-adv-x="366" 
d="M151 216v-216h-62v216h-59v42h59v65h-59v53h59v291h73q96 0 135 -38q41 -40 41 -146q0 -82 -34 -119q-38 -41 -128 -41h-25v-65h100v-42h-100zM151 376h41q39 0 58 18q25 23 25 93q0 76 -24 100q-23 23 -70 23h-30v-234z" />
    <glyph glyph-name="uni20B6" unicode="&#x20c2;" horiz-adv-x="366" 
d="M151 216v-216h-62v216h-59v42h59v65h-59v53h59v291h73q96 0 135 -38q41 -40 41 -146q0 -82 -34 -119q-38 -41 -128 -41h-25v-65h100v-42h-100zM151 376h41q39 0 58 18q25 23 25 93q0 76 -24 100q-23 23 -70 23h-30v-234z" />
    <glyph glyph-name="uni20B6" unicode="&#x20c1;" horiz-adv-x="366" 
d="M151 216v-216h-62v216h-59v42h59v65h-59v53h59v291h73q96 0 135 -38q41 -40 41 -146q0 -82 -34 -119q-38 -41 -128 -41h-25v-65h100v-42h-100zM151 376h41q39 0 58 18q25 23 25 93q0 76 -24 100q-23 23 -70 23h-30v-234z" />
    <glyph glyph-name="uni20B6" unicode="&#x20c0;" horiz-adv-x="366" 
d="M151 216v-216h-62v216h-59v42h59v65h-59v53h59v291h73q96 0 135 -38q41 -40 41 -146q0 -82 -34 -119q-38 -41 -128 -41h-25v-65h100v-42h-100zM151 376h41q39 0 58 18q25 23 25 93q0 76 -24 100q-23 23 -70 23h-30v-234z" />
    <glyph glyph-name="uni20B6" unicode="&#x20bf;" horiz-adv-x="366" 
d="M151 216v-216h-62v216h-59v42h59v65h-59v53h59v291h73q96 0 135 -38q41 -40 41 -146q0 -82 -34 -119q-38 -41 -128 -41h-25v-65h100v-42h-100zM151 376h41q39 0 58 18q25 23 25 93q0 76 -24 100q-23 23 -70 23h-30v-234z" />
    <glyph glyph-name="uni20B6" unicode="&#x20be;" horiz-adv-x="366" 
d="M151 216v-216h-62v216h-59v42h59v65h-59v53h59v291h73q96 0 135 -38q41 -40 41 -146q0 -82 -34 -119q-38 -41 -128 -41h-25v-65h100v-42h-100zM151 376h41q39 0 58 18q25 23 25 93q0 76 -24 100q-23 23 -70 23h-30v-234z" />
    <glyph glyph-name="uni20B6" unicode="&#x20bd;" horiz-adv-x="366" 
d="M151 216v-216h-62v216h-59v42h59v65h-59v53h59v291h73q96 0 135 -38q41 -40 41 -146q0 -82 -34 -119q-38 -41 -128 -41h-25v-65h100v-42h-100zM151 376h41q39 0 58 18q25 23 25 93q0 76 -24 100q-23 23 -70 23h-30v-234z" />
    <glyph glyph-name="uni20B6" unicode="&#x20bc;" horiz-adv-x="366" 
d="M151 216v-216h-62v216h-59v42h59v65h-59v53h59v291h73q96 0 135 -38q41 -40 41 -146q0 -82 -34 -119q-38 -41 -128 -41h-25v-65h100v-42h-100zM151 376h41q39 0 58 18q25 23 25 93q0 76 -24 100q-23 23 -70 23h-30v-234z" />
    <glyph glyph-name="uni20B6" unicode="&#x20bb;" horiz-adv-x="366" 
d="M151 216v-216h-62v216h-59v42h59v65h-59v53h59v291h73q96 0 135 -38q41 -40 41 -146q0 -82 -34 -119q-38 -41 -128 -41h-25v-65h100v-42h-100zM151 376h41q39 0 58 18q25 23 25 93q0 76 -24 100q-23 23 -70 23h-30v-234z" />
    <glyph glyph-name="uni20B6" unicode="&#x20ba;" horiz-adv-x="366" 
d="M151 216v-216h-62v216h-59v42h59v65h-59v53h59v291h73q96 0 135 -38q41 -40 41 -146q0 -82 -34 -119q-38 -41 -128 -41h-25v-65h100v-42h-100zM151 376h41q39 0 58 18q25 23 25 93q0 76 -24 100q-23 23 -70 23h-30v-234z" />
    <glyph glyph-name="uni20B6" unicode="&#x20b9;" horiz-adv-x="366" 
d="M151 216v-216h-62v216h-59v42h59v65h-59v53h59v291h73q96 0 135 -38q41 -40 41 -146q0 -82 -34 -119q-38 -41 -128 -41h-25v-65h100v-42h-100zM151 376h41q39 0 58 18q25 23 25 93q0 76 -24 100q-23 23 -70 23h-30v-234z" />
    <glyph glyph-name="uni20B6" unicode="&#x20b7;" horiz-adv-x="366" 
d="M151 216v-216h-62v216h-59v42h59v65h-59v53h59v291h73q96 0 135 -38q41 -40 41 -146q0 -82 -34 -119q-38 -41 -128 -41h-25v-65h100v-42h-100zM151 376h41q39 0 58 18q25 23 25 93q0 76 -24 100q-23 23 -70 23h-30v-234z" />
    <glyph glyph-name="uni20B8" unicode="&#x20b8;" horiz-adv-x="366" 
d="M314 520h-100v-520h-62v520h-100v57h262v-57zM314 615h-262v52h262v-52z" />
    <glyph glyph-name="afii61352" unicode="&#x2116;" horiz-adv-x="596" 
d="M332 0h-54l-148 440q-16 48 -27 94q6 -52 6 -105v-429h-54v667h54l151 -453q5 -15 14 -44.5t10 -34.5q-6 41 -6 82v450h54v-667zM563 518q0 -150 -85 -150q-88 0 -88 152q0 26 3.5 49t12 47.5t27 39.5t45.5 15q85 0 85 -153zM560 290h-167v40h167v-40zM519 519
q0 112 -42 112q-44 0 -44 -115q0 -109 44 -109q42 0 42 112z" />
    <glyph glyph-name="uni2117" unicode="&#x2117;" horiz-adv-x="756" 
d="M297 536h53q73 0 99 -35q18 -24 18 -78q0 -62 -30 -88q-23 -20 -69 -20h-22v-184h-49v405zM346 359h18q26 0 38 11q14 14 14 55q0 42 -16 56q-12 11 -40 11h-14v-133zM723 334q0 -144 -101 -245q-45 -45 -109.5 -73t-134.5 -28t-134.5 28t-109.5 73q-101 101 -101 245
q0 65 25.5 129.5t75.5 114.5q45 45 109.5 73t134.5 28t134.5 -28t109.5 -73q50 -50 75.5 -114.5t25.5 -129.5zM378 643q-125 0 -215 -90q-90 -92 -90 -219q0 -130 90 -220t215 -90t215 90t90 220q0 127 -90 219q-90 90 -215 90z" />
    <glyph glyph-name="trademark" unicode="&#x2122;" horiz-adv-x="455" 
d="M433 287h-41l-28 260l-45 -260h-34l-42 256l-32 -256h-41l53 380h36l44 -281l48 281h36zM164 628h-56v-341h-41v341h-56v39h153v-39z" />
    <glyph glyph-name="partialdiff" unicode="&#x2202;" horiz-adv-x="494" 
d="M81 613l7 50q75 -11 131.5 -34t105.5 -70q63 -60 96 -145.5t33 -177.5q0 -104 -57 -175.5t-158 -71.5q-89 0 -151.5 66t-62.5 156q0 89 59 154t147 65q98 0 152 -81q-16 49 -32 79q-38 76 -110 124t-160 61zM394 215q0 71 -41 119t-111 48q-69 0 -114.5 -51.5
t-45.5 -121.5q0 -69 45.5 -119.5t112.5 -50.5q69 0 111.5 52.5t42.5 123.5z" />
    <glyph glyph-name="product" unicode="&#x220f;" horiz-adv-x="689" 
d="M654 -250h-219v51h83v898h-347v-898h82v-51h-217v51h78v898h-78v51h618v-51h-78v-898h78v-51z" />
    <glyph glyph-name="summation" unicode="&#x2211;" horiz-adv-x="667" 
d="M601 -250h-571v59l250 462l-250 422v57h562v-221h-52l-5 170h-441l253 -429l-255 -469h453l2 169h54v-220z" />
    <glyph glyph-name="minus" unicode="&#x2212;" 
d="M467 305h-434v53h434v-53z" />
    <glyph glyph-name="uni2215" unicode="&#x2215;" horiz-adv-x="408" 
d="M435 729l-390 -902h-58l391 902h57z" />
    <glyph glyph-name="uni2219" unicode="&#x2219;" horiz-adv-x="204" 
d="M160 343q0 -24 -17 -41t-41 -17t-41.5 17t-17.5 41q0 25 17 42t42 17q24 0 41 -17.5t17 -41.5z" />
    <glyph glyph-name="radical" unicode="&#x221a;" horiz-adv-x="667" 
d="M667 775h-202l-229 -775h-67l-89 307h-80v51h126l42 -139q1 -4 15 -62q3 -13 9 -37t9 -37h4q9 32 25 96t25 96l162 552h250v-52z" />
    <glyph glyph-name="infinity" unicode="&#x221e;" horiz-adv-x="667" 
d="M648 339q0 -65 -41 -107.5t-106 -42.5q-92 0 -167 112q-75 -111 -166 -111q-67 0 -108 42.5t-41 109.5q0 65 42 107t107 42q91 0 164 -112q75 112 169 112q66 0 106.5 -43t40.5 -109zM590 340q0 43 -27 71.5t-69 28.5q-68 0 -132 -100q30 -46 60.5 -73t72.5 -27t68.5 29
t26.5 71zM305 340q-30 46 -60.5 73t-72.5 27q-43 0 -69 -28.5t-26 -71.5q0 -42 26.5 -71t68.5 -29q29 0 56 17t41.5 34.5t35.5 48.5z" />
    <glyph glyph-name="integral" unicode="&#x222b;" 
d="M392 739l-14 -50q-25 10 -43 10q-35 0 -45.5 -21.5t-10.5 -60.5v-728q0 -65 -17 -92q-30 -46 -103 -46q-25 0 -51 10l14 50q23 -10 43 -10q14 0 24 3.5t16 12t10 15.5t5 21t1.5 21.5t0 23t-0.5 20.5v684q0 60 8 84q10 31 38.5 47.5t63.5 16.5q30 0 61 -11z" />
    <glyph glyph-name="approxequal" unicode="&#x2248;" 
d="M454 478l36 -21q-55 -107 -139 -107q-38 0 -108 35t-103 35q-53 0 -94 -75l-36 23q52 108 134 108q39 0 109 -35t104 -35q33 0 54.5 18.5t42.5 53.5zM454 321l36 -21q-55 -107 -139 -107q-38 0 -109 35.5t-102 35.5q-53 0 -94 -76l-36 23q52 108 134 108q40 0 110.5 -35
t103.5 -35t54.5 19t41.5 53z" />
    <glyph glyph-name="notequal" unicode="&#x2260;" 
d="M467 234h-238l-56 -119h-48l56 119h-147v51h170l47 99h-218v51h242l55 114h48l-55 -114h143v-51h-166l-47 -99h214v-51z" />
    <glyph glyph-name="lessequal" unicode="&#x2264;" 
d="M467 151l-434 193v51l434 193v-55l-372 -164l371 -164zM467 69h-434v52h434v-52z" />
    <glyph glyph-name="greaterequal" unicode="&#x2265;" 
d="M467 344l-434 -193v54l372 164l-371 164l-1 55l434 -194v-50zM467 69h-434v52h434v-52z" />
    <glyph glyph-name="dotmath" unicode="&#x22c5;" horiz-adv-x="204" 
d="M160 343q0 -24 -17 -41t-41 -17t-41.5 17t-17.5 41q0 25 17 42t42 17q24 0 41 -17.5t17 -41.5z" />
    <glyph glyph-name="lozenge" unicode="&#x25ca;" horiz-adv-x="667" 
d="M593 334l-260 -360l-259 360l259 359zM527 334l-194 266l-194 -266l194 -267z" />
    <glyph glyph-name="openbullet" unicode="&#x25e6;" 
d="M388 537q0 -56 -41 -95.5t-97 -39.5t-97 39.5t-41 95.5q0 57 40.5 96t97.5 39t97.5 -39t40.5 -96zM349 537q0 41 -29 69t-70 28t-70 -28t-29 -69q0 -40 29.5 -68.5t69.5 -28.5t69.5 28.5t29.5 68.5z" />
    <glyph glyph-name="uniF400" unicode="&#xf400;" horiz-adv-x="2" 
d="M-59 610l-115 -103l-35 26l96 120z" />
    <glyph glyph-name="uniF401" unicode="&#xf401;" horiz-adv-x="2" 
d="M-69 817l-115 -103l-35 26l96 120z" />
    <glyph glyph-name="uniF406" unicode="&#xf406;" 
d="M325 810h48q-5 -46 -40 -69t-83 -23t-83 23t-40 69h48q17 -41 75 -41t75 41z" />
    <glyph glyph-name="uniF407" unicode="&#xf407;" 
d="M310 -62l-77 -123l-36 21l67 127z" />
    <glyph glyph-name="uniF408" unicode="&#xf408;" 
d="M363 752l-40 -38l-74 69l-74 -69l-38 38l112 107z" />
    <glyph glyph-name="uniF409" unicode="&#xf409;" horiz-adv-x="185" 
d="M151 -77l-72 -154l-39 19l53 163z" />
    <glyph glyph-name="uniF40A" unicode="&#xf40a;" horiz-adv-x="196" 
d="M162 648l-83 -186l-39 19l64 195z" />
    <glyph glyph-name="uniF40B" unicode="&#xf40b;" 
d="M296 766q0 -19 -13.5 -32.5t-32.5 -13.5t-32 13.5t-13 32.5t13 32t32 13t32.5 -13t13.5 -32z" />
    <glyph glyph-name="uniF40C" unicode="&#xf40c;" horiz-adv-x="499" 
d="M330 794q0 -33 -23.5 -56.5t-56.5 -23.5t-56.5 23.5t-23.5 56.5t23.5 56.5t56.5 23.5t56.5 -23.5t23.5 -56.5zM290 794q0 16 -12 28t-28 12t-28 -12t-12 -28t12 -28t28 -12t28 12t12 28z" />
    <glyph glyph-name="uniF40D" unicode="&#xf40d;" 
d="M308 802h57q-2 -33 -19.5 -57.5t-48.5 -24.5q-19 0 -49.5 17t-40.5 17q-16 0 -16 -25h-56q3 33 21 55t49 22q17 0 47 -16t39 -16q17 0 17 28z" />
    <glyph glyph-name="uniF40E" unicode="&#xf40e;" 
d="M333 -95v-48q-24 -9 -45 -9q-34 0 -57.5 17t-23.5 49q0 41 47 86h46q-44 -37 -44 -72q0 -31 37 -31q23 0 40 8z" />
    <glyph glyph-name="uniF4C6" unicode="&#xf4c6;" horiz-adv-x="374" 
d="M320 667v-741l-1 -29q-1 -7 -2 -19t-2 -16t-2.5 -12t-3.5 -10t-5 -7t-8 -6t-11 -3t-15.5 -2.5t-19.5 -1t-26 -0.5h-12h-9t-7 0.5t-5.5 1t-6.5 2.5l-7.5 3t-10.5 4.5t-14 6.5v64l18 -16q8 -8 15 -10t29 -2h48l-2 22q0 9 -0.5 14.5t-0.5 8t-0.5 6t-0.5 10v18.5v384
q-35 -8 -74 -8q-66 0 -99 28q-25 21 -32.5 52.5t-7.5 81.5v176h63v-169q0 -75 22 -95q19 -17 66 -17q33 0 62 7v274h62z" />
    <glyph glyph-name="uniF4C7" unicode="&#xf4c7;" horiz-adv-x="308" 
d="M202 -42v253q-27 -9 -61 -9q-52 0 -81 25q-30 27 -30 103v117h56v-123q0 -41 15 -55t48 -14q25 0 53 8v184h56v-489q0 -79 -31 -112q-25 -26 -63 -26q-23 0 -43 10v57q15 -11 35 -11q19 0 29 8q17 15 17 74z" />
    <glyph glyph-name="uniF4CC" unicode="&#xf4cc;" horiz-adv-x="341" 
d="M8 667h68l64 -211q24 -77 39 -143q12 62 34 145l56 209h64l-188 -667h-62l64 224zM285 817l-115 -103l-35 26l96 120z" />
    <glyph glyph-name="uniF4CD" unicode="&#xf4cd;" horiz-adv-x="289" 
d="M283 447l-160 -627h-60l50 192l-106 435h57l56 -248q13 -54 21 -112q3 23 18 84l65 276h59zM255 610l-115 -103l-35 26l96 120z" />
    <glyph glyph-name="dollar.fitted" unicode="&#xf5f5;" horiz-adv-x="320" 
d="M284 636l-31 -47q-46 30 -88 30q-44 0 -71 -28.5t-27 -73.5q0 -36 13.5 -63.5t35 -45.5t47.5 -34t52.5 -33t48 -37.5t35 -53t13.5 -74.5q0 -70 -35.5 -120.5t-96.5 -61.5v-85h-49v83q-64 10 -112 57l36 43q54 -44 97 -44q46 0 74 36t28 89q0 37 -18 65.5t-45.5 45.5
t-59 38.5t-59 43t-45.5 59.5t-18 88q0 130 122 160v78h49v-76q50 -3 104 -39z" />
    <glyph glyph-name="Euro.fitted" unicode="&#xf5f6;" horiz-adv-x="346" 
d="M329 19q-43 -28 -87 -28q-72 0 -120 65q-50 68 -56 213h-59l18 42h40q0 43 1 65h-53l17 42h39q24 258 180 258q46 0 80 -21v-68q-46 29 -77 29q-34 0 -59 -19.5t-37.5 -52t-18 -63.5t-6.5 -63h183l-17 -42h-168q-1 -11 -1 -34v-31h141l-18 -42h-121q0 -39 5.5 -74
t17.5 -69t36.5 -54.5t57.5 -20.5q35 0 82 30v-62z" />
    <glyph glyph-name="cent.fitted" unicode="&#xf5f7;" horiz-adv-x="215" 
d="M202 206v-70q-17 -14 -41 -19v-92h-49v92q-104 39 -104 219q0 119 40 184q23 37 64 50v83h49v-82q19 -3 41 -13v-67q-28 30 -57 30q-25 0 -42 -20t-23.5 -52.5t-9 -57.5t-2.5 -51q0 -23 2.5 -48t10 -56t24 -50.5t39.5 -19.5q29 0 58 40z" />
    <glyph glyph-name="sterling.fitted" unicode="&#xf5f8;" horiz-adv-x="346" 
d="M278 89l52 -17q-3 -44 -30 -69q-24 -22 -56 -22q-28 0 -56 18l-34 22q-30 19 -45 19q-14 0 -26 -12q-11 -11 -16 -28l-52 30q13 28 35 48q30 30 67 19q26 39 26 80q0 56 -48 121h-79v42h59q-19 37 -29 66q-17 47 -17 99q0 83 47 130q41 41 106 41q57 0 94 -37
q43 -41 44 -108l-58 -12q-2 50 -28 76q-21 21 -55 21t-57 -21q-30 -30 -30 -87q0 -40 17 -88q12 -33 36 -80h105v-42h-84q37 -54 37 -108q0 -35 -12 -66q-8 -21 -25 -43l43 -30q18 -11 34 -11q17 0 26 17q7 13 9 32z" />
    <glyph glyph-name="yen.fitted" unicode="&#xf5f9;" horiz-adv-x="351" 
d="M342 269h-135v-269h-57v269h-142v42h136l-23 65h-113v42h99l-86 249h64l63 -195q19 -58 30 -119q9 51 30 122l57 192h64l-81 -249h94v-42h-108l-21 -65h129v-42z" />
    <glyph glyph-name="florin.fitted" unicode="&#xf5fa;" horiz-adv-x="382" 
d="M379 729l-10 -59q-19 17 -38 17q-16 0 -26.5 -10.5t-13.5 -19.5t-7 -29l-36 -181h77l-9 -42h-76l-83 -424q-11 -55 -33 -84.5t-71 -29.5q-21 0 -50 11l11 59q19 -17 39 -17q35 0 46 59l84 426h-73l8 42h73q27 147 35 179q7 29 12.5 44.5t17 34t29.5 27t44 8.5
q29 0 50 -11z" />
    <glyph glyph-name="uni20B4.fitted" unicode="&#xf5fb;" horiz-adv-x="357" 
d="M53 570v70q21 13 47 23q35 13 74 13q63 0 98 -35q39 -39 39 -117q0 -58 -34 -106h59v-42h-87l-62 -65h149v-42h-179q-53 -50 -53 -122q0 -49 31 -76q23 -21 62 -21q33 0 64 14q29 12 49 31v-70q-35 -19 -52 -24q-33 -11 -70 -11q-67 0 -107 37q-43 40 -43 114
q0 73 45 128h-62v42h92l62 65h-154v42h184q40 39 40 103q0 48 -22 72q-21 23 -54 23q-34 0 -70 -16q-26 -12 -46 -30z" />
    <glyph glyph-name="uni20B6.fitted" unicode="&#xf5fc;" horiz-adv-x="334" 
d="M138 216v-216h-62v216h-59v42h59v65h-59v53h59v291h73q96 0 135 -38q41 -40 41 -146q0 -82 -34 -119q-38 -41 -128 -41h-25v-65h100v-42h-100zM138 376h41q39 0 58 18q25 23 25 93q0 76 -24 100q-23 23 -70 23h-30v-234z" />
    <glyph glyph-name="uni20B8.fitted" unicode="&#xf5fd;" horiz-adv-x="276" 
d="M269 520h-100v-520h-62v520h-100v57h262v-57zM269 615h-262v52h262v-52z" />
    <glyph glyph-name="uniF639" unicode="&#xf639;" horiz-adv-x="335" 
d="M317 356q0 -365 -151 -365q-40 0 -69 25.5t-44 60.5t-23.5 85t-10.5 84.5t-2 72.5q0 33 1.5 64t6.5 75t16.5 80t28.5 68.5t44.5 51t63.5 18.5q28 0 51 -13.5t37 -32.5t24.5 -50.5t15.5 -57t7.5 -62t3 -56t0.5 -48.5zM257 378q0 241 -82 241q-26 0 -45 -25.5t-29 -59.5
t-15.5 -80t-7 -75t-1.5 -56q0 -147 29 -219q23 -56 64 -56q38 0 57 50q30 78 30 280z" />
    <glyph glyph-name="uniF63A" unicode="&#xf63a;" horiz-adv-x="309" 
d="M25 485q0 40 5.5 71t19 60t41.5 44.5t69 15.5q64 0 100 -41.5t36 -106.5q0 -46 -15.5 -98t-28.5 -80.5t-44 -89.5l-102 -201h182v-59h-273l137 282q57 115 70 167q11 42 11 79q0 38 -17 64.5t-53 26.5q-77 0 -77 -122v-12h-61z" />
    <glyph glyph-name="uniF63B" unicode="&#xf63b;" horiz-adv-x="311" 
d="M81 511h-57q1 71 31 118t96 47q68 0 100.5 -42t32.5 -112q0 -117 -76 -153q27 -12 45.5 -32.5t26.5 -48.5t10.5 -52.5t2.5 -56.5q0 -188 -139 -188q-138 0 -138 165v27h61q0 -28 2 -45.5t8.5 -40.5t23.5 -34.5t44 -11.5q78 0 78 140q0 147 -112 147h-30v55h26q30 0 48 5
t34 24q25 30 25 96q0 98 -73 98q-22 0 -37 -9t-21.5 -26t-9 -32.5t-2.5 -37.5z" />
    <glyph glyph-name="uniF63C" unicode="&#xf63c;" horiz-adv-x="301" 
d="M289 179h-50v-179h-61v179h-175v63l175 425h61v-431h50v-57zM61 236h117q0 22 -0.5 67t-0.5 68q0 110 8 198q-14 -53 -38 -115z" />
    <glyph glyph-name="uniF63D" unicode="&#xf63d;" horiz-adv-x="296" 
d="M121 609l-24 -204q18 3 35 3q53 0 89 -34t49.5 -79.5t13.5 -97.5q0 -84 -41 -145t-125 -61q-59 0 -104 33l17 61q44 -34 90 -34q37 0 60.5 26t31.5 56.5t8 64.5q0 62 -25.5 106t-86.5 44q-27 0 -82 -12l39 331h199v-58h-144z" />
    <glyph glyph-name="uniF63E" unicode="&#xf63e;" horiz-adv-x="298" 
d="M229 667l-87 -205q-44 -102 -46 -107q31 23 65 23q45 0 76 -29q48 -46 48 -169q0 -112 -46 -156q-33 -33 -89 -33q-52 0 -86 32q-53 51 -53 176q0 65 17 130q9 35 41 112l95 226h65zM71 185q0 -88 33 -120q20 -20 49 -20q28 0 47 21q25 28 25 118q0 89 -30 121
q-20 20 -47 20q-28 0 -47 -21q-30 -33 -30 -119z" />
    <glyph glyph-name="uniF63F" unicode="&#xf63f;" horiz-adv-x="289" 
d="M286 667l-205 -667h-65l188 609h-192v58h274z" />
    <glyph glyph-name="uniF640" unicode="&#xf640;" horiz-adv-x="316" 
d="M298 188q0 -39 -7 -71.5t-22 -62t-44.5 -46.5t-70.5 -17q-52 0 -84.5 32.5t-42.5 74t-10 92.5q0 145 85 179q-70 44 -70 143q0 70 33.5 117t100.5 47q65 0 95.5 -48t30.5 -117q0 -102 -70 -142q45 -25 60.5 -71t15.5 -110zM232 507q0 112 -71 112q-69 0 -69 -103
q0 -119 71 -119q69 0 69 110zM238 197q0 144 -80 144q-25 0 -42 -15.5t-24.5 -41t-10.5 -47.5t-3 -46q0 -33 4.5 -61.5t23.5 -55t51 -26.5q27 0 45 14.5t25 40.5t9 46t2 48z" />
    <glyph glyph-name="uniF641" unicode="&#xf641;" horiz-adv-x="298" 
d="M69 0l130 312q-33 -23 -66 -23q-36 0 -61 19.5t-37 52t-17 63.5t-5 65q0 187 133 187q75 0 108 -56t33 -137q0 -115 -53 -241l-101 -242h-64zM227 482q0 23 -3 45t-11.5 45t-25.5 37t-42 14q-22 0 -37.5 -15.5t-22.5 -40t-10 -46t-3 -43.5q0 -136 78 -136q77 0 77 140z
" />
    <glyph glyph-name="uniF6BA" unicode="&#xf6ba;" horiz-adv-x="238" 
d="M188 309h-138v58h138v-58z" />
    <glyph glyph-name="uniF6BB" unicode="&#xf6bb;" horiz-adv-x="574" 
d="M504 313h-434v50h434v-50z" />
    <glyph glyph-name="uniF6BC" unicode="&#xf6bc;" horiz-adv-x="820" 
d="M750 363v-50h-680v50h680z" />
    <glyph glyph-name="uniF6C3" unicode="&#xf6c3;" horiz-adv-x="185" 
d="M151 -77l-72 -154l-39 19l53 163z" />
    <glyph glyph-name="uniF6C9" unicode="&#xf6c9;" 
d="M365 817l-115 -103l-35 26l96 120z" />
    <glyph glyph-name="uniF6CA" unicode="&#xf6ca;" 
d="M363 821l-114 -107l-112 107l38 38l74 -69l74 69z" />
    <glyph glyph-name="uniF6CB" unicode="&#xf6cb;" 
d="M357 764q0 -18 -12.5 -31t-30.5 -13t-30.5 13t-12.5 31t12.5 30.5t30.5 12.5t30.5 -12.5t12.5 -30.5zM229 764q0 -18 -12.5 -31t-30.5 -13t-30.5 13t-12.5 31t12.5 30.5t30.5 12.5t30.5 -12.5t12.5 -30.5z" />
    <glyph glyph-name="uniF6CE" unicode="&#xf6ce;" 
d="M285 740l-35 -26l-115 103l54 43z" />
    <glyph glyph-name="uniF6CF" unicode="&#xf6cf;" 
d="M388 830l-70 -116l-37 13l51 125zM285 830l-69 -116l-37 13l50 125z" />
    <glyph glyph-name="uniF6D0" unicode="&#xf6d0;" 
d="M362 727h-224v55h224v-55z" />
    <glyph glyph-name="uniF6D1" unicode="&#xf6d1;" horiz-adv-x="348" 
d="M240 806l53 -22q-12 -39 -46 -62q-30 -19 -73 -19q-44 0 -73 19q-36 23 -46 62l53 22q6 -24 24 -37q15 -12 42 -12q26 0 42 12t24 37z" />
    <glyph glyph-name="uniF6D4" unicode="&#xf6d4;" horiz-adv-x="314" 
d="M217 597l47 -23q-12 -36 -41 -56q-25 -18 -66 -18t-66 18q-29 20 -41 56l47 23q4 -22 21 -36q13 -11 40 -11q25 0 38 11q16 12 21 36z" />
    <glyph glyph-name="uniF6DC" unicode="&#xf6dc;" horiz-adv-x="174" 
d="M150 0h-62v609h-86v58h148v-667z" />
    <glyph glyph-name="uniF6DE" unicode="&#xf6de;" horiz-adv-x="615" 
d="M562 287v-50h-510v50h510z" />
    <glyph glyph-name="nbspace" horiz-adv-x="233" 
 />
    <glyph glyph-name="hyphenminus" horiz-adv-x="238" 
d="M188 233h-138v58h138v-58z" />
    <glyph glyph-name="dotlessi1" horiz-adv-x="155" 
d="M106 0h-57v447h57v-447z" />
    </font>
</defs>
</svg>
