<?xml version="1.0" standalone="no"?>
<!DOCTYPE svg PUBLIC "-//W3C//DTD SVG 1.1//EN" "http://www.w3.org/Graphics/SVG/1.1/DTD/svg11.dtd" >
<svg xmlns="http://www.w3.org/2000/svg" xmlns:xlink="http://www.w3.org/1999/xlink" version="1.1">
<metadata>
Created by FontForge 20170731 at Fri Mar 29 22:16:26 2013
 By Aleksey,,,
Copyright (c) 1995 ParaGraph Intl., (c) 1998 ParaType Inc., ParaType Ltd. All rights reserved.
</metadata>
<defs>
<font id="FuturaPTCond-BoldObl" horiz-adv-x="500" >
  <font-face 
    font-family="Futura PT Cond Bold Italic"
    font-weight="400"
    font-style="italic"
    font-stretch="condensed"
    units-per-em="1000"
    panose-1="2 11 8 6 2 2 4 9 2 3"
    ascent="763"
    descent="-237"
    x-height="447"
    cap-height="667"
    bbox="-222 -250 1006 911"
    underline-thickness="50"
    underline-position="-200"
    slope="-7"
    unicode-range="U+0020-FB02"
  />
<missing-glyph horiz-adv-x="233" 
 />
    <glyph glyph-name="afii10017.var.accented" unicode="&#x410;`" horiz-adv-x="453" 
d="M422 0h-138l-11 112h-131l-37 -112h-130l235 667h137zM175 215h91q-16 211 -13 280q-15 -73 -23 -103q-7 -28 -55 -177zM221 747l94 128l81 -50l-114 -114z" />
    <glyph glyph-name="afii10022.var.accented" unicode="&#x415;`" horiz-adv-x="350" 
d="M366 667l-15 -124h-131l-18 -144h116l-16 -126h-115l-19 -150h133l-15 -123h-263l82 667h261zM170 747l94 128l81 -50l-114 -114z" />
    <glyph glyph-name="afii10026.var.accented" unicode="&#x418;`" horiz-adv-x="501" 
d="M23 0l82 667h130l-37 -302q-6 -44 -24 -100l207 402h122l-82 -667h-130l38 305q1 12 22 102l-206 -407h-122zM245 747l94 128l81 -50l-114 -114z" />
    <glyph glyph-name="afii10032.var.accented" unicode="&#x41e;`" horiz-adv-x="534" 
d="M517 434q0 -136 -35 -235q-31 -90 -95 -150t-151 -60q-48 0 -91 26t-67 68q-35 59 -35 158q0 101 22 182q27 107 93 180.5t166 73.5q94 0 143.5 -72.5t49.5 -170.5zM378 427q0 28 -4.5 54t-21.5 50.5t-45 24.5q-27 0 -49 -22t-35.5 -56t-21 -63.5t-11.5 -56.5
q-8 -49 -8 -113q0 -19 3 -39t10 -41.5t22 -35t36 -13.5q27 0 49 22t35.5 56t21 63.5t11.5 56.5q8 49 8 113zM262 747l94 128l81 -50l-114 -114z" />
    <glyph glyph-name="afii10037.var.accented" unicode="&#x423;`" horiz-adv-x="442" 
d="M60 667h138l33 -165q17 -87 20 -128q17 56 41 124l62 169h142l-284 -667h-132l96 230zM216 747l94 128l81 -50l-114 -114z" />
    <glyph glyph-name="afii10045.var.accented" unicode="&#x42b;`" horiz-adv-x="626" 
d="M546 0h-130l82 667h130zM105 667h130l-32 -261h1q98 0 151 -53q50 -50 50 -132q0 -98 -58 -158q-62 -63 -187 -63h-137zM189 292l-22 -178h4q45 0 71 20q33 26 33 80q0 37 -21 57q-22 21 -65 21zM308 747l94 128l81 -50l-114 -114z" />
    <glyph glyph-name="afii10047.var.accented" unicode="&#x42d;`" horiz-adv-x="433" 
d="M25 20l19 138q32 -38 77 -38q43 0 75 29q23 20 41 57.5t23 74.5h-159l17 118h155q2 18 2 27q0 65 -32 97q-25 25 -63 25q-46 0 -85 -29l19 136q49 19 100 19q81 0 133 -53q69 -71 69 -218q0 -85 -24 -179.5t-87 -158.5q-72 -72 -187 -72q-56 0 -93 27zM179 747l94 128
l81 -50l-114 -114z" />
    <glyph glyph-name="afii10048.var.accented" unicode="&#x42e;`" horiz-adv-x="739" 
d="M203 406h72q8 56 33 111.5t61 93.5q63 66 155 66q77 0 127 -47q71 -67 71 -209q0 -104 -29.5 -205.5t-91.5 -161.5q-66 -65 -160 -65q-86 0 -133 60q-59 76 -50 232h-70l-35 -281h-130l82 667h130zM512 556q-26 0 -49 -23q-35 -35 -55 -126q-17 -76 -17 -157
q0 -83 26 -114q16 -20 41 -20q28 0 50 21q35 33 55 117.5t20 163.5q0 87 -30 120q-17 18 -41 18zM364 747l94 128l81 -50l-114 -114z" />
    <glyph glyph-name="afii10049.var.accented" unicode="&#x42f;`" horiz-adv-x="469" 
d="M5 0l159 290q-39 17 -62 50q-29 40 -29 103q0 104 57 163q34 35 81.5 48t119.5 13h140l-82 -667h-130l34 276l-138 -276h-150zM328 561h-12q-53 0 -79 -25q-29 -27 -29 -79q0 -41 24 -63q23 -20 64 -20h9zM229 747l94 128l81 -50l-114 -114z" />
    <glyph glyph-name="afii10023.var.accented" unicode="&#x401;`" horiz-adv-x="350" 
d="M366 667l-15 -124h-131l-18 -144h116l-16 -126h-115l-19 -150h133l-15 -123h-263l82 667h261zM151 747l94 128l63 -37l-114 -114zM167 811q0 -22 -17 -39t-40 -17q-19 0 -31 13t-12 32q0 22 17 39t39 17q19 0 31.5 -13t12.5 -32zM409 811q0 -23 -17.5 -39.5t-40.5 -16.5
q-18 0 -30 13t-12 32q0 22 17 39t39 17q19 0 31.5 -13t12.5 -32z" />
    <glyph glyph-name="afii10065.var.accented" unicode="&#x430;`" horiz-adv-x="390" 
d="M377 447l-54 -447h-124l6 51q-39 -60 -88 -60q-29 0 -49 16.5t-29.5 44t-13 52.5t-3.5 53q0 63 11 115q13 69 48 126t92 57q55 0 74 -63l7 55h123zM238 276q0 67 -29 67q-32 0 -47 -60t-15 -108q0 -72 32 -72q17 0 29.5 21.5t18.5 52.5t8.5 56t2.5 43zM371 639l-127 -122
l-56 36l100 128z" />
    <glyph glyph-name="afii10070.var.accented" unicode="&#x435;`" horiz-adv-x="367" 
d="M222 154h104q-9 -78 -59 -125q-40 -38 -103 -38q-60 0 -97 38q-46 50 -46 138q0 64 22 131t65 110q47 47 111 47q49 0 83 -32q44 -43 44 -134q0 -36 -9 -88h-195q-6 -29 -6 -57q0 -36 12 -49q10 -10 26 -10q22 0 35 22q9 16 13 47zM152 278h89q2 16 2 24q0 25 -8 40
q-10 18 -28 18q-17 0 -30 -14q-20 -21 -25 -68zM359 639l-127 -122l-56 36l100 128z" />
    <glyph glyph-name="afii10074.var.accented" unicode="&#x438;`" horiz-adv-x="404" 
d="M66 447h118l-18 -149q-5 -55 -29 -127q43 85 48 94l95 182h111l-55 -447h-118l18 146q10 74 26 134q-21 -55 -50 -111l-90 -169h-111zM378 639l-127 -122l-56 36l100 128z" />
    <glyph glyph-name="afii10080.var.accented" unicode="&#x43e;`" horiz-adv-x="386" 
d="M363 289q0 -40 -5.5 -79t-20 -79.5t-36 -71t-56.5 -49.5t-80 -19q-53 0 -86 28t-44.5 67t-11.5 91q0 65 19 125.5t66 106.5t114 46q70 0 105.5 -46.5t35.5 -119.5zM237 277q0 66 -29 66q-31 0 -46 -60.5t-15 -107.5q0 -72 31 -72q22 0 36.5 38t18.5 73.5t4 62.5zM369 639
l-127 -122l-56 36l100 128z" />
    <glyph glyph-name="afii10085.var.accented" unicode="&#x443;`" horiz-adv-x="359" 
d="M389 447l-266 -653h-120l93 215l-74 438h123l22 -163q8 -60 9 -92l89 255h124zM356 639l-127 -122l-56 36l100 128z" />
    <glyph glyph-name="afii10093.var.accented" unicode="&#x44b;`" horiz-adv-x="545" 
d="M477 0h-124l55 447h124zM66 447h124l-20 -164h8q74 0 112 -25q51 -34 51 -103q0 -73 -49 -116q-44 -39 -122 -39h-159zM146 88h6q33 0 50 16t17 46q0 24 -15 35q-12 10 -43 10h-2zM448 639l-127 -122l-56 36l100 128z" />
    <glyph glyph-name="afii10095.var.accented" unicode="&#x44d;`" horiz-adv-x="323" 
d="M10 23l15 117q24 -35 64 -35q31 0 51 20q21 23 28 58h-106l11 90h104q0 37 -20 59q-17 18 -46 18q-35 0 -61 -29l14 116q38 19 77 19q70 0 110 -42q49 -51 49 -151q0 -145 -75 -222q-47 -50 -125 -50q-52 0 -90 32zM309 639l-127 -122l-56 36l100 128z" />
    <glyph glyph-name="afii10096.var.accented" unicode="&#x44e;`" horiz-adv-x="569" 
d="M169 280h54q15 77 62 126q48 49 119 49q61 0 98 -37q44 -44 44 -134q0 -65 -18.5 -132t-55.5 -108q-49 -53 -125 -53q-55 0 -91 33q-46 43 -46 152h-53l-22 -176h-124l55 447h124zM391 343q-11 0 -21 -10q-22 -22 -30 -70q-10 -48 -10 -95q0 -43 15 -58q7 -7 16 -7
q11 0 20 9q19 19 29 69q10 47 10 93q0 49 -13 62q-6 7 -16 7zM460 639l-127 -122l-56 36l100 128z" />
    <glyph glyph-name="afii10097.var.accented" unicode="&#x44f;`" horiz-adv-x="393" 
d="M0 0l105 169q-27 10 -45 35q-19 27 -19 70q0 77 45 123q49 50 167 50h127l-55 -447h-124l21 169l-88 -169h-134zM230 238l14 115h-4q-39 0 -56 -16q-18 -16 -18 -49q0 -26 18 -39q15 -11 43 -11h3zM372 639l-127 -122l-56 36l100 128z" />
    <glyph glyph-name="afii10071.var.accented" unicode="&#x451;`" horiz-adv-x="367" 
d="M222 154h104q-9 -78 -59 -125q-40 -38 -103 -38q-60 0 -97 38q-46 50 -46 138q0 64 22 131t65 110q47 47 111 47q49 0 83 -32q44 -43 44 -134q0 -36 -9 -88h-195q-6 -29 -6 -57q0 -36 12 -49q10 -10 26 -10q22 0 35 22q9 16 13 47zM152 278h89q7 39 -6 64q-10 18 -28 18
q-17 0 -30 -14q-20 -21 -25 -68zM295 649l-120 -124l-40 28l100 128zM44 593q0 22 17 39t39 17q19 0 31.5 -13t12.5 -32t-16 -37t-40 -18q-19 0 -31.5 12.5t-12.5 31.5zM280 593q0 22 16.5 39t38.5 17q19 0 32 -13t13 -32q0 -20 -16 -37.5t-41 -17.5q-22 0 -32.5 14
t-10.5 30z" />
    <glyph glyph-name="fi" unicode="fi" horiz-adv-x="441" 
d="M295 729l-15 -120q-11 7 -21 7q-35 0 -42 -63l-14 -106h56l-12 -104h-56l-42 -343h-124l42 343h-45l13 104h45l20 151q7 56 23 81q18 29 51 44.5t69 15.5q22 0 52 -10zM463 602q0 -35 -27 -61.5t-62 -26.5q-29 0 -48.5 20.5t-19.5 49.5q0 35 27 61.5t62 26.5q30 0 49 -20
t19 -50zM428 447l-55 -447h-124l55 447h124z" />
    <glyph glyph-name="fl" unicode="fl" horiz-adv-x="440" 
d="M295 729l-15 -120q-11 7 -21 7q-35 0 -42 -63l-14 -106h56l-12 -104h-56l-42 -343h-124l42 343h-45l13 104h45l20 151q7 56 23 81q18 29 51 44.5t69 15.5q22 0 52 -10zM462 729l-89 -729h-124l90 729h123z" />
    <glyph glyph-name=".notdef" horiz-adv-x="233" 
 />
    <glyph glyph-name=".null" horiz-adv-x="0" 
 />
    <glyph glyph-name="nonmarkingreturn" horiz-adv-x="333" 
 />
    <glyph glyph-name="space" unicode=" " horiz-adv-x="233" 
 />
    <glyph glyph-name="exclam" unicode="!" horiz-adv-x="284" 
d="M260 667l-57 -467h-129l58 467h128zM207 83q0 -37 -28.5 -65.5t-66.5 -28.5q-31 0 -52 21.5t-21 52.5q0 37 28.5 65.5t66.5 28.5q31 0 52 -21t21 -53z" />
    <glyph glyph-name="quotedbl" unicode="&#x22;" horiz-adv-x="403" 
d="M410 667l-23 -268h-91l-23 268h137zM228 667l-23 -268h-91l-23 268h137z" />
    <glyph glyph-name="numbersign" unicode="#" horiz-adv-x="600" 
d="M635 495l-30 -110h-101l-25 -89h102l-30 -111h-103l-52 -185h-127l53 185h-90l-53 -185h-125l52 185h-102l30 111h103l25 89h-102l31 110h102l48 172h125l-48 -172h90l48 172h127l-48 -172h100zM377 385h-90l-25 -89h90z" />
    <glyph glyph-name="dollar" unicode="$" horiz-adv-x="433" 
d="M440 594l-81 -79q-42 50 -94 50q-37 0 -60 -21.5t-23 -57.5q0 -18 10 -32t21 -20.5t31 -15.5q38 -18 56 -27t45.5 -27t40 -35t22.5 -43.5t10 -58.5q0 -86 -53.5 -154t-135.5 -84l-10 -80h-72l10 80q-48 8 -83 25t-67 53l73 98q21 -23 35 -34.5t36.5 -21.5t48.5 -10
q40 0 67 26.5t27 67.5q0 22 -12.5 38.5t-26.5 25t-44 23.5q-38 18 -58.5 30.5t-46.5 34t-38 49t-12 63.5q0 86 55 148.5t130 71.5l9 74h72l-9 -74q76 -11 127 -83z" />
    <glyph glyph-name="percent" unicode="%" horiz-adv-x="718" 
d="M341 549q0 -35 -8.5 -71t-26 -71t-50.5 -57t-76 -22q-56 0 -86 39.5t-30 93.5q0 30 8 63.5t25.5 68t51.5 56.5t79 22q57 0 85 -36.5t28 -85.5zM236 538q0 43 -22 43q-24 0 -34.5 -44t-10.5 -74q0 -44 22 -44q23 0 34 45.5t11 73.5zM602 667l-371 -667h-87l373 667h85z
M683 214q0 -35 -8.5 -71t-26 -71t-50.5 -57t-76 -22q-56 0 -86 39.5t-30 93.5q0 77 43 143.5t121 66.5q57 0 85 -36.5t28 -85.5zM578 203q0 43 -22 43q-24 0 -34.5 -44t-10.5 -74q0 -44 22 -44q23 0 34 45t11 74z" />
    <glyph glyph-name="ampersand" unicode="&#x26;" horiz-adv-x="537" 
d="M454 276l57 -100q-42 -44 -82 -70l57 -106h-140l-21 39q-50 -48 -130 -48q-66 0 -108 43q-51 53 -51 130q0 62 34 119q29 49 86 91q-30 57 -30 121q0 78 47 130q48 52 129 52q64 0 101 -35t37 -90q0 -69 -44 -124q-39 -49 -93 -76l72 -146q36 25 79 70zM261 449
q28 20 42 43q15 23 15 47q0 15 -8 25q-9 11 -25 11t-27 -11q-16 -15 -16 -45q0 -37 19 -70zM274 134l-66 140q-42 -34 -42 -82q0 -35 19 -56q17 -19 45 -19q23 0 44 17z" />
    <glyph glyph-name="quotesingle" unicode="'" horiz-adv-x="221" 
d="M228 667l-24 -268h-90l-23 268h137z" />
    <glyph glyph-name="parenleft" unicode="(" horiz-adv-x="303" 
d="M210 737l118 -27q-149 -285 -149 -574q0 -154 43 -307l-124 -30q-50 159 -50 328q0 325 162 610z" />
    <glyph glyph-name="parenright" unicode=")" horiz-adv-x="303" 
d="M90 707l125 30q49 -151 49 -327q0 -329 -162 -611l-117 28q149 285 149 574q0 150 -44 306z" />
    <glyph glyph-name="asterisk" unicode="*" horiz-adv-x="434" 
d="M417 595l-112 -32l58 -92l-55 -33l-52 91l-76 -92l-47 37l80 92l-102 30l20 62l106 -37l11 113l64 -8l-18 -109l108 38z" />
    <glyph glyph-name="plus" unicode="+" 
d="M480 282h-155v-155h-123v155h-155v114h155v156h123v-156h155v-114z" />
    <glyph glyph-name="comma" unicode="," horiz-adv-x="246" 
d="M214 121l-164 -270h-87l120 270h131z" />
    <glyph glyph-name="hyphen" unicode="-" horiz-adv-x="268" 
d="M213 191h-168l14 108h168z" />
    <glyph glyph-name="period" unicode="." horiz-adv-x="246" 
d="M188 83q0 -37 -29 -66t-66 -29q-31 0 -52 22t-21 53q0 37 28.5 65.5t66.5 28.5q31 0 52 -21t21 -53z" />
    <glyph glyph-name="slash" unicode="/" horiz-adv-x="470" 
d="M525 729l-477 -922h-110l480 922h107z" />
    <glyph glyph-name="zero" unicode="0" horiz-adv-x="433" 
d="M420 432q0 -81 -18 -171.5t-51 -152.5q-64 -119 -165 -119q-147 0 -147 239q0 102 20 191q10 44 26 85.5t41.5 82t63.5 65.5t83 25q147 0 147 -245zM298 458q0 101 -42 101q-13 0 -24 -9.5t-19 -27.5t-14 -36t-11 -44t-7.5 -42t-5.5 -38.5t-4 -26.5q-11 -75 -11 -124
q0 -100 42 -100q13 0 24 9.5t19.5 27.5t14.5 35.5t11 44t7.5 42t6 39t3.5 26.5q10 68 10 123z" />
    <glyph glyph-name="one" unicode="1" horiz-adv-x="433" 
d="M348 667l-82 -667h-127l68 551h-62l14 116h189z" />
    <glyph glyph-name="two" unicode="2" horiz-adv-x="433" 
d="M193 435h-120q3 54 13 94.5t31.5 75.5t60.5 53.5t95 18.5q158 0 158 -143q0 -87 -65 -187q-2 -4 -13.5 -20.5t-17.5 -25.5q-40 -62 -118 -186h152l-14 -115h-344q189 287 191 291q30 46 47.5 74.5t37 75.5t19.5 82q0 62 -43 62q-63 0 -70 -150z" />
    <glyph glyph-name="three" unicode="3" horiz-adv-x="433" 
d="M204 479h-113q9 80 32 120q45 78 147 78q66 0 106 -36.5t40 -102.5q0 -148 -103 -193q83 -26 83 -129q0 -99 -60.5 -163t-158.5 -64q-70 0 -112 38t-42 107q0 22 4 41h121q-4 -20 -4 -32q0 -22 11 -36t32 -14q27 0 44 26.5t22 54.5t5 55q0 41 -22 52.5t-67 11.5l13 112
q64 0 86 22q27 27 27 92q0 49 -38 49q-47 0 -53 -89z" />
    <glyph glyph-name="four" unicode="4" horiz-adv-x="433" 
d="M407 271l-14 -114h-54l-20 -157h-125l19 157h-190l12 103l224 407h142l-48 -396h54zM257 515l-126 -244h96z" />
    <glyph glyph-name="five" unicode="5" horiz-adv-x="433" 
d="M423 667l-14 -114h-160l-31 -109q58 -5 90 -21q82 -41 82 -155q0 -121 -64.5 -200t-183.5 -79q-61 0 -123 31l36 115q35 -32 77 -32q54 0 86 43t32 99q0 50 -32 74t-84 24q-24 0 -54 -5l92 329h251z" />
    <glyph glyph-name="six" unicode="6" horiz-adv-x="433" 
d="M361 667l-157 -263q45 37 87 37q56 0 83.5 -48t27.5 -108q0 -51 -12.5 -101t-37 -94.5t-67.5 -72.5t-97 -28q-79 0 -118 50.5t-39 131.5q0 37 6 74.5t20 78t25.5 70t36.5 74t37 66t41.5 70.5t38.5 63h125zM271 248q0 76 -40 76q-24 0 -41.5 -28t-24 -58.5t-6.5 -54.5
q0 -80 40 -80q26 0 43.5 29t23 59.5t5.5 56.5z" />
    <glyph glyph-name="seven" unicode="7" horiz-adv-x="433" 
d="M461 667l-329 -667h-134l271 552h-176l14 115h354z" />
    <glyph glyph-name="eight" unicode="8" horiz-adv-x="433" 
d="M415 524q0 -44 -20 -84q-15 -31 -35 -49t-53 -32q53 -23 73.5 -54.5t20.5 -89.5q0 -93 -60.5 -159.5t-153.5 -66.5q-72 0 -119 46t-47 118q0 98 55 157q25 27 82 49q-73 33 -73 120q0 80 54 139t133 59q67 0 105 -42.5t38 -110.5zM287 525q0 48 -30 48q-26 0 -37 -30
t-11 -61q0 -55 30 -55q25 0 36.5 33.5t11.5 64.5zM268 217q0 78 -44 78q-24 0 -40.5 -23t-22 -48.5t-5.5 -49.5q0 -71 45 -71q31 0 49 39t18 75z" />
    <glyph glyph-name="nine" unicode="9" horiz-adv-x="433" 
d="M97 0l157 262q-44 -37 -86 -37q-57 0 -84 48t-27 109q0 70 20.5 134.5t71 112.5t122.5 48q78 0 117.5 -50.5t39.5 -130.5q0 -44 -10.5 -92t-21 -81.5t-39.5 -89.5t-40 -75.5t-50 -83.5t-45 -74h-125zM299 484q0 79 -40 79q-36 0 -54 -49.5t-18 -94.5q0 -77 40 -77
q25 0 42.5 28t23.5 58.5t6 55.5z" />
    <glyph glyph-name="colon" unicode=":" horiz-adv-x="246" 
d="M225 381q0 -38 -28.5 -66t-66.5 -28q-31 0 -52 21t-21 53q0 37 28.5 65.5t66.5 28.5q31 0 52 -21t21 -53zM188 86q0 -38 -29 -66.5t-66 -28.5q-31 0 -52 22t-21 53q0 37 28.5 65.5t66.5 28.5q31 0 52 -21t21 -53z" />
    <glyph glyph-name="semicolon" unicode=";" horiz-adv-x="246" 
d="M244 383q0 -37 -28.5 -65.5t-66.5 -28.5q-31 0 -52 21.5t-21 52.5q0 37 29 66t66 29q32 0 52.5 -21.5t20.5 -53.5zM214 121l-164 -270h-87l120 270h131z" />
    <glyph glyph-name="less" unicode="&#x3c;" 
d="M466 63l-433 219v103l433 219v-122l-303 -149l303 -149v-121z" />
    <glyph glyph-name="equal" unicode="=" 
d="M480 372h-433v107h433v-107zM480 201h-433v108h433v-108z" />
    <glyph glyph-name="greater" unicode="&#x3e;" 
d="M493 281l-433 -218v122l303 149l-303 149v121l433 -219v-104z" />
    <glyph glyph-name="question" unicode="?" horiz-adv-x="408" 
d="M183 482h-122q8 57 21 88q21 51 67 78.5t102 27.5q76 0 118.5 -45.5t42.5 -121.5q0 -85 -50 -157q-29 -41 -81 -58l-11 -86h-128l20 164q14 -2 20 -2q45 0 67 40t22 89q0 62 -37 62q-25 0 -37.5 -25t-13.5 -54zM273 83q0 -37 -28.5 -65.5t-65.5 -28.5q-31 0 -52 21
t-21 53q0 37 28 65.5t66 28.5q31 0 52 -21t21 -53z" />
    <glyph glyph-name="at" unicode="@" horiz-adv-x="733" 
d="M557 96l10 -76q-93 -32 -210 -32q-141 0 -227.5 79.5t-86.5 218.5q0 158 118.5 275t277.5 117q120 0 201 -69.5t81 -188.5q0 -87 -46 -162q-27 -43 -66.5 -74t-82.5 -31q-27 0 -47 15.5t-23 40.5q-51 -64 -133 -64q-55 0 -88.5 39t-33.5 95q0 80 60.5 151.5t139.5 71.5
q69 0 93 -51l13 41l85 -1l-61 -192q-13 -42 -13 -52q0 -25 21 -25q23 0 51 33q26 29 41 72t15 84q0 91 -60 141t-152 50q-126 0 -217 -92t-91 -218q0 -93 53 -156q61 -72 188 -72q97 0 190 32zM459 352q0 27 -14.5 44.5t-41.5 17.5q-42 0 -73 -38.5t-31 -82.5
q0 -27 15.5 -44.5t42.5 -17.5q43 0 72.5 38.5t29.5 82.5z" />
    <glyph glyph-name="A" unicode="A" horiz-adv-x="453" 
d="M422 0h-138l-11 112h-131l-37 -112h-130l235 667h137zM175 215h91q-16 211 -13 280q-15 -73 -23 -103q-7 -28 -55 -177z" />
    <glyph glyph-name="B" unicode="B" horiz-adv-x="429" 
d="M105 667h139q82 0 126 -43q45 -44 45 -122q0 -77 -44 -122q-28 -29 -65 -38q40 -14 61 -46q22 -34 22 -87q0 -91 -56 -147q-61 -62 -172 -62h-138zM222 558l-21 -165q40 0 63 25q27 28 27 74q0 30 -15 47q-18 19 -54 19zM189 291l-22 -177q39 0 67 26q28 27 28 75
q0 38 -21 59q-17 17 -46 17h-6z" />
    <glyph glyph-name="C" unicode="C" horiz-adv-x="418" 
d="M367 155l-19 -138q-48 -24 -101 -24q-81 0 -133 53q-68 70 -68 206q0 97 33 195.5t96 157.5q72 69 179 69q45 0 84 -19l-19 -139q-31 32 -73 32t-80 -36q-37 -37 -58.5 -111t-21.5 -139q0 -71 29 -109q26 -33 67 -33q47 0 85 35z" />
    <glyph glyph-name="D" unicode="D" horiz-adv-x="481" 
d="M105 667h109q83 0 130 -23q118 -58 118 -241q0 -92 -27.5 -180.5t-84.5 -146.5q-73 -76 -200 -76h-127zM168 122h8q40 0 71.5 27t48.5 69.5t25.5 84.5t8.5 79q0 162 -109 168z" />
    <glyph glyph-name="E" unicode="E" horiz-adv-x="350" 
d="M366 667l-15 -124h-131l-18 -144h116l-16 -126h-115l-19 -150h133l-15 -123h-263l82 667h261z" />
    <glyph glyph-name="F" unicode="F" horiz-adv-x="343" 
d="M367 667l-15 -123h-132l-17 -142h118l-15 -127h-119l-34 -275h-130l82 667h262z" />
    <glyph glyph-name="G" unicode="G" horiz-adv-x="517" 
d="M499 519l-133 -50q0 92 -56 92q-36 0 -63.5 -38t-40 -94t-18.5 -103.5t-6 -82.5q0 -134 76 -134t97 144h-83l14 118h212q-14 -130 -35 -192q-27 -82 -84.5 -136t-137.5 -54q-52 0 -92 23t-62 62t-32.5 83.5t-10.5 93.5q0 92 22 176q28 104 94 177t164 73q73 0 118 -42
t57 -116z" />
    <glyph glyph-name="H" unicode="H" horiz-adv-x="494" 
d="M496 667l-81 -667h-130l36 295h-131l-37 -295h-130l82 667h130l-30 -247h131l30 247h130z" />
    <glyph glyph-name="I" unicode="I" horiz-adv-x="232" 
d="M235 667l-82 -667h-130l82 667h130z" />
    <glyph glyph-name="J" unicode="J" horiz-adv-x="305" 
d="M308 667l-57 -462q-10 -78 -28 -116q-22 -47 -63.5 -73.5t-93.5 -26.5t-93 21l16 132q27 -37 64 -37q26 0 41.5 18t19.5 35t7 47l57 462h130z" />
    <glyph glyph-name="K" unicode="K" horiz-adv-x="445" 
d="M477 667l-163 -311l93 -356h-133l-79 339l-42 -339h-130l82 667h130l-37 -298l147 298h132z" />
    <glyph glyph-name="L" unicode="L" horiz-adv-x="324" 
d="M305 125l-16 -125h-266l82 667h130l-66 -542h136z" />
    <glyph glyph-name="M" unicode="M" horiz-adv-x="636" 
d="M600 667l-13 -667h-133l26 480q-10 -60 -38 -154l-98 -326h-100q-22 280 -25 336q0 11 -2 46t-2 54q0 14 2 44l-79 -480h-140l140 667h171l16 -394l101 394h174z" />
    <glyph glyph-name="N" unicode="N" horiz-adv-x="510" 
d="M512 667l-82 -667h-122l-112 402q0 -57 -4 -86l-39 -316h-130l82 667h123l112 -403q-1 16 -1 48q0 29 2 44l39 311h132z" />
    <glyph glyph-name="O" unicode="O" horiz-adv-x="534" 
d="M517 434q0 -136 -35 -235q-31 -90 -95 -150t-151 -60q-48 0 -91 26t-67 68q-35 59 -35 158q0 101 22 182q27 107 93 180.5t166 73.5q94 0 143.5 -72.5t49.5 -170.5zM378 427q0 28 -4.5 54t-21.5 50.5t-45 24.5q-27 0 -49 -22t-35.5 -56t-21 -63.5t-11.5 -56.5
q-8 -49 -8 -113q0 -19 3 -39t10 -41.5t22 -35t36 -13.5q27 0 49 22t35.5 56t21 63.5t11.5 56.5q8 49 8 113z" />
    <glyph glyph-name="P" unicode="P" horiz-adv-x="428" 
d="M105 667h158q71 0 107 -22q70 -43 70 -147q0 -109 -71.5 -170.5t-181.5 -53.5l-34 -274h-130zM200 385h8q103 0 103 104q0 37 -15 54t-51 17h-23z" />
    <glyph glyph-name="Q" unicode="Q" horiz-adv-x="541" 
d="M403 -57l-48 80q-52 -34 -111 -34q-78 0 -131 51q-70 67 -70 208q0 35 4 73t15 92t37 106.5t65 89.5q69 68 158 68q77 0 130 -55q65 -67 65 -205q0 -94 -20 -177q-20 -84 -68 -147l58 -97zM326 255l28 -56q25 109 25 220q0 90 -30 120q-17 18 -40 18q-29 0 -51 -22
q-34 -33 -57 -124q-18 -74 -18 -159t32 -119q16 -17 41 -17q20 0 36 11l-46 74z" />
    <glyph glyph-name="R" unicode="R" horiz-adv-x="466" 
d="M105 667h141q94 0 139 -32q59 -43 59 -135q0 -129 -116 -197l77 -303h-136l-78 307l-38 -307h-130zM222 563l-22 -183q7 -1 20 -1q47 0 72 31.5t25 79.5q0 73 -70 73h-25z" />
    <glyph glyph-name="S" unicode="S" horiz-adv-x="385" 
d="M374 645l-16 -129q-45 43 -89 43q-33 0 -53.5 -21.5t-20.5 -54.5q0 -26 17 -49t41 -42t48 -40t41 -53.5t17 -72.5q0 -97 -59.5 -167t-154.5 -70q-65 0 -110 34l16 126q48 -36 91 -36q38 0 62.5 23.5t24.5 61.5q0 16 -3 23q-7 17 -31 37q-10 9 -32 25q-51 38 -74.5 74.5
t-23.5 93.5q0 90 55 158t143 68q57 0 111 -32z" />
    <glyph glyph-name="T" unicode="T" horiz-adv-x="334" 
d="M388 667l-15 -122h-102l-67 -545h-130l67 545h-102l15 122h334z" />
    <glyph glyph-name="U" unicode="U" horiz-adv-x="491" 
d="M494 667l-61 -497q-9 -67 -34 -102q-56 -79 -186 -79q-78 0 -125 36t-47 111q0 10 5 52l59 479h130l-54 -443q-5 -43 -5 -50q0 -65 55 -65q11 0 20.5 2t16.5 7t12.5 9t9.5 13t6.5 14t5 17t3 16.5t2.5 19t2 17.5l55 443h130z" />
    <glyph glyph-name="V" unicode="V" horiz-adv-x="478" 
d="M532 667l-264 -667h-106l-108 667h140l38 -258q10 -68 10 -125v-56q5 19 13 52.5t15.5 61.5t16.5 52l6 15l104 258h135z" />
    <glyph glyph-name="W" unicode="W" horiz-adv-x="684" 
d="M734 667l-217 -667h-113l-28 255q-7 59 -7 102q0 39 6 117q-19 -100 -60 -212l-94 -262h-113l-51 667h133l17 -293q2 -50 2 -74q0 -32 -6 -94q28 108 38 140l105 321h102l26 -335q4 -52 4 -79q0 -8 -0.5 -23.5t-0.5 -23.5q2 19 16 92q0 2 5.5 28t9.5 39q9 27 11 35
l79 267h136z" />
    <glyph glyph-name="X" unicode="X" horiz-adv-x="436" 
d="M479 667l-180 -323l109 -344h-151q-3 10 -13 47t-15.5 58.5t-11 51t-5.5 49.5q-18 -50 -94 -206h-146l181 344l-99 323h146q3 -12 13.5 -46t15.5 -53t10 -47t5 -50q7 24 20 52.5t21.5 45.5t28 52.5t25.5 45.5h140z" />
    <glyph glyph-name="Y" unicode="Y" horiz-adv-x="440" 
d="M494 667l-199 -382l-36 -285h-130l35 285l-110 382h143l33 -153q6 -23 14 -91q13 36 38 94l67 150h145z" />
    <glyph glyph-name="Z" unicode="Z" horiz-adv-x="449" 
d="M485 667l-291 -542h207l-16 -125h-395l285 541h-191l15 126h386z" />
    <glyph glyph-name="bracketleft" unicode="[" horiz-adv-x="364" 
d="M390 729l-16 -123h-130l-83 -677h132l-15 -122h-263l113 922h262z" />
    <glyph glyph-name="backslash" unicode="\" horiz-adv-x="543" 
d="M66 729h107l366 -922h-110z" />
    <glyph glyph-name="bracketright" unicode="]" horiz-adv-x="364" 
d="M358 729l-113 -922h-261l15 123h130l83 677h-132l15 122h263z" />
    <glyph glyph-name="asciicircum" unicode="^" 
d="M507 335h-130l-114 234l-114 -234h-129l163 332h161z" />
    <glyph glyph-name="underscore" unicode="_" 
d="M472 -148h-500v100h500v-100z" />
    <glyph glyph-name="grave" unicode="`" 
d="M337 553l-65 -36l-97 122l94 42z" />
    <glyph glyph-name="a" unicode="a" horiz-adv-x="390" 
d="M377 447l-54 -447h-124l6 51q-39 -60 -88 -60q-29 0 -49 16.5t-29.5 44t-13 52.5t-3.5 53q0 63 11 115q13 69 48 126t92 57q55 0 74 -63l7 55h123zM238 276q0 67 -29 67q-32 0 -47 -60t-15 -108q0 -72 32 -72q17 0 29.5 21.5t18.5 52.5t8.5 56t2.5 43z" />
    <glyph glyph-name="b" unicode="b" horiz-adv-x="390" 
d="M224 729l-41 -337q35 63 90 63q95 0 95 -160q0 -64 -11 -116q-8 -42 -23.5 -80.5t-47.5 -73t-72 -34.5q-49 0 -73 60l-6 -51h-124l90 729h123zM242 272q0 71 -32 71q-17 0 -30 -21t-19 -52t-8.5 -56.5t-2.5 -42.5q0 -68 30 -68q32 0 47 60.5t15 108.5z" />
    <glyph glyph-name="c" unicode="c" horiz-adv-x="277" 
d="M284 443l-14 -110q-12 15 -33 15q-45 0 -66.5 -50t-21.5 -103q0 -87 56 -87q19 0 39 13l-14 -114q-38 -16 -72 -16q-70 0 -103 53t-33 128q0 60 19 120t54 103q49 61 128 61q31 0 61 -13z" />
    <glyph glyph-name="d" unicode="d" horiz-adv-x="394" 
d="M414 729l-91 -729h-124l6 51q-39 -60 -88 -60q-29 0 -49 16.5t-29.5 44t-13 52.5t-3.5 53q0 63 11 115q6 30 16 58.5t26.5 58.5t42 48t55.5 18q55 0 74 -63l44 337h123zM238 276q0 67 -29 67q-32 0 -47 -60t-15 -108q0 -72 32 -72q17 0 29.5 21.5t18.5 52.5t8.5 56
t2.5 43z" />
    <glyph glyph-name="e" unicode="e" horiz-adv-x="367" 
d="M222 154h104q-9 -78 -59 -125q-40 -38 -103 -38q-60 0 -97 38q-46 50 -46 138q0 64 22 131t65 110q47 47 111 47q49 0 83 -32q44 -43 44 -134q0 -36 -9 -88h-195q-6 -29 -6 -57q0 -36 12 -49q10 -10 26 -10q22 0 35 22q9 16 13 47zM152 278h89q2 16 2 24q0 25 -8 40
q-10 18 -28 18q-17 0 -30 -14q-20 -21 -25 -68z" />
    <glyph glyph-name="f" unicode="f" horiz-adv-x="240" 
d="M295 729l-15 -120q-11 7 -21 7q-35 0 -42 -63l-14 -106h56l-12 -104h-56l-42 -343h-124l42 343h-45l13 104h45l20 151q7 56 23 81q18 29 51 44.5t69 15.5q22 0 52 -10z" />
    <glyph glyph-name="g" unicode="g" horiz-adv-x="394" 
d="M381 447l-59 -470q-7 -61 -23 -90q-25 -46 -69.5 -69.5t-99.5 -23.5q-65 0 -100.5 35.5t-35.5 100.5q0 18 1 19h108q0 -54 39 -54q16 0 27.5 10.5t18 32t9 33t5.5 33.5l8 52q-15 -21 -25 -32t-28 -22t-38 -11q-29 0 -49.5 17t-30.5 44t-14.5 53t-4.5 53q0 38 7.5 84.5
t23 96.5t47 83t72.5 33q54 0 81 -62l7 54h123zM238 275q0 68 -30 68q-22 0 -37.5 -35.5t-20 -70.5t-4.5 -60q0 -72 33 -72q17 0 29.5 21t18.5 51.5t8.5 55t2.5 42.5z" />
    <glyph glyph-name="h" unicode="h" horiz-adv-x="388" 
d="M224 729l-43 -352q50 78 115 78q68 0 68 -82q0 -16 -7 -74l-36 -299h-124l32 255q3 23 3 46q0 29 -23 29q-13 0 -21.5 -6.5t-13 -22t-5.5 -22t-3 -24.5l-31 -255h-124l90 729h123z" />
    <glyph glyph-name="i" unicode="i" horiz-adv-x="203" 
d="M225 602q0 -35 -27 -61.5t-62 -26.5q-29 0 -48.5 20.5t-19.5 49.5q0 35 27 61.5t62 26.5q30 0 49 -20t19 -50zM190 447l-55 -447h-124l55 447h124z" />
    <glyph glyph-name="j" unicode="j" horiz-adv-x="201" 
d="M223 602q0 -35 -27 -61.5t-62 -26.5q-29 0 -48.5 20.5t-19.5 49.5q0 35 27 61.5t62 26.5q30 0 49 -20t19 -50zM188 447l-80 -653h-124l80 653h124z" />
    <glyph glyph-name="k" unicode="k" horiz-adv-x="383" 
d="M391 447l-122 -198l89 -249h-130l-64 233l-29 -233h-124l90 729h123l-55 -454l90 172h132z" />
    <glyph glyph-name="l" unicode="l" horiz-adv-x="204" 
d="M224 729l-89 -729h-124l90 729h123z" />
    <glyph glyph-name="m" unicode="m" horiz-adv-x="573" 
d="M190 447l-9 -72q55 80 119 80q60 0 67 -76q52 76 115 76q35 0 51.5 -23t16.5 -59q0 -18 -4 -54l-39 -319h-124l31 253q4 30 4 45q0 33 -24 33q-6 0 -11 -1.5t-9 -5.5t-7 -7.5t-5 -10t-3.5 -10.5t-2.5 -11.5t-1.5 -11t-1.5 -11t-1 -9.5l-31 -253h-124l32 261q0 4 1 11.5
t1.5 13.5t0.5 11q0 32 -22 32q-16 0 -26 -13t-12.5 -24.5t-4.5 -30.5l-32 -261h-124l55 447h124z" />
    <glyph glyph-name="n" unicode="n" horiz-adv-x="388" 
d="M190 447l-9 -70q50 78 115 78q68 0 68 -82q0 -16 -7 -74l-36 -299h-124l32 255q3 23 3 46q0 29 -23 29q-13 0 -21.5 -6.5t-13 -22t-5.5 -22t-3 -24.5l-31 -255h-124l55 447h124z" />
    <glyph glyph-name="o" unicode="o" horiz-adv-x="386" 
d="M363 289q0 -40 -5.5 -79t-20 -79.5t-36 -71t-56.5 -49.5t-80 -19q-53 0 -86 28t-44.5 67t-11.5 91q0 65 19 125.5t66 106.5t114 46q70 0 105.5 -46.5t35.5 -119.5zM237 277q0 66 -29 66q-31 0 -46 -60.5t-15 -107.5q0 -72 31 -72q22 0 36.5 38t18.5 73.5t4 62.5z" />
    <glyph glyph-name="p" unicode="p" horiz-adv-x="389" 
d="M189 447l-7 -55q35 63 90 63q95 0 95 -160q0 -64 -11 -116q-8 -42 -23.5 -80.5t-47.5 -73t-72 -34.5q-49 0 -73 60l-31 -257h-124l80 653h124zM241 272q0 71 -32 71q-17 0 -30 -21t-19 -52t-8.5 -56.5t-2.5 -42.5q0 -68 31 -68q17 0 30 20.5t19 51t9 55.5t3 42z" />
    <glyph glyph-name="q" unicode="q" horiz-adv-x="390" 
d="M377 447l-80 -653h-124l32 257q-39 -60 -88 -60q-29 0 -49 16.5t-29.5 44t-13 52.5t-3.5 53q0 63 11 115q6 30 16 58.5t26.5 58.5t42 48t55.5 18q55 0 74 -63l7 55h123zM238 276q0 67 -29 67q-32 0 -47 -60t-15 -108q0 -72 32 -72q17 0 29.5 21.5t18.5 52.5t8.5 56
t2.5 43z" />
    <glyph glyph-name="r" unicode="r" horiz-adv-x="274" 
d="M293 463l-15 -121q-12 2 -18 2q-53 0 -71 -26.5t-25 -84.5l-29 -233h-124l55 447h124l-7 -55q27 34 50 50t60 21z" />
    <glyph glyph-name="s" unicode="s" horiz-adv-x="310" 
d="M318 417l-60 -91q-26 30 -55 30q-16 0 -26 -10.5t-10 -26.5q0 -14 18.5 -27t40.5 -24t40.5 -37t18.5 -62q0 -72 -45.5 -125t-116.5 -53q-65 0 -126 51l66 89q30 -28 57 -28q18 0 30.5 12t12.5 30q0 15 -19 29t-42 25.5t-42 38.5t-19 66q0 68 48 109.5t117 41.5
q63 0 112 -38z" />
    <glyph glyph-name="t" unicode="t" horiz-adv-x="226" 
d="M251 447l-12 -104h-50l-43 -343h-123l42 343h-42l13 104h42l16 127h123l-16 -127h50z" />
    <glyph glyph-name="u" unicode="u" horiz-adv-x="387" 
d="M374 447l-36 -296q-6 -57 -32 -91q-24 -32 -63 -50.5t-80 -18.5q-57 0 -96.5 32.5t-39.5 88.5q0 8 5 56l34 279h124l-32 -256q-4 -34 -4 -51q0 -33 25 -33q7 0 13 3t10 9.5t7 12.5t4.5 15.5t2.5 15.5t2 16t1 12l32 256h123z" />
    <glyph glyph-name="v" unicode="v" horiz-adv-x="361" 
d="M391 447l-182 -447h-114l-71 447h121q26 -223 29 -253q4 13 90 253h127z" />
    <glyph glyph-name="w" unicode="w" horiz-adv-x="571" 
d="M601 447l-176 -447h-101q-31 203 -33 280q-18 -70 -95 -280h-102l-70 447h119q24 -188 28 -263l90 263h105q23 -198 25 -263q9 32 21 63l73 200h116z" />
    <glyph glyph-name="x" unicode="x" horiz-adv-x="380" 
d="M392 447l-137 -207l100 -240h-130l-24 65q-16 43 -23 70q-11 -22 -38 -65l-44 -70h-127l156 240l-84 207h126l16 -41q10 -24 18 -67q13 31 34 62l30 46h127z" />
    <glyph glyph-name="y" unicode="y" horiz-adv-x="359" 
d="M389 447l-266 -653h-120l93 215l-74 438h123l22 -163q8 -60 9 -92l89 255h124z" />
    <glyph glyph-name="z" unicode="z" horiz-adv-x="336" 
d="M349 447l-178 -344h122l-13 -103h-295l182 343h-125l12 104h295z" />
    <glyph glyph-name="braceleft" unicode="{" horiz-adv-x="504" 
d="M458 727l-13 -109q-6 1 -18 1q-43 0 -59 -7q-21 -9 -29 -52q-3 -17 -9.5 -73.5t-14 -101.5t-18.5 -66q-12 -25 -55 -51q27 -19 37 -38.5t10 -51.5q0 -12 -2 -36q-2 -16 -8 -67.5t-11 -85.5q-4 -28 -4 -34q0 -39 62 -39q6 0 16.5 0.5t14.5 0.5l-13 -108q-42 -2 -63 -2
q-71 0 -107.5 21.5t-36.5 87.5q0 14 4 49l22 169q1 7 1 22q0 29 -9.5 44t-36.5 21l13 104q31 7 46 26t19 51l23 184q10 82 51 112.5t126 30.5q10 0 30.5 -1t31.5 -1z" />
    <glyph glyph-name="bar" unicode="|" 
d="M314 -250h-123v1000h123v-1000z" />
    <glyph glyph-name="braceright" unicode="}" horiz-adv-x="503" 
d="M409 317l-12 -104q-57 -13 -65 -78l-22 -185q-10 -79 -49.5 -111t-120.5 -32q-47 0 -70 2l14 108h31q37 0 54 11.5t21 46.5q0 9 1 13l19 156q6 48 21.5 75t53.5 50q-26 19 -36 39t-10 52q0 33 12 110.5t12 110.5q0 39 -65 39q-5 0 -14.5 -0.5t-13.5 -0.5l13 108
q48 2 72 2q66 0 101 -23.5t35 -86.5q0 -5 -0.5 -11t-1.5 -13t-1 -11l-23 -181q-2 -18 -2 -28q0 -50 46 -58z" />
    <glyph glyph-name="asciitilde" unicode="~" horiz-adv-x="667" 
d="M559 745l70 -40q-28 -58 -46 -79q-46 -53 -112 -53q-32 0 -94.5 26t-91.5 26q-28 0 -43.5 -16t-30.5 -46l-68 44q24 63 58.5 100t91.5 37q35 0 98 -26t93 -26q27 0 43 13t32 40z" />
    <glyph glyph-name="uni00A0" unicode="&#xa0;" horiz-adv-x="233" 
 />
    <glyph glyph-name="exclamdown" unicode="&#xa1;" horiz-adv-x="284" 
d="M248 380q0 -38 -28 -66t-66 -28q-31 0 -52 21t-21 53q0 38 28.5 66.5t65.5 28.5q32 0 52.5 -21.5t20.5 -53.5zM213 243l-57 -466h-129l57 466h129z" />
    <glyph glyph-name="cent" unicode="&#xa2;" horiz-adv-x="433" 
d="M371 554l-14 -112q-17 13 -31 13q-41 0 -64 -54t-23 -102q0 -82 54 -82q19 0 38 11l-14 -112q-29 -16 -48 -17l-10 -76h-72l11 80q-26 8 -45 34q-43 49 -43 129q0 57 13.5 115.5t47 111t81.5 68.5l12 92h72l-10 -86q25 -4 45 -13z" />
    <glyph glyph-name="sterling" unicode="&#xa3;" horiz-adv-x="433" 
d="M437 514l-116 -33q2 12 2 27q0 33 -15 48q-13 13 -38 13q-30 0 -46 -19q-20 -23 -20 -71q0 -27 15 -111h112l-10 -80h-93q7 -23 7 -44q0 -65 -45 -117q26 -5 56 -21q28 -15 54 -15q37 0 61 35l67 -54q-25 -39 -50 -58q-33 -25 -80 -25q-35 0 -87 18q-61 21 -87 21
q-37 0 -78 -28l-43 71q45 32 82 43q30 47 30 105q0 37 -13 69h-85l10 80h60q-13 53 -13 105q0 96 58 152q53 52 147 52q81 0 122 -42q37 -38 37 -101q0 -13 -1 -20z" />
    <glyph glyph-name="currency" unicode="&#xa4;" horiz-adv-x="667" 
d="M662 136l-67 -67l-102 102q-66 -46 -141 -46q-70 0 -141 45l-102 -101l-67 67l102 102q-44 62 -44 138q0 72 45 137l-104 103l68 68l103 -103q65 44 140 44q73 0 138 -43l102 101l67 -67l-101 -101q46 -71 46 -140q0 -70 -45 -137zM491 375q0 58 -40.5 99t-98.5 41
t-99 -41t-41 -99t41 -99t99 -41t98.5 41t40.5 99z" />
    <glyph glyph-name="yen" unicode="&#xa5;" horiz-adv-x="433" 
d="M491 667l-128 -228h80l-9 -68h-109l-30 -52h133l-8 -68h-133l-31 -251h-131l31 251h-137l8 68h138l-18 52h-113l8 68h83l-75 228h143l44 -175q1 -5 3.5 -18.5t4.5 -20.5q5 13 17 39l83 175h146z" />
    <glyph glyph-name="brokenbar" unicode="&#xa6;" 
d="M314 335h-124v415h124v-415zM314 -250h-124v415h124v-415z" />
    <glyph glyph-name="section" unicode="&#xa7;" horiz-adv-x="427" 
d="M409 607v-24q0 -14 -1 -21h-113v19q0 60 -32 60q-22 0 -34.5 -23t-12.5 -48q0 -36 27 -64.5t67.5 -57.5t57.5 -53q19 -33 19 -93q0 -145 -92 -208q39 -38 39 -118q0 -75 -48.5 -128.5t-122.5 -53.5q-62 0 -98 38.5t-36 101.5q0 8 0.5 24t0.5 24h114q-2 -14 -2 -43
q0 -46 33 -46q23 0 35 24.5t12 49.5q0 32 -18 53.5t-43 35.5t-50.5 31.5t-43.5 54t-18 90.5q0 132 99 204q-45 50 -45 108q0 75 48 135.5t125 60.5q59 0 96 -37t37 -96zM275 300q0 70 -45 70q-26 0 -43 -27.5t-22 -57t-5 -55.5q0 -73 44 -73q71 0 71 143z" />
    <glyph glyph-name="dieresis" unicode="&#xa8;" horiz-adv-x="474" 
d="M433 590q0 -30 -22.5 -51.5t-52.5 -21.5q-24 0 -40 17t-16 41q0 29 22 51.5t51 22.5q25 0 41.5 -17t16.5 -42zM260 590q0 -29 -22.5 -51t-51.5 -22q-25 0 -41 16.5t-16 41.5q0 29 22 51.5t51 22.5q25 0 41.5 -17t16.5 -42z" />
    <glyph glyph-name="copyright" unicode="&#xa9;" horiz-adv-x="762" 
d="M741 333q0 -144 -101 -246t-245 -102t-246 102t-102 246t102 246t246 102t245 -102t101 -246zM673 333q0 118 -80.5 203t-197.5 85q-118 0 -199 -84.5t-81 -202.5t81.5 -203t198.5 -85q116 0 197 85t81 202zM472 219v-82q-24 -8 -44 -8q-85 0 -138.5 60.5t-53.5 146.5
q0 81 53.5 141.5t133.5 60.5q23 0 49 -8v-80q-20 5 -36 5q-49 0 -76 -34.5t-27 -84.5q0 -48 27.5 -86t73.5 -38q17 0 38 7z" />
    <glyph glyph-name="ordfeminine" unicode="&#xaa;" horiz-adv-x="285" 
d="M296 667l-36 -295h-86l2 20q-23 -25 -50 -25q-34 0 -48.5 34t-14.5 83q0 30 5 60.5t16 60.5t31.5 49t47.5 19t45 -26l3 20h85zM256 341l-6 -44h-210l6 44h210zM199 567q0 34 -15 34q-18 0 -26.5 -35.5t-8.5 -70.5q0 -54 17 -54q31 0 33 126z" />
    <glyph glyph-name="guillemotleft" unicode="&#xab;" horiz-adv-x="390" 
d="M382 406l-110 -172l69 -168l-71 -38l-89 206l139 206zM231 406l-110 -172l69 -168l-71 -38l-89 206l139 206z" />
    <glyph glyph-name="logicalnot" unicode="&#xac;" 
d="M455 0h-123v156h-310v111h433v-267z" />
    <glyph glyph-name="uni00AD" unicode="&#xad;" horiz-adv-x="268" 
d="M213 191h-168l14 108h168z" />
    <glyph glyph-name="registered" unicode="&#xae;" horiz-adv-x="762" 
d="M532 145h-97l-64 169v-169h-90v390h94q61 0 101.5 -25.5t40.5 -82.5q0 -76 -60 -105zM371 370h6q27 0 38 12.5t11 41.5q0 22 -10 32.5t-37 10.5h-8v-97zM673 333q0 118 -80.5 203t-197.5 85q-118 0 -199 -84.5t-81 -202.5t81.5 -203t198.5 -85q116 0 197 85t81 202z
M741 333q0 -144 -101 -246t-245 -102t-246 102t-102 246t102 246t246 102t245 -102t101 -246z" />
    <glyph glyph-name="macron" unicode="&#xaf;" 
d="M438 611l-10 -80h-282l10 80h282z" />
    <glyph glyph-name="degree" unicode="&#xb0;" 
d="M438 511q0 -63 -45 -106.5t-108 -43.5t-108 43.5t-45 106.5t45 106.5t108 43.5t108 -43.5t45 -106.5zM364 511q0 32 -23.5 55t-55.5 23q-33 0 -56 -22.5t-23 -55.5t23 -55t56 -22q32 0 55.5 22.5t23.5 54.5z" />
    <glyph glyph-name="plusminus" unicode="&#xb1;" 
d="M471 355h-155v-155h-124v155h-155v114h155v156h124v-156h155v-114zM471 52h-434v114h434v-114z" />
    <glyph glyph-name="twosuperior" unicode="&#xb2;" horiz-adv-x="282" 
d="M147 523h-82q5 151 128 151q103 0 103 -89q0 -26 -10.5 -53.5t-18.5 -40.5t-30 -45l-71 -105h94l-9 -74h-226l120 173q66 95 66 138q0 34 -24 34q-36 0 -40 -89z" />
    <glyph glyph-name="threesuperior" unicode="&#xb3;" horiz-adv-x="283" 
d="M156 549h-78q7 62 33 93t86 31q40 0 66.5 -23.5t26.5 -62.5q0 -84 -58 -113q48 -17 48 -76q0 -60 -39 -98.5t-99 -38.5q-44 0 -74 22t-30 64q0 10 2 30h84l-3 -21q0 -28 24 -28q22 0 31.5 24.5t9.5 51.5q0 11 -4 18.5t-7.5 11t-14 5t-14.5 1.5h-18l9 72q39 0 54.5 12.5
t15.5 50.5q0 27 -21 27q-27 0 -30 -53z" />
    <glyph glyph-name="acute" unicode="&#xb4;" 
d="M426 639l-127 -122l-56 36l100 128z" />
    <glyph glyph-name="mu" unicode="&#xb5;" horiz-adv-x="523" 
d="M455 0h-124l7 56q-16 -35 -43 -51q-24 -15 -60 -15q-39 0 -63 25q-20 20 -29 55l-33 -276h-125l80 653h125l-25 -205q-5 -38 -5 -61q0 -44 25 -69q26 -24 64 -24q44 0 68 22q14 14 23.5 35.5t12 36.5t6.5 47l27 218h124z" />
    <glyph glyph-name="mu" unicode="&#x3bc;" horiz-adv-x="523" 
d="M455 0h-124l7 56q-16 -35 -43 -51q-24 -15 -60 -15q-39 0 -63 25q-20 20 -29 55l-33 -276h-125l80 653h125l-25 -205q-5 -38 -5 -61q0 -44 25 -69q26 -24 64 -24q44 0 68 22q14 14 23.5 35.5t12 36.5t6.5 47l27 218h124z" />
    <glyph glyph-name="paragraph" unicode="&#xb6;" horiz-adv-x="657" 
d="M638 667l-12 -95h-72l-83 -672h-105l84 672h-86l-83 -672h-105l53 420h-13q-70 0 -114.5 39t-44.5 108q0 89 62 145q60 55 191 55h328z" />
    <glyph glyph-name="periodcentered" unicode="&#xb7;" horiz-adv-x="279" 
d="M248 345q0 -45 -34 -78.5t-79 -33.5q-37 0 -62.5 25.5t-25.5 62.5q0 45 34 79.5t79 34.5q39 0 63.5 -25.5t24.5 -64.5z" />
    <glyph glyph-name="cedilla" unicode="&#xb8;" 
d="M294 -74l-106 -119l-51 29l83 122z" />
    <glyph glyph-name="onesuperior" unicode="&#xb9;" horiz-adv-x="282" 
d="M243 667l-49 -400h-86l40 325h-39l9 75h125z" />
    <glyph glyph-name="ordmasculine" unicode="&#xba;" horiz-adv-x="285" 
d="M63 488q0 101 51 152q33 33 81 33q38 0 62 -24q33 -33 33 -101q0 -95 -50 -147q-31 -34 -80 -34q-39 0 -65 26q-32 33 -32 95zM255 297h-213l6 44h213zM186 599q-8 0 -14 -6q-9 -11 -17 -48q-6 -31 -6 -63q0 -30 7 -37q4 -4 8 -4q8 0 14 6q11 11 18 50q6 34 6 63
q0 26 -5 33q-4 6 -11 6z" />
    <glyph glyph-name="guillemotright" unicode="&#xbb;" horiz-adv-x="390" 
d="M361 234l-139 -206l-61 38l109 168l-68 172l71 34zM210 234l-139 -206l-61 38l109 168l-68 172l71 34z" />
    <glyph glyph-name="onequarter" unicode="&#xbc;" horiz-adv-x="709" 
d="M677 166l-9 -74h-34l-11 -92h-86l12 92h-121l8 65l141 243h95l-29 -234h34zM596 667l-395 -667h-76l395 667h76zM243 667l-49 -400h-86l40 325h-39l9 75h125zM573 291l-68 -125h53z" />
    <glyph glyph-name="onehalf" unicode="&#xbd;" horiz-adv-x="708" 
d="M540 257h-81q3 150 127 150q103 0 103 -88q0 -53 -53 -130q-9 -13 -76 -115h94l-10 -74h-226l121 173q65 95 65 138q0 35 -24 35q-36 0 -40 -89zM596 667l-395 -667h-76l395 667h76zM243 667l-49 -400h-86l40 325h-39l9 75h125z" />
    <glyph glyph-name="threequarters" unicode="&#xbe;" horiz-adv-x="709" 
d="M678 166l-9 -74h-35l-11 -92h-85l11 92h-120l8 65l141 243h94l-28 -234h34zM596 667l-394 -667h-76l395 667h75zM156 549h-78q7 62 33 93t86 31q40 0 66.5 -23.5t26.5 -62.5q0 -84 -58 -113q48 -17 48 -76q0 -60 -39 -98.5t-99 -38.5q-44 0 -74 22t-30 64q0 10 2 30h84
l-3 -21q0 -28 24 -28q22 0 31.5 24.5t9.5 51.5q0 11 -4 18.5t-7.5 11t-14 5t-14.5 1.5h-18l9 72q39 0 54.5 12.5t15.5 50.5q0 27 -21 27q-27 0 -30 -53zM574 291l-69 -125h53z" />
    <glyph glyph-name="questiondown" unicode="&#xbf;" horiz-adv-x="408" 
d="M305 380q0 -38 -28.5 -66t-65.5 -28q-31 0 -52 21t-21 53q0 38 28.5 66.5t65.5 28.5q32 0 52.5 -21.5t20.5 -53.5zM228 -39h122q-8 -57 -21 -88q-21 -51 -67 -78.5t-102 -27.5q-76 0 -118 45.5t-42 122.5q0 87 49 157q28 40 82 57l10 86h128l-20 -163q-6 1 -19 1
q-45 0 -67.5 -40t-22.5 -89q0 -61 37 -61q26 0 38.5 25t12.5 53z" />
    <glyph glyph-name="Agrave" unicode="&#xc0;" horiz-adv-x="453" 
d="M422 0h-138l-11 112h-131l-37 -112h-130l235 667h137zM175 215h91q-16 211 -13 280q-15 -73 -23 -103q-7 -28 -55 -177zM333 747l-65 -36l-100 114l87 50z" />
    <glyph glyph-name="Aacute" unicode="&#xc1;" horiz-adv-x="453" 
d="M422 0h-138l-11 112h-131l-37 -112h-130l235 667h137zM175 215h91q-16 211 -13 280q-15 -73 -23 -103q-7 -28 -55 -177zM222 747l94 128l81 -50l-114 -114z" />
    <glyph glyph-name="Acircumflex" unicode="&#xc2;" horiz-adv-x="453" 
d="M422 0h-138l-11 112h-131l-37 -112h-130l235 667h137zM175 215h91q-16 211 -13 280q-15 -73 -23 -103q-7 -28 -55 -177zM413 779l-60 -55l-66 62l-84 -62l-41 62l137 100z" />
    <glyph glyph-name="Atilde" unicode="&#xc3;" horiz-adv-x="453" 
d="M422 0h-138l-11 112h-131l-37 -112h-130l235 667h137zM175 215h91q-16 211 -13 280q-15 -73 -23 -103q-7 -28 -55 -177zM372 846l64 -4q-9 -34 -17.5 -55.5t-30.5 -42t-52 -20.5q-21 0 -55 15.5t-47 15.5q-22 0 -31 -28h-64q6 25 11.5 41.5t16.5 36.5t28.5 30t40.5 10
q22 0 53.5 -17t47.5 -17q6 0 10.5 1.5t7.5 3t6 6.5t3.5 6.5t3.5 9t4 8.5z" />
    <glyph glyph-name="Adieresis" unicode="&#xc4;" horiz-adv-x="453" 
d="M422 0h-138l-11 112h-131l-37 -112h-130l235 667h137zM175 215h91q-16 211 -13 280q-15 -73 -23 -103q-7 -28 -55 -177zM428 797q0 -30 -22.5 -51.5t-52.5 -21.5q-24 0 -40 17t-16 41q0 29 22 51.5t51 22.5q25 0 41.5 -17t16.5 -42zM255 797q0 -29 -22.5 -51t-51.5 -22
q-25 0 -41 16.5t-16 41.5q0 29 22 51.5t51 22.5q25 0 41.5 -17t16.5 -42z" />
    <glyph glyph-name="Aring" unicode="&#xc5;" horiz-adv-x="453" 
d="M422 0h-138l-11 112h-131l-37 -112h-130l235 667h137zM175 215h91q-16 211 -13 280q-15 -73 -23 -103q-7 -28 -55 -177zM198 810q0 40 28 68t68 28t68 -28t28 -68t-28 -68t-68 -28t-68 28t-28 68zM253 810q0 -18 11.5 -29.5t29.5 -11.5t29.5 11.5t11.5 29.5t-11.5 29.5
t-29.5 11.5t-29.5 -11.5t-11.5 -29.5z" />
    <glyph glyph-name="AE" unicode="&#xc6;" horiz-adv-x="583" 
d="M549 0h-264l-10 111h-137l-33 -111h-130l231 667h268l12 -124h-129l16 -138h130l15 -126h-129l19 -154h125zM173 216h93q-5 47 -13 141q-4 44 -4 66q0 12 0.5 35.5t0.5 35.5q-16 -86 -33 -139z" />
    <glyph glyph-name="Ccedilla" unicode="&#xc7;" horiz-adv-x="418" 
d="M367 155l-19 -138q-48 -24 -101 -24q-81 0 -133 53q-68 70 -68 206q0 97 33 195.5t96 157.5q72 69 179 69q45 0 84 -19l-19 -139q-31 32 -73 32t-80 -36q-37 -37 -58.5 -111t-21.5 -139q0 -71 29 -109q26 -33 67 -33q47 0 85 35zM302 -77l-109 -128l-60 36l79 127z" />
    <glyph glyph-name="Egrave" unicode="&#xc8;" horiz-adv-x="350" 
d="M366 667l-15 -124h-131l-18 -144h116l-16 -126h-115l-19 -150h133l-15 -123h-263l82 667h261zM308 747l-65 -36l-100 114l87 50z" />
    <glyph glyph-name="Eacute" unicode="&#xc9;" horiz-adv-x="350" 
d="M366 667l-15 -124h-131l-18 -144h116l-16 -126h-115l-19 -150h133l-15 -123h-263l82 667h261zM170 747l94 128l81 -50l-114 -114z" />
    <glyph glyph-name="Ecircumflex" unicode="&#xca;" horiz-adv-x="350" 
d="M366 667l-15 -124h-131l-18 -144h116l-16 -126h-115l-19 -150h133l-15 -123h-263l82 667h261zM383 779l-60 -55l-66 62l-84 -62l-41 62l137 100z" />
    <glyph glyph-name="Edieresis" unicode="&#xcb;" horiz-adv-x="350" 
d="M366 667l-15 -124h-131l-18 -144h116l-16 -126h-115l-19 -150h133l-15 -123h-263l82 667h261zM403 797q0 -30 -22.5 -51.5t-52.5 -21.5q-24 0 -40 17t-16 41q0 29 22 51.5t51 22.5q25 0 41.5 -17t16.5 -42zM230 797q0 -29 -22.5 -51t-51.5 -22q-25 0 -41 16.5t-16 41.5
q0 29 22 51.5t51 22.5q25 0 41.5 -17t16.5 -42z" />
    <glyph glyph-name="Igrave" unicode="&#xcc;" horiz-adv-x="232" 
d="M235 667l-82 -667h-130l82 667h130zM228 747l-65 -36l-100 114l87 50z" />
    <glyph glyph-name="Iacute" unicode="&#xcd;" horiz-adv-x="232" 
d="M235 667l-82 -667h-130l82 667h130zM111 747l94 128l81 -50l-114 -114z" />
    <glyph glyph-name="Icircumflex" unicode="&#xce;" horiz-adv-x="232" 
d="M235 667l-82 -667h-130l82 667h130zM308 779l-60 -55l-66 62l-84 -62l-41 62l137 100z" />
    <glyph glyph-name="Idieresis" unicode="&#xcf;" horiz-adv-x="232" 
d="M235 667l-82 -667h-130l82 667h130zM333 797q0 -30 -22.5 -51.5t-52.5 -21.5q-24 0 -40 17t-16 41q0 29 22 51.5t51 22.5q25 0 41.5 -17t16.5 -42zM160 797q0 -29 -22.5 -51t-51.5 -22q-25 0 -41 16.5t-16 41.5q0 29 22 51.5t51 22.5q25 0 41.5 -17t16.5 -42z" />
    <glyph glyph-name="Eth" unicode="&#xd0;" horiz-adv-x="481" 
d="M106 667h109q83 0 129 -23q118 -58 118 -241q0 -92 -27.5 -180.5t-83.5 -146.5q-73 -76 -201 -76h-126l36 293h-47l12 100h47zM190 293l-21 -172q60 1 97 48q64 80 64 212q0 104 -46 146q-22 20 -63 23l-19 -157h73l-12 -100h-73z" />
    <glyph glyph-name="Ntilde" unicode="&#xd1;" horiz-adv-x="510" 
d="M512 667l-82 -667h-122l-112 402q0 -57 -4 -86l-39 -316h-130l82 667h123l112 -403q-1 16 -1 48q0 29 2 44l39 311h132zM412 846l64 -4q-9 -34 -17.5 -55.5t-30.5 -42t-52 -20.5q-21 0 -55 15.5t-47 15.5q-22 0 -31 -28h-64q6 25 11.5 41.5t16.5 36.5t28.5 30t40.5 10
q22 0 53.5 -17t47.5 -17q6 0 10.5 1.5t7.5 3t6 6.5t3.5 6.5t3.5 9t4 8.5z" />
    <glyph glyph-name="Ograve" unicode="&#xd2;" horiz-adv-x="534" 
d="M517 434q0 -136 -35 -235q-31 -90 -95 -150t-151 -60q-48 0 -91 26t-67 68q-35 59 -35 158q0 101 22 182q27 107 93 180.5t166 73.5q94 0 143.5 -72.5t49.5 -170.5zM378 427q0 28 -4.5 54t-21.5 50.5t-45 24.5q-27 0 -49 -22t-35.5 -56t-21 -63.5t-11.5 -56.5
q-8 -49 -8 -113q0 -19 3 -39t10 -41.5t22 -35t36 -13.5q27 0 49 22t35.5 56t21 63.5t11.5 56.5q8 49 8 113zM408 747l-65 -36l-100 114l87 50z" />
    <glyph glyph-name="Oacute" unicode="&#xd3;" horiz-adv-x="534" 
d="M517 434q0 -136 -35 -235q-31 -90 -95 -150t-151 -60q-48 0 -91 26t-67 68q-35 59 -35 158q0 101 22 182q27 107 93 180.5t166 73.5q94 0 143.5 -72.5t49.5 -170.5zM378 427q0 28 -4.5 54t-21.5 50.5t-45 24.5q-27 0 -49 -22t-35.5 -56t-21 -63.5t-11.5 -56.5
q-8 -49 -8 -113q0 -19 3 -39t10 -41.5t22 -35t36 -13.5q27 0 49 22t35.5 56t21 63.5t11.5 56.5q8 49 8 113zM262 747l94 128l81 -50l-114 -114z" />
    <glyph glyph-name="Ocircumflex" unicode="&#xd4;" horiz-adv-x="534" 
d="M517 434q0 -136 -35 -235q-31 -90 -95 -150t-151 -60q-48 0 -91 26t-67 68q-35 59 -35 158q0 101 22 182q27 107 93 180.5t166 73.5q94 0 143.5 -72.5t49.5 -170.5zM378 427q0 28 -4.5 54t-21.5 50.5t-45 24.5q-27 0 -49 -22t-35.5 -56t-21 -63.5t-11.5 -56.5
q-8 -49 -8 -113q0 -19 3 -39t10 -41.5t22 -35t36 -13.5q27 0 49 22t35.5 56t21 63.5t11.5 56.5q8 49 8 113zM458 779l-60 -55l-66 62l-84 -62l-41 62l137 100z" />
    <glyph glyph-name="Otilde" unicode="&#xd5;" horiz-adv-x="534" 
d="M517 434q0 -136 -35 -235q-31 -90 -95 -150t-151 -60q-48 0 -91 26t-67 68q-35 59 -35 158q0 101 22 182q27 107 93 180.5t166 73.5q94 0 143.5 -72.5t49.5 -170.5zM378 427q0 28 -4.5 54t-21.5 50.5t-45 24.5q-27 0 -49 -22t-35.5 -56t-21 -63.5t-11.5 -56.5
q-8 -49 -8 -113q0 -19 3 -39t10 -41.5t22 -35t36 -13.5q27 0 49 22t35.5 56t21 63.5t11.5 56.5q8 49 8 113zM417 846l64 -4q-9 -34 -17.5 -55.5t-30.5 -42t-52 -20.5q-21 0 -55 15.5t-47 15.5q-22 0 -31 -28h-64q6 25 11.5 41.5t16.5 36.5t28.5 30t40.5 10q22 0 53.5 -17
t47.5 -17q6 0 10.5 1.5t7.5 3t6 6.5t3.5 6.5t3.5 9t4 8.5z" />
    <glyph glyph-name="Odieresis" unicode="&#xd6;" horiz-adv-x="534" 
d="M517 434q0 -136 -35 -235q-31 -90 -95 -150t-151 -60q-48 0 -91 26t-67 68q-35 59 -35 158q0 101 22 182q27 107 93 180.5t166 73.5q94 0 143.5 -72.5t49.5 -170.5zM378 427q0 28 -4.5 54t-21.5 50.5t-45 24.5q-27 0 -49 -22t-35.5 -56t-21 -63.5t-11.5 -56.5
q-8 -49 -8 -113q0 -19 3 -39t10 -41.5t22 -35t36 -13.5q27 0 49 22t35.5 56t21 63.5t11.5 56.5q8 49 8 113zM483 797q0 -30 -22.5 -51.5t-52.5 -21.5q-24 0 -40 17t-16 41q0 29 22 51.5t51 22.5q25 0 41.5 -17t16.5 -42zM310 797q0 -29 -22.5 -51t-51.5 -22q-25 0 -41 16.5
t-16 41.5q0 29 22 51.5t51 22.5q25 0 41.5 -17t16.5 -42z" />
    <glyph glyph-name="multiply" unicode="&#xd7;" 
d="M375 145l-113 113l-113 -113l-81 82l113 113l-113 112l81 82l113 -113l113 113l81 -82l-113 -112l113 -113z" />
    <glyph glyph-name="Oslash" unicode="&#xd8;" horiz-adv-x="534" 
d="M546 641l-55 -75q25 -55 25 -142q0 -114 -30 -213q-28 -92 -93.5 -157t-153.5 -65q-71 0 -135 56l-39 -51l-46 33l52 68q-28 62 -28 148q0 101 22 182q28 107 94 179.5t167 72.5q78 0 133 -60l41 54zM182 243l187 256q-18 59 -61 59q-37 0 -63.5 -36.5t-39 -94
t-17.5 -101.5t-6 -83zM378 414l-184 -252q21 -49 61 -49q29 0 51.5 25.5t35 58.5t21 80.5t11 76.5t4.5 60z" />
    <glyph glyph-name="Ugrave" unicode="&#xd9;" horiz-adv-x="491" 
d="M494 667l-61 -497q-9 -67 -34 -102q-56 -79 -186 -79q-78 0 -125 36t-47 111q0 10 5 52l59 479h130l-54 -443q-5 -43 -5 -50q0 -65 55 -65q11 0 20.5 2t16.5 7t12.5 9t9.5 13t6.5 14t5 17t3 16.5t2.5 19t2 17.5l55 443h130zM348 747l-65 -36l-100 114l87 50z" />
    <glyph glyph-name="Uacute" unicode="&#xda;" horiz-adv-x="491" 
d="M494 667l-61 -497q-9 -67 -34 -102q-56 -79 -186 -79q-78 0 -125 36t-47 111q0 10 5 52l59 479h130l-54 -443q-5 -43 -5 -50q0 -65 55 -65q11 0 20.5 2t16.5 7t12.5 9t9.5 13t6.5 14t5 17t3 16.5t2.5 19t2 17.5l55 443h130zM241 747l94 128l81 -50l-114 -114z" />
    <glyph glyph-name="Ucircumflex" unicode="&#xdb;" horiz-adv-x="491" 
d="M494 667l-61 -497q-9 -67 -34 -102q-56 -79 -186 -79q-78 0 -125 36t-47 111q0 10 5 52l59 479h130l-54 -443q-5 -43 -5 -50q0 -65 55 -65q11 0 20.5 2t16.5 7t12.5 9t9.5 13t6.5 14t5 17t3 16.5t2.5 19t2 17.5l55 443h130zM438 779l-60 -55l-66 62l-84 -62l-41 62
l137 100z" />
    <glyph glyph-name="Udieresis" unicode="&#xdc;" horiz-adv-x="491" 
d="M494 667l-61 -497q-9 -67 -34 -102q-56 -79 -186 -79q-78 0 -125 36t-47 111q0 10 5 52l59 479h130l-54 -443q-5 -43 -5 -50q0 -65 55 -65q11 0 20.5 2t16.5 7t12.5 9t9.5 13t6.5 14t5 17t3 16.5t2.5 19t2 17.5l55 443h130zM463 797q0 -30 -22.5 -51.5t-52.5 -21.5
q-24 0 -40 17t-16 41q0 29 22 51.5t51 22.5q25 0 41.5 -17t16.5 -42zM290 797q0 -29 -22.5 -51t-51.5 -22q-25 0 -41 16.5t-16 41.5q0 29 22 51.5t51 22.5q25 0 41.5 -17t16.5 -42z" />
    <glyph glyph-name="Yacute" unicode="&#xdd;" horiz-adv-x="440" 
d="M494 667l-199 -382l-36 -285h-130l35 285l-110 382h143l33 -153q6 -23 14 -91q13 36 38 94l67 150h145zM207 747l94 128l81 -50l-114 -114z" />
    <glyph glyph-name="Thorn" unicode="&#xde;" horiz-adv-x="428" 
d="M235 667l-12 -94h17h18.5t16.5 -0.5t17.5 -1t16 -2.5t17.5 -4t15.5 -5.5t16.5 -8.5q70 -43 70 -145q0 -101 -62 -164t-162 -63q-19 0 -29 2l-22 -181h-130l82 667h130zM210 467l-21 -176q49 0 70 14q40 25 40 90q0 39 -15.5 55.5t-53.5 16.5h-20z" />
    <glyph glyph-name="germandbls" unicode="&#xdf;" horiz-adv-x="417" 
d="M31 0l42 343h-55l13 104h55l9 72q2 22 8 58q12 77 59 120t123 43q66 0 100 -39t34 -106q0 -157 -88 -195q62 -40 62 -132q0 -48 -12.5 -105t-34.5 -96q-41 -72 -125 -72q-17 0 -39 5l14 112q16 2 24 6.5t15 17.5q12 22 19 64.5t7 75.5q0 25 -7 43t-30 24l14 111
q24 6 34 25q17 37 17 104q0 46 -27 46q-7 0 -12.5 -3t-9.5 -9.5t-7 -12.5t-5 -16l-3 -15t-2 -15t-1 -11l-67 -547h-124z" />
    <glyph glyph-name="agrave" unicode="&#xe0;" horiz-adv-x="390" 
d="M377 447l-54 -447h-124l6 51q-39 -60 -88 -60q-29 0 -49 16.5t-29.5 44t-13 52.5t-3.5 53q0 63 11 115q13 69 48 126t92 57q55 0 74 -63l7 55h123zM238 276q0 67 -29 67q-32 0 -47 -60t-15 -108q0 -72 32 -72q17 0 29.5 21.5t18.5 52.5t8.5 56t2.5 43zM306 553l-65 -36
l-97 122l94 42z" />
    <glyph glyph-name="aacute" unicode="&#xe1;" horiz-adv-x="390" 
d="M377 447l-54 -447h-124l6 51q-39 -60 -88 -60q-29 0 -49 16.5t-29.5 44t-13 52.5t-3.5 53q0 63 11 115q13 69 48 126t92 57q55 0 74 -63l7 55h123zM238 276q0 67 -29 67q-32 0 -47 -60t-15 -108q0 -72 32 -72q17 0 29.5 21.5t18.5 52.5t8.5 56t2.5 43zM361 639l-127 -122
l-56 36l100 128z" />
    <glyph glyph-name="acircumflex" unicode="&#xe2;" horiz-adv-x="390" 
d="M377 447l-54 -447h-124l6 51q-39 -60 -88 -60q-29 0 -49 16.5t-29.5 44t-13 52.5t-3.5 53q0 63 11 115q13 69 48 126t92 57q55 0 74 -63l7 55h123zM238 276q0 67 -29 67q-32 0 -47 -60t-15 -108q0 -72 32 -72q17 0 29.5 21.5t18.5 52.5t8.5 56t2.5 43zM353 572l-60 -55
l-66 62l-84 -62l-41 62l137 100z" />
    <glyph glyph-name="atilde" unicode="&#xe3;" horiz-adv-x="390" 
d="M377 447l-54 -447h-124l6 51q-39 -60 -88 -60q-29 0 -49 16.5t-29.5 44t-13 52.5t-3.5 53q0 63 11 115q13 69 48 126t92 57q55 0 74 -63l7 55h123zM238 276q0 67 -29 67q-32 0 -47 -60t-15 -108q0 -72 32 -72q17 0 29.5 21.5t18.5 52.5t8.5 56t2.5 43zM322 639l64 -4
q-9 -34 -17.5 -55.5t-30.5 -42t-52 -20.5q-21 0 -55 15.5t-47 15.5q-22 0 -31 -28h-64q6 25 11.5 41.5t16.5 36.5t28.5 30t40.5 10q22 0 53.5 -17t47.5 -17q6 0 10.5 1.5t7.5 3t6 6.5t3.5 6.5t3.5 9t4 8.5z" />
    <glyph glyph-name="adieresis" unicode="&#xe4;" horiz-adv-x="390" 
d="M377 447l-54 -447h-124l6 51q-39 -60 -88 -60q-29 0 -49 16.5t-29.5 44t-13 52.5t-3.5 53q0 63 11 115q13 69 48 126t92 57q55 0 74 -63l7 55h123zM238 276q0 67 -29 67q-32 0 -47 -60t-15 -108q0 -72 32 -72q17 0 29.5 21.5t18.5 52.5t8.5 56t2.5 43zM391 590
q0 -30 -22.5 -51.5t-52.5 -21.5q-24 0 -40 17t-16 41q0 29 22 51.5t51 22.5q25 0 41.5 -17t16.5 -42zM218 590q0 -29 -22.5 -51t-51.5 -22q-25 0 -41 16.5t-16 41.5q0 29 22 51.5t51 22.5q25 0 41.5 -17t16.5 -42z" />
    <glyph glyph-name="aring" unicode="&#xe5;" horiz-adv-x="390" 
d="M377 447l-54 -447h-124l6 51q-39 -60 -88 -60q-29 0 -49 16.5t-29.5 44t-13 52.5t-3.5 53q0 63 11 115q13 69 48 126t92 57q55 0 74 -63l7 55h123zM238 276q0 67 -29 67q-32 0 -47 -60t-15 -108q0 -72 32 -72q17 0 29.5 21.5t18.5 52.5t8.5 56t2.5 43zM136 619
q0 40 28 68t68 28t68 -28t28 -68t-28 -68t-68 -28t-68 28t-28 68zM191 619q0 -18 11.5 -29.5t29.5 -11.5t29.5 11.5t11.5 29.5t-11.5 29.5t-29.5 11.5t-29.5 -11.5t-11.5 -29.5z" />
    <glyph glyph-name="ae" unicode="&#xe6;" horiz-adv-x="562" 
d="M77 329l13 107q60 20 102 20q44 0 70.5 -14t42.5 -52q44 65 116 65q117 0 117 -164q0 -22 -7 -99h-201q-2 -20 -2 -31q0 -78 43 -78q21 0 32.5 15.5t13.5 38.5h101q-10 -67 -50 -106.5t-106 -39.5q-68 0 -102 55q-58 -55 -119 -55q-57 0 -92.5 31.5t-35.5 87.5
q0 66 42 112t107 46q41 0 64 -16q3 42 3 43q0 57 -63 57q-38 0 -89 -23zM340 269h91q2 20 2 30q0 65 -36 65q-44 0 -57 -95zM219 137q0 17 -12 29t-29 12q-21 0 -37 -16t-16 -37q0 -17 12 -29t29 -12q21 0 37 16t16 37z" />
    <glyph glyph-name="ccedilla" unicode="&#xe7;" horiz-adv-x="277" 
d="M284 443l-14 -110q-12 15 -33 15q-45 0 -66.5 -50t-21.5 -103q0 -87 56 -87q19 0 39 13l-14 -114q-38 -16 -72 -16q-70 0 -103 53t-33 128q0 60 19 120t54 103q49 61 128 61q31 0 61 -13zM204 -74l-106 -119l-51 29l83 122z" />
    <glyph glyph-name="egrave" unicode="&#xe8;" horiz-adv-x="367" 
d="M222 154h104q-9 -78 -59 -125q-40 -38 -103 -38q-60 0 -97 38q-46 50 -46 138q0 64 22 131t65 110q47 47 111 47q49 0 83 -32q44 -43 44 -134q0 -36 -9 -88h-195q-6 -29 -6 -57q0 -36 12 -49q10 -10 26 -10q22 0 35 22q9 16 13 47zM152 278h89q2 16 2 24q0 25 -8 40
q-10 18 -28 18q-17 0 -30 -14q-20 -21 -25 -68zM291 553l-65 -36l-97 122l94 42z" />
    <glyph glyph-name="eacute" unicode="&#xe9;" horiz-adv-x="367" 
d="M222 154h104q-9 -78 -59 -125q-40 -38 -103 -38q-60 0 -97 38q-46 50 -46 138q0 64 22 131t65 110q47 47 111 47q49 0 83 -32q44 -43 44 -134q0 -36 -9 -88h-195q-6 -29 -6 -57q0 -36 12 -49q10 -10 26 -10q22 0 35 22q9 16 13 47zM152 278h89q2 16 2 24q0 25 -8 40
q-10 18 -28 18q-17 0 -30 -14q-20 -21 -25 -68zM350 639l-127 -122l-56 36l100 128z" />
    <glyph glyph-name="ecircumflex" unicode="&#xea;" horiz-adv-x="367" 
d="M222 154h104q-9 -78 -59 -125q-40 -38 -103 -38q-60 0 -97 38q-46 50 -46 138q0 64 22 131t65 110q47 47 111 47q49 0 83 -32q44 -43 44 -134q0 -36 -9 -88h-195q-6 -29 -6 -57q0 -36 12 -49q10 -10 26 -10q22 0 35 22q9 16 13 47zM152 278h89q2 16 2 24q0 25 -8 40
q-10 18 -28 18q-17 0 -30 -14q-20 -21 -25 -68zM358 572l-60 -55l-66 62l-84 -62l-41 62l137 100z" />
    <glyph glyph-name="edieresis" unicode="&#xeb;" horiz-adv-x="367" 
d="M222 154h104q-9 -78 -59 -125q-40 -38 -103 -38q-60 0 -97 38q-46 50 -46 138q0 64 22 131t65 110q47 47 111 47q49 0 83 -32q44 -43 44 -134q0 -36 -9 -88h-195q-6 -29 -6 -57q0 -36 12 -49q10 -10 26 -10q22 0 35 22q9 16 13 47zM152 278h89q2 16 2 24q0 25 -8 40
q-10 18 -28 18q-17 0 -30 -14q-20 -21 -25 -68zM380 590q0 -30 -22.5 -51.5t-52.5 -21.5q-24 0 -40 17t-16 41q0 29 22 51.5t51 22.5q25 0 41.5 -17t16.5 -42zM207 590q0 -29 -22.5 -51t-51.5 -22q-25 0 -41 16.5t-16 41.5q0 29 22 51.5t51 22.5q25 0 41.5 -17t16.5 -42z
" />
    <glyph glyph-name="igrave" unicode="&#xec;" horiz-adv-x="203" 
d="M190 447l-55 -447h-124l55 447h124zM188 553l-65 -36l-97 122l94 42z" />
    <glyph glyph-name="iacute" unicode="&#xed;" horiz-adv-x="203" 
d="M190 447l-55 -447h-124l55 447h124zM268 639l-127 -122l-56 36l100 128z" />
    <glyph glyph-name="icircumflex" unicode="&#xee;" horiz-adv-x="203" 
d="M190 447l-55 -447h-124l55 447h124zM269 572l-60 -55l-66 62l-84 -62l-41 62l137 100z" />
    <glyph glyph-name="idieresis" unicode="&#xef;" horiz-adv-x="203" 
d="M190 447l-55 -447h-124l55 447h124zM293 590q0 -30 -22.5 -51.5t-52.5 -21.5q-24 0 -40 17t-16 41q0 29 22 51.5t51 22.5q25 0 41.5 -17t16.5 -42zM120 590q0 -29 -22.5 -51t-51.5 -22q-25 0 -41 16.5t-16 41.5q0 29 22 51.5t51 22.5q25 0 41.5 -17t16.5 -42z" />
    <glyph glyph-name="eth" unicode="&#xf0;" horiz-adv-x="386" 
d="M370 665l-80 -54q39 -51 57.5 -130.5t18.5 -158.5q0 -43 -4.5 -84t-17.5 -87.5t-34 -80.5t-57.5 -56.5t-84.5 -22.5q-145 0 -145 185q0 100 44 183q21 39 55.5 65.5t74.5 26.5q24 0 49 -20q-7 71 -41 124l-81 -52l-45 63l79 52q-29 31 -75 49l56 73q57 -30 99 -68l83 54z
M238 274q0 69 -29 69q-32 0 -47 -61t-15 -108q0 -71 33 -71q30 0 44 62.5t14 108.5z" />
    <glyph glyph-name="ntilde" unicode="&#xf1;" horiz-adv-x="388" 
d="M190 447l-9 -70q50 78 115 78q68 0 68 -82q0 -16 -7 -74l-36 -299h-124l32 255q3 23 3 46q0 29 -23 29q-13 0 -21.5 -6.5t-13 -22t-5.5 -22t-3 -24.5l-31 -255h-124l55 447h124zM321 639l64 -4q-9 -34 -17.5 -55.5t-30.5 -42t-52 -20.5q-21 0 -55 15.5t-47 15.5
q-22 0 -31 -28h-64q6 25 11.5 41.5t16.5 36.5t28.5 30t40.5 10q22 0 53.5 -17t47.5 -17q6 0 10.5 1.5t7.5 3t6 6.5t3.5 6.5t3.5 9t4 8.5z" />
    <glyph glyph-name="ograve" unicode="&#xf2;" horiz-adv-x="386" 
d="M363 289q0 -40 -5.5 -79t-20 -79.5t-36 -71t-56.5 -49.5t-80 -19q-53 0 -86 28t-44.5 67t-11.5 91q0 65 19 125.5t66 106.5t114 46q70 0 105.5 -46.5t35.5 -119.5zM237 277q0 66 -29 66q-31 0 -46 -60.5t-15 -107.5q0 -72 31 -72q22 0 36.5 38t18.5 73.5t4 62.5zM297 553
l-65 -36l-97 122l94 42z" />
    <glyph glyph-name="oacute" unicode="&#xf3;" horiz-adv-x="386" 
d="M363 289q0 -40 -5.5 -79t-20 -79.5t-36 -71t-56.5 -49.5t-80 -19q-53 0 -86 28t-44.5 67t-11.5 91q0 65 19 125.5t66 106.5t114 46q70 0 105.5 -46.5t35.5 -119.5zM237 277q0 66 -29 66q-31 0 -46 -60.5t-15 -107.5q0 -72 31 -72q22 0 36.5 38t18.5 73.5t4 62.5zM362 639
l-127 -122l-56 36l100 128z" />
    <glyph glyph-name="ocircumflex" unicode="&#xf4;" horiz-adv-x="386" 
d="M363 289q0 -40 -5.5 -79t-20 -79.5t-36 -71t-56.5 -49.5t-80 -19q-53 0 -86 28t-44.5 67t-11.5 91q0 65 19 125.5t66 106.5t114 46q70 0 105.5 -46.5t35.5 -119.5zM237 277q0 66 -29 66q-31 0 -46 -60.5t-15 -107.5q0 -72 31 -72q22 0 36.5 38t18.5 73.5t4 62.5zM356 572
l-60 -55l-66 62l-84 -62l-41 62l137 100z" />
    <glyph glyph-name="otilde" unicode="&#xf5;" horiz-adv-x="386" 
d="M363 289q0 -40 -5.5 -79t-20 -79.5t-36 -71t-56.5 -49.5t-80 -19q-53 0 -86 28t-44.5 67t-11.5 91q0 65 19 125.5t66 106.5t114 46q70 0 105.5 -46.5t35.5 -119.5zM237 277q0 66 -29 66q-31 0 -46 -60.5t-15 -107.5q0 -72 31 -72q22 0 36.5 38t18.5 73.5t4 62.5zM315 639
l64 -4q-9 -34 -17.5 -55.5t-30.5 -42t-52 -20.5q-21 0 -55 15.5t-47 15.5q-22 0 -31 -28h-64q6 25 11.5 41.5t16.5 36.5t28.5 30t40.5 10q22 0 53.5 -17t47.5 -17q6 0 10.5 1.5t7.5 3t6 6.5t3.5 6.5t3.5 9t4 8.5z" />
    <glyph glyph-name="odieresis" unicode="&#xf6;" horiz-adv-x="386" 
d="M363 289q0 -40 -5.5 -79t-20 -79.5t-36 -71t-56.5 -49.5t-80 -19q-53 0 -86 28t-44.5 67t-11.5 91q0 65 19 125.5t66 106.5t114 46q70 0 105.5 -46.5t35.5 -119.5zM237 277q0 66 -29 66q-31 0 -46 -60.5t-15 -107.5q0 -72 31 -72q22 0 36.5 38t18.5 73.5t4 62.5zM389 590
q0 -30 -22.5 -51.5t-52.5 -21.5q-24 0 -40 17t-16 41q0 29 22 51.5t51 22.5q25 0 41.5 -17t16.5 -42zM216 590q0 -29 -22.5 -51t-51.5 -22q-25 0 -41 16.5t-16 41.5q0 29 22 51.5t51 22.5q25 0 41.5 -17t16.5 -42z" />
    <glyph glyph-name="divide" unicode="&#xf7;" 
d="M335 510q0 -29 -21 -50t-50 -21q-30 0 -51 20.5t-21 50.5t20.5 51t50.5 21t51 -21t21 -51zM480 282h-433v114h433v-114zM335 167q0 -29 -21 -50t-50 -21q-30 0 -51 21t-21 51q0 29 21 50t50 21q30 0 51 -21t21 -51z" />
    <glyph glyph-name="oslash" unicode="&#xf8;" horiz-adv-x="387" 
d="M380 441l-38 -51q22 -54 22 -112q0 -49 -10.5 -97t-33 -92t-62.5 -71t-93 -27q-51 0 -91 32l-28 -39l-42 30l39 53q-20 47 -20 111q0 48 11.5 95.5t34 90.5t62.5 69.5t91 26.5q54 0 89 -29l28 38zM238 270q0 74 -31 74t-45.5 -61t-14.5 -108q0 -72 33 -72q21 0 35 36.5
t18.5 71.5t4.5 59z" />
    <glyph glyph-name="ugrave" unicode="&#xf9;" horiz-adv-x="387" 
d="M374 447l-36 -296q-6 -57 -32 -91q-24 -32 -63 -50.5t-80 -18.5q-57 0 -96.5 32.5t-39.5 88.5q0 8 5 56l34 279h124l-32 -256q-4 -34 -4 -51q0 -33 25 -33q7 0 13 3t10 9.5t7 12.5t4.5 15.5t2.5 15.5t2 16t1 12l32 256h123zM291 553l-65 -36l-97 122l94 42z" />
    <glyph glyph-name="uacute" unicode="&#xfa;" horiz-adv-x="387" 
d="M374 447l-36 -296q-6 -57 -32 -91q-24 -32 -63 -50.5t-80 -18.5q-57 0 -96.5 32.5t-39.5 88.5q0 8 5 56l34 279h124l-32 -256q-4 -34 -4 -51q0 -33 25 -33q7 0 13 3t10 9.5t7 12.5t4.5 15.5t2.5 15.5t2 16t1 12l32 256h123zM360 639l-127 -122l-56 36l100 128z" />
    <glyph glyph-name="ucircumflex" unicode="&#xfb;" horiz-adv-x="387" 
d="M374 447l-36 -296q-6 -57 -32 -91q-24 -32 -63 -50.5t-80 -18.5q-57 0 -96.5 32.5t-39.5 88.5q0 8 5 56l34 279h124l-32 -256q-4 -34 -4 -51q0 -33 25 -33q7 0 13 3t10 9.5t7 12.5t4.5 15.5t2.5 15.5t2 16t1 12l32 256h123zM362 572l-60 -55l-66 62l-84 -62l-41 62
l137 100z" />
    <glyph glyph-name="udieresis" unicode="&#xfc;" horiz-adv-x="387" 
d="M374 447l-36 -296q-6 -57 -32 -91q-24 -32 -63 -50.5t-80 -18.5q-57 0 -96.5 32.5t-39.5 88.5q0 8 5 56l34 279h124l-32 -256q-4 -34 -4 -51q0 -33 25 -33q7 0 13 3t10 9.5t7 12.5t4.5 15.5t2.5 15.5t2 16t1 12l32 256h123zM380 590q0 -30 -22.5 -51.5t-52.5 -21.5
q-24 0 -40 17t-16 41q0 29 22 51.5t51 22.5q25 0 41.5 -17t16.5 -42zM207 590q0 -29 -22.5 -51t-51.5 -22q-25 0 -41 16.5t-16 41.5q0 29 22 51.5t51 22.5q25 0 41.5 -17t16.5 -42z" />
    <glyph glyph-name="yacute" unicode="&#xfd;" horiz-adv-x="359" 
d="M389 447l-266 -653h-120l93 215l-74 438h123l22 -163q8 -60 9 -92l89 255h124zM357 639l-127 -122l-56 36l100 128z" />
    <glyph glyph-name="thorn" unicode="&#xfe;" horiz-adv-x="390" 
d="M225 729l-42 -337q36 64 91 64q28 0 48 -15.5t29 -42t12.5 -51t3.5 -51.5q0 -64 -11 -116q-8 -40 -23 -79t-46.5 -74.5t-70.5 -35.5q-52 0 -75 60l-33 -257h-123l117 935h123zM241 273q0 71 -33 71q-30 0 -44 -62t-14 -109q0 -70 29 -70q18 0 31 21t19.5 51.5t9 55.5
t2.5 42z" />
    <glyph glyph-name="ydieresis" unicode="&#xff;" horiz-adv-x="359" 
d="M389 447l-266 -653h-120l93 215l-74 438h123l22 -163q8 -60 9 -92l89 255h124zM377 590q0 -30 -22.5 -51.5t-52.5 -21.5q-24 0 -40 17t-16 41q0 29 22 51.5t51 22.5q25 0 41.5 -17t16.5 -42zM204 590q0 -29 -22.5 -51t-51.5 -22q-25 0 -41 16.5t-16 41.5q0 29 22 51.5
t51 22.5q25 0 41.5 -17t16.5 -42z" />
    <glyph glyph-name="Amacron" unicode="&#x100;" horiz-adv-x="453" 
d="M422 0h-138l-11 112h-131l-37 -112h-130l235 667h137zM175 215h91q-16 211 -13 280q-15 -73 -23 -103q-7 -28 -55 -177zM428 818l-10 -80h-282l10 80h282z" />
    <glyph glyph-name="amacron" unicode="&#x101;" horiz-adv-x="390" 
d="M377 447l-54 -447h-124l6 51q-39 -60 -88 -60q-29 0 -49 16.5t-29.5 44t-13 52.5t-3.5 53q0 63 11 115q13 69 48 126t92 57q55 0 74 -63l7 55h123zM238 276q0 67 -29 67q-32 0 -47 -60t-15 -108q0 -72 32 -72q17 0 29.5 21.5t18.5 52.5t8.5 56t2.5 43zM383 611l-10 -80
h-282l10 80h282z" />
    <glyph glyph-name="Abreve" unicode="&#x102;" horiz-adv-x="453" 
d="M422 0h-138l-11 112h-131l-37 -112h-130l235 667h137zM175 215h91q-16 211 -13 280q-15 -73 -23 -103q-7 -28 -55 -177zM362 838h66q-8 -48 -43 -83q-38 -37 -102 -37q-55 0 -84 30q-31 31 -31 90h66q2 -18 13 -29q14 -13 44 -13q37 0 52 13q12 9 19 29z" />
    <glyph glyph-name="abreve" unicode="&#x103;" horiz-adv-x="390" 
d="M377 447l-54 -447h-124l6 51q-39 -60 -88 -60q-29 0 -49 16.5t-29.5 44t-13 52.5t-3.5 53q0 63 11 115q13 69 48 126t92 57q55 0 74 -63l7 55h123zM238 276q0 67 -29 67q-32 0 -47 -60t-15 -108q0 -72 32 -72q17 0 29.5 21.5t18.5 52.5t8.5 56t2.5 43zM310 637h66
q-8 -48 -43 -83q-38 -37 -102 -37q-55 0 -84 30q-31 31 -31 90h66q2 -18 13 -29q14 -13 44 -13q37 0 52 13q12 9 19 29z" />
    <glyph glyph-name="Aogonek" unicode="&#x104;" horiz-adv-x="453" 
d="M210 667h137l75 -667h-75q-14 -11 -28 -29q-16 -22 -16 -38q0 -12 7 -19q8 -9 25 -9q20 0 35 10l-24 -75q-20 -10 -51 -10q-38 0 -58 20q-18 18 -18 48q0 37 23 65q16 19 42 37l-11 112h-131l-37 -112h-130zM175 215h91l-4 49q-9 107 -9 231q-3 -14 -11 -51.5t-12 -51.5
q-8 -33 -40 -131z" />
    <glyph glyph-name="aogonek" unicode="&#x105;" horiz-adv-x="390" 
d="M377 447l-54 -447h-30q-16 -14 -29 -32q-16 -22 -16 -38q0 -14 9 -21q10 -8 24 -8q19 0 34 10l-23 -71q-21 -10 -47 -10q-38 0 -58 20q-19 19 -19 48q0 31 23 61q18 22 45 41h-37l6 51q-37 -60 -88 -60q-33 0 -57 24q-38 39 -38 142q0 81 18 146q21 82 63 122
q31 30 70 30q55 0 74 -63l7 55h123zM147 175q0 -44 12 -61q7 -11 20 -11t22 11q18 20 27 67q10 54 10 97q0 38 -9 52q-7 13 -20 13q-12 0 -22 -10q-19 -18 -30 -70q-10 -43 -10 -88z" />
    <glyph glyph-name="Cacute" unicode="&#x106;" horiz-adv-x="418" 
d="M367 155l-19 -138q-48 -24 -101 -24q-81 0 -133 53q-68 70 -68 206q0 97 33 195.5t96 157.5q72 69 179 69q45 0 84 -19l-19 -139q-31 32 -73 32t-80 -36q-37 -37 -58.5 -111t-21.5 -139q0 -71 29 -109q26 -33 67 -33q47 0 85 35zM337 747l94 128l81 -50l-114 -114z" />
    <glyph glyph-name="cacute" unicode="&#x107;" horiz-adv-x="277" 
d="M284 443l-14 -110q-12 15 -33 15q-45 0 -66.5 -50t-21.5 -103q0 -87 56 -87q19 0 39 13l-14 -114q-38 -16 -72 -16q-70 0 -103 53t-33 128q0 60 19 120t54 103q49 61 128 61q31 0 61 -13zM366 639l-127 -122l-56 36l100 128z" />
    <glyph glyph-name="Ccircumflex" unicode="&#x108;" horiz-adv-x="418" 
d="M367 155l-19 -138q-48 -24 -101 -24q-81 0 -133 53q-68 70 -68 206q0 97 33 195.5t96 157.5q72 69 179 69q45 0 84 -19l-19 -139q-31 32 -73 32t-80 -36q-37 -37 -58.5 -111t-21.5 -139q0 -71 29 -109q26 -33 67 -33q47 0 85 35zM508 779l-60 -55l-66 62l-84 -62l-41 62
l137 100z" />
    <glyph glyph-name="ccircumflex" unicode="&#x109;" horiz-adv-x="277" 
d="M284 443l-14 -110q-12 15 -33 15q-45 0 -66.5 -50t-21.5 -103q0 -87 56 -87q19 0 39 13l-14 -114q-38 -16 -72 -16q-70 0 -103 53t-33 128q0 60 19 120t54 103q49 61 128 61q31 0 61 -13zM358 572l-60 -55l-66 62l-84 -62l-41 62l137 100z" />
    <glyph glyph-name="Cdotaccent" unicode="&#x10a;" horiz-adv-x="418" 
d="M367 155l-19 -138q-48 -24 -101 -24q-81 0 -133 53q-68 70 -68 206q0 97 33 195.5t96 157.5q72 69 179 69q45 0 84 -19l-19 -139q-31 32 -73 32t-80 -36q-37 -37 -58.5 -111t-21.5 -139q0 -71 29 -109q26 -33 67 -33q47 0 85 35zM429 798q0 -30 -22.5 -52t-52.5 -22
q-25 0 -41 16.5t-16 41.5q0 30 22 52.5t52 22.5q25 0 41.5 -17t16.5 -42z" />
    <glyph glyph-name="cdotaccent" unicode="&#x10b;" horiz-adv-x="277" 
d="M284 443l-14 -110q-12 15 -33 15q-45 0 -66.5 -50t-21.5 -103q0 -87 56 -87q19 0 39 13l-14 -114q-38 -16 -72 -16q-70 0 -103 53t-33 128q0 60 19 120t54 103q49 61 128 61q31 0 61 -13zM298 591q0 -30 -22.5 -52t-52.5 -22q-25 0 -41 16.5t-16 41.5q0 30 22 52.5
t52 22.5q25 0 41.5 -17t16.5 -42z" />
    <glyph glyph-name="Ccaron" unicode="&#x10c;" horiz-adv-x="418" 
d="M367 155l-19 -138q-48 -24 -101 -24q-81 0 -133 53q-68 70 -68 206q0 97 33 195.5t96 157.5q72 69 179 69q45 0 84 -19l-19 -139q-31 32 -73 32t-80 -36q-37 -37 -58.5 -111t-21.5 -139q0 -71 29 -109q26 -33 67 -33q47 0 85 35zM514 824l-137 -100l-114 107l60 55
l66 -62l84 62z" />
    <glyph glyph-name="ccaron" unicode="&#x10d;" horiz-adv-x="277" 
d="M284 443l-14 -110q-12 15 -33 15q-45 0 -66.5 -50t-21.5 -103q0 -87 56 -87q19 0 39 13l-14 -114q-38 -16 -72 -16q-70 0 -103 53t-33 128q0 60 19 120t54 103q49 61 128 61q31 0 61 -13zM364 617l-137 -100l-114 107l60 55l66 -62l84 62z" />
    <glyph glyph-name="Dcaron" unicode="&#x10e;" horiz-adv-x="481" 
d="M105 667h109q83 0 130 -23q118 -58 118 -241q0 -92 -27.5 -180.5t-84.5 -146.5q-73 -76 -200 -76h-127zM168 122h8q40 0 71.5 27t48.5 69.5t25.5 84.5t8.5 79q0 162 -109 168zM404 824l-137 -100l-114 107l60 55l66 -62l84 62z" />
    <glyph glyph-name="dcaron" unicode="&#x10f;" horiz-adv-x="581" 
d="M414 729l-91 -729h-124l6 51q-39 -60 -88 -60q-29 0 -49 16.5t-29.5 44t-13 52.5t-3.5 53q0 63 11 115q6 30 16 58.5t26.5 58.5t42 48t55.5 18q55 0 74 -63l44 337h123zM238 276q0 67 -29 67q-32 0 -47 -60t-15 -108q0 -72 32 -72q17 0 29.5 21.5t18.5 52.5t8.5 56
t2.5 43zM588 667l-103 -204h-70l70 204h103z" />
    <glyph glyph-name="Dcroat" unicode="&#x110;" horiz-adv-x="481" 
d="M106 667h109q83 0 129 -23q118 -58 118 -241q0 -92 -27.5 -180.5t-83.5 -146.5q-73 -76 -201 -76h-126l36 293h-47l12 100h47zM190 293l-21 -172q60 1 97 48q64 80 64 212q0 104 -46 146q-22 20 -63 23l-19 -157h73l-12 -100h-73z" />
    <glyph glyph-name="dcroat" unicode="&#x111;" horiz-adv-x="427" 
d="M246 372l16 135h-109l10 88h109l18 134h123l-17 -134h50l-10 -88h-50l-63 -507h-124l6 51q-39 -60 -88 -60q-29 0 -49 16.5t-29.5 44t-13 52.5t-3.5 53q0 63 11 115q8 41 22.5 74.5t45 61t70.5 27.5q54 0 75 -63zM237 256q0 67 -29 67q-32 0 -46.5 -51.5t-14.5 -96.5
q0 -72 32 -72q22 0 36.5 32.5t18 63.5t3.5 57z" />
    <glyph glyph-name="Emacron" unicode="&#x112;" horiz-adv-x="350" 
d="M366 667l-15 -124h-131l-18 -144h116l-16 -126h-115l-19 -150h133l-15 -123h-263l82 667h261zM388 818l-10 -80h-282l10 80h282z" />
    <glyph glyph-name="emacron" unicode="&#x113;" horiz-adv-x="367" 
d="M222 154h104q-9 -78 -59 -125q-40 -38 -103 -38q-60 0 -97 38q-46 50 -46 138q0 64 22 131t65 110q47 47 111 47q49 0 83 -32q44 -43 44 -134q0 -36 -9 -88h-195q-6 -29 -6 -57q0 -36 12 -49q10 -10 26 -10q22 0 35 22q9 16 13 47zM152 278h89q2 16 2 24q0 25 -8 40
q-10 18 -28 18q-17 0 -30 -14q-20 -21 -25 -68zM372 611l-10 -80h-282l10 80h282z" />
    <glyph glyph-name="Edotaccent" unicode="&#x116;" horiz-adv-x="350" 
d="M366 667l-15 -124h-131l-18 -144h116l-16 -126h-115l-19 -150h133l-15 -123h-263l82 667h261zM315 798q0 -30 -22.5 -52t-52.5 -22q-25 0 -41 16.5t-16 41.5q0 30 22 52.5t52 22.5q25 0 41.5 -17t16.5 -42z" />
    <glyph glyph-name="edotaccent" unicode="&#x117;" horiz-adv-x="367" 
d="M222 154h104q-9 -78 -59 -125q-40 -38 -103 -38q-60 0 -97 38q-46 50 -46 138q0 64 22 131t65 110q47 47 111 47q49 0 83 -32q44 -43 44 -134q0 -36 -9 -88h-195q-6 -29 -6 -57q0 -36 12 -49q10 -10 26 -10q22 0 35 22q9 16 13 47zM152 278h89q2 16 2 24q0 25 -8 40
q-10 18 -28 18q-17 0 -30 -14q-20 -21 -25 -68zM304 591q0 -30 -22.5 -52t-52.5 -22q-25 0 -41 16.5t-16 41.5q0 30 22 52.5t52 22.5q25 0 41.5 -17t16.5 -42z" />
    <glyph glyph-name="Eogonek" unicode="&#x118;" horiz-adv-x="350" 
d="M366 667l-15 -124h-131l-18 -144h116l-16 -126h-115l-19 -150h133l-15 -123h-36q-14 -11 -28 -29q-16 -22 -16 -38q0 -12 7 -19q8 -9 25 -9q20 0 35 10l-24 -75q-21 -10 -47 -10q-42 0 -62 20q-18 18 -18 48q0 37 23 65q16 19 42 37h-164l82 667h261z" />
    <glyph glyph-name="eogonek" unicode="&#x119;" horiz-adv-x="367" 
d="M219 138h104q-8 -44 -31 -81q-13 -21 -40 -49t-33 -36q-19 -24 -19 -42q0 -14 9 -21q10 -8 25 -8q18 0 33 10l-23 -71q-22 -10 -43 -10q-42 0 -62 20q-19 19 -19 46q0 46 54 94q-67 0 -106 37q-47 46 -47 142q0 64 21.5 129.5t62.5 106.5q49 50 114 50q53 0 87 -34
q40 -41 40 -130q0 -45 -12 -101h-195q-3 -20 -3 -42q0 -40 12 -53q9 -10 26 -10q15 0 25 9q18 17 20 44zM151 267h89q3 13 3 32q0 38 -14 52q-9 9 -22 9q-17 0 -30 -14q-22 -23 -26 -79z" />
    <glyph glyph-name="Ecaron" unicode="&#x11a;" horiz-adv-x="350" 
d="M366 667l-15 -124h-131l-18 -144h116l-16 -126h-115l-19 -150h133l-15 -123h-263l82 667h261zM389 824l-137 -100l-114 107l60 55l66 -62l84 62z" />
    <glyph glyph-name="ecaron" unicode="&#x11b;" horiz-adv-x="367" 
d="M222 154h104q-9 -78 -59 -125q-40 -38 -103 -38q-60 0 -97 38q-46 50 -46 138q0 64 22 131t65 110q47 47 111 47q49 0 83 -32q44 -43 44 -134q0 -36 -9 -88h-195q-6 -29 -6 -57q0 -36 12 -49q10 -10 26 -10q22 0 35 22q9 16 13 47zM152 278h89q2 16 2 24q0 25 -8 40
q-10 18 -28 18q-17 0 -30 -14q-20 -21 -25 -68zM364 617l-137 -100l-114 107l60 55l66 -62l84 62z" />
    <glyph glyph-name="Gcircumflex" unicode="&#x11c;" horiz-adv-x="517" 
d="M499 519l-133 -50q0 92 -56 92q-36 0 -63.5 -38t-40 -94t-18.5 -103.5t-6 -82.5q0 -134 76 -134t97 144h-83l14 118h212q-14 -130 -35 -192q-27 -82 -84.5 -136t-137.5 -54q-52 0 -92 23t-62 62t-32.5 83.5t-10.5 93.5q0 92 22 176q28 104 94 177t164 73q73 0 118 -42
t57 -116zM458 779l-60 -55l-66 62l-84 -62l-41 62l137 100z" />
    <glyph glyph-name="gcircumflex" unicode="&#x11d;" horiz-adv-x="394" 
d="M381 447l-59 -470q-7 -61 -23 -90q-25 -46 -69.5 -69.5t-99.5 -23.5q-65 0 -100.5 35.5t-35.5 100.5q0 18 1 19h108q0 -54 39 -54q16 0 27.5 10.5t18 32t9 33t5.5 33.5l8 52q-15 -21 -25 -32t-28 -22t-38 -11q-29 0 -49.5 17t-30.5 44t-14.5 53t-4.5 53q0 38 7.5 84.5
t23 96.5t47 83t72.5 33q54 0 81 -62l7 54h123zM238 275q0 68 -30 68q-22 0 -37.5 -35.5t-20 -70.5t-4.5 -60q0 -72 33 -72q17 0 29.5 21t18.5 51.5t8.5 55t2.5 42.5zM368 572l-60 -55l-66 62l-84 -62l-41 62l137 100z" />
    <glyph glyph-name="Gbreve" unicode="&#x11e;" horiz-adv-x="517" 
d="M499 519l-133 -50q0 92 -56 92q-36 0 -63.5 -38t-40 -94t-18.5 -103.5t-6 -82.5q0 -134 76 -134t97 144h-83l14 118h212q-14 -130 -35 -192q-27 -82 -84.5 -136t-137.5 -54q-52 0 -92 23t-62 62t-32.5 83.5t-10.5 93.5q0 92 22 176q28 104 94 177t164 73q73 0 118 -42
t57 -116zM407 838h66q-8 -48 -43 -83q-38 -37 -102 -37q-55 0 -84 30q-31 31 -31 90h66q2 -18 13 -29q14 -13 44 -13q37 0 52 13q12 9 19 29z" />
    <glyph glyph-name="gbreve" unicode="&#x11f;" horiz-adv-x="394" 
d="M381 447l-59 -470q-7 -61 -23 -90q-25 -46 -69.5 -69.5t-99.5 -23.5q-65 0 -100.5 35.5t-35.5 100.5q0 18 1 19h108q0 -54 39 -54q16 0 27.5 10.5t18 32t9 33t5.5 33.5l8 52q-15 -21 -25 -32t-28 -22t-38 -11q-29 0 -49.5 17t-30.5 44t-14.5 53t-4.5 53q0 38 7.5 84.5
t23 96.5t47 83t72.5 33q54 0 81 -62l7 54h123zM238 275q0 68 -30 68q-22 0 -37.5 -35.5t-20 -70.5t-4.5 -60q0 -72 33 -72q17 0 29.5 21t18.5 51.5t8.5 55t2.5 42.5zM305 637h66q-8 -48 -43 -83q-38 -37 -102 -37q-55 0 -84 30q-31 31 -31 90h66q2 -18 13 -29q14 -13 44 -13
q37 0 52 13q12 9 19 29z" />
    <glyph glyph-name="Gdotaccent" unicode="&#x120;" horiz-adv-x="517" 
d="M499 519l-133 -50q0 92 -56 92q-36 0 -63.5 -38t-40 -94t-18.5 -103.5t-6 -82.5q0 -134 76 -134t97 144h-83l14 118h212q-14 -130 -35 -192q-27 -82 -84.5 -136t-137.5 -54q-52 0 -92 23t-62 62t-32.5 83.5t-10.5 93.5q0 92 22 176q28 104 94 177t164 73q73 0 118 -42
t57 -116zM399 798q0 -30 -22.5 -52t-52.5 -22q-25 0 -41 16.5t-16 41.5q0 30 22 52.5t52 22.5q25 0 41.5 -17t16.5 -42z" />
    <glyph glyph-name="gdotaccent" unicode="&#x121;" horiz-adv-x="394" 
d="M381 447l-59 -470q-7 -61 -23 -90q-25 -46 -69.5 -69.5t-99.5 -23.5q-65 0 -100.5 35.5t-35.5 100.5q0 18 1 19h108q0 -54 39 -54q16 0 27.5 10.5t18 32t9 33t5.5 33.5l8 52q-15 -21 -25 -32t-28 -22t-38 -11q-29 0 -49.5 17t-30.5 44t-14.5 53t-4.5 53q0 38 7.5 84.5
t23 96.5t47 83t72.5 33q54 0 81 -62l7 54h123zM238 275q0 68 -30 68q-22 0 -37.5 -35.5t-20 -70.5t-4.5 -60q0 -72 33 -72q17 0 29.5 21t18.5 51.5t8.5 55t2.5 42.5zM306 591q0 -30 -22.5 -52t-52.5 -22q-25 0 -41 16.5t-16 41.5q0 30 22 52.5t52 22.5q25 0 41.5 -17
t16.5 -42z" />
    <glyph glyph-name="Gcommaaccent" unicode="&#x122;" horiz-adv-x="517" 
d="M499 519l-133 -50q0 92 -56 92q-36 0 -63.5 -38t-40 -94t-18.5 -103.5t-6 -82.5q0 -134 76 -134t97 144h-83l14 118h212q-14 -130 -35 -192q-27 -82 -84.5 -136t-137.5 -54q-52 0 -92 23t-62 62t-32.5 83.5t-10.5 93.5q0 92 22 176q28 104 94 177t164 73q73 0 118 -42
t57 -116zM304 -46l-87 -168h-70l53 168h104z" />
    <glyph glyph-name="gcommaaccent" unicode="&#x123;" horiz-adv-x="394" 
d="M381 447l-59 -470q-7 -61 -23 -90q-25 -46 -69.5 -69.5t-99.5 -23.5q-65 0 -100.5 35.5t-35.5 100.5q0 18 1 19h108q0 -54 39 -54q16 0 27.5 10.5t18 32t9 33t5.5 33.5l8 52q-15 -21 -25 -32t-28 -22t-38 -11q-29 0 -49.5 17t-30.5 44t-14.5 53t-4.5 53q0 38 7.5 84.5
t23 96.5t47 83t72.5 33q54 0 81 -62l7 54h123zM238 275q0 68 -30 68q-22 0 -37.5 -35.5t-20 -70.5t-4.5 -60q0 -72 33 -72q17 0 29.5 21t18.5 51.5t8.5 55t2.5 42.5zM148 495l91 182h70l-58 -182h-103z" />
    <glyph glyph-name="Hcircumflex" unicode="&#x124;" horiz-adv-x="494" 
d="M496 667l-81 -667h-130l36 295h-131l-37 -295h-130l82 667h130l-30 -247h131l30 247h130zM438 779l-60 -55l-66 62l-84 -62l-41 62l137 100z" />
    <glyph glyph-name="hcircumflex" unicode="&#x125;" horiz-adv-x="388" 
d="M224 729l-43 -352q50 78 115 78q68 0 68 -82q0 -16 -7 -74l-36 -299h-124l32 255q3 23 3 46q0 29 -23 29q-13 0 -21.5 -6.5t-13 -22t-5.5 -22t-3 -24.5l-31 -255h-124l90 729h123zM298 802l-60 -55l-66 62l-84 -62l-41 62l137 100z" />
    <glyph glyph-name="Hbar" unicode="&#x126;" horiz-adv-x="494" 
d="M348 517h-132l-11 -97h132zM415 0h-130l36 295h-131l-37 -295h-130l63 517h-50l12 97h50l7 53h130l-7 -53h131l7 53h130l-6 -53h50l-12 -97h-50z" />
    <glyph glyph-name="hbar" unicode="&#x127;" horiz-adv-x="395" 
d="M18 0l62 507h-55l10 88h55l17 134h124l-17 -134h108l-10 -88h-108l-18 -150q50 78 115 78q68 0 68 -82q0 -16 -7 -74l-34 -279h-124l30 235q3 23 3 46q0 29 -23 29q-13 0 -21.5 -6.5t-13 -22t-5.5 -22t-3 -24.5l-29 -235h-124z" />
    <glyph glyph-name="Imacron" unicode="&#x12a;" horiz-adv-x="232" 
d="M235 667l-82 -667h-130l82 667h130zM326 818l-10 -80h-282l10 80h282z" />
    <glyph glyph-name="imacron" unicode="&#x12b;" horiz-adv-x="203" 
d="M190 447l-55 -447h-124l55 447h124zM283 611l-10 -80h-282l10 80h282z" />
    <glyph glyph-name="Iogonek" unicode="&#x12e;" horiz-adv-x="232" 
d="M235 667l-82 -667q-14 -11 -28 -29q-16 -22 -16 -38q0 -12 7 -19q8 -9 25 -9q20 0 35 10l-24 -75q-20 -10 -51 -10q-38 0 -58 20q-18 18 -18 48q0 37 23 65q16 19 42 37h-67l82 667h130z" />
    <glyph glyph-name="iogonek" unicode="&#x12f;" horiz-adv-x="203" 
d="M225 588q0 -35 -27 -61.5t-62 -26.5q-29 0 -48.5 20.5t-19.5 49.5q0 35 27 61.5t62 26.5q30 0 49 -20t19 -50zM154 -97l-23 -71q-20 -17 -48 -17q-37 0 -59 24q-18 18 -18 46q0 34 26 66q13 17 45 49h-66l55 447h124l-55 -447q-20 -21 -29 -34q-20 -26 -20 -45
q0 -14 10 -24q11 -11 26 -11q17 0 32 17z" />
    <glyph glyph-name="Idotaccent" unicode="&#x130;" horiz-adv-x="232" 
d="M235 667l-82 -667h-130l82 667h130zM250 798q0 -30 -22.5 -52t-52.5 -22q-25 0 -41 16.5t-16 41.5q0 30 22 52.5t52 22.5q25 0 41.5 -17t16.5 -42z" />
    <glyph glyph-name="dotlessi" unicode="&#x131;" horiz-adv-x="203" 
d="M190 447l-55 -447h-124l55 447h124z" />
    <glyph glyph-name="Jcircumflex" unicode="&#x134;" horiz-adv-x="305" 
d="M308 667l-57 -462q-10 -78 -28 -116q-22 -47 -63.5 -73.5t-93.5 -26.5t-93 21l16 132q27 -37 64 -37q26 0 41.5 18t19.5 35t7 47l57 462h130zM378 779l-60 -55l-66 62l-84 -62l-41 62l137 100z" />
    <glyph glyph-name="jcircumflex" unicode="&#x135;" horiz-adv-x="201" 
d="M188 447l-80 -653h-124l80 653h124zM264 572l-60 -55l-66 62l-84 -62l-41 62l137 100z" />
    <glyph glyph-name="Kcommaaccent" unicode="&#x136;" horiz-adv-x="445" 
d="M477 667l-163 -311l93 -356h-133l-79 339l-42 -339h-130l82 667h130l-37 -298l147 298h132zM264 -46l-87 -168h-70l53 168h104z" />
    <glyph glyph-name="kcommaaccent" unicode="&#x137;" horiz-adv-x="383" 
d="M391 447l-122 -198l89 -249h-130l-64 233l-29 -233h-124l90 729h123l-55 -454l90 172h132zM228 -46l-91 -182h-70l58 182h103z" />
    <glyph glyph-name="Lacute" unicode="&#x139;" horiz-adv-x="324" 
d="M305 125l-16 -125h-266l82 667h130l-66 -542h136zM127 747l94 128l81 -50l-114 -114z" />
    <glyph glyph-name="lacute" unicode="&#x13a;" horiz-adv-x="204" 
d="M224 729l-89 -729h-124l90 729h123zM296 869l-127 -122l-56 36l100 128z" />
    <glyph glyph-name="Lcommaaccent" unicode="&#x13b;" horiz-adv-x="324" 
d="M305 125l-16 -125h-266l82 667h130l-66 -542h136zM214 -46l-87 -168h-70l53 168h104z" />
    <glyph glyph-name="lcommaaccent" unicode="&#x13c;" horiz-adv-x="204" 
d="M224 729l-89 -729h-124l90 729h123zM116 -46l-91 -182h-70l58 182h103z" />
    <glyph glyph-name="Lcaron" unicode="&#x13d;" horiz-adv-x="441" 
d="M305 125l-16 -125h-266l82 667h130l-66 -542h136zM441 667l-100 -198h-70l66 198h104z" />
    <glyph glyph-name="lcaron" unicode="&#x13e;" horiz-adv-x="391" 
d="M224 729l-89 -729h-124l90 729h123zM398 667l-103 -204h-70l70 204h103z" />
    <glyph glyph-name="Ldot" unicode="&#x13f;" horiz-adv-x="324" 
d="M305 125l-16 -125h-266l82 667h130l-66 -542h136zM359 342q0 -30 -22.5 -52t-52.5 -22q-25 0 -41 16.5t-16 41.5q0 30 22 52.5t52 22.5q25 0 41.5 -17t16.5 -42z" />
    <glyph glyph-name="ldot" unicode="&#x140;" horiz-adv-x="326" 
d="M224 729l-89 -729h-124l90 729h123zM347 373q0 -30 -22.5 -52t-52.5 -22q-25 0 -41 16.5t-16 41.5q0 30 22 52.5t52 22.5q25 0 41.5 -17t16.5 -42z" />
    <glyph glyph-name="Lslash" unicode="&#x141;" horiz-adv-x="324" 
d="M309 482l-14 -116l-106 -76l-20 -165h136l-16 -125h-266l28 229l-55 -43l14 116l55 42l40 323h130l-32 -261z" />
    <glyph glyph-name="lslash" unicode="&#x142;" horiz-adv-x="222" 
d="M252 488l-13 -106l-52 -40l-42 -342h-123l34 279l-52 -42l13 106l52 42l42 344h124l-35 -281z" />
    <glyph glyph-name="Nacute" unicode="&#x143;" horiz-adv-x="510" 
d="M512 667l-82 -667h-122l-112 402q0 -57 -4 -86l-39 -316h-130l82 667h123l112 -403q-1 16 -1 48q0 29 2 44l39 311h132zM250 747l94 128l81 -50l-114 -114z" />
    <glyph glyph-name="nacute" unicode="&#x144;" horiz-adv-x="388" 
d="M190 447l-9 -70q50 78 115 78q68 0 68 -82q0 -16 -7 -74l-36 -299h-124l32 255q3 23 3 46q0 29 -23 29q-13 0 -21.5 -6.5t-13 -22t-5.5 -22t-3 -24.5l-31 -255h-124l55 447h124zM380 639l-127 -122l-56 36l100 128z" />
    <glyph glyph-name="Ncommaaccent" unicode="&#x145;" horiz-adv-x="510" 
d="M512 667l-82 -667h-122l-112 402q0 -57 -4 -86l-39 -316h-130l82 667h123l112 -403q-1 16 -1 48q0 29 2 44l39 311h132zM284 -46l-87 -168h-70l53 168h104z" />
    <glyph glyph-name="ncommaaccent" unicode="&#x146;" horiz-adv-x="388" 
d="M190 447l-9 -70q50 78 115 78q68 0 68 -82q0 -16 -7 -74l-36 -299h-124l32 255q3 23 3 46q0 29 -23 29q-13 0 -21.5 -6.5t-13 -22t-5.5 -22t-3 -24.5l-31 -255h-124l55 447h124zM213 -46l-91 -182h-70l58 182h103z" />
    <glyph glyph-name="Ncaron" unicode="&#x147;" horiz-adv-x="510" 
d="M512 667l-82 -667h-122l-112 402q0 -57 -4 -86l-39 -316h-130l82 667h123l112 -403q-1 16 -1 48q0 29 2 44l39 311h132zM449 824l-137 -100l-114 107l60 55l66 -62l84 62z" />
    <glyph glyph-name="ncaron" unicode="&#x148;" horiz-adv-x="388" 
d="M190 447l-9 -70q50 78 115 78q68 0 68 -82q0 -16 -7 -74l-36 -299h-124l32 255q3 23 3 46q0 29 -23 29q-13 0 -21.5 -6.5t-13 -22t-5.5 -22t-3 -24.5l-31 -255h-124l55 447h124zM378 617l-137 -100l-114 107l60 55l66 -62l84 62z" />
    <glyph glyph-name="Omacron" unicode="&#x14c;" horiz-adv-x="534" 
d="M517 434q0 -136 -35 -235q-31 -90 -95 -150t-151 -60q-48 0 -91 26t-67 68q-35 59 -35 158q0 101 22 182q27 107 93 180.5t166 73.5q94 0 143.5 -72.5t49.5 -170.5zM378 427q0 28 -4.5 54t-21.5 50.5t-45 24.5q-27 0 -49 -22t-35.5 -56t-21 -63.5t-11.5 -56.5
q-8 -49 -8 -113q0 -19 3 -39t10 -41.5t22 -35t36 -13.5q27 0 49 22t35.5 56t21 63.5t11.5 56.5q8 49 8 113zM488 818l-10 -80h-282l10 80h282z" />
    <glyph glyph-name="omacron" unicode="&#x14d;" horiz-adv-x="386" 
d="M363 289q0 -40 -5.5 -79t-20 -79.5t-36 -71t-56.5 -49.5t-80 -19q-53 0 -86 28t-44.5 67t-11.5 91q0 65 19 125.5t66 106.5t114 46q70 0 105.5 -46.5t35.5 -119.5zM237 277q0 66 -29 66q-31 0 -46 -60.5t-15 -107.5q0 -72 31 -72q22 0 36.5 38t18.5 73.5t4 62.5zM378 611
l-10 -80h-282l10 80h282z" />
    <glyph glyph-name="Obreve" unicode="&#x14e;" horiz-adv-x="534" 
d="M517 434q0 -136 -35 -235q-31 -90 -95 -150t-151 -60q-48 0 -91 26t-67 68q-35 59 -35 158q0 101 22 182q27 107 93 180.5t166 73.5q94 0 143.5 -72.5t49.5 -170.5zM378 427q0 28 -4.5 54t-21.5 50.5t-45 24.5q-27 0 -49 -22t-35.5 -56t-21 -63.5t-11.5 -56.5
q-8 -49 -8 -113q0 -19 3 -39t10 -41.5t22 -35t36 -13.5q27 0 49 22t35.5 56t21 63.5t11.5 56.5q8 49 8 113zM407 838h66q-8 -48 -43 -83q-38 -37 -102 -37q-55 0 -84 30q-31 31 -31 90h66q2 -18 13 -29q14 -13 44 -13q37 0 52 13q12 9 19 29z" />
    <glyph glyph-name="obreve" unicode="&#x14f;" horiz-adv-x="386" 
d="M363 289q0 -40 -5.5 -79t-20 -79.5t-36 -71t-56.5 -49.5t-80 -19q-53 0 -86 28t-44.5 67t-11.5 91q0 65 19 125.5t66 106.5t114 46q70 0 105.5 -46.5t35.5 -119.5zM237 277q0 66 -29 66q-31 0 -46 -60.5t-15 -107.5q0 -72 31 -72q22 0 36.5 38t18.5 73.5t4 62.5zM308 637
h66q-8 -48 -43 -83q-38 -37 -102 -37q-55 0 -84 30q-31 31 -31 90h66q2 -18 13 -29q14 -13 44 -13q37 0 52 13q12 9 19 29z" />
    <glyph glyph-name="Ohungarumlaut" unicode="&#x150;" horiz-adv-x="534" 
d="M517 434q0 -136 -35 -235q-31 -90 -95 -150t-151 -60q-48 0 -91 26t-67 68q-35 59 -35 158q0 101 22 182q27 107 93 180.5t166 73.5q94 0 143.5 -72.5t49.5 -170.5zM378 427q0 28 -4.5 54t-21.5 50.5t-45 24.5q-27 0 -49 -22t-35.5 -56t-21 -63.5t-11.5 -56.5
q-8 -49 -8 -113q0 -19 3 -39t10 -41.5t22 -35t36 -13.5q27 0 49 22t35.5 56t21 63.5t11.5 56.5q8 49 8 113zM488 846l-99 -122l-51 36l74 128zM353 846l-100 -122l-51 36l74 128z" />
    <glyph glyph-name="ohungarumlaut" unicode="&#x151;" horiz-adv-x="386" 
d="M363 289q0 -40 -5.5 -79t-20 -79.5t-36 -71t-56.5 -49.5t-80 -19q-53 0 -86 28t-44.5 67t-11.5 91q0 65 19 125.5t66 106.5t114 46q70 0 105.5 -46.5t35.5 -119.5zM237 277q0 66 -29 66q-31 0 -46 -60.5t-15 -107.5q0 -72 31 -72q22 0 36.5 38t18.5 73.5t4 62.5zM409 639
l-99 -122l-51 36l74 128zM274 639l-100 -122l-51 36l74 128z" />
    <glyph glyph-name="OE" unicode="&#x152;" horiz-adv-x="665" 
d="M681 667l-15 -123h-141l-17 -139h126l-15 -128h-126l-19 -152h142l-16 -125h-269l6 52q-55 -63 -124 -63q-50 0 -85.5 23.5t-53 63.5t-24.5 81t-7 89q0 50 8 104.5t27.5 114t48 106t75 76.5t102.5 30q68 0 104 -48l4 38h269zM378 429q0 132 -70 132q-36 0 -62.5 -37
t-39 -92t-18 -101t-5.5 -81q0 -138 70 -138q37 0 64 37.5t39 94t17 102.5t5 83z" />
    <glyph glyph-name="oe" unicode="&#x153;" horiz-adv-x="575" 
d="M426 139h104q-13 -68 -54.5 -108t-108.5 -40q-68 0 -108 49q-46 -49 -103 -49q-68 0 -101.5 49.5t-33.5 121.5q0 63 16 120q21 72 69 122.5t116 50.5q56 0 91 -44q52 44 107 44q133 0 133 -167q0 -38 -11 -99h-198q-3 -19 -3 -40q0 -63 40 -63q19 0 30.5 16t14.5 37z
M357 266h85q0 1 1.5 14.5t1.5 20.5q0 56 -34 56q-42 0 -54 -91zM238 276q0 67 -30 67q-31 0 -46 -60.5t-15 -107.5q0 -72 32 -72q17 0 29.5 21.5t18.5 52.5t8.5 56t2.5 43z" />
    <glyph glyph-name="Racute" unicode="&#x154;" horiz-adv-x="466" 
d="M105 667h141q94 0 139 -32q59 -43 59 -135q0 -129 -116 -197l77 -303h-136l-78 307l-38 -307h-130zM222 563l-22 -183q7 -1 20 -1q47 0 72 31.5t25 79.5q0 73 -70 73h-25zM212 747l94 128l81 -50l-114 -114z" />
    <glyph glyph-name="racute" unicode="&#x155;" horiz-adv-x="274" 
d="M293 463l-15 -121q-12 2 -18 2q-53 0 -71 -26.5t-25 -84.5l-29 -233h-124l55 447h124l-7 -55q27 34 50 50t60 21zM336 639l-127 -122l-56 36l100 128z" />
    <glyph glyph-name="Rcommaaccent" unicode="&#x156;" horiz-adv-x="466" 
d="M105 667h141q94 0 139 -32q59 -43 59 -135q0 -129 -116 -197l77 -303h-136l-78 307l-38 -307h-130zM222 563l-22 -183q7 -1 20 -1q47 0 72 31.5t25 79.5q0 73 -70 73h-25zM269 -46l-87 -168h-70l53 168h104z" />
    <glyph glyph-name="rcommaaccent" unicode="&#x157;" horiz-adv-x="274" 
d="M293 463l-15 -121q-12 2 -18 2q-53 0 -71 -26.5t-25 -84.5l-29 -233h-124l55 447h124l-7 -55q27 34 50 50t60 21zM183 -46l-91 -182h-70l58 182h103z" />
    <glyph glyph-name="Rcaron" unicode="&#x158;" horiz-adv-x="466" 
d="M105 667h141q94 0 139 -32q59 -43 59 -135q0 -129 -116 -197l77 -303h-136l-78 307l-38 -307h-130zM222 563l-22 -183q7 -1 20 -1q47 0 72 31.5t25 79.5q0 73 -70 73h-25zM407 824l-137 -100l-114 107l60 55l66 -62l84 62z" />
    <glyph glyph-name="rcaron" unicode="&#x159;" horiz-adv-x="274" 
d="M293 463l-15 -121q-12 2 -18 2q-53 0 -71 -26.5t-25 -84.5l-29 -233h-124l55 447h124l-7 -55q27 34 50 50t60 21zM334 617l-137 -100l-114 107l60 55l66 -62l84 62z" />
    <glyph glyph-name="Sacute" unicode="&#x15a;" horiz-adv-x="385" 
d="M374 645l-16 -129q-45 43 -89 43q-33 0 -53.5 -21.5t-20.5 -54.5q0 -26 17 -49t41 -42t48 -40t41 -53.5t17 -72.5q0 -97 -59.5 -167t-154.5 -70q-65 0 -110 34l16 126q48 -36 91 -36q38 0 62.5 23.5t24.5 61.5q0 16 -3 23q-7 17 -31 37q-10 9 -32 25q-51 38 -74.5 74.5
t-23.5 93.5q0 90 55 158t143 68q57 0 111 -32zM227 747l94 128l81 -50l-114 -114z" />
    <glyph glyph-name="sacute" unicode="&#x15b;" horiz-adv-x="310" 
d="M318 417l-60 -91q-26 30 -55 30q-16 0 -26 -10.5t-10 -26.5q0 -14 18.5 -27t40.5 -24t40.5 -37t18.5 -62q0 -72 -45.5 -125t-116.5 -53q-65 0 -126 51l66 89q30 -28 57 -28q18 0 30.5 12t12.5 30q0 15 -19 29t-42 25.5t-42 38.5t-19 66q0 68 48 109.5t117 41.5
q63 0 112 -38zM331 639l-127 -122l-56 36l100 128z" />
    <glyph glyph-name="Scircumflex" unicode="&#x15c;" horiz-adv-x="385" 
d="M374 645l-16 -129q-45 43 -89 43q-33 0 -53.5 -21.5t-20.5 -54.5q0 -26 17 -49t41 -42t48 -40t41 -53.5t17 -72.5q0 -97 -59.5 -167t-154.5 -70q-65 0 -110 34l16 126q48 -36 91 -36q38 0 62.5 23.5t24.5 61.5q0 16 -3 23q-7 17 -31 37q-10 9 -32 25q-51 38 -74.5 74.5
t-23.5 93.5q0 90 55 158t143 68q57 0 111 -32zM403 779l-60 -55l-66 62l-84 -62l-41 62l137 100z" />
    <glyph glyph-name="scircumflex" unicode="&#x15d;" horiz-adv-x="310" 
d="M318 417l-60 -91q-26 30 -55 30q-16 0 -26 -10.5t-10 -26.5q0 -14 18.5 -27t40.5 -24t40.5 -37t18.5 -62q0 -72 -45.5 -125t-116.5 -53q-65 0 -126 51l66 89q30 -28 57 -28q18 0 30.5 12t12.5 30q0 15 -19 29t-42 25.5t-42 38.5t-19 66q0 68 48 109.5t117 41.5
q63 0 112 -38zM343 572l-60 -55l-66 62l-84 -62l-41 62l137 100z" />
    <glyph glyph-name="Scedilla" unicode="&#x15e;" horiz-adv-x="385" 
d="M374 645l-16 -129q-45 43 -89 43q-33 0 -53.5 -21.5t-20.5 -54.5q0 -26 17 -49t41 -42t48 -40t41 -53.5t17 -72.5q0 -97 -59.5 -167t-154.5 -70q-65 0 -110 34l16 126q48 -36 91 -36q38 0 62.5 23.5t24.5 61.5q0 16 -3 23q-7 17 -31 37q-10 9 -32 25q-51 38 -74.5 74.5
t-23.5 93.5q0 90 55 158t143 68q57 0 111 -32zM232 -77l-109 -128l-60 36l79 127z" />
    <glyph glyph-name="scedilla" unicode="&#x15f;" horiz-adv-x="310" 
d="M318 417l-60 -91q-26 30 -55 30q-16 0 -26 -10.5t-10 -26.5q0 -14 18.5 -27t40.5 -24t40.5 -37t18.5 -62q0 -72 -45.5 -125t-116.5 -53q-65 0 -126 51l66 89q30 -28 57 -28q18 0 30.5 12t12.5 30q0 15 -19 29t-42 25.5t-42 38.5t-19 66q0 68 48 109.5t117 41.5
q63 0 112 -38zM193 -74l-106 -119l-51 29l83 122z" />
    <glyph glyph-name="Scaron" unicode="&#x160;" horiz-adv-x="385" 
d="M374 645l-16 -129q-45 43 -89 43q-33 0 -53.5 -21.5t-20.5 -54.5q0 -26 17 -49t41 -42t48 -40t41 -53.5t17 -72.5q0 -97 -59.5 -167t-154.5 -70q-65 0 -110 34l16 126q48 -36 91 -36q38 0 62.5 23.5t24.5 61.5q0 16 -3 23q-7 17 -31 37q-10 9 -32 25q-51 38 -74.5 74.5
t-23.5 93.5q0 90 55 158t143 68q57 0 111 -32zM404 824l-137 -100l-114 107l60 55l66 -62l84 62z" />
    <glyph glyph-name="scaron" unicode="&#x161;" horiz-adv-x="310" 
d="M318 417l-60 -91q-26 30 -55 30q-16 0 -26 -10.5t-10 -26.5q0 -14 18.5 -27t40.5 -24t40.5 -37t18.5 -62q0 -72 -45.5 -125t-116.5 -53q-65 0 -126 51l66 89q30 -28 57 -28q18 0 30.5 12t12.5 30q0 15 -19 29t-42 25.5t-42 38.5t-19 66q0 68 48 109.5t117 41.5
q63 0 112 -38zM349 617l-137 -100l-114 107l60 55l66 -62l84 62z" />
    <glyph glyph-name="Tcedilla" unicode="&#x162;" horiz-adv-x="334" 
d="M388 667l-15 -122h-102l-67 -545h-130l67 545h-102l15 122h334zM218 -77l-109 -128l-60 36l79 127z" />
    <glyph glyph-name="tcedilla" unicode="&#x163;" horiz-adv-x="226" 
d="M251 447l-12 -104h-50l-43 -343h-123l42 343h-42l13 104h42l16 127h123l-16 -127h50zM153 -74l-106 -119l-51 29l83 122z" />
    <glyph glyph-name="Tcaron" unicode="&#x164;" horiz-adv-x="334" 
d="M388 667l-15 -122h-102l-67 -545h-130l67 545h-102l15 122h334zM364 824l-137 -100l-114 107l60 55l66 -62l84 62z" />
    <glyph glyph-name="tcaron" unicode="&#x165;" horiz-adv-x="401" 
d="M251 447l-12 -104h-50l-43 -343h-123l42 343h-42l13 104h42l16 127h123l-16 -127h50zM408 677l-103 -204h-70l70 204h103z" />
    <glyph glyph-name="Utilde" unicode="&#x168;" horiz-adv-x="491" 
d="M494 667l-61 -497q-9 -67 -34 -102q-56 -79 -186 -79q-78 0 -125 36t-47 111q0 10 5 52l59 479h130l-54 -443q-5 -43 -5 -50q0 -65 55 -65q11 0 20.5 2t16.5 7t12.5 9t9.5 13t6.5 14t5 17t3 16.5t2.5 19t2 17.5l55 443h130zM396 846l64 -4q-9 -34 -17.5 -55.5t-30.5 -42
t-52 -20.5q-21 0 -55 15.5t-47 15.5q-22 0 -31 -28h-64q6 25 11.5 41.5t16.5 36.5t28.5 30t40.5 10q22 0 53.5 -17t47.5 -17q6 0 10.5 1.5t7.5 3t6 6.5t3.5 6.5t3.5 9t4 8.5z" />
    <glyph glyph-name="utilde" unicode="&#x169;" horiz-adv-x="387" 
d="M374 447l-36 -296q-6 -57 -32 -91q-24 -32 -63 -50.5t-80 -18.5q-57 0 -96.5 32.5t-39.5 88.5q0 8 5 56l34 279h124l-32 -256q-4 -34 -4 -51q0 -33 25 -33q7 0 13 3t10 9.5t7 12.5t4.5 15.5t2.5 15.5t2 16t1 12l32 256h123zM320 639l64 -4q-9 -34 -17.5 -55.5t-30.5 -42
t-52 -20.5q-21 0 -55 15.5t-47 15.5q-22 0 -31 -28h-64q6 25 11.5 41.5t16.5 36.5t28.5 30t40.5 10q22 0 53.5 -17t47.5 -17q6 0 10.5 1.5t7.5 3t6 6.5t3.5 6.5t3.5 9t4 8.5z" />
    <glyph glyph-name="Umacron" unicode="&#x16a;" horiz-adv-x="491" 
d="M494 667l-61 -497q-9 -67 -34 -102q-56 -79 -186 -79q-78 0 -125 36t-47 111q0 10 5 52l59 479h130l-54 -443q-5 -43 -5 -50q0 -65 55 -65q11 0 20.5 2t16.5 7t12.5 9t9.5 13t6.5 14t5 17t3 16.5t2.5 19t2 17.5l55 443h130zM453 818l-10 -80h-282l10 80h282z" />
    <glyph glyph-name="umacron" unicode="&#x16b;" horiz-adv-x="387" 
d="M374 447l-36 -296q-6 -57 -32 -91q-24 -32 -63 -50.5t-80 -18.5q-57 0 -96.5 32.5t-39.5 88.5q0 8 5 56l34 279h124l-32 -256q-4 -34 -4 -51q0 -33 25 -33q7 0 13 3t10 9.5t7 12.5t4.5 15.5t2.5 15.5t2 16t1 12l32 256h123zM378 611l-10 -80h-282l10 80h282z" />
    <glyph glyph-name="Ubreve" unicode="&#x16c;" horiz-adv-x="491" 
d="M494 667l-61 -497q-9 -67 -34 -102q-56 -79 -186 -79q-78 0 -125 36t-47 111q0 10 5 52l59 479h130l-54 -443q-5 -43 -5 -50q0 -65 55 -65q11 0 20.5 2t16.5 7t12.5 9t9.5 13t6.5 14t5 17t3 16.5t2.5 19t2 17.5l55 443h130zM382 838h66q-8 -48 -43 -83q-38 -37 -102 -37
q-55 0 -84 30q-31 31 -31 90h66q2 -18 13 -29q14 -13 44 -13q37 0 52 13q12 9 19 29z" />
    <glyph glyph-name="ubreve" unicode="&#x16d;" horiz-adv-x="387" 
d="M374 447l-36 -296q-6 -57 -32 -91q-24 -32 -63 -50.5t-80 -18.5q-57 0 -96.5 32.5t-39.5 88.5q0 8 5 56l34 279h124l-32 -256q-4 -34 -4 -51q0 -33 25 -33q7 0 13 3t10 9.5t7 12.5t4.5 15.5t2.5 15.5t2 16t1 12l32 256h123zM299 637h66q-8 -48 -43 -83q-38 -37 -102 -37
q-55 0 -84 30q-31 31 -31 90h66q2 -18 13 -29q14 -13 44 -13q37 0 52 13q12 9 19 29z" />
    <glyph glyph-name="Uring" unicode="&#x16e;" horiz-adv-x="491" 
d="M494 667l-61 -497q-9 -67 -34 -102q-56 -79 -186 -79q-78 0 -125 36t-47 111q0 10 5 52l59 479h130l-54 -443q-5 -43 -5 -50q0 -65 55 -65q11 0 20.5 2t16.5 7t12.5 9t9.5 13t6.5 14t5 17t3 16.5t2.5 19t2 17.5l55 443h130zM218 810q0 40 28 68t68 28t68 -28t28 -68
t-28 -68t-68 -28t-68 28t-28 68zM273 810q0 -18 11.5 -29.5t29.5 -11.5t29.5 11.5t11.5 29.5t-11.5 29.5t-29.5 11.5t-29.5 -11.5t-11.5 -29.5z" />
    <glyph glyph-name="uring" unicode="&#x16f;" horiz-adv-x="387" 
d="M374 447l-36 -296q-6 -57 -32 -91q-24 -32 -63 -50.5t-80 -18.5q-57 0 -96.5 32.5t-39.5 88.5q0 8 5 56l34 279h124l-32 -256q-4 -34 -4 -51q0 -33 25 -33q7 0 13 3t10 9.5t7 12.5t4.5 15.5t2.5 15.5t2 16t1 12l32 256h123zM135 619q0 40 28 68t68 28t68 -28t28 -68
t-28 -68t-68 -28t-68 28t-28 68zM190 619q0 -18 11.5 -29.5t29.5 -11.5t29.5 11.5t11.5 29.5t-11.5 29.5t-29.5 11.5t-29.5 -11.5t-11.5 -29.5z" />
    <glyph glyph-name="Uhungarumlaut" unicode="&#x170;" horiz-adv-x="491" 
d="M494 667l-61 -497q-9 -67 -34 -102q-56 -79 -186 -79q-78 0 -125 36t-47 111q0 10 5 52l59 479h130l-54 -443q-5 -43 -5 -50q0 -65 55 -65q11 0 20.5 2t16.5 7t12.5 9t9.5 13t6.5 14t5 17t3 16.5t2.5 19t2 17.5l55 443h130zM461 846l-99 -122l-51 36l74 128zM326 846
l-100 -122l-51 36l74 128z" />
    <glyph glyph-name="uhungarumlaut" unicode="&#x171;" horiz-adv-x="387" 
d="M374 447l-36 -296q-6 -57 -32 -91q-24 -32 -63 -50.5t-80 -18.5q-57 0 -96.5 32.5t-39.5 88.5q0 8 5 56l34 279h124l-32 -256q-4 -34 -4 -51q0 -33 25 -33q7 0 13 3t10 9.5t7 12.5t4.5 15.5t2.5 15.5t2 16t1 12l32 256h123zM395 639l-99 -122l-51 36l74 128zM260 639
l-100 -122l-51 36l74 128z" />
    <glyph glyph-name="Uogonek" unicode="&#x172;" horiz-adv-x="491" 
d="M494 667l-61 -497q-6 -51 -17.5 -78.5t-32.5 -49.5q-6 -7 -12 -12.5t-10.5 -9t-11 -7.5t-9.5 -6t-10 -5.5t-10 -5.5q-35 -20 -45 -32q-12 -14 -12 -31q0 -12 7 -19q8 -9 25 -9q20 0 35 10l-24 -75q-20 -10 -51 -10q-38 0 -58 20q-18 18 -18 48q0 52 51 92q-4 0 -13 -1
t-13 -1q-83 0 -127 47q-36 38 -36 96q0 27 5 65l59 471h130l-56 -456q-3 -20 -3 -39q0 -30 12 -45q14 -18 44 -18q31 0 48 17q18 17 26 73l58 468h130z" />
    <glyph glyph-name="uogonek" unicode="&#x173;" horiz-adv-x="387" 
d="M374 447l-36 -296q-9 -78 -47 -120q-18 -20 -40 -34q-19 -14 -34 -30q-17 -19 -17 -36q0 -13 9 -22q10 -8 25 -8q18 0 33 10l-23 -71q-21 -10 -46 -10q-39 0 -59 20q-19 19 -19 46q0 46 54 94q-74 0 -112 37q-35 33 -35 88q0 14 5 54l34 278h124l-32 -260q-4 -40 -4 -48
q0 -19 9 -27q7 -5 15 -5q13 0 22 9q12 13 18 65l33 266h123z" />
    <glyph glyph-name="Ydieresis" unicode="&#x178;" horiz-adv-x="440" 
d="M494 667l-199 -382l-36 -285h-130l35 285l-110 382h143l33 -153q6 -23 14 -91q13 36 38 94l67 150h145zM433 797q0 -30 -22.5 -51.5t-52.5 -21.5q-24 0 -40 17t-16 41q0 29 22 51.5t51 22.5q25 0 41.5 -17t16.5 -42zM260 797q0 -29 -22.5 -51t-51.5 -22q-25 0 -41 16.5
t-16 41.5q0 29 22 51.5t51 22.5q25 0 41.5 -17t16.5 -42z" />
    <glyph glyph-name="Zacute" unicode="&#x179;" horiz-adv-x="449" 
d="M485 667l-291 -542h207l-16 -125h-395l285 541h-191l15 126h386zM220 747l94 128l81 -50l-114 -114z" />
    <glyph glyph-name="zacute" unicode="&#x17a;" horiz-adv-x="336" 
d="M349 447l-178 -344h122l-13 -103h-295l182 343h-125l12 104h295zM334 639l-127 -122l-56 36l100 128z" />
    <glyph glyph-name="Zdotaccent" unicode="&#x17b;" horiz-adv-x="449" 
d="M485 667l-291 -542h207l-16 -125h-395l285 541h-191l15 126h386zM368 798q0 -30 -22.5 -52t-52.5 -22q-25 0 -41 16.5t-16 41.5q0 30 22 52.5t52 22.5q25 0 41.5 -17t16.5 -42z" />
    <glyph glyph-name="zdotaccent" unicode="&#x17c;" horiz-adv-x="336" 
d="M349 447l-178 -344h122l-13 -103h-295l182 343h-125l12 104h295zM282 591q0 -30 -22.5 -52t-52.5 -22q-25 0 -41 16.5t-16 41.5q0 30 22 52.5t52 22.5q25 0 41.5 -17t16.5 -42z" />
    <glyph glyph-name="Zcaron" unicode="&#x17d;" horiz-adv-x="449" 
d="M485 667l-291 -542h207l-16 -125h-395l285 541h-191l15 126h386zM424 824l-137 -100l-114 107l60 55l66 -62l84 62z" />
    <glyph glyph-name="zcaron" unicode="&#x17e;" horiz-adv-x="336" 
d="M349 447l-178 -344h122l-13 -103h-295l182 343h-125l12 104h295zM342 617l-137 -100l-114 107l60 55l66 -62l84 62z" />
    <glyph glyph-name="uni018F" unicode="&#x18f;" horiz-adv-x="523" 
d="M56 371h308q12 127 -29 170q-19 20 -47 20q-29 0 -47 -17q-21 -19 -39 -75l-122 50q25 61 69 102q62 56 153 56q82 0 133 -47q71 -66 71 -207q0 -40 -5 -83t-17 -96t-38 -103t-63 -86q-69 -66 -164 -66q-67 0 -111 44q-65 66 -65 194q0 62 13 144zM171 253
q-7 -25 -2.5 -66t23.5 -61q17 -17 40 -17q35 0 59 25q20 20 34.5 54.5t18.5 64.5h-173z" />
    <glyph glyph-name="florin" unicode="&#x192;" horiz-adv-x="433" 
d="M420 728l-23 -118q-12 6 -25 6q-7 0 -13.5 -2.5t-10.5 -7.5t-7 -9.5t-5.5 -13.5t-3.5 -13t-3 -13.5t-2 -11.5l-19 -98h70l-13 -68h-70l-53 -262q-2 -9 -7.5 -40t-8.5 -44t-10.5 -40t-15 -40.5t-20.5 -33t-28 -29t-36.5 -16.5t-47.5 -7q-25 0 -61 9l23 118q14 -7 27 -7
q7 0 12.5 2t10 6.5t7.5 8t5.5 11.5t4 11.5t4 12.5t2.5 11q5 20 16 76l50 253h-66l13 68h66q20 97 26 128q17 88 46 121q38 44 106 44q28 0 60 -12z" />
    <glyph glyph-name="uni01CF" unicode="&#x1cf;" horiz-adv-x="232" 
d="M235 667l-82 -667h-130l82 667h130zM314 824l-137 -100l-114 107l60 55l66 -62l84 62z" />
    <glyph glyph-name="uni01D0" unicode="&#x1d0;" horiz-adv-x="203" 
d="M190 447l-55 -447h-124l55 447h124zM269 617l-137 -100l-114 107l60 55l66 -62l84 62z" />
    <glyph glyph-name="uni01DD" unicode="&#x1dd;" horiz-adv-x="373" 
d="M144 308l-100 20q14 52 47 85q41 42 111 42q65 0 103 -36q45 -43 45 -136q0 -68 -20 -136.5t-61 -110.5q-44 -45 -114 -45q-57 0 -91 35q-41 42 -41 131q0 52 11 99h198q3 22 3 43q0 38 -14 52q-10 10 -28 10t-31 -13q-13 -15 -18 -40zM221 179h-90q-4 -17 -4 -36
q0 -34 14 -48q9 -9 24 -9t26 9q23 19 30 84z" />
    <glyph glyph-name="Gcaron" unicode="&#x1e6;" horiz-adv-x="517" 
d="M499 519l-133 -50q0 92 -56 92q-36 0 -63.5 -38t-40 -94t-18.5 -103.5t-6 -82.5q0 -134 76 -134t97 144h-83l14 118h212q-14 -130 -35 -192q-27 -82 -84.5 -136t-137.5 -54q-52 0 -92 23t-62 62t-32.5 83.5t-10.5 93.5q0 92 22 176q28 104 94 177t164 73q73 0 118 -42
t57 -116zM464 824l-137 -100l-114 107l60 55l66 -62l84 62z" />
    <glyph glyph-name="gcaron" unicode="&#x1e7;" horiz-adv-x="394" 
d="M381 447l-59 -470q-7 -61 -23 -90q-25 -46 -69.5 -69.5t-99.5 -23.5q-65 0 -100.5 35.5t-35.5 100.5q0 18 1 19h108q0 -54 39 -54q16 0 27.5 10.5t18 32t9 33t5.5 33.5l8 52q-15 -21 -25 -32t-28 -22t-38 -11q-29 0 -49.5 17t-30.5 44t-14.5 53t-4.5 53q0 38 7.5 84.5
t23 96.5t47 83t72.5 33q54 0 81 -62l7 54h123zM238 275q0 68 -30 68q-22 0 -37.5 -35.5t-20 -70.5t-4.5 -60q0 -72 33 -72q17 0 29.5 21t18.5 51.5t8.5 55t2.5 42.5zM374 617l-137 -100l-114 107l60 55l66 -62l84 62z" />
    <glyph glyph-name="AEacute" unicode="&#x1fc;" horiz-adv-x="583" 
d="M549 0h-264l-10 111h-137l-33 -111h-130l231 667h268l12 -124h-129l16 -138h130l15 -126h-129l19 -154h125zM173 216h93q-5 47 -13 141q-4 44 -4 66q0 12 0.5 35.5t0.5 35.5q-16 -86 -33 -139zM288 747l94 128l81 -50l-114 -114z" />
    <glyph glyph-name="aeacute" unicode="&#x1fd;" horiz-adv-x="562" 
d="M77 329l13 107q60 20 102 20q44 0 70.5 -14t42.5 -52q44 65 116 65q117 0 117 -164q0 -22 -7 -99h-201q-2 -20 -2 -31q0 -78 43 -78q21 0 32.5 15.5t13.5 38.5h101q-10 -67 -50 -106.5t-106 -39.5q-68 0 -102 55q-58 -55 -119 -55q-57 0 -92.5 31.5t-35.5 87.5
q0 66 42 112t107 46q41 0 64 -16q3 42 3 43q0 57 -63 57q-38 0 -89 -23zM340 269h91q2 20 2 30q0 65 -36 65q-44 0 -57 -95zM219 137q0 17 -12 29t-29 12q-21 0 -37 -16t-16 -37q0 -17 12 -29t29 -12q21 0 37 16t16 37zM457 639l-127 -122l-56 36l100 128z" />
    <glyph glyph-name="Scommaaccent" unicode="&#x218;" horiz-adv-x="385" 
d="M374 645l-16 -129q-45 43 -89 43q-33 0 -53.5 -21.5t-20.5 -54.5q0 -26 17 -49t41 -42t48 -40t41 -53.5t17 -72.5q0 -97 -59.5 -167t-154.5 -70q-65 0 -110 34l16 126q48 -36 91 -36q38 0 62.5 23.5t24.5 61.5q0 16 -3 23q-7 17 -31 37q-10 9 -32 25q-51 38 -74.5 74.5
t-23.5 93.5q0 90 55 158t143 68q57 0 111 -32zM214 -46l-87 -168h-70l53 168h104z" />
    <glyph glyph-name="scommaaccent" unicode="&#x219;" horiz-adv-x="310" 
d="M318 417l-60 -91q-26 30 -55 30q-16 0 -26 -10.5t-10 -26.5q0 -14 18.5 -27t40.5 -24t40.5 -37t18.5 -62q0 -72 -45.5 -125t-116.5 -53q-65 0 -126 51l66 89q30 -28 57 -28q18 0 30.5 12t12.5 30q0 15 -19 29t-42 25.5t-42 38.5t-19 66q0 68 48 109.5t117 41.5
q63 0 112 -38zM178 -46l-91 -182h-70l58 182h103z" />
    <glyph glyph-name="Tcommaaccent" unicode="&#x21a;" horiz-adv-x="334" 
d="M388 667l-15 -122h-102l-67 -545h-130l67 545h-102l15 122h334zM189 -46l-87 -168h-70l53 168h104z" />
    <glyph glyph-name="tcommaaccent" unicode="&#x21b;" horiz-adv-x="226" 
d="M251 447l-12 -104h-50l-43 -343h-123l42 343h-42l13 104h42l16 127h123l-16 -127h50zM133 -46l-91 -182h-70l58 182h103z" />
    <glyph glyph-name="uni0228" unicode="&#x228;" horiz-adv-x="350" 
d="M366 667l-15 -124h-131l-18 -144h116l-16 -126h-115l-19 -150h133l-15 -123h-263l82 667h261zM237 -77l-109 -128l-60 36l79 127z" />
    <glyph glyph-name="uni0229" unicode="&#x229;" horiz-adv-x="367" 
d="M222 154h104q-9 -78 -59 -125q-40 -38 -103 -38q-60 0 -97 38q-46 50 -46 138q0 64 22 131t65 110q47 47 111 47q49 0 83 -32q44 -43 44 -134q0 -36 -9 -88h-195q-6 -29 -6 -57q0 -36 12 -49q10 -10 26 -10q22 0 35 22q9 16 13 47zM152 278h89q2 16 2 24q0 25 -8 40
q-10 18 -28 18q-17 0 -30 -14q-20 -21 -25 -68zM224 -74l-106 -119l-51 29l83 122z" />
    <glyph glyph-name="uni0237" unicode="&#x237;" horiz-adv-x="201" 
d="M188 447l-80 -653h-124l80 653h124z" />
    <glyph glyph-name="uni0259" unicode="&#x259;" horiz-adv-x="373" 
d="M144 308l-100 20q14 52 47 85q41 42 111 42q65 0 103 -36q45 -43 45 -136q0 -68 -20 -136.5t-61 -110.5q-44 -45 -114 -45q-57 0 -91 35q-41 42 -41 131q0 52 11 99h198q3 22 3 43q0 38 -14 52q-10 10 -28 10t-31 -13q-13 -15 -18 -40zM221 179h-90q-4 -17 -4 -36
q0 -34 14 -48q9 -9 24 -9t26 9q23 19 30 84z" />
    <glyph glyph-name="afii57929" unicode="&#x2bc;" horiz-adv-x="197" 
d="M228 667l-103 -204h-70l70 204h103z" />
    <glyph glyph-name="circumflex" unicode="&#x2c6;" 
d="M418 572l-60 -55l-66 62l-84 -62l-41 62l137 100z" />
    <glyph glyph-name="caron" unicode="&#x2c7;" 
d="M424 617l-137 -100l-114 107l60 55l66 -62l84 62z" />
    <glyph glyph-name="uni02C9" unicode="&#x2c9;" 
d="M438 611l-10 -80h-282l10 80h282z" />
    <glyph glyph-name="breve" unicode="&#x2d8;" 
d="M365 637h66q-8 -48 -43 -83q-38 -37 -102 -37q-55 0 -84 30q-31 31 -31 90h66q2 -18 13 -29q14 -13 44 -13q37 0 52 13q12 9 19 29z" />
    <glyph glyph-name="dotaccent" unicode="&#x2d9;" 
d="M360 591q0 -30 -22.5 -52t-52.5 -22q-25 0 -41 16.5t-16 41.5q0 30 22 52.5t52 22.5q25 0 41.5 -17t16.5 -42z" />
    <glyph glyph-name="ring" unicode="&#x2da;" 
d="M201 619q0 40 28 68t68 28t68 -28t28 -68t-28 -68t-68 -28t-68 28t-28 68zM256 619q0 -18 11.5 -29.5t29.5 -11.5t29.5 11.5t11.5 29.5t-11.5 29.5t-29.5 11.5t-29.5 -11.5t-11.5 -29.5z" />
    <glyph glyph-name="ogonek" unicode="&#x2db;" 
d="M350 -97l-23 -71q-20 -17 -48 -17q-37 0 -59 24q-18 18 -18 46q0 34 26 66q13 17 45 49h58q-20 -21 -29 -34q-20 -26 -20 -45q0 -14 10 -24q11 -11 26 -11q17 0 32 17z" />
    <glyph glyph-name="tilde" unicode="&#x2dc;" 
d="M377 639l64 -4q-9 -34 -17.5 -55.5t-30.5 -42t-52 -20.5q-21 0 -55 15.5t-47 15.5q-22 0 -31 -28h-64q6 25 11.5 41.5t16.5 36.5t28.5 30t40.5 10q22 0 53.5 -17t47.5 -17q6 0 10.5 1.5t7.5 3t6 6.5t3.5 6.5t3.5 9t4 8.5z" />
    <glyph glyph-name="hungarumlaut" unicode="&#x2dd;" 
d="M471 639l-99 -122l-51 36l74 128zM336 639l-100 -122l-51 36l74 128z" />
    <glyph glyph-name="acutecomb" unicode="&#x301;" horiz-adv-x="2" 
d="M-39 639l-127 -122l-56 36l100 128z" />
    <glyph glyph-name="uni0394" unicode="&#x394;" horiz-adv-x="667" 
d="M621 0h-631l246 667h134zM442 112l-138 404l-138 -404h276z" />
    <glyph glyph-name="uni0394" unicode="&#x2206;" horiz-adv-x="667" 
d="M621 0h-631l246 667h134zM442 112l-138 404l-138 -404h276z" />
    <glyph glyph-name="uni03A9" unicode="&#x3a9;" horiz-adv-x="667" 
d="M633 0h-269v98q140 80 140 254q0 86 -46.5 153t-129.5 67t-129.5 -66.5t-46.5 -153.5q0 -174 140 -254v-98h-269v111h141q-74 45 -107.5 106.5t-33.5 148.5q0 135 85.5 226t219.5 91t219.5 -91t85.5 -226q0 -87 -33.5 -148.5t-107.5 -106.5h141v-111z" />
    <glyph glyph-name="uni03A9" unicode="&#x2126;" horiz-adv-x="667" 
d="M633 0h-269v98q140 80 140 254q0 86 -46.5 153t-129.5 67t-129.5 -66.5t-46.5 -153.5q0 -174 140 -254v-98h-269v111h141q-74 45 -107.5 106.5t-33.5 148.5q0 135 85.5 226t219.5 91t219.5 -91t85.5 -226q0 -87 -33.5 -148.5t-107.5 -106.5h141v-111z" />
    <glyph glyph-name="pi" unicode="&#x3c0;" horiz-adv-x="659" 
d="M622 335h-75v-335h-125v335h-184v-335h-125v335h-76v112h585v-112z" />
    <glyph glyph-name="afii10023" unicode="&#x401;" horiz-adv-x="350" 
d="M366 667l-15 -124h-131l-18 -144h116l-16 -126h-115l-19 -150h133l-15 -123h-263l82 667h261zM393 783q0 -28 -21.5 -49t-49.5 -21q-23 0 -38 16t-15 39q0 29 20.5 50t48.5 21q24 0 39.5 -16t15.5 -40zM228 783q0 -28 -21 -49t-49 -21q-24 0 -39 15.5t-15 39.5
q0 29 20.5 50t48.5 21q23 0 39 -16.5t16 -39.5z" />
    <glyph glyph-name="afii10051" unicode="&#x402;" horiz-adv-x="532" 
d="M83 0l67 545h-102l15 122h354l-15 -122h-122l-18 -150q29 12 69 12q75 0 120 -44q51 -50 51 -145q0 -115 -57 -177q-47 -52 -126 -52q-44 0 -80 22l43 112q12 -12 30 -12q22 0 36 15q22 23 22 77q0 42 -19 63q-17 19 -51 19q-29 0 -53 -13l-34 -272h-130z" />
    <glyph glyph-name="afii10052" unicode="&#x403;" horiz-adv-x="343" 
d="M367 667l-15 -123h-132l-67 -544h-130l82 667h262zM197 747l94 128l81 -50l-114 -114z" />
    <glyph glyph-name="afii10053" unicode="&#x404;" horiz-adv-x="418" 
d="M367 155l-19 -138q-47 -24 -101 -24q-75 0 -128 55q-73 76 -73 213q0 88 29.5 185.5t99.5 163.5q37 35 76 49.5t92 14.5q52 0 95 -19l-19 -139q-31 32 -73 32q-44 0 -81 -36q-44 -44 -59 -113h173l-14 -118h-183q0 -80 26 -120q28 -41 71 -41q50 0 88 35z" />
    <glyph glyph-name="afii10054" unicode="&#x405;" horiz-adv-x="385" 
d="M374 645l-16 -129q-45 43 -89 43q-33 0 -53.5 -21.5t-20.5 -54.5q0 -26 17 -49t41 -42t48 -40t41 -53.5t17 -72.5q0 -97 -59.5 -167t-154.5 -70q-65 0 -110 34l16 126q48 -36 91 -36q38 0 62.5 23.5t24.5 61.5q0 16 -3 23q-7 17 -31 37q-10 9 -32 25q-51 38 -74.5 74.5
t-23.5 93.5q0 90 55 158t143 68q57 0 111 -32z" />
    <glyph glyph-name="afii10055" unicode="&#x406;" horiz-adv-x="232" 
d="M235 667l-82 -667h-130l82 667h130z" />
    <glyph glyph-name="afii10056" unicode="&#x407;" horiz-adv-x="232" 
d="M235 667l-82 -667h-130l82 667h130zM287 797q0 -30 -15.5 -51.5t-36.5 -21.5q-17 0 -28 17t-11 41q0 29 15.5 51.5t35.5 22.5q17 0 28.5 -17t11.5 -42zM166 797q0 -29 -15.5 -51t-35.5 -22q-18 0 -29 16.5t-11 41.5q0 30 15 52t36 22q17 0 28.5 -17t11.5 -42z" />
    <glyph glyph-name="afii10057" unicode="&#x408;" horiz-adv-x="305" 
d="M308 667l-57 -462q-10 -78 -28 -116q-22 -47 -63.5 -73.5t-93.5 -26.5t-93 21l16 132q27 -37 64 -37q26 0 41.5 18t19.5 35t7 47l57 462h130z" />
    <glyph glyph-name="afii10058" unicode="&#x409;" horiz-adv-x="691" 
d="M494 667l-32 -261h1q100 0 153 -53q50 -48 50 -130q0 -99 -58 -160q-62 -63 -187 -63h-137l67 542h-94l-35 -277q-22 -178 -81 -235q-40 -39 -111 -39q-32 0 -60 12l17 135q15 -15 33 -15q23 0 37 14q27 27 39 121l50 409h348zM448 292l-22 -178h4q49 0 73 20
q33 26 33 80q0 37 -21 57q-22 21 -67 21z" />
    <glyph glyph-name="afii10059" unicode="&#x40a;" horiz-adv-x="692" 
d="M367 667h128l-32 -261h1q100 0 153 -53q50 -48 50 -130q0 -99 -58 -160q-62 -63 -187 -63h-137l36 292h-131l-37 -292h-130l82 667h130l-32 -261h132zM449 292l-22 -178h4q49 0 73 20q33 26 33 80q0 37 -21 57q-22 21 -67 21z" />
    <glyph glyph-name="afii10060" unicode="&#x40b;" horiz-adv-x="536" 
d="M83 0l67 545h-102l15 122h354l-15 -122h-122l-19 -150q37 11 82 11q84 0 123 -40q35 -35 35 -97q0 -19 -7 -76l-23 -193h-130l21 170q5 44 5 55q0 29 -18 43q-17 13 -48 13t-55 -9l-33 -272h-130z" />
    <glyph glyph-name="afii10061" unicode="&#x40c;" horiz-adv-x="445" 
d="M477 667l-163 -311l93 -356h-133l-79 339l-42 -339h-130l82 667h130l-37 -298l147 298h132zM237 747l94 128l81 -50l-114 -114z" />
    <glyph glyph-name="afii10062" unicode="&#x40e;" horiz-adv-x="442" 
d="M60 667h138l33 -165q17 -87 20 -128q17 56 41 124l62 169h142l-284 -667h-132l96 230zM353 852l103 -29q-21 -61 -69 -90q-41 -25 -105 -25q-69 0 -108 29q-43 31 -56 87l103 28q6 -25 20 -39q17 -16 45 -16t43 13q16 13 24 42z" />
    <glyph glyph-name="afii10145" unicode="&#x40f;" horiz-adv-x="494" 
d="M105 667h130l-67 -542h131l67 542h130l-82 -667h-135l-17 -130h-120l17 130h-136z" />
    <glyph glyph-name="afii10017" unicode="&#x410;" horiz-adv-x="453" 
d="M422 0h-138l-11 112h-131l-37 -112h-130l235 667h137zM175 215h91q-16 211 -13 280q-15 -73 -23 -103q-7 -28 -55 -177z" />
    <glyph glyph-name="afii10018" unicode="&#x411;" horiz-adv-x="420" 
d="M105 667h301l-15 -125h-171l-17 -136q92 3 150 -53q50 -49 50 -136q0 -99 -55 -154q-62 -63 -186 -63h-139zM189 292l-22 -178h4q46 0 72 25q28 26 28 77q0 36 -20 56t-60 20h-2z" />
    <glyph glyph-name="afii10019" unicode="&#x412;" horiz-adv-x="429" 
d="M105 667h139q82 0 126 -43q45 -44 45 -122q0 -77 -44 -122q-28 -29 -65 -38q40 -14 61 -46q22 -34 22 -87q0 -91 -56 -147q-61 -62 -172 -62h-138zM222 558l-21 -165q40 0 63 25q27 28 27 74q0 30 -15 47q-18 19 -54 19zM189 291l-22 -177q39 0 67 26q28 27 28 75
q0 38 -21 59q-17 17 -46 17h-6z" />
    <glyph glyph-name="afii10020" unicode="&#x413;" horiz-adv-x="343" 
d="M367 667l-15 -123h-132l-67 -544h-130l82 667h262z" />
    <glyph glyph-name="afii10021" unicode="&#x414;" horiz-adv-x="516" 
d="M147 667h349l-67 -542h54l-32 -255h-120l17 130h-246l-17 -130h-120l32 255q31 8 51 28q43 41 58 173zM260 542l-30 -238q-8 -73 -24 -111q-17 -41 -49 -68h140l52 417h-89z" />
    <glyph glyph-name="afii10022" unicode="&#x415;" horiz-adv-x="350" 
d="M366 667l-15 -124h-131l-18 -144h116l-16 -126h-115l-19 -150h133l-15 -123h-263l82 667h261z" />
    <glyph glyph-name="afii10024" unicode="&#x416;" horiz-adv-x="631" 
d="M584 0h-132l-62 335l-41 -335h-126l41 335l-141 -335h-135l166 364l-85 303h129l70 -302l37 302h126l-37 -302l144 302h129l-159 -305z" />
    <glyph glyph-name="afii10025" unicode="&#x417;" horiz-adv-x="396" 
d="M68 506l16 134q54 37 120 37q80 0 129 -45t49 -126q0 -68 -33 -112q-31 -40 -77 -55q34 -10 59 -36q34 -36 34 -95q0 -46 -20.5 -92t-51.5 -74q-58 -53 -150 -53q-74 0 -133 45l16 133q14 -19 42 -35q29 -15 64 -15q46 0 69 24q24 26 24 63q0 40 -29 62q-22 16 -74 16
h-11l15 120h20q48 0 74 19q30 21 30 63q0 35 -21 54q-19 19 -60 19q-34 0 -60 -16q-23 -14 -41 -35z" />
    <glyph glyph-name="afii10026" unicode="&#x418;" horiz-adv-x="501" 
d="M23 0l82 667h130l-37 -302q-6 -44 -24 -100l207 402h122l-82 -667h-130l38 305q1 12 22 102l-206 -407h-122z" />
    <glyph glyph-name="afii10027" unicode="&#x419;" horiz-adv-x="501" 
d="M23 0l82 667h130l-37 -302q-6 -44 -24 -100l207 402h122l-82 -667h-130l38 305q1 12 22 102l-206 -407h-122zM384 852l103 -29q-21 -61 -69 -90q-41 -25 -105 -25q-69 0 -108 29q-43 31 -56 87l103 28q6 -25 20 -39q17 -16 45 -16t43 13q16 13 24 42z" />
    <glyph glyph-name="afii10028" unicode="&#x41a;" horiz-adv-x="445" 
d="M477 667l-163 -311l93 -356h-133l-79 339l-42 -339h-130l82 667h130l-37 -298l147 298h132z" />
    <glyph glyph-name="afii10029" unicode="&#x41b;" horiz-adv-x="494" 
d="M146 667h350l-82 -667h-130l67 542h-94l-35 -277q-22 -178 -81 -235q-40 -39 -111 -39q-32 0 -60 12l17 135q15 -15 33 -15q23 0 37 14q27 27 39 121z" />
    <glyph glyph-name="afii10030" unicode="&#x41c;" horiz-adv-x="636" 
d="M600 667l-13 -667h-133l26 480q-10 -60 -38 -154l-98 -326h-100q-22 280 -25 336q0 11 -2 46t-2 54q0 14 2 44l-79 -480h-140l140 667h171l16 -394l101 394h174z" />
    <glyph glyph-name="afii10031" unicode="&#x41d;" horiz-adv-x="494" 
d="M496 667l-81 -667h-130l36 295h-131l-37 -295h-130l82 667h130l-30 -247h131l30 247h130z" />
    <glyph glyph-name="afii10032" unicode="&#x41e;" horiz-adv-x="534" 
d="M517 434q0 -136 -35 -235q-31 -90 -95 -150t-151 -60q-48 0 -91 26t-67 68q-35 59 -35 158q0 101 22 182q27 107 93 180.5t166 73.5q94 0 143.5 -72.5t49.5 -170.5zM378 427q0 28 -4.5 54t-21.5 50.5t-45 24.5q-27 0 -49 -22t-35.5 -56t-21 -63.5t-11.5 -56.5
q-8 -49 -8 -113q0 -19 3 -39t10 -41.5t22 -35t36 -13.5q27 0 49 22t35.5 56t21 63.5t11.5 56.5q8 49 8 113z" />
    <glyph glyph-name="afii10033" unicode="&#x41f;" horiz-adv-x="489" 
d="M491 667l-81 -667h-130l66 542h-126l-67 -542h-130l82 667h386z" />
    <glyph glyph-name="afii10034" unicode="&#x420;" horiz-adv-x="428" 
d="M105 667h158q71 0 107 -22q70 -43 70 -147q0 -109 -71.5 -170.5t-181.5 -53.5l-34 -274h-130zM200 385h8q103 0 103 104q0 37 -15 54t-51 17h-23z" />
    <glyph glyph-name="afii10035" unicode="&#x421;" horiz-adv-x="418" 
d="M367 155l-19 -138q-48 -24 -101 -24q-81 0 -133 53q-68 70 -68 206q0 97 33 195.5t96 157.5q72 69 179 69q45 0 84 -19l-19 -139q-31 32 -73 32t-80 -36q-37 -37 -58.5 -111t-21.5 -139q0 -71 29 -109q26 -33 67 -33q47 0 85 35z" />
    <glyph glyph-name="afii10036" unicode="&#x422;" horiz-adv-x="334" 
d="M388 667l-15 -122h-102l-67 -545h-130l67 545h-102l15 122h334z" />
    <glyph glyph-name="afii10037" unicode="&#x423;" horiz-adv-x="442" 
d="M60 667h138l33 -165q17 -87 20 -128q17 56 41 124l62 169h142l-284 -667h-132l96 230z" />
    <glyph glyph-name="afii10038" unicode="&#x424;" horiz-adv-x="610" 
d="M210 0l11 86q-73 10 -120 59q-58 60 -58 169q0 161 94 244q62 55 149 60l9 78h130l-9 -78q80 -11 129 -71q48 -59 48 -160q0 -149 -76 -228q-64 -65 -166 -73l-11 -86h-130zM391 500l-36 -296q42 4 71 33q22 24 33 69t11 84q0 56 -26 84q-20 21 -53 26zM245 204l36 296
q-38 -3 -64 -28q-50 -49 -50 -156q0 -57 28 -87q19 -21 50 -25z" />
    <glyph glyph-name="afii10039" unicode="&#x425;" horiz-adv-x="436" 
d="M479 667l-180 -323l109 -344h-151q-3 10 -13 47t-15.5 58.5t-11 51t-5.5 49.5q-18 -50 -94 -206h-146l181 344l-99 323h146q3 -12 13.5 -46t15.5 -53t10 -47t5 -50q7 24 20 52.5t21.5 45.5t28 52.5t25.5 45.5h140z" />
    <glyph glyph-name="afii10040" unicode="&#x426;" horiz-adv-x="506" 
d="M105 667h130l-67 -542h125l67 542h130l-67 -542h69l-34 -255h-120l19 130h-334z" />
    <glyph glyph-name="afii10041" unicode="&#x427;" horiz-adv-x="468" 
d="M258 0l36 292q-35 -11 -74 -11q-82 0 -125 41q-35 34 -35 92q0 28 6 74l22 179h130l-20 -165q-4 -28 -4 -42q0 -27 16 -41q16 -13 46 -13q28 0 53 10l31 251h130l-82 -667h-130z" />
    <glyph glyph-name="afii10042" unicode="&#x428;" horiz-adv-x="723" 
d="M105 667h130l-67 -542h115l67 542h130l-67 -542h115l67 542h130l-82 -667h-620z" />
    <glyph glyph-name="afii10043" unicode="&#x429;" horiz-adv-x="747" 
d="M105 667h130l-67 -542h115l67 542h130l-67 -542h115l67 542h130l-67 -542h75l-32 -255h-120l17 130h-575z" />
    <glyph glyph-name="afii10044" unicode="&#x42a;" horiz-adv-x="492" 
d="M78 0l67 542h-85l15 125h215l-32 -261h1q100 0 153 -53q50 -48 50 -130q0 -99 -58 -160q-62 -63 -187 -63h-139zM244 292l-22 -178h4q49 0 73 20q33 26 33 80q0 37 -21 57q-22 21 -67 21z" />
    <glyph glyph-name="afii10045" unicode="&#x42b;" horiz-adv-x="626" 
d="M546 0h-130l82 667h130zM105 667h130l-32 -261h1q98 0 151 -53q50 -50 50 -132q0 -98 -58 -158q-62 -63 -187 -63h-137zM189 292l-22 -178h4q45 0 71 20q33 26 33 80q0 37 -21 57q-22 21 -65 21z" />
    <glyph glyph-name="afii10046" unicode="&#x42c;" horiz-adv-x="437" 
d="M105 667h130l-32 -261h1q100 0 153 -53q50 -48 50 -130q0 -99 -58 -160q-62 -63 -187 -63h-139zM189 292l-22 -178h4q49 0 73 20q33 26 33 80q0 37 -21 57q-22 21 -67 21z" />
    <glyph glyph-name="afii10047" unicode="&#x42d;" horiz-adv-x="433" 
d="M25 20l19 138q32 -38 77 -38q43 0 75 29q23 20 41 57.5t23 74.5h-159l17 118h155q2 18 2 27q0 65 -32 97q-25 25 -63 25q-46 0 -85 -29l19 136q49 19 100 19q81 0 133 -53q69 -71 69 -218q0 -85 -24 -179.5t-87 -158.5q-72 -72 -187 -72q-56 0 -93 27z" />
    <glyph glyph-name="afii10048" unicode="&#x42e;" horiz-adv-x="739" 
d="M203 406h72q8 56 33 111.5t61 93.5q63 66 155 66q77 0 127 -47q71 -67 71 -209q0 -104 -29.5 -205.5t-91.5 -161.5q-66 -65 -160 -65q-86 0 -133 60q-59 76 -50 232h-70l-35 -281h-130l82 667h130zM512 556q-26 0 -49 -23q-35 -35 -55 -126q-17 -76 -17 -157
q0 -83 26 -114q16 -20 41 -20q28 0 50 21q35 33 55 117.5t20 163.5q0 87 -30 120q-17 18 -41 18z" />
    <glyph glyph-name="afii10049" unicode="&#x42f;" horiz-adv-x="469" 
d="M5 0l159 290q-39 17 -62 50q-29 40 -29 103q0 104 57 163q34 35 81.5 48t119.5 13h140l-82 -667h-130l34 276l-138 -276h-150zM328 561h-12q-53 0 -79 -25q-29 -27 -29 -79q0 -41 24 -63q23 -20 64 -20h9z" />
    <glyph glyph-name="afii10065" unicode="&#x430;" horiz-adv-x="390" 
d="M377 447l-54 -447h-124l6 51q-39 -60 -88 -60q-29 0 -49 16.5t-29.5 44t-13 52.5t-3.5 53q0 63 11 115q13 69 48 126t92 57q55 0 74 -63l7 55h123zM238 276q0 67 -29 67q-32 0 -47 -60t-15 -108q0 -72 32 -72q17 0 29.5 21.5t18.5 52.5t8.5 56t2.5 43z" />
    <glyph glyph-name="afii10066" unicode="&#x431;" horiz-adv-x="395" 
d="M311 550l-32 -12q-56 -20 -83 -47q-38 -40 -47 -102q16 26 37 44q29 22 65 22q46 0 77 -31q42 -42 42 -136q0 -68 -18 -135.5t-56 -108.5q-49 -53 -125 -53q-58 0 -94 36q-47 47 -47 159q0 94 24 212q24 123 79 182q33 35 81 52l14 5q71 25 80 34q12 12 13 29h99
q-2 -56 -27 -93q-24 -36 -82 -57zM215 343q-11 0 -21 -10q-22 -22 -30 -70q-10 -48 -10 -95q0 -43 15 -58q7 -7 16 -7q11 0 20 9q19 19 29 69q10 47 10 93q0 49 -13 62q-6 7 -16 7z" />
    <glyph glyph-name="afii10067" unicode="&#x432;" horiz-adv-x="363" 
d="M66 447h143q70 0 105 -31t35 -84q0 -47 -30 -79q-18 -19 -44 -25q20 -8 35 -21q30 -24 30 -71q0 -56 -39 -95q-25 -26 -53.5 -33.5t-68.5 -7.5h-168zM168 266q32 0 49 14q18 15 18 39q0 21 -14 33q-11 10 -42 10zM145 85q37 0 54 16q18 16 18 44q0 20 -15 33
q-14 12 -44 12z" />
    <glyph glyph-name="afii10068" unicode="&#x433;" horiz-adv-x="282" 
d="M283 343h-106l-42 -343h-124l55 447h230z" />
    <glyph glyph-name="afii10069" unicode="&#x434;" horiz-adv-x="419" 
d="M104 447h292l-42 -343h45l-27 -208h-102l14 104h-203l-14 -104h-102l27 208q28 8 45 25q31 29 41 109zM234 104l29 239h-62l-14 -114q-7 -57 -22 -84q-13 -24 -33 -41h102z" />
    <glyph glyph-name="afii10070" unicode="&#x435;" horiz-adv-x="367" 
d="M222 154h104q-9 -78 -59 -125q-40 -38 -103 -38q-60 0 -97 38q-46 50 -46 138q0 64 22 131t65 110q47 47 111 47q49 0 83 -32q44 -43 44 -134q0 -36 -9 -88h-195q-6 -29 -6 -57q0 -36 12 -49q10 -10 26 -10q22 0 35 22q9 16 13 47zM152 278h89q2 16 2 24q0 25 -8 40
q-10 18 -28 18q-17 0 -30 -14q-20 -21 -25 -68z" />
    <glyph glyph-name="afii10072" unicode="&#x436;" horiz-adv-x="541" 
d="M499 0h-130l-43 206l-26 -206h-117l26 206l-95 -206h-130l126 240l-69 207h125l47 -206l25 206h117l-25 -206l95 206h128l-117 -208z" />
    <glyph glyph-name="afii10073" unicode="&#x437;" horiz-adv-x="340" 
d="M245 232q26 -9 42 -26q23 -26 23 -66q0 -61 -43 -104q-45 -45 -121 -45q-50 0 -92 19q-35 16 -59 38l64 91q14 -16 29 -25q17 -11 41 -11q25 0 38 12q13 11 13 29q0 19 -16 28q-15 8 -45 8h-25l12 94h22q27 0 45 8q20 10 20 31q0 18 -13 28q-12 9 -34 9t-37 -9
q-18 -10 -32 -25l-40 95q60 44 137 44q74 0 114 -40q32 -32 32 -79q0 -46 -25 -74q-21 -23 -50 -30z" />
    <glyph glyph-name="afii10074" unicode="&#x438;" horiz-adv-x="404" 
d="M66 447h118l-18 -149q-5 -55 -29 -127q43 85 48 94l95 182h111l-55 -447h-118l18 146q10 74 26 134q-21 -55 -50 -111l-90 -169h-111z" />
    <glyph glyph-name="afii10075" unicode="&#x439;" horiz-adv-x="404" 
d="M66 447h118l-18 -149q-5 -55 -29 -127q43 85 48 94l95 182h111l-55 -447h-118l18 146q10 74 26 134q-21 -55 -50 -111l-90 -169h-111zM292 642l88 -29q-14 -47 -52 -76q-36 -27 -93 -27q-59 0 -94 25q-40 29 -51 78l87 29q3 -25 19 -39q13 -13 39 -13q20 0 36 13
q16 14 21 39z" />
    <glyph glyph-name="afii10076" unicode="&#x43a;" horiz-adv-x="382" 
d="M341 0h-130l-51 204l-25 -204h-124l55 447h124l-25 -204l91 204h134l-124 -222z" />
    <glyph glyph-name="afii10077" unicode="&#x43b;" horiz-adv-x="413" 
d="M400 447l-55 -447h-124l42 343h-62l-18 -149q-16 -128 -59 -169q-35 -34 -98 -34q-33 0 -56 9l14 111q9 -9 26 -9q20 0 31 10q21 19 30 96l29 239h300z" />
    <glyph glyph-name="afii10078" unicode="&#x43c;" horiz-adv-x="516" 
d="M278 0h-87l-14 155q-6 62 -6 133l-55 -288h-122l109 447h133l18 -279l88 279h126l6 -447h-121l17 288q-10 -48 -32 -115z" />
    <glyph glyph-name="afii10079" unicode="&#x43d;" horiz-adv-x="389" 
d="M190 447l-20 -157h62l20 157h124l-55 -447h-124l22 186h-62l-22 -186h-124l55 447h124z" />
    <glyph glyph-name="afii10080" unicode="&#x43e;" horiz-adv-x="386" 
d="M363 289q0 -40 -5.5 -79t-20 -79.5t-36 -71t-56.5 -49.5t-80 -19q-53 0 -86 28t-44.5 67t-11.5 91q0 65 19 125.5t66 106.5t114 46q70 0 105.5 -46.5t35.5 -119.5zM237 277q0 66 -29 66q-31 0 -46 -60.5t-15 -107.5q0 -72 31 -72q22 0 36.5 38t18.5 73.5t4 62.5z" />
    <glyph glyph-name="afii10081" unicode="&#x43f;" horiz-adv-x="387" 
d="M66 447h308l-55 -447h-124l42 343h-60l-42 -343h-124z" />
    <glyph glyph-name="afii10082" unicode="&#x440;" horiz-adv-x="389" 
d="M189 447l-7 -55q35 63 90 63q95 0 95 -160q0 -64 -11 -116q-8 -42 -23.5 -80.5t-47.5 -73t-72 -34.5q-49 0 -73 60l-31 -257h-124l80 653h124zM241 272q0 71 -32 71q-17 0 -30 -21t-19 -52t-8.5 -56.5t-2.5 -42.5q0 -68 31 -68q17 0 30 20.5t19 51t9 55.5t3 42z" />
    <glyph glyph-name="afii10083" unicode="&#x441;" horiz-adv-x="277" 
d="M284 443l-14 -110q-12 15 -33 15q-45 0 -66.5 -50t-21.5 -103q0 -87 56 -87q19 0 39 13l-14 -114q-38 -16 -72 -16q-70 0 -103 53t-33 128q0 60 19 120t54 103q49 61 128 61q31 0 61 -13z" />
    <glyph glyph-name="afii10084" unicode="&#x442;" horiz-adv-x="295" 
d="M307 343h-80l-42 -343h-124l42 343h-80l13 104h284z" />
    <glyph glyph-name="afii10085" unicode="&#x443;" horiz-adv-x="359" 
d="M389 447l-266 -653h-120l93 215l-74 438h123l22 -163q8 -60 9 -92l89 255h124z" />
    <glyph glyph-name="afii10086" unicode="&#x444;" horiz-adv-x="530" 
d="M150 -206l25 200q-61 9 -99 49q-53 53 -53 149q0 130 74 202q52 52 135 59l26 214h124l-26 -214q63 -12 101 -53q50 -52 50 -152q0 -131 -75 -201q-58 -51 -133 -53l-25 -200h-124zM331 345l-29 -242q30 5 50 25q39 40 39 128q0 49 -21 71q-13 15 -39 18zM200 103l29 242
q-32 -3 -51 -24q-39 -39 -39 -128q0 -41 19 -66q16 -22 42 -24z" />
    <glyph glyph-name="afii10087" unicode="&#x445;" horiz-adv-x="380" 
d="M392 447l-137 -207l100 -240h-130l-24 65q-16 43 -23 70q-11 -22 -38 -65l-44 -70h-127l156 240l-84 207h126l16 -41q10 -24 18 -67q13 31 34 62l30 46h127z" />
    <glyph glyph-name="afii10088" unicode="&#x446;" horiz-adv-x="401" 
d="M271 0h-260l55 447h124l-42 -343h62l42 343h124l-42 -343h54l-27 -208h-104z" />
    <glyph glyph-name="afii10089" unicode="&#x447;" horiz-adv-x="383" 
d="M191 0l23 184q-27 -10 -59 -10q-63 0 -93 30q-27 27 -27 74q0 17 4 47l15 122h122l-16 -124q0 -1 -0.5 -5.5t-0.5 -7.5q0 -16 8 -24q9 -8 28 -8q15 0 31 7l20 162h124l-55 -447h-124z" />
    <glyph glyph-name="afii10090" unicode="&#x448;" horiz-adv-x="563" 
d="M326 104h62l42 343h120l-55 -447h-484l55 447h120l-42 -343h62l42 343h120z" />
    <glyph glyph-name="afii10091" unicode="&#x449;" horiz-adv-x="579" 
d="M326 104h62l42 343h120l-42 -343h58l-26 -208h-104l13 104h-438l55 447h120l-42 -343h62l42 343h120z" />
    <glyph glyph-name="afii10092" unicode="&#x44a;" horiz-adv-x="411" 
d="M57 0l42 343h-71l13 104h195l-20 -164h12q74 0 112 -25q51 -35 51 -104q0 -68 -43 -109q-46 -45 -128 -45h-163zM192 88h6q33 0 50 16t17 46q0 24 -15 35q-12 10 -43 10h-2z" />
    <glyph glyph-name="afii10093" unicode="&#x44b;" horiz-adv-x="545" 
d="M477 0h-124l55 447h124zM66 447h124l-20 -164h8q74 0 112 -25q51 -34 51 -103q0 -73 -49 -116q-44 -39 -122 -39h-159zM146 88h6q33 0 50 16t17 46q0 24 -15 35q-12 10 -43 10h-2z" />
    <glyph glyph-name="afii10094" unicode="&#x44c;" horiz-adv-x="365" 
d="M66 447h124l-20 -164h12q74 0 112 -25q51 -35 51 -104q0 -68 -43 -109q-46 -45 -128 -45h-163zM146 88h6q33 0 50 16t17 46q0 24 -15 35q-12 10 -43 10h-2z" />
    <glyph glyph-name="afii10095" unicode="&#x44d;" horiz-adv-x="323" 
d="M10 23l15 117q24 -35 64 -35q31 0 51 20q21 23 28 58h-106l11 90h104q0 37 -20 59q-17 18 -46 18q-35 0 -61 -29l14 116q38 19 77 19q70 0 110 -42q49 -51 49 -151q0 -145 -75 -222q-47 -50 -125 -50q-52 0 -90 32z" />
    <glyph glyph-name="afii10096" unicode="&#x44e;" horiz-adv-x="569" 
d="M169 280h54q15 77 62 126q48 49 119 49q61 0 98 -37q44 -44 44 -134q0 -65 -18.5 -132t-55.5 -108q-49 -53 -125 -53q-55 0 -91 33q-46 43 -46 152h-53l-22 -176h-124l55 447h124zM391 343q-11 0 -21 -10q-22 -22 -30 -70q-10 -48 -10 -95q0 -43 15 -58q7 -7 16 -7
q11 0 20 9q19 19 29 69q10 47 10 93q0 49 -13 62q-6 7 -16 7z" />
    <glyph glyph-name="afii10097" unicode="&#x44f;" horiz-adv-x="393" 
d="M0 0l105 169q-27 10 -45 35q-19 27 -19 70q0 77 45 123q49 50 167 50h127l-55 -447h-124l21 169l-88 -169h-134zM230 238l14 115h-4q-39 0 -56 -16q-18 -16 -18 -49q0 -26 18 -39q15 -11 43 -11h3z" />
    <glyph glyph-name="afii10071" unicode="&#x451;" horiz-adv-x="367" 
d="M251 562q0 29 22 51q19 19 46 19q21 0 36 -15q17 -17 17 -40q0 -28 -20 -48q-21 -21 -50 -21q-21 0 -36 15t-15 39zM222 154h104q-9 -78 -59 -125q-40 -38 -103 -38q-60 0 -97 38q-46 50 -46 138q0 64 22 131t65 110q47 47 111 47q49 0 83 -32q44 -43 44 -134
q0 -36 -9 -88h-195q-6 -29 -6 -57q0 -36 12 -49q10 -10 26 -10q22 0 35 22q9 16 13 47zM152 278h89q2 16 2 24q0 25 -8 40q-10 18 -28 18q-17 0 -30 -14q-20 -21 -25 -68zM84 562q0 29 22 51q19 19 46 19q21 0 36 -15q17 -17 17 -40q0 -28 -20 -48q-21 -21 -50 -21
q-21 0 -36 15t-15 39z" />
    <glyph glyph-name="afii10099" unicode="&#x452;" horiz-adv-x="394" 
d="M231 729l-16 -134h108l-10 -88h-109l-18 -150q17 27 38 46q35 32 78 32q34 0 51 -21q17 -20 17 -64q0 -30 -5 -67l-42 -341q-9 -72 -45 -109q-38 -39 -106 -39q-33 0 -63 11l14 110q12 -9 30 -9q19 0 31 11q15 15 19 50l35 287q0 2 0.5 7.5t0.5 8.5q0 24 -6 32t-18 8
t-22 -8q-15 -14 -21 -59l-30 -243h-124l62 507h-55l10 88h55l17 134h124z" />
    <glyph glyph-name="afii10100" unicode="&#x453;" horiz-adv-x="282" 
d="M283 343h-106l-42 -343h-124l55 447h230zM326 639l-127 -122l-56 36l100 128z" />
    <glyph glyph-name="afii10101" unicode="&#x454;" horiz-adv-x="327" 
d="M280 130l-15 -118q-36 -21 -88 -21q-69 0 -108 40q-46 48 -46 142q0 63 18.5 127.5t57.5 104.5q51 51 132 51q45 0 86 -23l-14 -115q-19 30 -63 30q-32 0 -53 -21q-20 -20 -26 -53h102l-12 -92h-102q-2 -33 13 -54q17 -25 56 -25q36 0 62 27z" />
    <glyph glyph-name="afii10102" unicode="&#x455;" horiz-adv-x="310" 
d="M318 417l-60 -91q-26 30 -55 30q-16 0 -26 -10.5t-10 -26.5q0 -14 18.5 -27t40.5 -24t40.5 -37t18.5 -62q0 -72 -45.5 -125t-116.5 -53q-65 0 -126 51l66 89q30 -28 57 -28q18 0 30.5 12t12.5 30q0 15 -19 29t-42 25.5t-42 38.5t-19 66q0 68 48 109.5t117 41.5
q63 0 112 -38z" />
    <glyph glyph-name="afii10103" unicode="&#x456;" horiz-adv-x="203" 
d="M225 602q0 -35 -27 -61.5t-62 -26.5q-29 0 -48.5 20.5t-19.5 49.5q0 35 27 61.5t62 26.5q30 0 49 -20t19 -50zM190 447l-55 -447h-124l55 447h124z" />
    <glyph glyph-name="afii10104" unicode="&#x457;" horiz-adv-x="203" 
d="M190 447l-55 -447h-124l55 447h124zM231 590q0 -30 -12.5 -51.5t-29.5 -21.5q-13 0 -22 17t-9 41q0 30 12 52t29 22q13 0 22.5 -17t9.5 -42zM134 590q0 -29 -12.5 -51t-29.5 -22q-14 0 -23 16.5t-9 41.5q0 29 12.5 51.5t29.5 22.5q13 0 22.5 -17t9.5 -42z" />
    <glyph glyph-name="afii10105" unicode="&#x458;" horiz-adv-x="201" 
d="M223 602q0 -35 -27 -61.5t-62 -26.5q-29 0 -48.5 20.5t-19.5 49.5q0 35 27 61.5t62 26.5q30 0 49 -20t19 -50zM188 447l-80 -653h-124l80 653h124z" />
    <glyph glyph-name="afii10106" unicode="&#x459;" horiz-adv-x="575" 
d="M400 447l-20 -164h12q74 0 112 -25q51 -35 51 -104q0 -68 -43 -109q-46 -45 -128 -45h-163l42 343h-62l-18 -149q-16 -128 -59 -169q-35 -34 -98 -34q-33 0 -56 9l14 111q9 -9 26 -9q20 0 31 10q21 19 30 96l29 239h300zM356 88h6q33 0 50 16t17 46q0 24 -15 35
q-12 10 -43 10h-2z" />
    <glyph glyph-name="afii10107" unicode="&#x45a;" horiz-adv-x="550" 
d="M251 447h124l-20 -164h12q75 0 112 -25q51 -35 51 -104q0 -68 -43 -109q-46 -45 -128 -45h-163l24 195h-61l-24 -195h-124l55 447h124l-21 -164h62zM331 88h6q33 0 50 16t17 46q0 24 -15 35q-12 10 -43 10h-2z" />
    <glyph glyph-name="afii10108" unicode="&#x45b;" horiz-adv-x="395" 
d="M18 0l62 507h-55l10 88h55l17 134h124l-17 -134h108l-10 -88h-108l-18 -150q50 78 115 78q68 0 68 -82q0 -16 -7 -74l-34 -279h-124l30 235q3 23 3 46q0 29 -23 29q-35 0 -43 -75l-29 -235h-124z" />
    <glyph glyph-name="afii10109" unicode="&#x45c;" horiz-adv-x="382" 
d="M341 0h-130l-51 204l-25 -204h-124l55 447h124l-25 -204l91 204h134l-124 -222zM367 639l-127 -122l-56 36l100 128z" />
    <glyph glyph-name="afii10110" unicode="&#x45e;" horiz-adv-x="359" 
d="M389 447l-266 -653h-120l93 215l-74 438h123l22 -163q8 -60 9 -92l89 255h124zM273 642l88 -29q-14 -47 -52 -76q-36 -27 -93 -27q-59 0 -94 25q-40 29 -51 78l87 29q3 -25 19 -39q13 -13 39 -13q20 0 36 13q16 14 21 39z" />
    <glyph glyph-name="afii10193" unicode="&#x45f;" horiz-adv-x="389" 
d="M114 0h-103l55 447h124l-42 -343h62l42 343h124l-55 -447h-103l-13 -104h-104z" />
    <glyph glyph-name="afii10146" unicode="&#x462;" horiz-adv-x="470" 
d="M56 0l61 498h-77l14 114h77l11 84h130l-11 -84h114l-14 -114h-114l-11 -92h6q95 0 148 -53q50 -48 50 -130q0 -99 -58 -160q-62 -63 -187 -63h-139zM222 292l-22 -178h4q49 0 73 20q33 26 33 80q0 37 -21 57q-22 21 -67 21z" />
    <glyph glyph-name="afii10194" unicode="&#x463;" horiz-adv-x="382" 
d="M28 0l42 343h-50l13 104h50l27 220h125l-27 -220h90l-13 -104h-90l-8 -60h12q75 0 112 -25q51 -35 51 -104q0 -68 -43 -109q-46 -45 -128 -45h-163zM163 88h6q33 0 50 16t17 46q0 24 -15 35q-12 10 -45 10z" />
    <glyph glyph-name="afii10147" unicode="&#x472;" horiz-adv-x="534" 
d="M324 677q73 0 122 -47q71 -66 71 -207q0 -106 -29.5 -206.5t-93.5 -161.5q-69 -66 -156 -66q-78 0 -129 54q-66 71 -66 201q0 108 29.5 205.5t90.5 158.5q69 69 161 69zM198 406h180q1 101 -30 132q-16 18 -42 18q-25 0 -48 -23q-19 -19 -36 -55.5t-24 -71.5zM364 281
h-181q-7 -97 24 -139q19 -26 46 -26q28 0 51 23q21 20 38 61t22 81z" />
    <glyph glyph-name="afii10195" unicode="&#x473;" horiz-adv-x="386" 
d="M222 455q60 0 97 -37q44 -44 44 -134q0 -65 -18.5 -132t-55.5 -108q-49 -53 -127 -53q-61 0 -97 40q-42 47 -42 142q0 65 19.5 128t60.5 104q50 50 119 50zM159 274h78q0 58 -13 70q-6 6 -16 6q-11 0 -20 -9q-21 -20 -29 -67zM228 182h-81q0 -63 15 -78q7 -7 16 -7
q12 0 22 10q19 20 28 75z" />
    <glyph glyph-name="afii10148" unicode="&#x474;" horiz-adv-x="478" 
d="M532 667l-264 -667h-106l-108 667h140l38 -258q10 -68 10 -125v-56q5 19 13 52.5t15.5 61.5t16.5 52l6 15l104 258h135z" />
    <glyph glyph-name="afii10196" unicode="&#x475;" horiz-adv-x="361" 
d="M391 447l-182 -447h-114l-71 447h121q26 -223 29 -253q4 13 90 253h127z" />
    <glyph glyph-name="afii10050" unicode="&#x490;" horiz-adv-x="383" 
d="M105 667h178l15 125h120l-30 -248h-168l-67 -544h-130z" />
    <glyph glyph-name="afii10098" unicode="&#x491;" horiz-adv-x="333" 
d="M135 0h-124l55 447h165l12 100h104l-25 -204h-145z" />
    <glyph glyph-name="uni0492" unicode="&#x492;" horiz-adv-x="361" 
d="M370 544h-132l-18 -142h121l-15 -127h-121l-34 -275h-130l34 275h-65l15 127h65l33 265h262z" />
    <glyph glyph-name="uni0493" unicode="&#x493;" horiz-adv-x="308" 
d="M309 343h-106l-10 -83h84l-13 -104h-84l-19 -156h-124l19 156h-51l13 104h51l23 187h230z" />
    <glyph glyph-name="uni0494" unicode="&#x494;" horiz-adv-x="472" 
d="M374 544h-154l-18 -149q29 12 69 12q75 0 120 -44q51 -50 51 -145q0 -115 -57 -177q-47 -52 -126 -52q-44 0 -80 22l43 112q12 -12 30 -12q22 0 36 15q22 23 22 77q0 42 -19 63q-17 19 -51 19q-29 0 -53 -13l-34 -272h-130l82 667h284z" />
    <glyph glyph-name="uni0495" unicode="&#x495;" horiz-adv-x="369" 
d="M293 343h-116l-10 -83q3 0 7 0.5t7 0.5q76 -2 118 -45q45 -46 45 -144q0 -144 -80 -221q-59 -57 -145 -57h-10l13 108q20 0 39 13q28 20 42 65q13 43 13 91t-18 68q-15 17 -44 17l-19 -156h-124l55 447h240z" />
    <glyph glyph-name="uni0496" unicode="&#x496;" horiz-adv-x="637" 
d="M198 667l70 -302l37 302h126l-37 -302l144 302h129l-159 -305l49 -237h69l-31 -255h-120l16 130h-39l-62 335l-41 -335h-126l41 335l-141 -335h-135l166 364l-85 303h129z" />
    <glyph glyph-name="uni0497" unicode="&#x497;" horiz-adv-x="541" 
d="M41 447h125l47 -206l25 206h117l-25 -206l95 206h128l-117 -208l36 -135h54l-25 -208h-104l12 104h-40l-43 206l-26 -206h-117l26 206l-95 -206h-130l126 240z" />
    <glyph glyph-name="uni0498" unicode="&#x498;" horiz-adv-x="396" 
d="M68 506l16 134q53 37 118 37q84 0 131 -45q49 -45 49 -126q0 -68 -33 -112q-31 -40 -77 -55q34 -10 59 -36q34 -38 34 -96q0 -92 -54 -153q-38 -43 -92 -54l-16 -130h-120l16 126q-50 6 -89 38l16 133q14 -19 42 -35q29 -15 64 -15q46 0 69 24q24 26 24 63q0 40 -29 62
q-22 16 -74 16h-11l15 120h20q48 0 74 19q30 21 30 63q0 35 -21 54q-19 19 -60 19q-34 0 -60 -16q-23 -14 -41 -35z" />
    <glyph glyph-name="uni0499" unicode="&#x499;" horiz-adv-x="340" 
d="M255 232q22 -10 38 -29q17 -23 17 -59q0 -63 -42 -107q-31 -33 -75 -39l-12 -102h-104l13 103q-44 9 -95 49l64 91q14 -16 29 -25q17 -11 41 -11q25 0 38 12q13 11 13 29q0 19 -16 28q-15 8 -45 8h-25l12 94h22q27 0 45 8q20 10 20 31q0 18 -13 28q-12 9 -34 9t-37 -9
q-18 -10 -32 -25l-40 95q60 44 137 44q74 0 114 -40q32 -32 32 -79q0 -42 -21 -69q-18 -23 -44 -35z" />
    <glyph glyph-name="uni049A" unicode="&#x49a;" horiz-adv-x="449" 
d="M477 667l-159 -308l56 -234h69l-31 -255h-120l16 130h-39l-74 339l-42 -339h-130l82 667h130l-37 -298l147 298h132z" />
    <glyph glyph-name="uni049B" unicode="&#x49b;" horiz-adv-x="382" 
d="M66 447h124l-25 -204l91 204h134l-124 -222l41 -121h54l-26 -208h-104l13 104h-33l-51 204l-25 -204h-124z" />
    <glyph glyph-name="uni049C" unicode="&#x49c;" horiz-adv-x="558" 
d="M188 281l-35 -281h-130l82 667h130l-32 -261h50l19 153h76l-24 -190l134 298h132l-152 -309l74 -358h-134l-59 330l-24 -201h-76l19 152h-50z" />
    <glyph glyph-name="uni049D" unicode="&#x49d;" horiz-adv-x="476" 
d="M157 182l-22 -182h-124l55 447h124l-22 -182h32l13 111h70l-16 -131l87 202h130l-111 -215l65 -232h-133l-42 202l-16 -124h-70l12 104h-32z" />
    <glyph glyph-name="uni04A0" unicode="&#x4a0;" horiz-adv-x="517" 
d="M549 667l-159 -308l93 -359h-137l-79 339l-42 -339h-130l67 545h-114l15 122h244l-37 -298l147 298h132z" />
    <glyph glyph-name="uni04A1" unicode="&#x4a1;" horiz-adv-x="450" 
d="M409 0h-130l-51 204l-25 -204h-124l42 343h-91l13 104h215l-25 -204l91 204h134l-124 -222z" />
    <glyph glyph-name="uni04A2" unicode="&#x4a2;" horiz-adv-x="514" 
d="M105 667h130l-30 -247h131l30 247h130l-65 -542h69l-31 -255h-120l16 130h-80l36 295h-131l-37 -295h-130z" />
    <glyph glyph-name="uni04A3" unicode="&#x4a3;" horiz-adv-x="401" 
d="M190 447l-20 -157h62l20 157h124l-42 -343h54l-25 -208h-104l12 104h-74l22 186h-62l-22 -186h-124l55 447h124z" />
    <glyph glyph-name="uni04A4" unicode="&#x4a4;" horiz-adv-x="585" 
d="M609 667l-15 -123h-114l-67 -544h-130l37 295h-130l-37 -295h-130l82 667h130l-30 -247h130l30 247h244z" />
    <glyph glyph-name="uni04A5" unicode="&#x4a5;" horiz-adv-x="454" 
d="M190 447l-20 -157h62l20 157h216l-13 -104h-92l-42 -343h-124l22 186h-62l-22 -186h-124l55 447h124z" />
    <glyph glyph-name="uni04AA" unicode="&#x4aa;" horiz-adv-x="420" 
d="M185 -123l28 129q-80 27 -123.5 104t-43.5 175q0 92 40 180.5t117 148.5t172 60q34 0 65 -12l-15 -121q-22 7 -49 7q-60 0 -105.5 -39t-66 -94t-20.5 -113q0 -72 35 -127t103 -55q25 0 53 10l-16 -126q-12 -4 -30 -8l-24 -119h-120z" />
    <glyph glyph-name="uni04AB" unicode="&#x4ab;" horiz-adv-x="277" 
d="M284 443l-14 -110q-12 15 -35 15q-26 0 -47 -23q-39 -43 -39 -130q0 -54 20 -74q13 -13 34 -13q23 0 41 13l-14 -114q-8 -5 -19 -7l-13 -104h-104l13 106q-40 13 -62 56q-23 43 -23 116q0 66 23.5 131t61.5 104q47 47 116 47q35 0 61 -13z" />
    <glyph glyph-name="uni04AE" unicode="&#x4ae;" horiz-adv-x="440" 
d="M494 667l-199 -382l-36 -285h-130l35 285l-110 382h143l33 -153q6 -23 14 -91q13 36 38 94l67 150h145z" />
    <glyph glyph-name="uni04AF" unicode="&#x4af;" horiz-adv-x="365" 
d="M20 447h125l16 -121q13 -101 15 -138q17 60 44 129l50 130h125l-176 -408l-31 -245h-124l31 245z" />
    <glyph glyph-name="uni04B0" unicode="&#x4b0;" horiz-adv-x="442" 
d="M496 667l-200 -378l-2 -19h106l-14 -120h-106l-19 -150h-130l19 150h-106l14 120h106l3 19l-111 378h143l33 -153q6 -23 14 -91q13 36 38 94l67 150h145z" />
    <glyph glyph-name="uni04B1" unicode="&#x4b1;" horiz-adv-x="369" 
d="M101 59l-77 388h125l16 -121q13 -101 15 -138q17 60 44 129l50 130h125l-173 -388l-2 -17h98l-11 -88h-98l-20 -160h-124l19 160h-98l11 88h98z" />
    <glyph glyph-name="uni04B2" unicode="&#x4b2;" horiz-adv-x="441" 
d="M479 667l-180 -323l68 -219h69l-31 -255h-120l16 130h-44q-3 10 -13 47t-15.5 58.5t-11 51t-5.5 49.5q-18 -50 -94 -206h-146l181 344l-99 323h146q3 -12 13.5 -46t15.5 -53t10 -47t5 -50q7 24 20 52.5t21.5 45.5t28 52.5t25.5 45.5h140z" />
    <glyph glyph-name="uni04B3" unicode="&#x4b3;" horiz-adv-x="380" 
d="M392 447l-137 -207l57 -136h54l-26 -208h-104l13 104h-24l-24 65q-16 43 -23 70q-11 -22 -38 -65l-44 -70h-127l156 240l-84 207h126l16 -41q10 -24 18 -67q13 31 34 62l30 46h127z" />
    <glyph glyph-name="uni04B6" unicode="&#x4b6;" horiz-adv-x="486" 
d="M337 0h-79l36 292q-35 -11 -74 -11q-82 0 -125 41q-35 34 -35 92q0 28 6 74l22 179h130l-20 -165q-4 -28 -4 -42q0 -27 16 -41q16 -13 46 -13q28 0 53 10l31 251h130l-67 -542h69l-33 -255h-120z" />
    <glyph glyph-name="uni04B7" unicode="&#x4b7;" horiz-adv-x="395" 
d="M54 447h122l-16 -124q0 -1 -0.5 -5.5t-0.5 -7.5q0 -16 8 -24q9 -8 28 -8q15 0 31 7l20 162h124l-42 -343h54l-25 -208h-104l12 104h-74l23 184q-27 -10 -59 -10q-63 0 -93 30q-27 27 -27 74q0 17 4 47z" />
    <glyph glyph-name="uni04B8" unicode="&#x4b8;" horiz-adv-x="526" 
d="M316 0l36 294q-25 -8 -51 -10l-18 -147h-76l18 144h-5q-68 0 -109 30q-51 37 -51 114q0 11 6 63l22 179h128l-19 -158q-5 -38 -5 -49q0 -28 15 -41q12 -10 33 -12l19 156h76l-19 -157q27 0 51 11l31 250h130l-82 -667h-130z" />
    <glyph glyph-name="uni04B9" unicode="&#x4b9;" horiz-adv-x="431" 
d="M254 370l-12 -100q14 0 31 7l21 170h124l-55 -447h-124l22 181q-14 -5 -31 -7l-11 -91h-58l11 90q-79 0 -111 33q-26 27 -26 76q0 21 5 56l14 109h118l-14 -107q-4 -24 -4 -36q0 -17 8 -25q7 -7 22 -7l12 98h58z" />
    <glyph glyph-name="uni04BA" unicode="&#x4ba;" horiz-adv-x="476" 
d="M235 667l-34 -272q37 11 82 11q84 0 123 -40q35 -35 35 -97q0 -19 -7 -76l-23 -193h-130l21 170q5 44 5 55q0 29 -18 43q-17 13 -48 13t-55 -9l-33 -272h-130l82 667h130z" />
    <glyph glyph-name="uni04BB" unicode="&#x4bb;" horiz-adv-x="388" 
d="M224 729l-43 -352q50 78 115 78q68 0 68 -82q0 -16 -7 -74l-36 -299h-124l32 255q3 23 3 46q0 29 -23 29q-13 0 -21.5 -6.5t-13 -22t-5.5 -22t-3 -24.5l-31 -255h-124l90 729h123z" />
    <glyph glyph-name="uni04C0" unicode="&#x4c0;" horiz-adv-x="204" 
d="M216 667l-81 -667h-124l82 667h123z" />
    <glyph glyph-name="uni04C1" unicode="&#x4c1;" horiz-adv-x="631" 
d="M584 0h-132l-62 335l-41 -335h-126l41 335l-141 -335h-135l166 364l-85 303h129l70 -302l37 302h126l-37 -302l144 302h129l-159 -305zM457 852l103 -29q-21 -61 -69 -90q-41 -25 -105 -25q-69 0 -108 29q-43 31 -56 87l103 28q6 -25 20 -39q17 -16 45 -16t43 13
q16 13 24 42z" />
    <glyph glyph-name="uni04C2" unicode="&#x4c2;" horiz-adv-x="541" 
d="M499 0h-130l-43 206l-26 -206h-117l26 206l-95 -206h-130l126 240l-69 207h125l47 -206l25 206h117l-25 -206l95 206h128l-117 -208zM362 642l88 -29q-14 -47 -52 -76q-36 -27 -93 -27q-59 0 -94 25q-40 29 -51 78l87 29q3 -25 19 -39q13 -13 39 -13q20 0 36 13
q16 14 21 39z" />
    <glyph glyph-name="uni04C3" unicode="&#x4c3;" horiz-adv-x="475" 
d="M477 667l-149 -291q49 -14 78 -57q29 -44 29 -104q0 -43 -7 -97l-6 -44q-19 -148 -75 -198q-40 -36 -106 -36q-46 0 -81 22l41 112q20 -12 30 -12q17 0 28 10q22 20 35 116l6 42q5 40 5 69q0 45 -20 67q-19 19 -49 19q-23 0 -49 -13l-34 -272h-130l82 667h130l-37 -298
l147 298h132z" />
    <glyph glyph-name="uni04C4" unicode="&#x4c4;" horiz-adv-x="382" 
d="M66 447h124l-22 -182l88 182h134l-125 -212q39 -16 59 -54q19 -35 19 -92q0 -158 -78 -236q-59 -59 -145 -59h-12l13 108q20 0 39 13q26 17 42 65q13 43 13 97q0 43 -17 62q-15 17 -44 17l-19 -156h-124z" />
    <glyph glyph-name="uni04C7" unicode="&#x4c7;" horiz-adv-x="494" 
d="M105 667h130l-30 -247h131l30 247h130l-80 -657q-10 -78 -28 -116q-22 -47 -63.5 -73.5t-93.5 -26.5t-93 21l16 132q27 -37 64 -37q26 0 41.5 17.5t19 32.5t6.5 40l36 295h-131l-37 -295h-130z" />
    <glyph glyph-name="uni04C8" unicode="&#x4c8;" horiz-adv-x="389" 
d="M190 447l-20 -157h62l20 157h124l-62 -505q-9 -72 -45 -109q-38 -39 -106 -39q-33 0 -63 11l14 110q12 -9 30 -9q19 0 31 11q14 13 19 59l25 210h-62l-22 -186h-124l55 447h124z" />
    <glyph glyph-name="uni04D0" unicode="&#x4d0;" horiz-adv-x="453" 
d="M422 0h-138l-11 112h-131l-37 -112h-130l235 667h137zM175 215h91q-16 211 -13 280q-15 -73 -23 -103q-7 -28 -55 -177zM348 852l103 -29q-21 -61 -69 -90q-41 -25 -105 -25q-69 0 -108 29q-43 31 -56 87l103 28q6 -25 20 -39q17 -16 45 -16t43 13q16 13 24 42z" />
    <glyph glyph-name="uni04D1" unicode="&#x4d1;" horiz-adv-x="390" 
d="M377 447l-54 -447h-124l6 51q-39 -60 -88 -60q-29 0 -49 16.5t-29.5 44t-13 52.5t-3.5 53q0 63 11 115q13 69 48 126t92 57q55 0 74 -63l7 55h123zM238 276q0 67 -29 67q-32 0 -47 -60t-15 -108q0 -72 32 -72q17 0 29.5 21.5t18.5 52.5t8.5 56t2.5 43zM308 642l88 -29
q-14 -47 -52 -76q-36 -27 -93 -27q-59 0 -94 25q-40 29 -51 78l87 29q3 -25 19 -39q13 -13 39 -13q20 0 36 13q16 14 21 39z" />
    <glyph glyph-name="uni04D2" unicode="&#x4d2;" horiz-adv-x="453" 
d="M422 0h-138l-11 112h-131l-37 -112h-130l235 667h137zM175 215h91q-16 211 -13 280q-15 -73 -23 -103q-7 -28 -55 -177zM433 797q0 -30 -22.5 -51.5t-52.5 -21.5q-24 0 -40 17t-16 41q0 29 22 51.5t51 22.5q25 0 41.5 -17t16.5 -42zM260 797q0 -29 -22.5 -51t-51.5 -22
q-25 0 -41 16.5t-16 41.5q0 29 22 51.5t51 22.5q25 0 41.5 -17t16.5 -42z" />
    <glyph glyph-name="uni04D3" unicode="&#x4d3;" horiz-adv-x="390" 
d="M377 447l-54 -447h-124l6 51q-39 -60 -88 -60q-29 0 -49 16.5t-29.5 44t-13 52.5t-3.5 53q0 63 11 115q13 69 48 126t92 57q55 0 74 -63l7 55h123zM238 276q0 67 -29 67q-32 0 -47 -60t-15 -108q0 -72 32 -72q17 0 29.5 21.5t18.5 52.5t8.5 56t2.5 43zM392 590
q0 -30 -22.5 -51.5t-52.5 -21.5q-24 0 -40 17t-16 41q0 29 22 51.5t51 22.5q25 0 41.5 -17t16.5 -42zM219 590q0 -29 -22.5 -51t-51.5 -22q-25 0 -41 16.5t-16 41.5q0 29 22 51.5t51 22.5q25 0 41.5 -17t16.5 -42z" />
    <glyph glyph-name="uni04D4" unicode="&#x4d4;" horiz-adv-x="583" 
d="M549 0h-264l-10 111h-137l-33 -111h-130l231 667h268l12 -124h-129l16 -138h130l15 -126h-129l19 -154h125zM173 216h93q-5 47 -13 141q-4 44 -4 66q0 12 0.5 35.5t0.5 35.5q-16 -86 -33 -139z" />
    <glyph glyph-name="uni04D5" unicode="&#x4d5;" horiz-adv-x="562" 
d="M77 329l13 107q60 20 102 20q44 0 70.5 -14t42.5 -52q44 65 116 65q117 0 117 -164q0 -22 -7 -99h-201q-2 -20 -2 -31q0 -78 43 -78q21 0 32.5 15.5t13.5 38.5h101q-10 -67 -50 -106.5t-106 -39.5q-68 0 -102 55q-58 -55 -119 -55q-57 0 -92.5 31.5t-35.5 87.5
q0 66 42 112t107 46q41 0 64 -16q3 42 3 43q0 57 -63 57q-38 0 -89 -23zM340 269h91q2 20 2 30q0 65 -36 65q-44 0 -57 -95zM219 137q0 17 -12 29t-29 12q-21 0 -37 -16t-16 -37q0 -17 12 -29t29 -12q21 0 37 16t16 37z" />
    <glyph glyph-name="uni04D6" unicode="&#x4d6;" horiz-adv-x="350" 
d="M366 667l-15 -124h-131l-18 -144h116l-16 -126h-115l-19 -150h133l-15 -123h-263l82 667h261zM318 852l103 -29q-21 -61 -69 -90q-41 -25 -105 -25q-69 0 -108 29q-43 31 -56 87l103 28q6 -25 20 -39q17 -16 45 -16t43 13q16 13 24 42z" />
    <glyph glyph-name="uni04D7" unicode="&#x4d7;" horiz-adv-x="367" 
d="M222 154h104q-9 -78 -59 -125q-40 -38 -103 -38q-60 0 -97 38q-46 50 -46 138q0 64 22 131t65 110q47 47 111 47q49 0 83 -32q44 -43 44 -134q0 -36 -9 -88h-195q-6 -29 -6 -57q0 -36 12 -49q10 -10 26 -10q22 0 35 22q9 16 13 47zM152 278h89q2 16 2 24q0 25 -8 40
q-10 18 -28 18q-17 0 -30 -14q-20 -21 -25 -68zM293 642l88 -29q-14 -47 -52 -76q-36 -27 -93 -27q-59 0 -94 25q-40 29 -51 78l87 29q3 -25 19 -39q13 -13 39 -13q20 0 36 13q16 14 21 39z" />
    <glyph glyph-name="uni04D8" unicode="&#x4d8;" horiz-adv-x="523" 
d="M56 371h308q12 127 -29 170q-19 20 -47 20q-29 0 -47 -17q-21 -19 -39 -75l-122 50q25 61 69 102q62 56 153 56q82 0 133 -47q71 -66 71 -207q0 -40 -5 -83t-17 -96t-38 -103t-63 -86q-69 -66 -164 -66q-67 0 -111 44q-65 66 -65 194q0 62 13 144zM171 253
q-7 -25 -2.5 -66t23.5 -61q17 -17 40 -17q35 0 59 25q20 20 34.5 54.5t18.5 64.5h-173z" />
    <glyph glyph-name="afii10846" unicode="&#x4d9;" horiz-adv-x="373" 
d="M144 308l-100 20q14 52 47 85q41 42 111 42q65 0 103 -36q45 -43 45 -136q0 -68 -20 -136.5t-61 -110.5q-44 -45 -114 -45q-57 0 -91 35q-41 42 -41 131q0 52 11 99h198q3 22 3 43q0 38 -14 52q-10 10 -28 10t-31 -13q-13 -15 -18 -40zM221 179h-90q-4 -17 -4 -36
q0 -34 14 -48q9 -9 24 -9t26 9q23 19 30 84z" />
    <glyph glyph-name="uni04DA" unicode="&#x4da;" horiz-adv-x="523" 
d="M56 371h308q12 127 -29 170q-19 20 -47 20q-29 0 -47 -17q-21 -19 -39 -75l-122 50q25 61 69 102q62 56 153 56q82 0 133 -47q71 -66 71 -207q0 -40 -5 -83t-17 -96t-38 -103t-63 -86q-69 -66 -164 -66q-67 0 -111 44q-65 66 -65 194q0 62 13 144zM171 253
q-7 -25 -2.5 -66t23.5 -61q17 -17 40 -17q35 0 59 25q20 20 34.5 54.5t18.5 64.5h-173zM463 797q0 -30 -22.5 -51.5t-52.5 -21.5q-24 0 -40 17t-16 41q0 29 22 51.5t51 22.5q25 0 41.5 -17t16.5 -42zM290 797q0 -29 -22.5 -51t-51.5 -22q-25 0 -41 16.5t-16 41.5
q0 29 22 51.5t51 22.5q25 0 41.5 -17t16.5 -42z" />
    <glyph glyph-name="uni04DB" unicode="&#x4db;" horiz-adv-x="373" 
d="M144 308l-100 20q14 52 47 85q41 42 111 42q65 0 103 -36q45 -43 45 -136q0 -68 -20 -136.5t-61 -110.5q-44 -45 -114 -45q-57 0 -91 35q-41 42 -41 131q0 52 11 99h198q3 22 3 43q0 38 -14 52q-10 10 -28 10t-31 -13q-13 -15 -18 -40zM221 179h-90q-4 -17 -4 -36
q0 -34 14 -48q9 -9 24 -9t26 9q23 19 30 84zM363 590q0 -30 -22.5 -51.5t-52.5 -21.5q-24 0 -40 17t-16 41q0 29 22 51.5t51 22.5q25 0 41.5 -17t16.5 -42zM190 590q0 -29 -22.5 -51t-51.5 -22q-25 0 -41 16.5t-16 41.5q0 29 22 51.5t51 22.5q25 0 41.5 -17t16.5 -42z" />
    <glyph glyph-name="uni04DC" unicode="&#x4dc;" horiz-adv-x="631" 
d="M584 0h-132l-62 335l-41 -335h-126l41 335l-141 -335h-135l166 364l-85 303h129l70 -302l37 302h126l-37 -302l144 302h129l-159 -305zM528 797q0 -30 -22.5 -51.5t-52.5 -21.5q-24 0 -40 17t-16 41q0 29 22 51.5t51 22.5q25 0 41.5 -17t16.5 -42zM355 797
q0 -29 -22.5 -51t-51.5 -22q-25 0 -41 16.5t-16 41.5q0 29 22 51.5t51 22.5q25 0 41.5 -17t16.5 -42z" />
    <glyph glyph-name="uni04DD" unicode="&#x4dd;" horiz-adv-x="541" 
d="M499 0h-130l-43 206l-26 -206h-117l26 206l-95 -206h-130l126 240l-69 207h125l47 -206l25 206h117l-25 -206l95 206h128l-117 -208zM453 590q0 -30 -22.5 -51.5t-52.5 -21.5q-24 0 -40 17t-16 41q0 29 22 51.5t51 22.5q25 0 41.5 -17t16.5 -42zM280 590q0 -29 -22.5 -51
t-51.5 -22q-25 0 -41 16.5t-16 41.5q0 29 22 51.5t51 22.5q25 0 41.5 -17t16.5 -42z" />
    <glyph glyph-name="uni04DE" unicode="&#x4de;" horiz-adv-x="396" 
d="M68 506l16 134q54 37 120 37q80 0 129 -45t49 -126q0 -68 -33 -112q-31 -40 -77 -55q34 -10 59 -36q34 -36 34 -95q0 -46 -20.5 -92t-51.5 -74q-58 -53 -150 -53q-74 0 -133 45l16 133q14 -19 42 -35q29 -15 64 -15q46 0 69 24q24 26 24 63q0 40 -29 62q-22 16 -74 16
h-11l15 120h20q48 0 74 19q30 21 30 63q0 35 -21 54q-19 19 -60 19q-34 0 -60 -16q-23 -14 -41 -35zM381 797q0 -30 -22.5 -51.5t-52.5 -21.5q-24 0 -40 17t-16 41q0 29 22 51.5t51 22.5q25 0 41.5 -17t16.5 -42zM208 797q0 -29 -22.5 -51t-51.5 -22q-25 0 -41 16.5
t-16 41.5q0 29 22 51.5t51 22.5q25 0 41.5 -17t16.5 -42z" />
    <glyph glyph-name="uni04DF" unicode="&#x4df;" horiz-adv-x="340" 
d="M245 232q26 -9 42 -26q23 -26 23 -66q0 -61 -43 -104q-45 -45 -121 -45q-50 0 -92 19q-35 16 -59 38l64 91q14 -16 29 -25q17 -11 41 -11q25 0 38 12q13 11 13 29q0 19 -16 28q-15 8 -45 8h-25l12 94h22q27 0 45 8q20 10 20 31q0 18 -13 28q-12 9 -34 9t-37 -9
q-18 -10 -32 -25l-40 95q60 44 137 44q74 0 114 -40q32 -32 32 -79q0 -46 -25 -74q-21 -23 -50 -30zM348 590q0 -30 -22.5 -51.5t-52.5 -21.5q-24 0 -40 17t-16 41q0 29 22 51.5t51 22.5q25 0 41.5 -17t16.5 -42zM175 590q0 -29 -22.5 -51t-51.5 -22q-25 0 -41 16.5
t-16 41.5q0 29 22 51.5t51 22.5q25 0 41.5 -17t16.5 -42z" />
    <glyph glyph-name="uni04E2" unicode="&#x4e2;" horiz-adv-x="501" 
d="M23 0l82 667h130l-37 -302q-6 -44 -24 -100l207 402h122l-82 -667h-130l38 305q1 12 22 102l-206 -407h-122zM458 818l-10 -80h-282l10 80h282z" />
    <glyph glyph-name="uni04E3" unicode="&#x4e3;" horiz-adv-x="404" 
d="M66 447h118l-18 -149q-5 -55 -29 -127q43 85 48 94l95 182h111l-55 -447h-118l18 146q10 74 26 134q-21 -55 -50 -111l-90 -169h-111zM390 611l-10 -80h-282l10 80h282z" />
    <glyph glyph-name="uni04E4" unicode="&#x4e4;" horiz-adv-x="501" 
d="M23 0l82 667h130l-37 -302q-6 -44 -24 -100l207 402h122l-82 -667h-130l38 305q1 12 22 102l-206 -407h-122zM473 797q0 -30 -22.5 -51.5t-52.5 -21.5q-24 0 -40 17t-16 41q0 29 22 51.5t51 22.5q25 0 41.5 -17t16.5 -42zM300 797q0 -29 -22.5 -51t-51.5 -22
q-25 0 -41 16.5t-16 41.5q0 29 22 51.5t51 22.5q25 0 41.5 -17t16.5 -42z" />
    <glyph glyph-name="uni04E5" unicode="&#x4e5;" horiz-adv-x="404" 
d="M66 447h118l-18 -149q-5 -55 -29 -127q43 85 48 94l95 182h111l-55 -447h-118l18 146q10 74 26 134q-21 -55 -50 -111l-90 -169h-111zM393 590q0 -30 -22.5 -51.5t-52.5 -21.5q-24 0 -40 17t-16 41q0 29 22 51.5t51 22.5q25 0 41.5 -17t16.5 -42zM220 590
q0 -29 -22.5 -51t-51.5 -22q-25 0 -41 16.5t-16 41.5q0 29 22 51.5t51 22.5q25 0 41.5 -17t16.5 -42z" />
    <glyph glyph-name="uni04E6" unicode="&#x4e6;" horiz-adv-x="534" 
d="M517 434q0 -136 -35 -235q-31 -90 -95 -150t-151 -60q-48 0 -91 26t-67 68q-35 59 -35 158q0 101 22 182q27 107 93 180.5t166 73.5q94 0 143.5 -72.5t49.5 -170.5zM378 427q0 28 -4.5 54t-21.5 50.5t-45 24.5q-27 0 -49 -22t-35.5 -56t-21 -63.5t-11.5 -56.5
q-8 -49 -8 -113q0 -19 3 -39t10 -41.5t22 -35t36 -13.5q27 0 49 22t35.5 56t21 63.5t11.5 56.5q8 49 8 113zM493 797q0 -30 -22.5 -51.5t-52.5 -21.5q-24 0 -40 17t-16 41q0 29 22 51.5t51 22.5q25 0 41.5 -17t16.5 -42zM320 797q0 -29 -22.5 -51t-51.5 -22q-25 0 -41 16.5
t-16 41.5q0 29 22 51.5t51 22.5q25 0 41.5 -17t16.5 -42z" />
    <glyph glyph-name="uni04E7" unicode="&#x4e7;" horiz-adv-x="386" 
d="M363 289q0 -40 -5.5 -79t-20 -79.5t-36 -71t-56.5 -49.5t-80 -19q-53 0 -86 28t-44.5 67t-11.5 91q0 65 19 125.5t66 106.5t114 46q70 0 105.5 -46.5t35.5 -119.5zM237 277q0 66 -29 66q-31 0 -46 -60.5t-15 -107.5q0 -72 31 -72q22 0 36.5 38t18.5 73.5t4 62.5zM383 590
q0 -30 -22.5 -51.5t-52.5 -21.5q-24 0 -40 17t-16 41q0 29 22 51.5t51 22.5q25 0 41.5 -17t16.5 -42zM210 590q0 -29 -22.5 -51t-51.5 -22q-25 0 -41 16.5t-16 41.5q0 29 22 51.5t51 22.5q25 0 41.5 -17t16.5 -42z" />
    <glyph glyph-name="uni04E8" unicode="&#x4e8;" horiz-adv-x="534" 
d="M324 677q73 0 122 -47q71 -66 71 -207q0 -106 -29.5 -206.5t-93.5 -161.5q-69 -66 -156 -66q-78 0 -129 54q-66 71 -66 201q0 108 29.5 205.5t90.5 158.5q69 69 161 69zM198 406h180q1 101 -30 132q-16 18 -42 18q-25 0 -48 -23q-19 -19 -36 -55.5t-24 -71.5zM364 281
h-181q-7 -97 24 -139q19 -26 46 -26q28 0 51 23q21 20 38 61t22 81z" />
    <glyph glyph-name="uni04E9" unicode="&#x4e9;" horiz-adv-x="386" 
d="M222 455q60 0 97 -37q44 -44 44 -134q0 -65 -18.5 -132t-55.5 -108q-49 -53 -127 -53q-61 0 -97 40q-42 47 -42 142q0 65 19.5 128t60.5 104q50 50 119 50zM159 274h78q0 58 -13 70q-6 6 -16 6q-11 0 -20 -9q-21 -20 -29 -67zM228 182h-81q0 -63 15 -78q7 -7 16 -7
q12 0 22 10q19 20 28 75z" />
    <glyph glyph-name="uni04EA" unicode="&#x4ea;" horiz-adv-x="534" 
d="M324 677q73 0 122 -47q71 -66 71 -207q0 -106 -29.5 -206.5t-93.5 -161.5q-69 -66 -156 -66q-78 0 -129 54q-66 71 -66 201q0 108 29.5 205.5t90.5 158.5q69 69 161 69zM198 406h180q1 101 -30 132q-16 18 -42 18q-25 0 -48 -23q-19 -19 -36 -55.5t-24 -71.5zM364 281
h-181q-7 -97 24 -139q19 -26 46 -26q28 0 51 23q21 20 38 61t22 81zM493 797q0 -30 -22.5 -51.5t-52.5 -21.5q-24 0 -40 17t-16 41q0 29 22 51.5t51 22.5q25 0 41.5 -17t16.5 -42zM320 797q0 -29 -22.5 -51t-51.5 -22q-25 0 -41 16.5t-16 41.5q0 29 22 51.5t51 22.5
q25 0 41.5 -17t16.5 -42z" />
    <glyph glyph-name="uni04EB" unicode="&#x4eb;" horiz-adv-x="386" 
d="M222 455q60 0 97 -37q44 -44 44 -134q0 -65 -18.5 -132t-55.5 -108q-49 -53 -127 -53q-61 0 -97 40q-42 47 -42 142q0 65 19.5 128t60.5 104q50 50 119 50zM159 274h78q0 58 -13 70q-6 6 -16 6q-11 0 -20 -9q-21 -20 -29 -67zM228 182h-81q0 -63 15 -78q7 -7 16 -7
q12 0 22 10q19 20 28 75zM383 590q0 -30 -22.5 -51.5t-52.5 -21.5q-24 0 -40 17t-16 41q0 29 22 51.5t51 22.5q25 0 41.5 -17t16.5 -42zM210 590q0 -29 -22.5 -51t-51.5 -22q-25 0 -41 16.5t-16 41.5q0 29 22 51.5t51 22.5q25 0 41.5 -17t16.5 -42z" />
    <glyph glyph-name="uni04EE" unicode="&#x4ee;" horiz-adv-x="442" 
d="M60 667h138l33 -165q17 -87 20 -128q17 56 41 124l62 169h142l-284 -667h-132l96 230zM438 818l-10 -80h-282l10 80h282z" />
    <glyph glyph-name="uni04EF" unicode="&#x4ef;" horiz-adv-x="359" 
d="M389 447l-266 -653h-120l93 215l-74 438h123l22 -163q8 -60 9 -92l89 255h124zM364 611l-10 -80h-282l10 80h282z" />
    <glyph glyph-name="uni04F0" unicode="&#x4f0;" horiz-adv-x="442" 
d="M60 667h138l33 -165q17 -87 20 -128q17 56 41 124l62 169h142l-284 -667h-132l96 230zM438 797q0 -30 -22.5 -51.5t-52.5 -21.5q-24 0 -40 17t-16 41q0 29 22 51.5t51 22.5q25 0 41.5 -17t16.5 -42zM265 797q0 -29 -22.5 -51t-51.5 -22q-25 0 -41 16.5t-16 41.5
q0 29 22 51.5t51 22.5q25 0 41.5 -17t16.5 -42z" />
    <glyph glyph-name="uni04F1" unicode="&#x4f1;" horiz-adv-x="359" 
d="M389 447l-266 -653h-120l93 215l-74 438h123l22 -163q8 -60 9 -92l89 255h124zM364 590q0 -30 -22.5 -51.5t-52.5 -21.5q-24 0 -40 17t-16 41q0 29 22 51.5t51 22.5q25 0 41.5 -17t16.5 -42zM191 590q0 -29 -22.5 -51t-51.5 -22q-25 0 -41 16.5t-16 41.5q0 29 22 51.5
t51 22.5q25 0 41.5 -17t16.5 -42z" />
    <glyph glyph-name="uni04F2" unicode="&#x4f2;" horiz-adv-x="442" 
d="M60 667h138l33 -165q17 -87 20 -128q17 56 41 124l62 169h142l-284 -667h-132l96 230zM444 846l-99 -122l-51 36l74 128zM309 846l-100 -122l-51 36l74 128z" />
    <glyph glyph-name="uni04F3" unicode="&#x4f3;" horiz-adv-x="359" 
d="M389 447l-266 -653h-120l93 215l-74 438h123l22 -163q8 -60 9 -92l89 255h124zM377 639l-99 -122l-51 36l74 128zM242 639l-100 -122l-51 36l74 128z" />
    <glyph glyph-name="uni04F4" unicode="&#x4f4;" horiz-adv-x="468" 
d="M258 0l36 292q-35 -11 -74 -11q-82 0 -125 41q-35 34 -35 92q0 28 6 74l22 179h130l-20 -165q-4 -28 -4 -42q0 -27 16 -41q16 -13 46 -13q28 0 53 10l31 251h130l-82 -667h-130zM438 797q0 -30 -22.5 -51.5t-52.5 -21.5q-24 0 -40 17t-16 41q0 29 22 51.5t51 22.5
q25 0 41.5 -17t16.5 -42zM265 797q0 -29 -22.5 -51t-51.5 -22q-25 0 -41 16.5t-16 41.5q0 29 22 51.5t51 22.5q25 0 41.5 -17t16.5 -42z" />
    <glyph glyph-name="uni04F5" unicode="&#x4f5;" horiz-adv-x="383" 
d="M191 0l23 184q-27 -10 -59 -10q-63 0 -93 30q-27 27 -27 74q0 17 4 47l15 122h122l-16 -124q0 -1 -0.5 -5.5t-0.5 -7.5q0 -16 8 -24q9 -8 28 -8q15 0 31 7l20 162h124l-55 -447h-124zM376 590q0 -30 -22.5 -51.5t-52.5 -21.5q-24 0 -40 17t-16 41q0 29 22 51.5t51 22.5
q25 0 41.5 -17t16.5 -42zM203 590q0 -29 -22.5 -51t-51.5 -22q-25 0 -41 16.5t-16 41.5q0 29 22 51.5t51 22.5q25 0 41.5 -17t16.5 -42z" />
    <glyph glyph-name="uni04F8" unicode="&#x4f8;" horiz-adv-x="626" 
d="M546 0h-130l82 667h130zM105 667h130l-32 -261h1q98 0 151 -53q50 -50 50 -132q0 -98 -58 -158q-62 -63 -187 -63h-137zM189 292l-22 -178h4q45 0 71 20q33 26 33 80q0 37 -21 57q-22 21 -65 21zM523 797q0 -30 -22.5 -51.5t-52.5 -21.5q-24 0 -40 17t-16 41
q0 29 22 51.5t51 22.5q25 0 41.5 -17t16.5 -42zM350 797q0 -29 -22.5 -51t-51.5 -22q-25 0 -41 16.5t-16 41.5q0 29 22 51.5t51 22.5q25 0 41.5 -17t16.5 -42z" />
    <glyph glyph-name="uni04F9" unicode="&#x4f9;" horiz-adv-x="545" 
d="M477 0h-124l55 447h124zM66 447h124l-20 -164h8q74 0 112 -25q51 -34 51 -103q0 -73 -49 -116q-44 -39 -122 -39h-159zM146 88h6q33 0 50 16t17 46q0 24 -15 35q-12 10 -43 10h-2zM455 590q0 -30 -22.5 -51.5t-52.5 -21.5q-24 0 -40 17t-16 41q0 29 22 51.5t51 22.5
q25 0 41.5 -17t16.5 -42zM282 590q0 -29 -22.5 -51t-51.5 -22q-25 0 -41 16.5t-16 41.5q0 29 22 51.5t51 22.5q25 0 41.5 -17t16.5 -42z" />
    <glyph glyph-name="uni1E9E" unicode="&#x1e9e;" horiz-adv-x="440" 
d="M214 500l-61 -500h-130l60 491q10 90 69 142q50 44 121 44q67 0 108 -34q45 -37 45 -104q0 -31 -6 -67l-82 -91q23 -14 40 -34q24 -29 24 -85q0 -141 -69 -219q-42 -48 -114 -48q-23 0 -33 5l14 112q18 0 27 5q14 7 25 29q20 42 20 106q0 35 -13 49q-11 12 -35 14l11 88
l60 73q5 22 5 41q0 27 -10 41q-10 10 -25 10q-22 0 -35 -19q-12 -17 -16 -49z" />
    <glyph glyph-name="uni2010" unicode="&#x2010;" horiz-adv-x="268" 
d="M213 191h-168l14 108h168z" />
    <glyph glyph-name="uni2011" unicode="&#x2011;" horiz-adv-x="268" 
d="M213 191h-168l14 108h168z" />
    <glyph glyph-name="figuredash" unicode="&#x2012;" horiz-adv-x="574" 
d="M500 288h-434l12 100h434z" />
    <glyph glyph-name="endash" unicode="&#x2013;" horiz-adv-x="574" 
d="M500 195h-434l12 100h434z" />
    <glyph glyph-name="emdash" unicode="&#x2014;" horiz-adv-x="820" 
d="M758 295l-12 -100h-680l12 100h680z" />
    <glyph glyph-name="afii00208" unicode="&#x2015;" horiz-adv-x="820" 
d="M758 295l-12 -100h-680l12 100h680z" />
    <glyph glyph-name="quoteleft" unicode="&#x2018;" horiz-adv-x="274" 
d="M61 443l167 270h88l-122 -270h-133z" />
    <glyph glyph-name="quoteright" unicode="&#x2019;" horiz-adv-x="274" 
d="M307 713l-164 -270h-87l120 270h131z" />
    <glyph glyph-name="quotesinglbase" unicode="&#x201a;" horiz-adv-x="270" 
d="M237 121l-164 -270h-87l120 270h131z" />
    <glyph glyph-name="quotedblleft" unicode="&#x201c;" horiz-adv-x="439" 
d="M61 443l167 270h88l-123 -270h-132zM226 443l166 270h88l-122 -270h-132z" />
    <glyph glyph-name="quotedblright" unicode="&#x201d;" horiz-adv-x="439" 
d="M471 713l-164 -270h-87l120 270h131zM307 713l-164 -270h-87l120 270h131z" />
    <glyph glyph-name="quotedblbase" unicode="&#x201e;" horiz-adv-x="434" 
d="M230 121l-164 -270h-87l120 270h131zM401 121l-164 -270h-87l120 270h131z" />
    <glyph glyph-name="dagger" unicode="&#x2020;" horiz-adv-x="432" 
d="M414 439h-111l-78 -632h-125l78 632h-111l14 117h111l22 173h125l-22 -173h111z" />
    <glyph glyph-name="daggerdbl" unicode="&#x2021;" horiz-adv-x="433" 
d="M377 100h-111l-36 -293h-125l36 293h-111l15 117h111l27 222h-111l14 117h111l22 173h125l-22 -173h111l-14 -117h-111l-27 -222h111z" />
    <glyph glyph-name="bullet" unicode="&#x2022;" horiz-adv-x="1000" 
d="M652 340q0 -57 -40.5 -98.5t-97.5 -41.5t-97 41.5t-40 98.5t40.5 98.5t97.5 41.5t97 -41.5t40 -98.5z" />
    <glyph glyph-name="ellipsis" unicode="&#x2026;" horiz-adv-x="739" 
d="M675 88q0 -35 -26.5 -61.5t-61.5 -26.5q-28 0 -48 20t-20 49q0 35 26.5 61.5t61.5 26.5q29 0 48.5 -20t19.5 -49zM429 88q0 -35 -26.5 -61.5t-61.5 -26.5q-29 0 -48.5 20t-19.5 49q0 35 26.5 61.5t61.5 26.5q29 0 48.5 -20t19.5 -49zM183 88q0 -35 -27 -61.5t-62 -26.5
q-29 0 -48 20t-19 49q0 35 26.5 61.5t61.5 26.5q29 0 48.5 -20t19.5 -49z" />
    <glyph glyph-name="perthousand" unicode="&#x2030;" horiz-adv-x="1041" 
d="M341 549q0 -35 -8.5 -71t-26 -71t-50.5 -57t-76 -22q-56 0 -86 39.5t-30 93.5q0 77 43 143.5t121 66.5q57 0 85 -36.5t28 -85.5zM236 538q0 43 -22 43q-24 0 -34.5 -44t-10.5 -74q0 -44 22 -44q23 0 34 45.5t11 73.5zM602 667l-371 -667h-87l373 667h85zM683 214
q0 -35 -8.5 -71t-26 -71t-50.5 -57t-76 -22q-56 0 -86 39.5t-30 93.5q0 77 43 143.5t121 66.5q57 0 85 -36.5t28 -85.5zM578 203q0 43 -22 43q-24 0 -34.5 -44t-10.5 -74q0 -44 22 -44q23 0 34 45t11 74zM1006 214q0 -35 -8.5 -71t-26 -71t-50.5 -57t-76 -22q-56 0 -86 39.5
t-30 93.5q0 77 43 143.5t121 66.5q57 0 85 -36.5t28 -85.5zM901 203q0 43 -22 43q-24 0 -34.5 -44t-10.5 -74q0 -44 22 -44q23 0 34 45t11 74z" />
    <glyph glyph-name="guilsinglleft" unicode="&#x2039;" horiz-adv-x="239" 
d="M231 406l-110 -172l69 -168l-71 -38l-89 206l139 206z" />
    <glyph glyph-name="guilsinglright" unicode="&#x203a;" horiz-adv-x="239" 
d="M210 234l-139 -206l-61 38l109 168l-68 172l71 34z" />
    <glyph glyph-name="fraction" unicode="&#x2044;" horiz-adv-x="144" 
d="M314 667l-395 -667h-76l395 667h76z" />
    <glyph glyph-name="Euro" unicode="&#x20ac;" horiz-adv-x="433" 
d="M397 155l-19 -138q-48 -24 -101 -24q-83 0 -133 53q-67 70 -67 202h-88l37 68h54l9 55h-81l37 68h62q31 103 98 166q72 69 179 69q45 0 84 -19l-19 -139q-31 32 -73 32q-43 0 -79 -35q-28 -26 -48 -74h194l-37 -68h-177q-6 -24 -10 -55h158l-37 -68h-123q0 -59 28 -95
q25 -33 67 -33q47 0 85 35z" />
    <glyph glyph-name="uni20B4" unicode="&#x20b4;" horiz-adv-x="433" 
d="M122 516l16 129q63 32 116 32q78 0 119 -44q39 -42 39 -110q0 -48 -26 -84h54l-8 -68h-102l-58 -55h153l-9 -68h-204q-35 -34 -35 -81q0 -24 14 -38q16 -16 48 -16q56 0 109 36l-15 -126q-55 -34 -128 -34q-76 0 -118 43q-42 46 -42 111q0 58 40 105h-63l9 68h107l58 55
h-158l8 68h208q27 25 27 66q0 23 -14 38q-16 16 -42 16q-52 0 -103 -43z" />
    <glyph glyph-name="uni20B6" unicode="&#x20b6;" horiz-adv-x="433" 
d="M289 667q71 0 107 -22q70 -43 70 -147q1 -104 -71 -164t-181 -52l-8 -63h110l-8 -68h-110l-19 -151h-130l19 151h-64l8 68h64l9 63h-64l10 90h63l37 295h158zM224 372h10q103 0 103 107q0 43 -14.5 62t-51.5 19h-23z" />
    <glyph glyph-name="uni20B6" unicode="&#x20cf;" horiz-adv-x="433" 
d="M289 667q71 0 107 -22q70 -43 70 -147q1 -104 -71 -164t-181 -52l-8 -63h110l-8 -68h-110l-19 -151h-130l19 151h-64l8 68h64l9 63h-64l10 90h63l37 295h158zM224 372h10q103 0 103 107q0 43 -14.5 62t-51.5 19h-23z" />
    <glyph glyph-name="uni20B6" unicode="&#x20ce;" horiz-adv-x="433" 
d="M289 667q71 0 107 -22q70 -43 70 -147q1 -104 -71 -164t-181 -52l-8 -63h110l-8 -68h-110l-19 -151h-130l19 151h-64l8 68h64l9 63h-64l10 90h63l37 295h158zM224 372h10q103 0 103 107q0 43 -14.5 62t-51.5 19h-23z" />
    <glyph glyph-name="uni20B6" unicode="&#x20cd;" horiz-adv-x="433" 
d="M289 667q71 0 107 -22q70 -43 70 -147q1 -104 -71 -164t-181 -52l-8 -63h110l-8 -68h-110l-19 -151h-130l19 151h-64l8 68h64l9 63h-64l10 90h63l37 295h158zM224 372h10q103 0 103 107q0 43 -14.5 62t-51.5 19h-23z" />
    <glyph glyph-name="uni20B6" unicode="&#x20cc;" horiz-adv-x="433" 
d="M289 667q71 0 107 -22q70 -43 70 -147q1 -104 -71 -164t-181 -52l-8 -63h110l-8 -68h-110l-19 -151h-130l19 151h-64l8 68h64l9 63h-64l10 90h63l37 295h158zM224 372h10q103 0 103 107q0 43 -14.5 62t-51.5 19h-23z" />
    <glyph glyph-name="uni20B6" unicode="&#x20cb;" horiz-adv-x="433" 
d="M289 667q71 0 107 -22q70 -43 70 -147q1 -104 -71 -164t-181 -52l-8 -63h110l-8 -68h-110l-19 -151h-130l19 151h-64l8 68h64l9 63h-64l10 90h63l37 295h158zM224 372h10q103 0 103 107q0 43 -14.5 62t-51.5 19h-23z" />
    <glyph glyph-name="uni20B6" unicode="&#x20ca;" horiz-adv-x="433" 
d="M289 667q71 0 107 -22q70 -43 70 -147q1 -104 -71 -164t-181 -52l-8 -63h110l-8 -68h-110l-19 -151h-130l19 151h-64l8 68h64l9 63h-64l10 90h63l37 295h158zM224 372h10q103 0 103 107q0 43 -14.5 62t-51.5 19h-23z" />
    <glyph glyph-name="uni20B6" unicode="&#x20c9;" horiz-adv-x="433" 
d="M289 667q71 0 107 -22q70 -43 70 -147q1 -104 -71 -164t-181 -52l-8 -63h110l-8 -68h-110l-19 -151h-130l19 151h-64l8 68h64l9 63h-64l10 90h63l37 295h158zM224 372h10q103 0 103 107q0 43 -14.5 62t-51.5 19h-23z" />
    <glyph glyph-name="uni20B6" unicode="&#x20c8;" horiz-adv-x="433" 
d="M289 667q71 0 107 -22q70 -43 70 -147q1 -104 -71 -164t-181 -52l-8 -63h110l-8 -68h-110l-19 -151h-130l19 151h-64l8 68h64l9 63h-64l10 90h63l37 295h158zM224 372h10q103 0 103 107q0 43 -14.5 62t-51.5 19h-23z" />
    <glyph glyph-name="uni20B6" unicode="&#x20c7;" horiz-adv-x="433" 
d="M289 667q71 0 107 -22q70 -43 70 -147q1 -104 -71 -164t-181 -52l-8 -63h110l-8 -68h-110l-19 -151h-130l19 151h-64l8 68h64l9 63h-64l10 90h63l37 295h158zM224 372h10q103 0 103 107q0 43 -14.5 62t-51.5 19h-23z" />
    <glyph glyph-name="uni20B6" unicode="&#x20c6;" horiz-adv-x="433" 
d="M289 667q71 0 107 -22q70 -43 70 -147q1 -104 -71 -164t-181 -52l-8 -63h110l-8 -68h-110l-19 -151h-130l19 151h-64l8 68h64l9 63h-64l10 90h63l37 295h158zM224 372h10q103 0 103 107q0 43 -14.5 62t-51.5 19h-23z" />
    <glyph glyph-name="uni20B6" unicode="&#x20c5;" horiz-adv-x="433" 
d="M289 667q71 0 107 -22q70 -43 70 -147q1 -104 -71 -164t-181 -52l-8 -63h110l-8 -68h-110l-19 -151h-130l19 151h-64l8 68h64l9 63h-64l10 90h63l37 295h158zM224 372h10q103 0 103 107q0 43 -14.5 62t-51.5 19h-23z" />
    <glyph glyph-name="uni20B6" unicode="&#x20c4;" horiz-adv-x="433" 
d="M289 667q71 0 107 -22q70 -43 70 -147q1 -104 -71 -164t-181 -52l-8 -63h110l-8 -68h-110l-19 -151h-130l19 151h-64l8 68h64l9 63h-64l10 90h63l37 295h158zM224 372h10q103 0 103 107q0 43 -14.5 62t-51.5 19h-23z" />
    <glyph glyph-name="uni20B6" unicode="&#x20c3;" horiz-adv-x="433" 
d="M289 667q71 0 107 -22q70 -43 70 -147q1 -104 -71 -164t-181 -52l-8 -63h110l-8 -68h-110l-19 -151h-130l19 151h-64l8 68h64l9 63h-64l10 90h63l37 295h158zM224 372h10q103 0 103 107q0 43 -14.5 62t-51.5 19h-23z" />
    <glyph glyph-name="uni20B6" unicode="&#x20c2;" horiz-adv-x="433" 
d="M289 667q71 0 107 -22q70 -43 70 -147q1 -104 -71 -164t-181 -52l-8 -63h110l-8 -68h-110l-19 -151h-130l19 151h-64l8 68h64l9 63h-64l10 90h63l37 295h158zM224 372h10q103 0 103 107q0 43 -14.5 62t-51.5 19h-23z" />
    <glyph glyph-name="uni20B6" unicode="&#x20c1;" horiz-adv-x="433" 
d="M289 667q71 0 107 -22q70 -43 70 -147q1 -104 -71 -164t-181 -52l-8 -63h110l-8 -68h-110l-19 -151h-130l19 151h-64l8 68h64l9 63h-64l10 90h63l37 295h158zM224 372h10q103 0 103 107q0 43 -14.5 62t-51.5 19h-23z" />
    <glyph glyph-name="uni20B6" unicode="&#x20c0;" horiz-adv-x="433" 
d="M289 667q71 0 107 -22q70 -43 70 -147q1 -104 -71 -164t-181 -52l-8 -63h110l-8 -68h-110l-19 -151h-130l19 151h-64l8 68h64l9 63h-64l10 90h63l37 295h158zM224 372h10q103 0 103 107q0 43 -14.5 62t-51.5 19h-23z" />
    <glyph glyph-name="uni20B6" unicode="&#x20bf;" horiz-adv-x="433" 
d="M289 667q71 0 107 -22q70 -43 70 -147q1 -104 -71 -164t-181 -52l-8 -63h110l-8 -68h-110l-19 -151h-130l19 151h-64l8 68h64l9 63h-64l10 90h63l37 295h158zM224 372h10q103 0 103 107q0 43 -14.5 62t-51.5 19h-23z" />
    <glyph glyph-name="uni20B6" unicode="&#x20be;" horiz-adv-x="433" 
d="M289 667q71 0 107 -22q70 -43 70 -147q1 -104 -71 -164t-181 -52l-8 -63h110l-8 -68h-110l-19 -151h-130l19 151h-64l8 68h64l9 63h-64l10 90h63l37 295h158zM224 372h10q103 0 103 107q0 43 -14.5 62t-51.5 19h-23z" />
    <glyph glyph-name="uni20B6" unicode="&#x20bd;" horiz-adv-x="433" 
d="M289 667q71 0 107 -22q70 -43 70 -147q1 -104 -71 -164t-181 -52l-8 -63h110l-8 -68h-110l-19 -151h-130l19 151h-64l8 68h64l9 63h-64l10 90h63l37 295h158zM224 372h10q103 0 103 107q0 43 -14.5 62t-51.5 19h-23z" />
    <glyph glyph-name="uni20B6" unicode="&#x20bc;" horiz-adv-x="433" 
d="M289 667q71 0 107 -22q70 -43 70 -147q1 -104 -71 -164t-181 -52l-8 -63h110l-8 -68h-110l-19 -151h-130l19 151h-64l8 68h64l9 63h-64l10 90h63l37 295h158zM224 372h10q103 0 103 107q0 43 -14.5 62t-51.5 19h-23z" />
    <glyph glyph-name="uni20B6" unicode="&#x20bb;" horiz-adv-x="433" 
d="M289 667q71 0 107 -22q70 -43 70 -147q1 -104 -71 -164t-181 -52l-8 -63h110l-8 -68h-110l-19 -151h-130l19 151h-64l8 68h64l9 63h-64l10 90h63l37 295h158zM224 372h10q103 0 103 107q0 43 -14.5 62t-51.5 19h-23z" />
    <glyph glyph-name="uni20B6" unicode="&#x20ba;" horiz-adv-x="433" 
d="M289 667q71 0 107 -22q70 -43 70 -147q1 -104 -71 -164t-181 -52l-8 -63h110l-8 -68h-110l-19 -151h-130l19 151h-64l8 68h64l9 63h-64l10 90h63l37 295h158zM224 372h10q103 0 103 107q0 43 -14.5 62t-51.5 19h-23z" />
    <glyph glyph-name="uni20B6" unicode="&#x20b9;" horiz-adv-x="433" 
d="M289 667q71 0 107 -22q70 -43 70 -147q1 -104 -71 -164t-181 -52l-8 -63h110l-8 -68h-110l-19 -151h-130l19 151h-64l8 68h64l9 63h-64l10 90h63l37 295h158zM224 372h10q103 0 103 107q0 43 -14.5 62t-51.5 19h-23z" />
    <glyph glyph-name="uni20B6" unicode="&#x20b7;" horiz-adv-x="433" 
d="M289 667q71 0 107 -22q70 -43 70 -147q1 -104 -71 -164t-181 -52l-8 -63h110l-8 -68h-110l-19 -151h-130l19 151h-64l8 68h64l9 63h-64l10 90h63l37 295h158zM224 372h10q103 0 103 107q0 43 -14.5 62t-51.5 19h-23z" />
    <glyph glyph-name="uni20B8" unicode="&#x20b8;" horiz-adv-x="433" 
d="M421 527l-14 -112h-102l-51 -415h-130l51 415h-102l14 112h334zM426 575h-334l12 92h334z" />
    <glyph glyph-name="afii61352" unicode="&#x2116;" horiz-adv-x="783" 
d="M512 667l-82 -667h-122l-112 402q0 -57 -4 -86l-39 -316h-130l82 667h123l112 -403q-1 16 -1 48q0 29 2 44l39 311h132zM788 562q0 -50 -12.5 -92.5t-46.5 -74.5t-85 -32q-56 0 -81.5 35.5t-25.5 93.5q0 73 38 129t107 56q50 0 78 -32t28 -83zM749 307l-9 -80h-217l9 80
h217zM690 550q0 44 -18 44q-21 0 -30 -36.5t-9 -66.5q0 -45 20 -45q19 0 28 37t9 67z" />
    <glyph glyph-name="uni2117" unicode="&#x2117;" horiz-adv-x="762" 
d="M295 535h98q73 0 105 -31q31 -31 31 -87q0 -57 -30 -85q-30 -30 -95 -30h-19v-157h-90v390zM385 370h6q29 0 40 12q13 13 13 38t-11 36t-34 11h-14v-97zM741 333q0 -143 -101 -245q-101 -103 -246 -103t-246 103q-101 102 -101 245t101 245q101 103 246 103t246 -103
q101 -102 101 -245zM394 621q-110 0 -189 -76q-90 -87 -90 -211q0 -125 90 -212q79 -76 189 -76t189 76q90 87 90 212q0 124 -90 211q-79 76 -189 76z" />
    <glyph glyph-name="trademark" unicode="&#x2122;" horiz-adv-x="593" 
d="M598 667l-4 -380h-88l11 230l-73 -230h-66l-21 225l-38 -225h-92l83 380h110l11 -203l54 203h113zM265 667l-10 -76h-62l-38 -304h-86l38 304h-62l9 76h211z" />
    <glyph glyph-name="partialdiff" unicode="&#x2202;" 
d="M58 558l16 107q186 -21 284 -106q127 -111 127 -293q0 -119 -63.5 -197t-179.5 -78q-96 0 -163.5 66t-67.5 162q0 90 59 152t148 62q75 0 124 -49q-20 42 -35 60q-80 99 -249 114zM244 329h-10q-10 0 -31 -8q-31 -13 -48 -42t-17 -63q0 -48 30 -81t77 -33t76.5 34
t29.5 81t-30 79.5t-77 32.5z" />
    <glyph glyph-name="product" unicode="&#x220f;" horiz-adv-x="729" 
d="M692 -250h-286v111h80v778h-237v-778h79v-111h-286v111h83v778h-83v111h650v-111h-81v-778h81v-111z" />
    <glyph glyph-name="summation" unicode="&#x2211;" horiz-adv-x="667" 
d="M629 -250h-605v124l244 393l-244 360v123h596v-244h-111l-12 133h-334l250 -372l-250 -406h343l7 136h116v-247z" />
    <glyph glyph-name="minus" unicode="&#x2212;" 
d="M481 282h-434v115h434v-115z" />
    <glyph glyph-name="uni2215" unicode="&#x2215;" horiz-adv-x="470" 
d="M525 729l-477 -922h-110l480 922h107z" />
    <glyph glyph-name="uni2219" unicode="&#x2219;" horiz-adv-x="279" 
d="M248 345q0 -45 -34 -78.5t-79 -33.5q-37 0 -62.5 25.5t-25.5 62.5q0 45 34 79.5t79 34.5q39 0 63.5 -25.5t24.5 -64.5z" />
    <glyph glyph-name="radical" unicode="&#x221a;" horiz-adv-x="667" 
d="M706 716h-180l-171 -716h-163l-59 274h-93v111h194l21 -90q8 -35 15 -145h10q9 133 48 296l91 381h287v-111z" />
    <glyph glyph-name="infinity" unicode="&#x221e;" horiz-adv-x="667" 
d="M664 340q0 -71 -45 -117t-116 -46q-86 0 -153 82q-71 -81 -158 -81q-70 0 -115.5 45.5t-45.5 116.5q0 70 45.5 115.5t115.5 45.5q83 0 152 -81q67 81 157 81q72 0 117.5 -44.5t45.5 -116.5zM537 340q0 21 -16.5 36t-38.5 15q-35 0 -74 -52q37 -51 75 -51q22 0 38 15
t16 37zM286 339q-37 51 -74 51q-22 0 -38 -14.5t-16 -36.5t16 -36.5t38 -14.5q39 0 74 51z" />
    <glyph glyph-name="integral" unicode="&#x222b;" 
d="M451 740l-23 -110q-30 10 -55 10q-57 0 -57 -70v-554q0 -7 0.5 -33.5t0 -38.5t-2 -35.5t-5 -38t-10.5 -32t-17 -30.5q-46 -58 -138 -58q-41 0 -89 10l22 110q30 -10 55 -10t38.5 12.5t16 27.5t2.5 42v50v558q0 59 11 96q16 53 59.5 78.5t101.5 25.5q30 0 90 -10z" />
    <glyph glyph-name="approxequal" unicode="&#x2248;" 
d="M436 523l70 -41q-30 -63 -65 -97t-93 -34q-32 0 -93.5 25.5t-91.5 25.5q-28 0 -43.5 -15t-31.5 -47l-68 45q14 33 24.5 52.5t28 41t41.5 32t56 10.5q34 0 96.5 -25.5t95.5 -25.5q27 0 42.5 13t31.5 40zM436 324l70 -41q-30 -63 -65 -97t-93 -34q-32 0 -95 26t-90 26
q-28 0 -44 -16.5t-31 -46.5l-68 45q14 33 24.5 52.5t28 41t41.5 32t56 10.5q36 0 100 -25.5t92 -25.5q44 0 74 53z" />
    <glyph glyph-name="notequal" unicode="&#x2260;" 
d="M478 177h-241l-49 -98h-97l48 98h-94v111h144l35 69h-179v111h230l54 108h97l-53 -108h105v-111h-156l-35 -69h191v-111z" />
    <glyph glyph-name="lessequal" unicode="&#x2264;" 
d="M467 146l-433 206v104l433 206v-115l-303 -143l303 -143v-115zM467 6h-433v111h433v-111z" />
    <glyph glyph-name="greaterequal" unicode="&#x2265;" 
d="M480 352l-434 -206v115l303 143l-302 143l-1 115l434 -207v-103zM480 6h-434v111h434v-111z" />
    <glyph glyph-name="dotmath" unicode="&#x22c5;" horiz-adv-x="279" 
d="M248 345q0 -45 -34 -78.5t-79 -33.5q-37 0 -62.5 25.5t-25.5 62.5q0 45 34 79.5t79 34.5q39 0 63.5 -25.5t24.5 -64.5z" />
    <glyph glyph-name="lozenge" unicode="&#x25ca;" horiz-adv-x="667" 
d="M606 334l-260 -360l-259 360l259 359zM462 334l-116 158l-115 -158l115 -159z" />
    <glyph glyph-name="openbullet" unicode="&#x25e6;" 
d="M438 511q0 -63 -45 -106.5t-108 -43.5t-108 43.5t-45 106.5t45 106.5t108 43.5t108 -43.5t45 -106.5zM364 511q0 32 -23.5 55t-55.5 23q-33 0 -56 -22.5t-23 -55.5t23 -55t56 -22q32 0 55.5 22.5t23.5 54.5z" />
    <glyph glyph-name="uniF400" unicode="&#xf400;" horiz-adv-x="2" 
d="M-39 639l-127 -122l-56 36l100 128z" />
    <glyph glyph-name="uniF401" unicode="&#xf401;" horiz-adv-x="2" 
d="M-216 747l94 128l81 -50l-114 -114z" />
    <glyph glyph-name="uniF406" unicode="&#xf406;" 
d="M367 838h66q-8 -48 -43 -83q-38 -37 -102 -37q-55 0 -84 30q-31 31 -31 90h66q2 -18 13 -29q14 -13 44 -13q37 0 52 13q12 9 19 29z" />
    <glyph glyph-name="uniF407" unicode="&#xf407;" horiz-adv-x="502" 
d="M302 -77l-109 -128l-60 36l79 127z" />
    <glyph glyph-name="uniF408" unicode="&#xf408;" 
d="M418 779l-60 -55l-66 62l-84 -62l-41 62l137 100z" />
    <glyph glyph-name="uniF409" unicode="&#xf409;" horiz-adv-x="193" 
d="M224 -46l-87 -168h-70l53 168h104z" />
    <glyph glyph-name="uniF40A" unicode="&#xf40a;" horiz-adv-x="200" 
d="M231 667l-100 -198h-70l66 198h104z" />
    <glyph glyph-name="uniF40B" unicode="&#xf40b;" 
d="M360 798q0 -30 -22.5 -52t-52.5 -22q-25 0 -41 16.5t-16 41.5q0 30 22 52.5t52 22.5q25 0 41.5 -17t16.5 -42z" />
    <glyph glyph-name="uniF40C" unicode="&#xf40c;" horiz-adv-x="503" 
d="M203 810q0 40 28 68t68 28t68 -28t28 -68t-28 -68t-68 -28t-68 28t-28 68zM258 810q0 -18 11.5 -29.5t29.5 -11.5t29.5 11.5t11.5 29.5t-11.5 29.5t-29.5 11.5t-29.5 -11.5t-11.5 -29.5z" />
    <glyph glyph-name="uniF40D" unicode="&#xf40d;" 
d="M377 846l64 -4q-9 -34 -17.5 -55.5t-30.5 -42t-52 -20.5q-21 0 -55 15.5t-47 15.5q-22 0 -31 -28h-64q6 25 11.5 41.5t16.5 36.5t28.5 30t40.5 10q22 0 53.5 -17t47.5 -17q6 0 10.5 1.5t7.5 3t6 6.5t3.5 6.5t3.5 9t4 8.5z" />
    <glyph glyph-name="uniF40E" unicode="&#xf40e;" 
d="M350 -97l-23 -71q-20 -17 -48 -17q-31 0 -54 19.5t-23 49.5q0 63 87 116h58q-65 -42 -65 -79q0 -15 10.5 -25t25.5 -10t32 17z" />
    <glyph glyph-name="uniF4C6" unicode="&#xf4c6;" horiz-adv-x="468" 
d="M88 667h130l-20 -165q-4 -28 -4 -42q0 -27 16 -41q16 -13 46 -13q28 0 53 10l31 251h130l-81 -657q-7 -60 -21 -100.5t-48 -71.5q-47 -44 -117 -44q-53 0 -92 21l16 132q23 -37 64 -37q24 0 42 16q18 18 26 84l35 282q-35 -11 -74 -11q-82 0 -125 41q-35 34 -35 92
q0 28 6 74z" />
    <glyph glyph-name="uniF4C7" unicode="&#xf4c7;" horiz-adv-x="383" 
d="M214 184q-27 -10 -59 -10q-63 0 -93 30q-27 27 -27 74q0 17 4 47l15 122h122l-16 -124q0 -1 -0.5 -5.5t-0.5 -7.5q0 -16 8 -24q9 -8 28 -8q15 0 31 7l20 162h124l-62 -505q-9 -72 -45 -109q-38 -39 -106 -39q-33 0 -63 11l14 110q12 -9 30 -9q19 0 31 11q14 13 19 59z
" />
    <glyph glyph-name="uniF4CC" unicode="&#xf4cc;" horiz-adv-x="442" 
d="M60 667h138l33 -165q17 -87 20 -128q17 56 41 124l62 169h142l-284 -667h-132l96 230zM227 747l94 128l81 -50l-114 -114z" />
    <glyph glyph-name="uniF4CD" unicode="&#xf4cd;" horiz-adv-x="359" 
d="M389 447l-266 -653h-120l93 215l-74 438h123l22 -163q8 -60 9 -92l89 255h124zM357 639l-127 -122l-56 36l100 128z" />
    <glyph glyph-name="dollar.fitted" unicode="&#xf5f5;" horiz-adv-x="456" 
d="M443 594l-81 -79q-42 50 -94 50q-37 0 -60 -21.5t-23 -57.5q0 -18 10 -32t21 -20.5t31 -15.5q38 -18 56 -27t45.5 -27t40 -35t22.5 -43.5t10 -58.5q0 -86 -53.5 -154t-135.5 -84l-10 -80h-72l10 80q-48 8 -83 25t-67 53l73 98q21 -23 35 -34.5t36.5 -21.5t48.5 -10
q41 0 67.5 26.5t26.5 67.5q0 22 -12.5 38.5t-26.5 25t-44 23.5q-38 18 -58.5 30.5t-46.5 34t-38 49t-12 63.5q0 86 55 148.5t130 71.5l9 74h72l-9 -74q76 -11 127 -83z" />
    <glyph glyph-name="Euro.fitted" unicode="&#xf5f6;" horiz-adv-x="508" 
d="M417 155l-19 -138q-48 -24 -101 -24q-83 0 -133 53q-67 70 -67 202h-88l37 68h54l9 55h-81l37 68h62q31 103 98 166q72 69 179 69q45 0 84 -19l-19 -139q-31 32 -73 32q-43 0 -79 -35q-28 -26 -48 -74h194l-37 -68h-177q-6 -24 -10 -55h158l-37 -68h-123q0 -59 28 -95
q25 -33 67 -33q47 0 85 35z" />
    <glyph glyph-name="cent.fitted" unicode="&#xf5f7;" horiz-adv-x="286" 
d="M273 554l-14 -112q-17 13 -31 13q-41 0 -64 -54t-23 -102q0 -82 54 -82q19 0 38 11l-14 -112q-29 -16 -48 -17l-10 -76h-72l11 80q-26 8 -45 34q-43 49 -43 129q0 57 13.5 115.5t47 111t81.5 68.5l12 92h72l-10 -86q25 -4 45 -13z" />
    <glyph glyph-name="sterling.fitted" unicode="&#xf5f8;" horiz-adv-x="474" 
d="M450 514l-116 -33q2 12 2 27q0 33 -15 48q-13 13 -38 13q-30 0 -46 -19q-20 -23 -20 -71q0 -27 15 -111h112l-10 -80h-93q7 -23 7 -44q0 -65 -45 -117q26 -5 56 -21q28 -15 54 -15q37 0 61 35l67 -54q-25 -39 -50 -58q-33 -25 -80 -25q-35 0 -87 18q-61 21 -87 21
q-37 0 -78 -28l-43 71q45 32 82 43q30 47 30 105q0 37 -13 69h-85l10 80h60q-13 53 -13 105q0 96 58 152q53 52 147 52q81 0 122 -42q37 -38 37 -101q0 -13 -1 -20z" />
    <glyph glyph-name="yen.fitted" unicode="&#xf5f9;" horiz-adv-x="499" 
d="M489 667l-128 -228h80l-9 -68h-109l-30 -52h133l-8 -68h-133l-31 -251h-131l31 251h-137l8 68h138l-18 52h-113l8 68h83l-75 228h143l44 -175q1 -5 3.5 -18.5t4.5 -20.5q5 13 17 39l83 175h146z" />
    <glyph glyph-name="florin.fitted" unicode="&#xf5fa;" horiz-adv-x="427" 
d="M420 728l-23 -118q-12 6 -25 6q-7 0 -13.5 -2.5t-10.5 -7.5t-7 -9.5t-5.5 -13.5t-3.5 -13t-3 -13.5t-2 -11.5l-19 -98h70l-13 -68h-70l-53 -262q-2 -9 -7.5 -40t-8.5 -44t-10.5 -40t-15 -40.5t-20.5 -33t-28 -29t-36.5 -16.5t-47.5 -7q-25 0 -61 9l23 118q14 -7 27 -7
q7 0 12.5 2t10 6.5t7.5 8t5.5 11.5t4 11.5t4 12.5t2.5 11q5 20 16 76l50 253h-66l13 68h66q20 97 26 128q17 88 46 121q38 44 106 44q28 0 60 -12z" />
    <glyph glyph-name="uni20B4.fitted" unicode="&#xf5fb;" horiz-adv-x="453" 
d="M118 516l16 129q63 32 116 32q78 0 119 -44q39 -42 39 -110q0 -48 -26 -84h54l-8 -68h-102l-58 -55h153l-9 -68h-204q-35 -34 -35 -81q0 -24 14 -38q16 -16 48 -16q56 0 109 36l-15 -126q-55 -34 -128 -34q-76 0 -118 43q-42 46 -42 111q0 58 40 105h-63l9 68h107l58 55
h-158l8 68h208q27 25 27 66q0 23 -14 38q-16 16 -42 16q-52 0 -103 -43z" />
    <glyph glyph-name="uni20B6.fitted" unicode="&#xf5fc;" horiz-adv-x="491" 
d="M303 667q71 0 107 -22q70 -43 70 -147q1 -104 -71 -164t-181 -52l-8 -63h110l-8 -68h-110l-19 -151h-130l19 151h-64l8 68h64l9 63h-64l10 90h63l37 295h158zM238 372h10q103 0 103 107q0 43 -14.5 62t-51.5 19h-23z" />
    <glyph glyph-name="uni20B8.fitted" unicode="&#xf5fd;" horiz-adv-x="393" 
d="M367 527l-14 -112h-102l-51 -415h-130l51 415h-102l14 112h334zM372 575h-334l12 92h334z" />
    <glyph glyph-name="uniF639" unicode="&#xf639;" horiz-adv-x="423" 
d="M402 432q0 -81 -18 -171.5t-51 -152.5q-64 -119 -165 -119q-147 0 -147 239q0 102 20 191q10 44 26 85.5t41.5 82t63.5 65.5t83 25q147 0 147 -245zM280 458q0 101 -42 101q-13 0 -24 -9.5t-19 -27.5t-14 -36t-11 -44t-7.5 -42t-5.5 -38.5t-4 -26.5q-11 -75 -11 -124
q0 -100 42 -100q13 0 24 9.5t19.5 27.5t14.5 35.5t11 44t7.5 42t6 39t3.5 26.5q10 68 10 123z" />
    <glyph glyph-name="uniF63A" unicode="&#xf63a;" horiz-adv-x="455" 
d="M196 435h-120q3 54 13 94.5t31.5 75.5t60.5 53.5t95 18.5q158 0 158 -143q0 -87 -65 -187q-2 -4 -13.5 -20.5t-17.5 -25.5q-40 -62 -118 -186h152l-14 -115h-344q189 287 191 291q30 46 47.5 74.5t37 75.5t19.5 82q0 62 -43 62q-63 0 -70 -150z" />
    <glyph glyph-name="uniF63B" unicode="&#xf63b;" horiz-adv-x="429" 
d="M196 479h-113q9 80 32 120q45 78 147 78q66 0 106 -36.5t40 -102.5q0 -148 -103 -193q83 -26 83 -129q0 -99 -60.5 -163t-158.5 -64q-70 0 -112 38t-42 107q0 22 4 41h121q-4 -20 -4 -32q0 -22 11 -36t32 -14q27 0 44 26.5t22 54.5t5 55q0 41 -22 52.5t-67 11.5l13 112
q64 0 86 22q27 27 27 92q0 49 -38 49q-47 0 -53 -89z" />
    <glyph glyph-name="uniF63C" unicode="&#xf63c;" horiz-adv-x="411" 
d="M390 271l-14 -114h-54l-20 -157h-125l19 157h-190l12 103l224 407h142l-48 -396h54zM240 515l-126 -244h96z" />
    <glyph glyph-name="uniF63D" unicode="&#xf63d;" horiz-adv-x="436" 
d="M418 667l-14 -114h-160l-31 -109q58 -5 90 -21q82 -41 82 -155q0 -121 -64.5 -200t-183.5 -79q-61 0 -123 31l36 115q35 -32 77 -32q54 0 86 43t32 99q0 50 -32 74t-84 24q-24 0 -54 -5l92 329h251z" />
    <glyph glyph-name="uniF63E" unicode="&#xf63e;" horiz-adv-x="404" 
d="M345 667l-157 -263q45 37 87 37q56 0 83.5 -48t27.5 -108q0 -51 -12.5 -101t-37 -94.5t-67.5 -72.5t-97 -28q-79 0 -118 50.5t-39 131.5q0 37 6 74.5t20 78t25.5 70t36.5 74t37 66t41.5 70.5t38.5 63h125zM255 248q0 76 -40 76q-24 0 -41.5 -28t-24 -58.5t-6.5 -54.5
q0 -80 40 -80q26 0 43.5 29t23 59.5t5.5 56.5z" />
    <glyph glyph-name="uniF63F" unicode="&#xf63f;" horiz-adv-x="484" 
d="M480 667l-329 -667h-134l271 552h-176l14 115h354z" />
    <glyph glyph-name="uniF640" unicode="&#xf640;" horiz-adv-x="433" 
d="M411 524q0 -44 -20 -84q-15 -31 -35 -49t-53 -32q53 -23 73.5 -54.5t20.5 -89.5q0 -93 -60.5 -159.5t-153.5 -66.5q-72 0 -119 46t-47 118q0 98 55 157q25 27 82 49q-73 33 -73 120q0 80 54 139t133 59q67 0 105 -42.5t38 -110.5zM283 525q0 48 -30 48q-26 0 -37 -30
t-11 -61q0 -55 30 -55q25 0 36.5 33.5t11.5 64.5zM264 217q0 78 -44 78q-24 0 -40.5 -23t-22 -48.5t-5.5 -49.5q0 -71 45 -71q31 0 49 39t18 75z" />
    <glyph glyph-name="uniF641" unicode="&#xf641;" horiz-adv-x="404" 
d="M58 0l157 262q-44 -37 -86 -37q-57 0 -84 48t-27 109q0 70 20.5 134.5t71 112.5t122.5 48q78 0 117.5 -50.5t39.5 -130.5q0 -44 -10.5 -92t-21 -81.5t-39.5 -89.5t-40 -75.5t-50 -83.5t-45 -74h-125zM260 484q0 79 -40 79q-36 0 -54 -49.5t-18 -94.5q0 -77 40 -77
q25 0 42.5 28t23.5 58.5t6 55.5z" />
    <glyph glyph-name="uniF6BA" unicode="&#xf6ba;" horiz-adv-x="268" 
d="M213 284h-168l14 108h168z" />
    <glyph glyph-name="uniF6BB" unicode="&#xf6bb;" horiz-adv-x="574" 
d="M500 288h-434l12 100h434z" />
    <glyph glyph-name="uniF6BC" unicode="&#xf6bc;" horiz-adv-x="820" 
d="M758 388l-12 -100h-680l12 100h680z" />
    <glyph glyph-name="uniF6C3" unicode="&#xf6c3;" horiz-adv-x="182" 
d="M213 -46l-91 -182h-70l58 182h103z" />
    <glyph glyph-name="uniF6C9" unicode="&#xf6c9;" 
d="M247 747l94 128l81 -50l-114 -114z" />
    <glyph glyph-name="uniF6CA" unicode="&#xf6ca;" 
d="M424 824l-137 -100l-114 107l60 55l66 -62l84 62z" />
    <glyph glyph-name="uniF6CB" unicode="&#xf6cb;" horiz-adv-x="474" 
d="M433 797q0 -30 -22.5 -51.5t-52.5 -21.5q-24 0 -40 17t-16 41q0 29 22 51.5t51 22.5q25 0 41.5 -17t16.5 -42zM260 797q0 -29 -22.5 -51t-51.5 -22q-25 0 -41 16.5t-16 41.5q0 29 22 51.5t51 22.5q25 0 41.5 -17t16.5 -42z" />
    <glyph glyph-name="uniF6CE" unicode="&#xf6ce;" 
d="M338 747l-65 -36l-100 114l87 50z" />
    <glyph glyph-name="uniF6CF" unicode="&#xf6cf;" 
d="M471 846l-99 -122l-51 36l74 128zM336 846l-100 -122l-51 36l74 128z" />
    <glyph glyph-name="uniF6D0" unicode="&#xf6d0;" 
d="M438 818l-10 -80h-282l10 80h282z" />
    <glyph glyph-name="uniF6D1" unicode="&#xf6d1;" horiz-adv-x="359" 
d="M258 852l103 -29q-21 -61 -69 -90q-41 -25 -105 -25q-69 0 -108 29q-43 31 -56 87l103 28q6 -25 20 -39q17 -16 45 -16t43 13q16 13 24 42z" />
    <glyph glyph-name="uniF6D4" unicode="&#xf6d4;" horiz-adv-x="314" 
d="M213 642l88 -29q-14 -47 -52 -76q-36 -27 -93 -27q-59 0 -94 25q-40 29 -51 78l87 29q3 -25 19 -39q13 -13 39 -13q20 0 36 13q16 14 21 39z" />
    <glyph glyph-name="uniF6DC" unicode="&#xf6dc;" horiz-adv-x="248" 
d="M235 667l-82 -667h-127l68 551h-62l14 116h189z" />
    <glyph glyph-name="uniF6DE" unicode="&#xf6de;" horiz-adv-x="615" 
d="M568 295l-9 -100h-510l9 100h510z" />
    <glyph glyph-name="nbspace" horiz-adv-x="233" 
 />
    <glyph glyph-name="hyphenminus" horiz-adv-x="268" 
d="M213 191h-168l14 108h168z" />
    <glyph glyph-name="dotlessi1" horiz-adv-x="203" 
d="M190 447l-55 -447h-124l55 447h124z" />
    </font>
</defs>
</svg>
