<?xml version="1.0" standalone="no"?>
<!DOCTYPE svg PUBLIC "-//W3C//DTD SVG 1.1//EN" "http://www.w3.org/Graphics/SVG/1.1/DTD/svg11.dtd" >
<svg xmlns="http://www.w3.org/2000/svg" xmlns:xlink="http://www.w3.org/1999/xlink" version="1.1">
<metadata>
Created by FontForge 20170731 at Fri Mar 29 22:15:57 2013
 By Aleksey,,,
Copyright (c) 1995 ParaGraph Intl., (c) 1998 ParaType Inc., ParaType Ltd. All rights reserved.
</metadata>
<defs>
<font id="FuturaPT-MediumObl" horiz-adv-x="500" >
  <font-face 
    font-family="Futura PT Medium Italic"
    font-weight="400"
    font-style="italic"
    font-stretch="normal"
    units-per-em="1000"
    panose-1="2 11 6 2 2 2 4 9 3 3"
    ascent="763"
    descent="-237"
    x-height="421"
    cap-height="667"
    bbox="-302 -300 1188 955"
    underline-thickness="50"
    underline-position="-200"
    slope="-7"
    unicode-range="U+0020-FB02"
  />
<missing-glyph horiz-adv-x="233" 
 />
    <glyph glyph-name="afii10017.var.accented" unicode="&#x410;`" horiz-adv-x="656" 
d="M544 0l-50 161h-285l-93 -161h-112l419 706l229 -706h-108zM263 257h202l-72 226zM401 727l-43 40l155 139l79 -60z" />
    <glyph glyph-name="afii10022.var.accented" unicode="&#x415;`" 
d="M530 667l-12 -96h-266l-20 -169h258l-12 -96h-258l-26 -210h266l-12 -96h-368l82 667h368zM323 727l-43 40l155 139l79 -60z" />
    <glyph glyph-name="afii10026.var.accented" unicode="&#x418;`" horiz-adv-x="712" 
d="M530 0l55 449l-509 -479l86 697h102l-55 -451l508 479l-85 -695h-102zM429 727l-43 40l155 139l79 -60z" />
    <glyph glyph-name="afii10032.var.accented" unicode="&#x41e;`" horiz-adv-x="796" 
d="M478 679q138 0 225 -87q86 -85 86 -226q0 -169 -105 -276q-102 -103 -275 -103q-148 0 -231 86q-89 91 -89 227q0 79 29 151.5t80 122.5q105 105 280 105zM410 81q124 0 196 72q38 37 59.5 92.5t21.5 114.5q0 95 -60 157q-66 68 -169 68q-110 0 -185 -74
q-83 -81 -83 -204q0 -98 62 -162q60 -64 158 -64zM471 727l-43 40l155 139l79 -60z" />
    <glyph glyph-name="afii10037.var.accented" unicode="&#x423;`" horiz-adv-x="559" 
d="M88 667h109l135 -361l197 361h106l-374 -667h-106l113 203zM348 727l-43 40l155 139l79 -60z" />
    <glyph glyph-name="afii10045.var.accented" unicode="&#x42b;`" horiz-adv-x="740" 
d="M640 667h102l-82 -667h-102zM80 0l83 667h101l-33 -269h70q105 0 161 -51q52 -47 52 -127q0 -103 -57 -160q-38 -38 -86 -49t-112 -11h-78h-101zM219 302l-25 -206h72q86 0 118 33q29 29 29 81q0 44 -34 70q-31 22 -99 22h-61zM443 727l-43 40l155 139l79 -60z" />
    <glyph glyph-name="afii10047.var.accented" unicode="&#x42d;`" horiz-adv-x="621" 
d="M107 511l14 120q82 48 190 48q143 0 223 -80t80 -222q0 -75 -25 -156t-86 -142q-91 -92 -256 -92q-104 0 -194 52l14 119q70 -77 186 -77q106 0 169 60q59 56 78 149h-330l12 96h328q-3 92 -64 149q-54 50 -145 50q-116 0 -194 -74zM313 727l-43 40l155 139l79 -60z" />
    <glyph glyph-name="afii10048.var.accented" unicode="&#x42e;`" horiz-adv-x="1007" 
d="M231 402h102q25 104 97 174q103 103 262 103q137 0 222 -85q86 -86 86 -227q0 -172 -105 -278q-101 -102 -260 -102q-140 0 -226 86q-89 89 -89 233h-100l-38 -306h-102l82 667h102zM644 81q102 0 173 72q81 81 81 209q0 92 -60 156q-64 67 -159 67q-104 0 -178 -74
q-80 -80 -80 -201q0 -102 60 -165q61 -64 163 -64zM576 727l-43 40l155 139l79 -60z" />
    <glyph glyph-name="afii10049.var.accented" unicode="&#x42f;`" horiz-adv-x="534" 
d="M20 0l232 278q-60 13 -97 53q-42 45 -42 116q0 93 49 148q63 72 210 72h164l-82 -667h-102l33 267h-24l-215 -267h-126zM422 573h-52q-94 0 -130 -36q-28 -28 -28 -79q0 -40 23 -63q34 -34 118 -34h43zM340 727l-43 40l155 139l79 -60z" />
    <glyph glyph-name="afii10023.var.accented" unicode="&#x401;`" 
d="M530 667l-12 -96h-266l-20 -169h258l-12 -96h-258l-26 -210h266l-12 -96h-368l82 667h368zM298 732l-34 35l129 139l67 -53zM146 795q0 25 19 44q18 18 45 18q22 0 35 -13q14 -16 14 -37q0 -25 -19 -44q-17 -17 -44 -17q-23 0 -35 13q-15 15 -15 36zM451 795q0 25 19 44
q17 18 45 18q21 0 34 -13q15 -17 15 -37q0 -25 -19 -44q-17 -17 -44 -17q-23 0 -35 13q-15 15 -15 36z" />
    <glyph glyph-name="afii10065.var.accented" unicode="&#x430;`" horiz-adv-x="532" 
d="M418 372l6 49h98l-52 -421h-98l5 44q-28 -30 -56 -42q-35 -15 -77 -15q-72 0 -120 46q-58 56 -58 152q0 115 73 188q59 59 154 59q44 0 77 -18q28 -15 48 -42zM298 344q-49 0 -84 -33q-47 -45 -47 -118q0 -53 33 -88q28 -30 71 -30q55 0 92 37q43 45 43 115q0 56 -33 89
q-28 28 -75 28zM424 675l84 -46l-173 -144l-50 34z" />
    <glyph glyph-name="afii10070.var.accented" unicode="&#x435;`" horiz-adv-x="489" 
d="M377 142l77 -46q-30 -50 -78 -79q-51 -30 -118 -30q-83 0 -135 53q-57 57 -57 150q0 109 73 180q64 62 154 62q80 0 127 -49q52 -54 52 -147q0 -25 -5 -49h-301q0 -52 31 -85q25 -27 69 -27q37 0 67 19q27 18 44 48zM181 267h196q-5 37 -25 58q-21 23 -61 23t-71 -25
q-25 -20 -39 -56zM402 675l84 -46l-173 -144l-50 34z" />
    <glyph glyph-name="afii10074.var.accented" unicode="&#x438;`" horiz-adv-x="510" 
d="M114 421h98l-30 -239l322 277l-56 -459h-98l30 245l-322 -277zM413 675l84 -46l-173 -144l-50 34z" />
    <glyph glyph-name="afii10080.var.accented" unicode="&#x43e;`" horiz-adv-x="534" 
d="M313 432q94 0 150 -56q57 -59 57 -146q0 -107 -73 -178q-68 -65 -173 -65q-94 0 -150 57q-58 60 -58 147q0 106 73 176q68 65 174 65zM287 75q56 0 93 40q40 43 40 109q0 54 -33 88q-31 32 -80 32q-58 0 -95 -35q-46 -43 -46 -110q0 -51 31 -87q34 -37 90 -37zM425 675
l84 -46l-173 -144l-50 34z" />
    <glyph glyph-name="afii10085.var.accented" unicode="&#x443;`" horiz-adv-x="482" 
d="M3 -229l200 307l-145 343h116l95 -237l147 237h112l-415 -650h-110zM399 675l84 -46l-173 -144l-50 34z" />
    <glyph glyph-name="afii10093.var.accented" unicode="&#x44b;`" horiz-adv-x="581" 
d="M421 0l52 421h98l-52 -421h-98zM62 0l51 421h99l-19 -149h53q76 0 115 -37q34 -34 34 -86q0 -66 -42 -106q-45 -43 -138 -43h-57h-96zM170 84h46q41 0 61 15q19 15 19 42q0 26 -21 38q-15 9 -48 9h-44zM448 675l84 -46l-173 -144l-50 34z" />
    <glyph glyph-name="afii10095.var.accented" unicode="&#x44d;`" horiz-adv-x="429" 
d="M76 314l11 93q55 25 119 25q101 0 157 -58q52 -53 52 -143q0 -114 -71 -183q-62 -61 -174 -61q-72 0 -129 26l12 93q52 -31 114 -31q57 0 90 25q35 27 43 74h-195l11 82h192q-8 46 -42 68q-31 20 -76 20q-58 0 -114 -30zM312 675l84 -46l-173 -144l-50 34z" />
    <glyph glyph-name="afii10096.var.accented" unicode="&#x44e;`" horiz-adv-x="702" 
d="M193 265h67q16 70 72 115q63 52 155 52q86 0 142 -52q59 -55 59 -147q0 -111 -70 -181q-65 -65 -171 -65q-108 0 -161 67q-40 51 -40 121h-65l-21 -175h-98l52 421h98zM480 344q-55 0 -92 -35q-21 -21 -33 -54.5t-12 -65.5q0 -52 28 -83t81 -31q58 0 92 37q44 47 44 122
q0 53 -31 82q-28 28 -77 28zM509 675l84 -46l-173 -144l-50 34z" />
    <glyph glyph-name="afii10097.var.accented" unicode="&#x44f;`" horiz-adv-x="411" 
d="M8 0l146 167q-37 6 -61 30q-28 27 -28 78q0 65 36 102q43 44 145 44h155l-52 -421h-98l19 155h-16l-127 -155h-119zM280 235l12 102h-57q-40 0 -57 -10q-25 -14 -25 -47q0 -25 19 -36q14 -9 50 -9h58zM363 675l84 -46l-173 -144l-50 34z" />
    <glyph glyph-name="afii10071.var.accented" unicode="&#x451;`" horiz-adv-x="489" 
d="M377 142l77 -46q-30 -50 -78 -79q-51 -30 -118 -30q-83 0 -135 53q-57 57 -57 150q0 109 73 180q64 62 154 62q80 0 127 -49q52 -54 52 -147q0 -25 -5 -49h-301q0 -52 31 -85q25 -27 69 -27q37 0 67 19q27 18 44 48zM181 267h196q-5 37 -25 58q-21 23 -61 23t-71 -25
q-25 -20 -39 -56zM314 675l67 -38l-157 -146l-39 28zM84 568q0 24 19 43q20 20 45 20q19 0 35 -14q14 -13 14 -35q0 -25 -18 -43q-20 -20 -42 -20q-23 0 -39 15q-14 14 -14 34zM359 568q0 22 19 43q19 20 46 20q20 0 34 -14t14 -35q0 -25 -18 -43q-20 -20 -42 -20
q-24 0 -39 15q-14 14 -14 34z" />
    <glyph glyph-name="fi" unicode="fi" horiz-adv-x="467" 
d="M309 331h-106l-41 -331h-98l41 331h-34l11 90h34l16 126q6 53 16.5 86t35.5 59q47 49 132 49q81 0 122 -39q40 -38 40 -111q0 -19 -4 -59h-99q4 26 4 48q0 35 -16 50q-17 17 -50 17q-37 0 -56 -21q-19 -20 -28 -89l-15 -116h106zM362 421h98l-52 -421h-98z" />
    <glyph glyph-name="fl" unicode="fl" horiz-adv-x="468" 
d="M309 331h-106l-41 -331h-98l41 331h-34l11 90h34l16 126q13 104 52 145q47 49 134 49q81 0 123 -43q37 -37 37 -105q0 -22 -5 -62l-65 -531h-98l64 525q5 45 5 56q0 32 -16 48q-18 18 -50 18q-35 0 -56 -21q-19 -20 -28 -89l-15 -116h106z" />
    <glyph glyph-name=".notdef" horiz-adv-x="233" 
 />
    <glyph glyph-name=".null" horiz-adv-x="0" 
 />
    <glyph glyph-name="nonmarkingreturn" horiz-adv-x="333" 
 />
    <glyph glyph-name="space" unicode=" " horiz-adv-x="233" 
 />
    <glyph glyph-name="exclam" unicode="!" horiz-adv-x="254" 
d="M197 165h-98l62 502h98zM72 42q0 26 18 46t49 20q24 0 39 -15q16 -15 16 -40q0 -27 -20 -47q-18 -18 -46 -18q-26 0 -40 14q-16 15 -16 40z" />
    <glyph glyph-name="quotedbl" unicode="&#x22;" horiz-adv-x="366" 
d="M238 667l-51 -268h-72l15 268h108zM400 667l-51 -268h-72l15 268h108z" />
    <glyph glyph-name="numbersign" unicode="#" horiz-adv-x="600" 
d="M407 0h-98l55 196h-114l-55 -196h-98l55 196h-108l25 88h108l32 112h-108l24 88h108l52 183h98l-52 -183h114l52 183h98l-52 -183h108l-24 -88h-108l-32 -112h108l-25 -88h-108zM389 284l32 112h-114l-32 -112h114z" />
    <glyph glyph-name="dollar" unicode="$" horiz-adv-x="568" 
d="M546 567l-88 -48q-8 30 -30 47q-25 19 -67 19q-45 0 -75 -26q-28 -25 -28 -60q0 -29 24 -51q7 -7 16 -12.5t14.5 -8t17.5 -7.5t17 -7l54 -24q55 -24 84 -61q35 -43 35 -109q0 -100 -61 -165q-54 -57 -134 -64l-13 -100h-74l13 99q-59 6 -100 45q-59 57 -62 150l103 22
q0 -61 23 -90q28 -35 77 -35q60 0 95 40q30 35 30 87q0 34 -26 62q-19 20 -68 42l-51 23q-52 24 -79 53q-37 42 -37 98q0 73 53 129q51 53 126 62l10 88h74l-10 -89q46 -7 82 -34q39 -28 55 -75z" />
    <glyph glyph-name="percent" unicode="%" horiz-adv-x="810" 
d="M193 18l462 660l44 -27l-462 -662zM644 307q68 0 112 -44q40 -40 40 -102q0 -73 -50 -123q-46 -45 -119 -45q-72 0 -114 42t-42 104q0 66 50 118q48 50 123 50zM629 65q39 0 62 25q27 27 27 69q0 36 -24 57q-21 19 -53 19q-40 0 -64 -26q-26 -26 -26 -67q0 -34 22 -56
q21 -21 56 -21zM268 673q68 0 112 -44q40 -42 40 -102q0 -73 -50 -122q-47 -46 -120 -46q-71 0 -113 42t-42 104q0 66 50 118q48 50 123 50zM253 431q39 0 62 25q27 27 27 69q0 36 -24 57q-21 19 -53 19q-40 0 -64 -26q-26 -26 -26 -67q0 -34 22 -56q21 -21 56 -21z" />
    <glyph glyph-name="ampersand" unicode="&#x26;" horiz-adv-x="646" 
d="M575 313l57 -68l-90 -91l104 -154h-124l-56 82q-45 -43 -83 -64q-56 -31 -124 -31q-85 0 -135 50q-49 49 -49 126q0 82 59 143q25 25 96 68l21 13l-21 32q-30 46 -30 97q0 66 45 113q48 50 132 50q64 0 105 -40q40 -38 40 -101q0 -47 -28 -84q-20 -26 -69 -59l-36 -24
l100 -144zM414 154l-112 160q-55 -26 -85 -55q-42 -41 -42 -94q0 -36 25 -63q27 -29 67 -29q39 0 79 25q38 24 68 56zM338 442l36 23q26 16 40 36q13 19 13 41q0 25 -19 40q-16 13 -40 13q-32 0 -53 -21q-18 -18 -18 -47q0 -28 16 -49z" />
    <glyph glyph-name="quotesingle" unicode="'" horiz-adv-x="204" 
d="M238 667l-51 -268h-72l15 268h108z" />
    <glyph glyph-name="parenleft" unicode="(" horiz-adv-x="329" 
d="M249 -142l-95 -35q-50 153 -50 304q0 204 64 393q40 118 99 220l86 -35q-57 -115 -88 -208q-60 -177 -60 -349q0 -152 44 -290z" />
    <glyph glyph-name="parenright" unicode=")" horiz-adv-x="329" 
d="M146 705l94 35q52 -148 52 -290q0 -209 -66 -410q-40 -123 -99 -217l-85 35q53 94 89 205q60 189 60 384q0 118 -45 258z" />
    <glyph glyph-name="asterisk" unicode="*" horiz-adv-x="550" 
d="M216 655l101 -45l9 119h78l-24 -118l114 44l15 -72l-118 -28l61 -90l-66 -47l-51 97l-77 -97l-54 47l87 88l-110 28z" />
    <glyph glyph-name="plus" unicode="+" 
d="M75 291v90h170v170h94v-170h170v-90h-170v-170h-94v170h-170z" />
    <glyph glyph-name="comma" unicode="," horiz-adv-x="320" 
d="M-6 -129l133 254l84 -34l-154 -247z" />
    <glyph glyph-name="hyphen" unicode="-" horiz-adv-x="340" 
d="M70 162l12 102h240l-12 -102h-240z" />
    <glyph glyph-name="period" unicode="." horiz-adv-x="252" 
d="M71 42q0 26 18 46t49 20q24 0 39 -15q16 -15 16 -40q0 -27 -20 -47q-18 -18 -46 -18q-26 0 -40 14q-16 15 -16 40z" />
    <glyph glyph-name="slash" unicode="/" horiz-adv-x="687" 
d="M-18 -177l635 942l78 -36l-635 -942z" />
    <glyph glyph-name="zero" unicode="0" horiz-adv-x="568" 
d="M287 -11q-88 0 -140 62q-63 74 -63 205q0 95 28 193t94 162q67 67 161 67q72 0 124 -49q75 -70 75 -215q0 -237 -118 -357q-68 -68 -161 -68zM356 588q-48 0 -82 -36q-41 -41 -65 -123.5t-24 -164.5q0 -113 47 -160q24 -24 61 -24q47 0 82 35q45 46 67.5 128.5
t22.5 157.5q0 120 -49 165q-25 22 -60 22z" />
    <glyph glyph-name="one" unicode="1" horiz-adv-x="568" 
d="M250 0l70 573h-116l68 94h162l-82 -667h-102z" />
    <glyph glyph-name="two" unicode="2" horiz-adv-x="568" 
d="M494 94l-12 -94h-448l265 280q78 83 93 101q48 60 48 110q0 45 -32 72q-30 25 -77 25q-50 0 -82 -30q-34 -34 -41 -91h-98q13 90 64 146q59 65 163 65q93 0 148 -49q56 -49 56 -127q0 -75 -55 -149q-32 -42 -122 -136l-119 -123h249z" />
    <glyph glyph-name="three" unicode="3" horiz-adv-x="568" 
d="M227 497h-98q13 75 58 123q55 58 153 58q89 0 139 -49q47 -45 47 -122q0 -59 -27 -100q-27 -43 -72 -59q35 -17 55 -49q21 -35 21 -82q0 -106 -63 -169q-59 -59 -166 -59q-98 0 -149 53q-52 56 -55 139h98q2 -47 31 -75q27 -27 78 -27q55 0 86 30q38 38 38 102
q0 58 -39 83q-22 16 -71 16h-13l11 86h21q63 0 90 27q28 28 28 76q0 44 -30 69q-23 20 -66 20q-45 0 -71 -24q-27 -27 -34 -67z" />
    <glyph glyph-name="four" unicode="4" horiz-adv-x="568" 
d="M532 716l-61 -496h72l-11 -94h-72l-16 -126h-98l16 126h-331zM226 220h147l25 207z" />
    <glyph glyph-name="five" unicode="5" horiz-adv-x="568" 
d="M557 667l-12 -94h-206l-47 -115q20 2 30 2q84 0 138 -54q57 -56 57 -153q0 -124 -72 -196q-67 -68 -185 -68q-84 0 -140 35q-46 29 -74 76l75 60q21 -38 55 -59q36 -22 85 -22q68 0 111 40q43 43 43 118q0 71 -42 107q-33 30 -95 30q-68 0 -139 -44l142 337h276z" />
    <glyph glyph-name="six" unicode="6" horiz-adv-x="568" 
d="M450 690l74 -55l-190 -204q18 2 27 2q90 0 148 -60q54 -54 54 -142q0 -106 -72 -175q-70 -67 -178 -67q-97 0 -158 58q-66 63 -66 157q0 69 44 140q27 43 100 118zM339 351q-64 0 -106 -42q-41 -43 -41 -105q0 -52 35 -89q34 -36 90 -36q58 0 101 41q45 45 45 111
q0 58 -38 91q-32 29 -86 29z" />
    <glyph glyph-name="seven" unicode="7" horiz-adv-x="568" 
d="M81 27l369 546h-326l12 94h496l-475 -690z" />
    <glyph glyph-name="eight" unicode="8" horiz-adv-x="568" 
d="M435 347q37 -18 60 -51q24 -36 24 -85q0 -105 -64 -166q-58 -56 -163 -56q-87 0 -141 50q-56 53 -56 143q0 64 33 109q34 47 91 64q-27 17 -43 39q-26 34 -26 86q0 76 51 133q59 65 157 65q78 0 129 -48q52 -49 52 -129q0 -55 -26 -95q-28 -42 -78 -59zM336 387
q51 0 80 29q30 30 30 81q0 41 -28 67q-26 24 -66 24q-48 0 -80 -32q-30 -30 -30 -77q0 -39 26 -65q26 -27 68 -27zM297 79q55 0 87 33q33 35 33 91q0 43 -27 71q-27 29 -75 29q-51 0 -85 -32q-34 -33 -34 -87q0 -44 26 -74q28 -31 75 -31z" />
    <glyph glyph-name="nine" unicode="9" horiz-adv-x="568" 
d="M251 -23l-74 55l185 200q-15 -3 -31 -3q-78 0 -135 59q-59 61 -59 147q0 101 69 170q75 73 184 73t169 -63q53 -55 53 -141q0 -74 -44 -144q-29 -46 -99 -120zM364 316q61 0 101 37q45 40 45 108q0 58 -37 93q-36 34 -91 34q-58 0 -98 -37q-45 -41 -45 -110q0 -57 36 -91
t89 -34z" />
    <glyph glyph-name="colon" unicode=":" horiz-adv-x="254" 
d="M72 41q0 26 18 46t49 20q24 0 39 -15q16 -15 16 -40q0 -27 -20 -47q-18 -18 -46 -18q-26 0 -40 14q-16 15 -16 40zM112 366q0 26 18 46t49 20q24 0 39 -15q16 -15 16 -40q0 -27 -20 -47q-18 -18 -46 -18q-26 0 -40 14q-16 15 -16 40z" />
    <glyph glyph-name="semicolon" unicode=";" horiz-adv-x="321" 
d="M-6 -129l133 254l84 -34l-154 -247zM135 366q0 26 18 46t49 20q24 0 39 -15q16 -15 16 -40q0 -27 -20 -47q-18 -18 -46 -18q-26 0 -40 14q-16 15 -16 40z" />
    <glyph glyph-name="less" unicode="&#x3c;" 
d="M191 332l330 -156v-96l-434 211v82l434 211v-96z" />
    <glyph glyph-name="equal" unicode="=" 
d="M75 380v84h434v-84h-434zM75 218v84h434v-84h-434z" />
    <glyph glyph-name="greater" unicode="&#x3e;" 
d="M391 332l-330 156v96l434 -211v-82l-434 -211v96z" />
    <glyph glyph-name="question" unicode="?" horiz-adv-x="436" 
d="M219 485h-102v9q0 88 52 140q45 45 127 45q72 0 113 -40q38 -37 38 -98q0 -57 -26 -95q-29 -42 -91 -68l-21 -9q-20 -8 -30 -11q-29 -11 -32 -12q-44 -20 -44 -57q0 -19 11 -30q12 -13 36 -13t39 15q16 17 18 53h98q-2 -70 -45 -115q-42 -43 -116 -43q-67 0 -103 35
q-38 36 -38 94t39 99q30 32 99 56q72 25 87 41q19 21 19 52q0 24 -14 40q-13 16 -43 16q-35 0 -53 -24q-18 -23 -18 -72v-8zM164 41q0 26 18 46t49 20q24 0 39 -15q16 -15 16 -40q0 -27 -20 -47q-18 -18 -46 -18q-26 0 -40 14q-16 15 -16 40z" />
    <glyph glyph-name="at" unicode="@" horiz-adv-x="732" 
d="M528 439l16 52h68l-67 -213q-9 -27 -9 -39q0 -14 8 -24q9 -10 24 -10q28 0 53 22q30 26 45.5 74.5t15.5 94.5q0 97 -61 158q-65 63 -171 63q-136 0 -225 -95q-41 -43 -65 -105.5t-24 -125.5q0 -107 66 -173q68 -70 188 -70q106 0 208 41l9 -62q-99 -39 -218 -39
q-146 0 -232 81q-85 81 -85 211q0 175 113 290q105 107 267 107q138 0 218 -78q77 -77 77 -197q0 -131 -73 -204q-51 -50 -113 -50q-35 0 -56 20q-18 18 -20 42q-16 -28 -45 -46q-34 -22 -79 -22q-57 0 -92 35q-40 40 -40 109q0 99 66 164q53 53 129 53q42 0 70 -21
q22 -16 34 -43zM379 212q42 0 70 27q22 21 35 54t13 62q0 36 -21 59q-17 19 -50 19q-46 0 -78 -35q-41 -44 -41 -108q0 -40 23 -61q18 -17 49 -17z" />
    <glyph glyph-name="A" unicode="A" horiz-adv-x="656" 
d="M544 0l-50 161h-285l-93 -161h-112l419 706l229 -706h-108zM263 257h202l-72 226z" />
    <glyph glyph-name="B" unicode="B" horiz-adv-x="526" 
d="M162 667h101q122 0 174 -52q42 -43 42 -113q0 -51 -19 -87q-20 -37 -59 -58q45 -16 73 -52q29 -38 29 -92q0 -91 -53 -146q-64 -67 -214 -67h-57h-99zM252 571l-23 -191h31q59 0 90 27q33 30 33 81q0 36 -22 58q-25 25 -81 25h-28zM218 296l-24 -200h62q81 0 117 34
q31 29 31 77q0 41 -30 65t-92 24h-64z" />
    <glyph glyph-name="C" unicode="C" horiz-adv-x="622" 
d="M653 631l-14 -120q-74 74 -183 74q-110 0 -181 -68q-38 -36 -61 -93t-23 -123q0 -95 58 -157q58 -63 157 -63t189 77l-14 -121q-92 -50 -184 -50q-136 0 -219 83q-89 89 -89 231q0 168 110 276q105 102 264 102q93 0 190 -48z" />
    <glyph glyph-name="D" unicode="D" horiz-adv-x="646" 
d="M162 667h140q169 0 256 -83q81 -76 81 -218q0 -166 -94 -260q-64 -64 -150 -85t-191 -21h-22h-102zM252 571l-58 -475h44q171 0 243 85q56 65 56 171q0 103 -55 160q-58 59 -186 59h-44z" />
    <glyph glyph-name="E" unicode="E" 
d="M530 667l-12 -96h-266l-20 -169h258l-12 -96h-258l-26 -210h266l-12 -96h-368l82 667h368z" />
    <glyph glyph-name="F" unicode="F" horiz-adv-x="450" 
d="M496 667l-12 -96h-232l-20 -169h224l-12 -96h-224l-38 -306h-102l82 667h334z" />
    <glyph glyph-name="G" unicode="G" horiz-adv-x="751" 
d="M459 253l12 94h275q-13 -177 -110 -273q-88 -87 -238 -87q-137 0 -222 89q-87 89 -87 222q0 79 30 151.5t83 124.5q107 105 273 105q93 0 162 -41q62 -38 105 -97l-82 -61q-33 45 -73 71q-54 34 -122 34q-116 0 -191 -75q-82 -81 -82 -202q0 -102 63 -167q60 -60 155 -60
q90 0 148 53q52 47 67 119h-166z" />
    <glyph glyph-name="H" unicode="H" horiz-adv-x="650" 
d="M264 667l-32 -264h286l32 264h102l-82 -667h-102l38 307h-286l-38 -307h-102l82 667h102z" />
    <glyph glyph-name="I" unicode="I" horiz-adv-x="262" 
d="M162 667h102l-82 -667h-102z" />
    <glyph glyph-name="J" unicode="J" horiz-adv-x="359" 
d="M259 667h102l-53 -432q-6 -51 -10.5 -77.5t-20 -64.5t-39.5 -61q-46 -45 -132 -45q-73 0 -121 36l57 84q25 -24 64 -24q35 0 59 22q28 26 41 130z" />
    <glyph glyph-name="K" unicode="K" horiz-adv-x="586" 
d="M264 667l-33 -258l288 258h137l-340 -302l258 -365h-134l-202 296l-22 -20l-34 -276h-102l82 667h102z" />
    <glyph glyph-name="L" unicode="L" horiz-adv-x="394" 
d="M162 667h102l-70 -571h196l-12 -96h-197h-101z" />
    <glyph glyph-name="M" unicode="M" horiz-adv-x="852" 
d="M166 0h-106l228 717l168 -518l298 518l38 -717h-102l-19 402l-247 -433l-139 434z" />
    <glyph glyph-name="N" unicode="N" horiz-adv-x="746" 
d="M182 0h-102l87 712l422 -507l57 462h102l-87 -708l-422 507z" />
    <glyph glyph-name="O" unicode="O" horiz-adv-x="796" 
d="M478 679q138 0 225 -87q86 -85 86 -226q0 -169 -105 -276q-102 -103 -275 -103q-148 0 -231 86q-89 91 -89 227q0 79 29 151.5t80 122.5q105 105 280 105zM410 81q124 0 196 72q38 37 59.5 92.5t21.5 114.5q0 95 -60 157q-66 68 -169 68q-110 0 -185 -74
q-83 -81 -83 -204q0 -98 62 -162q60 -64 158 -64z" />
    <glyph glyph-name="P" unicode="P" horiz-adv-x="481" 
d="M162 667h143q107 0 161 -52q49 -47 49 -130q0 -93 -57 -150q-64 -64 -209 -64h-34l-33 -271h-102zM252 573l-25 -208h38q83 0 118 31q34 29 34 83q0 45 -31 71q-28 23 -91 23h-43z" />
    <glyph glyph-name="Q" unicode="Q" horiz-adv-x="796" 
d="M633 -13l-41 48q-76 -48 -193 -48q-139 0 -220 80q-90 88 -90 232q0 165 101 271q102 109 267 109q152 0 242 -86q90 -87 90 -224q0 -90 -36 -165q-32 -66 -88 -113l91 -104h-123zM511 264l92 -102q37 31 58 74q26 54 26 117q0 109 -68 173q-63 59 -161 59
q-116 0 -190 -78q-77 -82 -77 -207q0 -95 60 -157q59 -62 155 -62q66 0 121 25l-140 158h124z" />
    <glyph glyph-name="R" unicode="R" horiz-adv-x="534" 
d="M162 667h119q115 0 168 -41q64 -48 64 -141q0 -90 -58 -144q-46 -43 -114 -56l173 -285h-123l-157 273h-18l-34 -273h-102zM252 573l-26 -212h32q76 0 116 32q41 32 41 86q0 50 -37 75q-28 19 -91 19h-35z" />
    <glyph glyph-name="S" unicode="S" horiz-adv-x="516" 
d="M520 567l-88 -48q-8 30 -30 47q-26 19 -66 19q-48 0 -76 -26q-28 -25 -28 -60q0 -29 24 -51q7 -7 16 -12.5t14.5 -8t17.5 -7.5t17 -7l54 -24q55 -24 84 -61q35 -43 35 -109q0 -100 -61 -165q-65 -67 -174 -67q-86 0 -134 47q-59 57 -62 150l103 22q-2 -56 23 -90
q27 -35 85 -35q48 0 79 28q38 34 38 98q0 35 -26 63q-19 20 -68 42l-51 23q-52 24 -79 53q-37 42 -37 98q0 73 53 129q61 64 159 64q68 0 115 -31q45 -30 63 -81z" />
    <glyph glyph-name="T" unicode="T" horiz-adv-x="428" 
d="M488 571h-153l-70 -571h-102l70 571h-153l12 96h408z" />
    <glyph glyph-name="U" unicode="U" horiz-adv-x="656" 
d="M164 667h102l-46 -375q-7 -70 -7 -76q0 -64 35 -99q36 -36 94 -36q66 0 111 43q20 20 31.5 45.5t15 44t7.5 51.5l49 402h102l-53 -429q-16 -128 -94 -194q-69 -57 -177 -57q-119 0 -181 78q-44 54 -44 137q0 25 11 111z" />
    <glyph glyph-name="V" unicode="V" horiz-adv-x="600" 
d="M86 667h108l129 -465l243 465h112l-383 -710z" />
    <glyph glyph-name="W" unicode="W" horiz-adv-x="940" 
d="M86 667h108l121 -446l239 478l115 -478l237 446h112l-385 -710l-116 473l-234 -473z" />
    <glyph glyph-name="X" unicode="X" horiz-adv-x="540" 
d="M10 0l253 348l-145 319h108l102 -226l161 226h114l-231 -319l158 -348h-108l-115 255l-183 -255h-114z" />
    <glyph glyph-name="Y" unicode="Y" horiz-adv-x="540" 
d="M219 0l35 288l-172 379h114l121 -267l187 267h118l-266 -379l-35 -288h-102z" />
    <glyph glyph-name="Z" unicode="Z" horiz-adv-x="554" 
d="M606 667l-398 -571h320l-12 -96h-486l398 571h-274l12 96h440z" />
    <glyph glyph-name="bracketleft" unicode="[" horiz-adv-x="316" 
d="M348 639h-84l-89 -726h84l-11 -90h-85h-97l112 906h182z" />
    <glyph glyph-name="backslash" unicode="\" horiz-adv-x="671" 
d="M653 -177l-79 -36l-410 942l78 36z" />
    <glyph glyph-name="bracketright" unicode="]" horiz-adv-x="316" 
d="M35 -87h84l89 726h-84l12 90h182l-112 -906h-102h-80z" />
    <glyph glyph-name="asciicircum" unicode="^" 
d="M293 590l-130 -240h-104l171 317h126l171 -317h-104z" />
    <glyph glyph-name="underscore" unicode="_" horiz-adv-x="400" 
d="M0 -144v86h400v-86h-400z" />
    <glyph glyph-name="grave" unicode="`" 
d="M301 485l-139 144l96 46l101 -156z" />
    <glyph glyph-name="a" unicode="a" horiz-adv-x="532" 
d="M418 372l6 49h98l-52 -421h-98l5 44q-28 -30 -56 -42q-35 -15 -77 -15q-72 0 -120 46q-58 56 -58 152q0 115 73 188q59 59 154 59q44 0 77 -18q28 -15 48 -42zM298 344q-49 0 -84 -33q-47 -45 -47 -118q0 -53 33 -88q28 -30 71 -30q55 0 92 37q43 45 43 115q0 56 -33 89
q-28 28 -75 28z" />
    <glyph glyph-name="b" unicode="b" horiz-adv-x="532" 
d="M250 729l-44 -357q21 27 49 42q33 18 85 18q77 0 125 -48q53 -53 53 -144q0 -115 -69 -189q-60 -64 -158 -64q-48 0 -83 20q-25 14 -43 37l-5 -44h-98l90 729h98zM314 344q-57 0 -92 -38q-43 -46 -43 -115q0 -54 34 -88q28 -28 72 -28q52 0 89 38q44 46 44 113
q0 57 -33 90q-28 28 -71 28z" />
    <glyph glyph-name="c" unicode="c" horiz-adv-x="422" 
d="M439 396l-13 -106q-25 25 -50 38q-31 16 -62 16q-67 0 -107 -42t-40 -104q0 -58 36 -92q33 -31 87 -31q36 0 68 15q32 18 48 36l-13 -110q-44 -29 -125 -29q-89 0 -143 54q-59 57 -59 153q0 103 70 173q66 65 172 65q75 0 131 -36z" />
    <glyph glyph-name="d" unicode="d" horiz-adv-x="532" 
d="M418 372l44 357h98l-90 -729h-98l5 44q-24 -28 -54 -42q-30 -15 -72 -15q-77 0 -125 48q-60 60 -60 158q0 52 20.5 103t56.5 84q57 52 144 52q47 0 81 -17q28 -13 50 -43zM296 344q-52 0 -85 -33q-45 -44 -45 -114q0 -57 32 -91q28 -31 76 -31q54 0 88 34q43 43 43 116
q0 53 -32 87q-31 32 -77 32z" />
    <glyph glyph-name="e" unicode="e" horiz-adv-x="489" 
d="M377 142l77 -46q-30 -50 -78 -79q-51 -30 -118 -30q-83 0 -135 53q-57 57 -57 150q0 109 73 180q64 62 154 62q80 0 127 -49q52 -54 52 -147q0 -25 -5 -49h-301q0 -52 31 -85q25 -27 69 -27q37 0 67 19q27 18 44 48zM181 267h196q-5 37 -25 58q-21 23 -61 23t-71 -25
q-25 -20 -39 -56z" />
    <glyph glyph-name="f" unicode="f" horiz-adv-x="263" 
d="M310 331h-106l-41 -331h-98l41 331h-42l11 90h42l20 161q10 81 47 118q40 40 107 40q35 0 67 -14l-12 -96q-24 16 -49 16q-54 0 -64 -79l-18 -146h106z" />
    <glyph glyph-name="g" unicode="g" horiz-adv-x="529" 
d="M415 375l6 46h98l-51 -410q-15 -128 -62 -180q-55 -61 -162 -61q-76 0 -124 40q-60 51 -64 143h95q2 -44 27 -71q24 -24 71 -24q50 0 79 29q30 30 40 106l7 54q-42 -60 -122 -60q-79 0 -133 54q-58 58 -58 150q0 110 75 183q59 58 154 58q80 0 124 -57zM297 344
q-58 0 -93 -37q-40 -42 -40 -111q0 -54 31 -87q32 -34 77 -34q49 0 85 36q45 45 45 117q0 54 -32 86q-30 30 -73 30z" />
    <glyph glyph-name="h" unicode="h" horiz-adv-x="486" 
d="M62 0l90 729h98l-43 -344q16 18 42 31q32 16 72 16q64 0 100 -36q38 -38 38 -102q0 -18 -9 -87l-26 -207h-98l27 217q5 37 5 56q0 36 -19 54q-18 17 -50 17q-40 0 -63 -23q-30 -29 -41 -118l-25 -203h-98z" />
    <glyph glyph-name="i" unicode="i" horiz-adv-x="223" 
d="M114 421h98l-52 -421h-98zM120 585q0 31 21 52t51 21q25 0 40 -15q16 -16 16 -38q0 -29 -20 -51t-53 -22q-24 0 -39 15q-16 14 -16 38z" />
    <glyph glyph-name="j" unicode="j" horiz-adv-x="223" 
d="M114 421h98l-80 -650h-98zM120 585q0 31 21 52t51 21q25 0 40 -15q16 -16 16 -38q0 -29 -20 -51t-53 -22q-24 0 -39 15q-16 14 -16 38z" />
    <glyph glyph-name="k" unicode="k" horiz-adv-x="442" 
d="M152 729h98l-56 -449l155 141h130l-205 -176l164 -245h-122l-116 180l-20 -18l-20 -162h-98z" />
    <glyph glyph-name="l" unicode="l" horiz-adv-x="222" 
d="M152 729h98l-90 -729h-98z" />
    <glyph glyph-name="m" unicode="m" horiz-adv-x="702" 
d="M62 0l52 421h98l-5 -39q21 23 41 34q29 16 69 16q35 0 60 -16q26 -16 41 -46q19 26 48 44q30 18 71 18q63 0 99 -34q38 -35 38 -101q0 -26 -8 -85l-26 -212h-98l26 212q6 54 6 59q0 39 -17 56q-15 17 -43 17q-26 0 -46 -18q-31 -29 -41 -109l-27 -217h-98l27 221
q5 37 5 53q0 37 -17 54q-16 16 -42 16q-31 0 -52 -21q-27 -27 -36 -106l-27 -217h-98z" />
    <glyph glyph-name="n" unicode="n" horiz-adv-x="485" 
d="M61 0l52 421h98l-5 -38q16 20 42 33q33 16 72 16q64 0 100 -36q38 -38 38 -100q0 -18 -9 -89l-26 -207h-98l27 217q5 37 5 56q0 36 -19 54q-18 17 -50 17q-40 0 -63 -23q-30 -29 -41 -118l-25 -203h-98z" />
    <glyph glyph-name="o" unicode="o" horiz-adv-x="534" 
d="M313 432q94 0 150 -56q57 -59 57 -146q0 -107 -73 -178q-68 -65 -173 -65q-94 0 -150 57q-58 60 -58 147q0 106 73 176q68 65 174 65zM287 75q56 0 93 40q40 43 40 109q0 54 -33 88q-31 32 -80 32q-58 0 -95 -35q-46 -43 -46 -110q0 -51 31 -87q34 -37 90 -37z" />
    <glyph glyph-name="p" unicode="p" horiz-adv-x="532" 
d="M166 49l-34 -278h-98l80 650h98l-6 -46q19 26 50 40q35 17 75 17q82 0 134 -54q53 -55 53 -143q0 -53 -19.5 -103.5t-51.5 -84.5q-58 -61 -140 -61q-56 0 -95 23q-25 15 -46 40zM308 344q-52 0 -84 -31q-46 -44 -46 -122q0 -54 28 -83q31 -33 80 -33t83 34q48 48 48 118
q0 52 -30 85q-29 32 -79 32z" />
    <glyph glyph-name="q" unicode="q" horiz-adv-x="532" 
d="M418 375l6 46h98l-80 -650h-98l34 276q-18 -27 -49 -43q-33 -17 -73 -17q-81 0 -131 47q-59 56 -59 146q0 54 19.5 106t54.5 87q59 59 154 59q37 0 73 -16q34 -15 51 -41zM297 344q-51 0 -84 -33q-46 -47 -46 -124q0 -53 32 -84q28 -28 74 -28q53 0 86 33q21 20 34 54
t13 65q0 55 -32 87q-30 30 -77 30z" />
    <glyph glyph-name="r" unicode="r" horiz-adv-x="332" 
d="M62 0l52 421h98l-5 -38q19 23 45 36t64 13q39 0 72 -20l-48 -89q-23 15 -52 15q-40 0 -65 -25q-26 -27 -36 -95l-27 -218h-98z" />
    <glyph glyph-name="s" unicode="s" horiz-adv-x="364" 
d="M354 358l-76 -48q-7 16 -20 26t-30 10q-22 0 -34 -12q-9 -9 -9 -22q0 -15 12 -24q4 -4 41 -22l28 -14q34 -17 53 -36q32 -34 32 -87q0 -62 -42 -102q-43 -40 -118 -40q-58 0 -94 27q-37 28 -52 77l85 38q7 -26 23 -41q17 -15 41 -15t39 13q16 13 16 37q0 21 -14 35
q-8 8 -40 24l-27 14q-35 19 -48 32q-29 27 -29 73q0 55 38 93t104 38q42 0 73 -20q28 -19 48 -54z" />
    <glyph glyph-name="t" unicode="t" horiz-adv-x="242" 
d="M279 331h-75l-41 -331h-98l41 331h-41l11 90h41l19 154h98l-19 -154h75z" />
    <glyph glyph-name="u" unicode="u" horiz-adv-x="485" 
d="M115 421h98l-27 -219q-5 -37 -5 -49q0 -38 20 -58t55 -20q37 0 61 22q21 20 30 83l30 241h98l-30 -244q-12 -102 -57 -145q-47 -45 -133 -45q-90 0 -134 46q-39 41 -39 102q0 14 5 57z" />
    <glyph glyph-name="v" unicode="v" horiz-adv-x="448" 
d="M58 421h108l78 -240l138 240h112l-274 -451z" />
    <glyph glyph-name="w" unicode="w" horiz-adv-x="686" 
d="M58 421h108l79 -241l152 277l84 -277l139 241h112l-275 -451l-85 269l-151 -269z" />
    <glyph glyph-name="x" unicode="x" horiz-adv-x="496" 
d="M6 0l214 228l-126 193h114l78 -123l109 123h122l-179 -193l152 -228h-116l-102 157l-144 -157h-122z" />
    <glyph glyph-name="y" unicode="y" horiz-adv-x="482" 
d="M3 -229l200 307l-145 343h116l95 -237l147 237h112l-415 -650h-110z" />
    <glyph glyph-name="z" unicode="z" horiz-adv-x="480" 
d="M524 421l-312 -331h250l-11 -90h-443l314 331h-215l11 90h406z" />
    <glyph glyph-name="braceleft" unicode="{" horiz-adv-x="502" 
d="M353 565l-20 -168q-7 -56 -24 -81q-18 -27 -53 -40q20 -7 32 -24q22 -30 15 -97l-20 -168q-7 -54 16 -70q15 -10 62 -10h8l-10 -84h-47q-65 0 -95 21q-45 32 -35 118l23 191q5 51 -12 69q-12 14 -34 14l10 80q29 2 46 22q16 17 20 61l23 191q8 72 43 105q37 34 121 34h47
l-10 -84h-14q-50 0 -67 -14q-19 -16 -25 -66z" />
    <glyph glyph-name="bar" unicode="|" horiz-adv-x="377" 
d="M171 -250v1000h96v-1000h-96z" />
    <glyph glyph-name="braceright" unicode="}" horiz-adv-x="502" 
d="M227 -13l21 168q7 55 25 81q18 27 52 40q-22 11 -36 31q-18 26 -11 90l20 168q6 55 -15 70q-17 10 -63 10h-8l10 84h47q68 0 96 -19q45 -30 34 -120l-23 -191q-6 -47 13 -67q13 -13 33 -16l-10 -80q-28 -3 -43 -20q-18 -19 -23 -63l-24 -191q-8 -71 -39 -102
q-36 -37 -114 -37h-58l10 84h14q50 0 69 17q18 16 23 63z" />
    <glyph glyph-name="asciitilde" unicode="~" 
d="M477 361l53 -33q-25 -50 -70 -87q-43 -34 -90 -34q-38 0 -101 27l-17 8q-16 7 -25 11t-24.5 8t-27.5 4q-30 0 -54 -22q-22 -20 -35 -45l-51 36q27 51 60 83q42 42 99 42q39 0 99 -29q64 -30 96 -30q29 0 51 18q20 16 37 43z" />
    <glyph glyph-name="uni00A0" unicode="&#xa0;" horiz-adv-x="233" 
 />
    <glyph glyph-name="exclamdown" unicode="&#xa1;" horiz-adv-x="254" 
d="M120 272h98l-62 -502h-98zM123 383q0 26 18 46t49 20q24 0 39 -15q16 -15 16 -40q0 -27 -20 -47q-18 -18 -46 -18q-26 0 -40 14q-16 15 -16 40z" />
    <glyph glyph-name="cent" unicode="&#xa2;" horiz-adv-x="568" 
d="M503 524l-13 -107q-48 52 -117 52q-61 0 -98 -35q-44 -42 -44 -111q0 -61 36 -93q32 -30 83 -30q69 0 119 49l-13 -106q-45 -27 -98 -29l-12 -101h-74l12 102q-60 11 -100 53q-54 56 -54 145q0 109 70 179q55 55 137 63l13 100h74l-13 -101q49 -3 92 -30z" />
    <glyph glyph-name="sterling" unicode="&#xa3;" horiz-adv-x="568" 
d="M570 444h-97q2 12 2 32q0 47 -28 75q-33 33 -85 33q-53 0 -86 -33q-35 -35 -35 -90q0 -42 34 -131h130l-9 -72h-101q5 -21 5 -41q0 -47 -23 -89l39 -15q63 -24 87 -24q26 0 45 19q18 20 30 44l76 -48q-28 -53 -67 -82q-39 -31 -95 -31q-42 0 -95 20l-39 15q-48 18 -64 18
q-32 0 -54 -22q-15 -14 -26 -37l-81 44q24 44 56 73q35 31 86 36q24 42 24 79q0 20 -9 41h-114l9 72h78q-25 63 -25 125q0 100 65 163q61 60 165 60q99 0 151 -51q54 -53 54 -142q0 -11 -3 -41z" />
    <glyph glyph-name="currency" unicode="&#xa4;" horiz-adv-x="667" 
d="M137 660l99 -99q59 48 143 48t143 -48l99 99l54 -54l-99 -99q45 -58 45 -140t-45 -140l99 -99l-54 -54l-99 99q-59 -48 -143 -48t-143 48l-99 -99l-54 54l99 99q-45 58 -45 140t45 140l-99 99zM379 211q65 0 109 45q43 44 43 111t-44 112q-44 44 -108 44t-108 -44
t-44 -112q0 -66 43 -111t109 -45z" />
    <glyph glyph-name="yen" unicode="&#xa5;" horiz-adv-x="568" 
d="M569 377h-143l-50 -74h184l-8 -70h-192l-29 -233h-94l29 233h-192l8 70h184l-32 74h-143l9 70h104l-94 220h108l113 -267l179 267h112l-148 -220h104z" />
    <glyph glyph-name="brokenbar" unicode="&#xa6;" horiz-adv-x="377" 
d="M171 390v360h96v-360h-96zM171 -250v360h96v-360h-96z" />
    <glyph glyph-name="section" unicode="&#xa7;" horiz-adv-x="567" 
d="M548 525h-94q2 10 2 27q0 44 -24 68q-24 23 -66 23q-45 0 -70 -25q-25 -23 -25 -61q0 -41 30 -65q13 -10 81 -37q65 -25 97 -60q39 -44 39 -109q0 -60 -35 -104q-30 -38 -73 -54q54 -44 54 -120q0 -78 -52 -130q-55 -55 -145 -55q-82 0 -128 45q-54 52 -54 146v4h94v-5
q0 -54 26 -80q24 -24 68 -24q40 0 63 21q28 24 28 67q0 31 -25 56q-7 7 -17.5 14t-17 10t-20.5 9t-18 8l-18 8q-64 28 -88 54q-40 42 -40 104t31 106q30 42 83 63q-59 43 -59 116q0 79 51 130q54 54 141 54q91 0 140 -49q43 -43 43 -119q0 -23 -2 -36zM324 377
q-43 0 -73 -30q-29 -31 -29 -78q0 -41 24 -64q24 -24 64 -24q49 0 77 29q29 29 29 80q0 42 -27 65q-25 22 -65 22z" />
    <glyph glyph-name="dieresis" unicode="&#xa8;" 
d="M165 569q3 26 23.5 44t45.5 18q26 0 42 -18.5t13 -43.5q-4 -26 -24.5 -44t-45.5 -18q-26 0 -42 18.5t-12 43.5zM345 569q3 26 23.5 44t45.5 18q26 0 42 -18.5t13 -43.5q-4 -26 -24.5 -44t-45.5 -18q-26 0 -42 18.5t-12 43.5z" />
    <glyph glyph-name="copyright" unicode="&#xa9;" horiz-adv-x="751" 
d="M548 510v-87q-52 50 -117 50q-61 0 -101 -40q-39 -39 -39 -102q0 -59 37 -96q41 -41 106 -41t114 51v-88q-56 -31 -121 -31q-93 0 -155 62q-57 59 -57 145q0 84 56 144q62 64 161 64q65 0 116 -31zM415 630q-122 0 -206 -84t-84 -213t84 -213t206 -84t206 84t84 213
t-84 213t-206 84zM761 333q0 -151 -98 -249t-248 -98t-248 98t-98 249t98 249t248 98t248 -98t98 -249z" />
    <glyph glyph-name="ordfeminine" unicode="&#xaa;" horiz-adv-x="368" 
d="M327 632l3 29h65l-32 -267h-66l3 25q-32 -32 -79 -32q-53 0 -88 36q-33 34 -33 87q0 69 45 114q43 43 103 43q51 0 79 -35zM249 610q-31 0 -54 -23q-28 -28 -28 -73q0 -33 20 -53q18 -18 48 -18q33 0 55 22q28 28 28 73q0 34 -18 52q-18 20 -51 20zM90 343h267l-6 -52
h-267z" />
    <glyph glyph-name="guillemotleft" unicode="&#xab;" horiz-adv-x="512" 
d="M167 215l106 -165l-71 -43l-135 212l193 216l59 -51zM353 215l106 -165l-71 -43l-135 212l193 216l59 -51z" />
    <glyph glyph-name="logicalnot" unicode="&#xac;" 
d="M478 0h-98v179h-336v88h434v-267z" />
    <glyph glyph-name="uni00AD" unicode="&#xad;" horiz-adv-x="340" 
d="M70 162l12 102h240l-12 -102h-240z" />
    <glyph glyph-name="registered" unicode="&#xae;" horiz-adv-x="758" 
d="M589 153h-87l-116 148v-148h-71v374h110q64 0 95 -31q28 -28 28 -77q0 -47 -27 -77q-20 -23 -56 -33zM386 464v-104h14q42 0 60 15q18 16 18 41q0 28 -19 39q-13 9 -49 9h-24zM420 630q-122 0 -206 -84t-84 -213t84 -213t206 -84t206 84t84 213t-84 213t-206 84zM766 333
q0 -151 -98 -249t-248 -98t-248 98t-98 249t98 249t248 98t248 -98t98 -249z" />
    <glyph glyph-name="macron" unicode="&#xaf;" 
d="M147 508l10 78h330l-10 -78h-330z" />
    <glyph glyph-name="degree" unicode="&#xb0;" horiz-adv-x="502" 
d="M168 510q0 64 41 109q44 48 115 48q59 0 98 -35q40 -36 40 -98q0 -72 -43 -115q-42 -42 -112 -42q-64 0 -104 40q-35 35 -35 93zM230 515q0 -36 23 -59q21 -21 56 -21q40 0 64 24q27 26 27 70q0 37 -22 59q-21 21 -57 21q-40 0 -65 -25q-26 -26 -26 -69z" />
    <glyph glyph-name="plusminus" unicode="&#xb1;" 
d="M64 350v90h170v163h94v-163h170v-90h-170v-163h-94v163h-170zM64 60v90h434v-90h-434z" />
    <glyph glyph-name="twosuperior" unicode="&#xb2;" horiz-adv-x="371" 
d="M355 333l-8 -66h-290l166 162q36 34 58 61q28 35 28 63q0 25 -17 40q-16 15 -45 15q-33 0 -52 -19q-20 -20 -24 -54h-70q9 57 45 96q39 43 106 43q66 0 100 -36q30 -30 30 -78q0 -45 -32 -88q-22 -28 -69 -74l-67 -65h141z" />
    <glyph glyph-name="threesuperior" unicode="&#xb3;" horiz-adv-x="372" 
d="M79 386h70q2 -28 18 -44t50 -16q32 0 51 17q20 18 20 51q0 29 -21 42q-15 10 -51 10h-14l8 66h24q37 0 53 13q17 13 17 37q0 22 -15 34q-16 12 -41 12q-31 0 -46 -16q-14 -14 -19 -39h-70q8 52 43 86q37 35 96 35q63 0 96 -33q28 -28 28 -73q0 -38 -20 -62
q-17 -21 -44 -28q21 -6 35 -24q17 -22 17 -55q0 -59 -36 -96q-40 -43 -113 -43q-66 0 -101 35t-35 91z" />
    <glyph glyph-name="acute" unicode="&#xb4;" 
d="M408 675l84 -46l-173 -144l-50 34z" />
    <glyph glyph-name="mu" unicode="&#xb5;" horiz-adv-x="524" 
d="M132 -230h-98l80 651h98l-22 -181q-6 -56 -6 -67q0 -46 26 -73q24 -24 65 -24q47 0 75 28q30 29 41 118l25 199h98l-52 -421h-98l8 63q-13 -34 -43 -57q-25 -18 -63 -18q-42 0 -66 25q-21 21 -31 60z" />
    <glyph glyph-name="mu" unicode="&#x3bc;" horiz-adv-x="524" 
d="M132 -230h-98l80 651h98l-22 -181q-6 -56 -6 -67q0 -46 26 -73q24 -24 65 -24q47 0 75 28q30 29 41 118l25 199h98l-52 -421h-98l8 63q-13 -34 -43 -57q-25 -18 -63 -18q-42 0 -66 25q-21 21 -31 60z" />
    <glyph glyph-name="paragraph" unicode="&#xb6;" horiz-adv-x="618" 
d="M291 -96h-83l51 413h-7q-84 0 -128 45q-40 41 -40 110q0 83 49 136q34 36 82 47.5t117 11.5h297l-9 -76h-66l-85 -687h-82l85 687h-96z" />
    <glyph glyph-name="periodcentered" unicode="&#xb7;" horiz-adv-x="200" 
d="M63 329q0 38 29 65q25 24 59 24q31 0 51 -20q19 -21 19 -47q0 -36 -26 -64q-24 -25 -60 -25q-32 0 -52 19q-20 18 -20 48z" />
    <glyph glyph-name="cedilla" unicode="&#xb8;" 
d="M251 -53l79 -32l-119 -134l-60 32z" />
    <glyph glyph-name="onesuperior" unicode="&#xb9;" horiz-adv-x="370" 
d="M195 267l41 334h-78l50 66h110l-49 -400h-74z" />
    <glyph glyph-name="ordmasculine" unicode="&#xba;" horiz-adv-x="369" 
d="M232 386q-64 0 -100 37q-34 34 -34 91q0 65 44 109t117 44q61 0 97 -35q37 -36 37 -94q0 -66 -42 -108q-44 -44 -119 -44zM254 610q-39 0 -63 -24q-25 -27 -25 -68q0 -35 21 -56q20 -20 53 -20q37 0 61 24q25 27 25 70q0 34 -20 54t-52 20zM90 343h268l-6 -52h-268z" />
    <glyph glyph-name="guillemotright" unicode="&#xbb;" horiz-adv-x="512" 
d="M207 222l-109 165l71 44l139 -212l-185 -212l-59 50zM394 222l-109 165l71 44l139 -212l-185 -212l-59 50z" />
    <glyph glyph-name="onequarter" unicode="&#xbc;" horiz-adv-x="802" 
d="M195 267l41 334h-78l50 66h108l-49 -400h-72zM227 17l463 661l45 -28l-463 -661zM592 138h78l13 103zM778 430l-36 -288h43l-8 -66h-43l-9 -76h-72l9 76h-209z" />
    <glyph glyph-name="onehalf" unicode="&#xbd;" horiz-adv-x="800" 
d="M195 267l41 334h-78l50 66h108l-49 -400h-72zM167 17l463 661l45 -28l-463 -661zM752 66l-8 -66h-290l166 162q36 34 58 61q28 35 28 63q0 25 -17 40t-45 15q-33 0 -52 -19q-20 -20 -24 -54h-70q9 57 45 96q39 43 106 43q66 0 100 -36q30 -30 30 -78q0 -45 -32 -88
q-22 -28 -69 -74l-67 -65h141z" />
    <glyph glyph-name="threequarters" unicode="&#xbe;" horiz-adv-x="802" 
d="M79 386h70q2 -28 18 -44t50 -16q32 0 51 17q20 18 20 51q0 29 -21 42q-15 10 -51 10h-14l8 66h24q37 0 53 13q17 13 17 38q0 21 -15 33q-16 12 -41 12q-31 0 -46 -16q-14 -14 -19 -39h-70q8 52 43 86q37 35 96 35q63 0 96 -33q28 -28 28 -73q0 -38 -20 -62
q-17 -21 -44 -28q21 -6 35 -24q17 -22 17 -55q0 -59 -36 -96q-40 -43 -113 -43q-66 0 -101 35t-35 91zM227 17l463 661l45 -28l-463 -661zM592 138h78l13 103zM778 430l-36 -288h43l-8 -66h-43l-9 -76h-72l9 76h-209z" />
    <glyph glyph-name="questiondown" unicode="&#xbf;" horiz-adv-x="434" 
d="M280 -48h102v-5q0 -96 -49 -144q-47 -45 -130 -45q-70 0 -112 42q-39 39 -39 99q0 66 44 113q33 35 106 61q65 23 76 34q18 15 18 39q0 21 -13 33t-35 12q-28 0 -43 -21q-11 -17 -13 -47h-98q7 75 49 117q41 41 112 41q65 0 102 -35q38 -34 38 -97q0 -58 -37 -95
q-31 -31 -82 -50q-83 -29 -101 -46q-23 -22 -23 -53q0 -25 16 -41t45 -16q34 0 53 23q6 7 9 19t3.5 18t1 24t0.5 20zM211 383q0 26 18 46t49 20q24 0 39 -15q16 -15 16 -40q0 -27 -20 -47q-18 -18 -46 -18q-26 0 -40 14q-16 15 -16 40z" />
    <glyph glyph-name="Agrave" unicode="&#xc0;" horiz-adv-x="656" 
d="M544 0l-50 161h-285l-93 -161h-112l419 706l229 -706h-108zM263 257h202l-72 226zM453 727l-161 119l93 60l121 -139z" />
    <glyph glyph-name="Aacute" unicode="&#xc1;" horiz-adv-x="656" 
d="M544 0l-50 161h-285l-93 -161h-112l419 706l229 -706h-108zM263 257h202l-72 226zM401 727l-43 40l155 139l79 -60z" />
    <glyph glyph-name="Acircumflex" unicode="&#xc2;" horiz-adv-x="656" 
d="M544 0l-50 161h-285l-93 -161h-112l419 706l229 -706h-108zM263 257h202l-72 226zM429 812l-109 -82l-62 56l181 134l149 -134l-70 -56z" />
    <glyph glyph-name="Atilde" unicode="&#xc3;" horiz-adv-x="656" 
d="M544 0l-50 161h-285l-93 -161h-112l419 706l229 -706h-108zM263 257h202l-72 226zM558 863l52 -46q-22 -37 -48 -58q-31 -26 -76 -26q-25 0 -61 16l-21 10q-32 16 -49 16q-18 0 -34 -14q-12 -10 -22 -28l-54 41q26 35 49 54q33 27 74 27q32 0 60 -15l19 -10
q36 -19 50 -19q21 0 38 19q11 12 23 33z" />
    <glyph glyph-name="Adieresis" unicode="&#xc4;" horiz-adv-x="656" 
d="M544 0l-50 161h-285l-93 -161h-112l419 706l229 -706h-108zM263 257h202l-72 226zM463 788q0 28 21 49q20 20 50 20q24 0 38 -15q16 -16 16 -41q0 -30 -21 -49t-49 -19q-24 0 -39 15q-16 15 -16 40zM268 788q0 28 21 49q20 20 50 20q24 0 38 -15q16 -16 16 -41
q0 -30 -21 -49t-49 -19q-24 0 -39 15q-16 15 -16 40z" />
    <glyph glyph-name="Aring" unicode="&#xc5;" horiz-adv-x="656" 
d="M544 0l-50 161h-285l-93 -161h-112l419 706l229 -706h-108zM263 257h202l-72 226zM333 815q0 42 27 71q31 34 80 34q40 0 64 -24q25 -24 25 -64q0 -47 -29 -76q-30 -30 -78 -30q-39 0 -63 24q-26 26 -26 65zM388 819q0 -18 11 -29q10 -10 27 -10q21 0 35 14q13 13 13 34
q0 16 -11 27t-27 11q-19 0 -34 -13q-14 -14 -14 -34z" />
    <glyph glyph-name="AE" unicode="&#xc6;" horiz-adv-x="926" 
d="M546 0l-50 159h-283l-93 -159h-110l402 667h295l30 -96h-265l51 -159h258l30 -96h-258l68 -220h265l30 -96h-370zM269 255h198l-68 217z" />
    <glyph glyph-name="Ccedilla" unicode="&#xc7;" horiz-adv-x="622" 
d="M653 631l-14 -120q-74 74 -183 74q-110 0 -181 -68q-38 -36 -61 -93t-23 -123q0 -95 58 -157q58 -63 157 -63t189 77l-14 -121q-92 -50 -184 -50q-136 0 -219 83q-89 89 -89 231q0 168 110 276q105 102 264 102q93 0 190 -48zM373 -53l82 -38l-129 -133l-60 32z" />
    <glyph glyph-name="Egrave" unicode="&#xc8;" 
d="M530 667l-12 -96h-266l-20 -169h258l-12 -96h-258l-26 -210h266l-12 -96h-368l82 667h368zM375 727l-161 119l93 60l121 -139z" />
    <glyph glyph-name="Eacute" unicode="&#xc9;" 
d="M530 667l-12 -96h-266l-20 -169h258l-12 -96h-258l-26 -210h266l-12 -96h-368l82 667h368zM323 727l-43 40l155 139l79 -60z" />
    <glyph glyph-name="Ecircumflex" unicode="&#xca;" 
d="M530 667l-12 -96h-266l-20 -169h258l-12 -96h-258l-26 -210h266l-12 -96h-368l82 667h368zM373 812l-109 -82l-62 56l181 134l149 -134l-70 -56z" />
    <glyph glyph-name="Edieresis" unicode="&#xcb;" 
d="M530 667l-12 -96h-266l-20 -169h258l-12 -96h-258l-26 -210h266l-12 -96h-368l82 667h368zM403 788q0 28 21 49q20 20 50 20q24 0 38 -15q16 -16 16 -41q0 -30 -21 -49t-49 -19q-24 0 -39 15q-16 15 -16 40zM208 788q0 28 21 49q20 20 50 20q24 0 38 -15q16 -16 16 -41
q0 -30 -21 -49t-49 -19q-24 0 -39 15q-16 15 -16 40z" />
    <glyph glyph-name="Igrave" unicode="&#xcc;" horiz-adv-x="262" 
d="M162 667h102l-82 -667h-102zM217 713l-120 161l103 35l77 -169z" />
    <glyph glyph-name="Iacute" unicode="&#xcd;" horiz-adv-x="262" 
d="M162 667h102l-82 -667h-102zM286 909l93 -35l-158 -161l-54 27z" />
    <glyph glyph-name="Icircumflex" unicode="&#xce;" horiz-adv-x="262" 
d="M162 667h102l-82 -667h-102zM231 812l-89 -77l-53 49l154 131l122 -131l-65 -49z" />
    <glyph glyph-name="Idieresis" unicode="&#xcf;" horiz-adv-x="262" 
d="M162 667h102l-82 -667h-102zM245 789q0 27 19 46q18 16 38 16t32 -15q12 -14 12 -33q0 -26 -18 -46q-15 -18 -38 -18q-17 0 -31 14q-14 16 -14 36zM112 788q0 27 19 46q16 17 38 17q19 0 32 -15q12 -14 12 -33q0 -26 -18 -46q-15 -18 -38 -18q-17 0 -31 14q-14 16 -14 35
z" />
    <glyph glyph-name="Eth" unicode="&#xd0;" horiz-adv-x="646" 
d="M130 410l32 257h140q169 0 256 -83q81 -76 81 -218q0 -166 -94 -260q-64 -64 -150 -85t-191 -21h-25h-99l40 324h-80l10 86h80zM252 571l-20 -161h140l-10 -86h-140l-28 -228h44q171 0 243 85q56 65 56 171q0 103 -55 160q-58 59 -186 59h-44z" />
    <glyph glyph-name="Ntilde" unicode="&#xd1;" horiz-adv-x="746" 
d="M182 0h-102l87 712l422 -507l57 462h102l-87 -708l-422 507zM598 863l52 -46q-22 -37 -48 -58q-31 -26 -76 -26q-25 0 -61 16l-21 10q-32 16 -49 16q-18 0 -34 -14q-12 -10 -22 -28l-54 41q26 35 49 54q33 27 74 27q32 0 60 -15l19 -10q36 -19 50 -19q21 0 38 19
q11 12 23 33z" />
    <glyph glyph-name="Ograve" unicode="&#xd2;" horiz-adv-x="796" 
d="M478 679q138 0 225 -87q86 -85 86 -226q0 -169 -105 -276q-102 -103 -275 -103q-148 0 -231 86q-89 91 -89 227q0 79 29 151.5t80 122.5q105 105 280 105zM410 81q124 0 196 72q38 37 59.5 92.5t21.5 114.5q0 95 -60 157q-66 68 -169 68q-110 0 -185 -74
q-83 -81 -83 -204q0 -98 62 -162q60 -64 158 -64zM525 727l-161 119l93 60l121 -139z" />
    <glyph glyph-name="Oacute" unicode="&#xd3;" horiz-adv-x="796" 
d="M478 679q138 0 225 -87q86 -85 86 -226q0 -169 -105 -276q-102 -103 -275 -103q-148 0 -231 86q-89 91 -89 227q0 79 29 151.5t80 122.5q105 105 280 105zM410 81q124 0 196 72q38 37 59.5 92.5t21.5 114.5q0 95 -60 157q-66 68 -169 68q-110 0 -185 -74
q-83 -81 -83 -204q0 -98 62 -162q60 -64 158 -64zM443 727l-43 40l155 139l79 -60z" />
    <glyph glyph-name="Ocircumflex" unicode="&#xd4;" horiz-adv-x="796" 
d="M478 679q138 0 225 -87q86 -85 86 -226q0 -169 -105 -276q-102 -103 -275 -103q-148 0 -231 86q-89 91 -89 227q0 79 29 151.5t80 122.5q105 105 280 105zM410 81q124 0 196 72q38 37 59.5 92.5t21.5 114.5q0 95 -60 157q-66 68 -169 68q-110 0 -185 -74
q-83 -81 -83 -204q0 -98 62 -162q60 -64 158 -64zM498 812l-109 -82l-62 56l181 134l149 -134l-70 -56z" />
    <glyph glyph-name="Otilde" unicode="&#xd5;" horiz-adv-x="796" 
d="M478 679q138 0 225 -87q86 -85 86 -226q0 -169 -105 -276q-102 -103 -275 -103q-148 0 -231 86q-89 91 -89 227q0 79 29 151.5t80 122.5q105 105 280 105zM410 81q124 0 196 72q38 37 59.5 92.5t21.5 114.5q0 95 -60 157q-66 68 -169 68q-110 0 -185 -74
q-83 -81 -83 -204q0 -98 62 -162q60 -64 158 -64zM623 863l52 -46q-22 -37 -48 -58q-31 -26 -76 -26q-25 0 -61 16l-21 10q-32 16 -49 16q-18 0 -34 -14q-12 -10 -22 -28l-54 41q26 35 49 54q33 27 74 27q31 0 60 -15l19 -10q36 -19 50 -19q21 0 38 19q11 12 23 33z" />
    <glyph glyph-name="Odieresis" unicode="&#xd6;" horiz-adv-x="796" 
d="M478 679q138 0 225 -87q86 -85 86 -226q0 -169 -105 -276q-102 -103 -275 -103q-148 0 -231 86q-89 91 -89 227q0 79 29 151.5t80 122.5q105 105 280 105zM410 81q124 0 196 72q38 37 59.5 92.5t21.5 114.5q0 95 -60 157q-66 68 -169 68q-110 0 -185 -74
q-83 -81 -83 -204q0 -98 62 -162q60 -64 158 -64zM523 788q0 28 21 49q20 20 50 20q24 0 38 -15q16 -16 16 -41q0 -30 -21 -49t-49 -19q-24 0 -39 15q-16 15 -16 40zM328 788q0 28 21 49q20 20 50 20q24 0 38 -15q16 -16 16 -41q0 -30 -21 -49t-49 -19q-24 0 -39 15
q-16 15 -16 40z" />
    <glyph glyph-name="multiply" unicode="&#xd7;" 
d="M86 193l142 143l-142 143l63 63l143 -142l143 142l63 -63l-142 -143l142 -143l-63 -63l-143 142l-143 -142z" />
    <glyph glyph-name="Oslash" unicode="&#xd8;" horiz-adv-x="796" 
d="M26 27l107 95q-51 82 -51 178q0 79 29 151.5t80 122.5q107 105 275 105q122 0 213 -72l109 97l50 -57l-108 -96q52 -81 52 -184q0 -170 -105 -277q-102 -103 -275 -103q-72 0 -123 17.5t-98 59.5l-105 -94zM649 479l-391 -347q63 -51 149 -51q120 0 192 72q81 79 81 211
q0 64 -31 115zM212 192l387 344q-66 49 -148 49q-110 0 -185 -74q-83 -82 -83 -201q0 -62 29 -118z" />
    <glyph glyph-name="Ugrave" unicode="&#xd9;" horiz-adv-x="656" 
d="M164 667h102l-46 -375q-7 -70 -7 -76q0 -64 35 -99q36 -36 94 -36q66 0 111 43q20 20 31.5 45.5t15 44t7.5 51.5l49 402h102l-53 -429q-16 -128 -94 -194q-69 -57 -177 -57q-119 0 -181 78q-44 54 -44 137q0 25 11 111zM432 727l-161 119l93 60l121 -139z" />
    <glyph glyph-name="Uacute" unicode="&#xda;" horiz-adv-x="656" 
d="M164 667h102l-46 -375q-7 -70 -7 -76q0 -64 35 -99q36 -36 94 -36q66 0 111 43q20 20 31.5 45.5t15 44t7.5 51.5l49 402h102l-53 -429q-16 -128 -94 -194q-69 -57 -177 -57q-119 0 -181 78q-44 54 -44 137q0 25 11 111zM400 727l-43 40l155 139l79 -60z" />
    <glyph glyph-name="Ucircumflex" unicode="&#xdb;" horiz-adv-x="656" 
d="M164 667h102l-46 -375q-7 -70 -7 -76q0 -64 35 -99q36 -36 94 -36q66 0 111 43q20 20 31.5 45.5t15 44t7.5 51.5l49 402h102l-53 -429q-16 -128 -94 -194q-69 -57 -177 -57q-119 0 -181 78q-44 54 -44 137q0 25 11 111zM430 812l-109 -82l-62 56l181 134l149 -134
l-70 -56z" />
    <glyph glyph-name="Udieresis" unicode="&#xdc;" horiz-adv-x="656" 
d="M164 667h102l-46 -375q-7 -70 -7 -76q0 -64 35 -99q36 -36 94 -36q66 0 111 43q20 20 31.5 45.5t15 44t7.5 51.5l49 402h102l-53 -429q-16 -128 -94 -194q-69 -57 -177 -57q-119 0 -181 78q-44 54 -44 137q0 25 11 111zM460 788q0 28 21 49q20 20 50 20q24 0 38 -15
q16 -16 16 -41q0 -30 -21 -49t-49 -19q-24 0 -39 15q-16 15 -16 40zM265 788q0 28 21 49q20 20 50 20q24 0 38 -15q16 -16 16 -41q0 -30 -21 -49t-49 -19q-24 0 -39 15q-16 15 -16 40z" />
    <glyph glyph-name="Yacute" unicode="&#xdd;" horiz-adv-x="540" 
d="M219 0l35 288l-172 379h114l121 -267l187 267h118l-266 -379l-35 -288h-102zM343 727l-43 40l155 139l79 -60z" />
    <glyph glyph-name="Thorn" unicode="&#xde;" horiz-adv-x="482" 
d="M162 667h102l-12 -100h41q107 0 161 -52q49 -47 49 -130q0 -93 -57 -150q-64 -64 -209 -64h-34l-21 -171h-102zM240 473l-25 -208h38q83 0 118 31q34 29 34 83q0 45 -31 71q-28 23 -91 23h-43z" />
    <glyph glyph-name="germandbls" unicode="&#xdf;" horiz-adv-x="559" 
d="M167 0h-98l41 334h-70l11 87h70l13 106q13 103 64 155q57 59 154 59q85 0 134 -48q48 -46 48 -122q0 -50 -25 -93q-24 -38 -63 -57q41 -21 64 -49q37 -43 37 -115q0 -110 -71 -184q-83 -87 -226 -87l12 94q83 0 136 50q49 46 49 114q0 54 -34 86q-38 36 -116 36l11 89h13
q59 0 90 34q27 30 27 76q0 39 -26 65q-24 23 -66 23q-45 0 -74 -28q-33 -32 -40 -93z" />
    <glyph glyph-name="agrave" unicode="&#xe0;" horiz-adv-x="532" 
d="M418 372l6 49h98l-52 -421h-98l5 44q-28 -30 -56 -42q-35 -15 -77 -15q-72 0 -120 46q-58 56 -58 152q0 115 73 188q59 59 154 59q44 0 77 -18q28 -15 48 -42zM298 344q-49 0 -84 -33q-47 -45 -47 -118q0 -53 33 -88q28 -30 71 -30q55 0 92 37q43 45 43 115q0 56 -33 89
q-28 28 -75 28zM326 485l-139 144l96 46l101 -156z" />
    <glyph glyph-name="aacute" unicode="&#xe1;" horiz-adv-x="532" 
d="M418 372l6 49h98l-52 -421h-98l5 44q-28 -30 -56 -42q-35 -15 -77 -15q-72 0 -120 46q-58 56 -58 152q0 115 73 188q59 59 154 59q44 0 77 -18q28 -15 48 -42zM298 344q-49 0 -84 -33q-47 -45 -47 -118q0 -53 33 -88q28 -30 71 -30q55 0 92 37q43 45 43 115q0 56 -33 89
q-28 28 -75 28zM388 675l84 -46l-173 -144l-50 34z" />
    <glyph glyph-name="acircumflex" unicode="&#xe2;" horiz-adv-x="532" 
d="M418 372l6 49h98l-52 -421h-98l5 44q-28 -30 -56 -42q-35 -15 -77 -15q-72 0 -120 46q-58 56 -58 152q0 115 73 188q59 59 154 59q44 0 77 -18q28 -15 48 -42zM298 344q-49 0 -84 -33q-47 -45 -47 -118q0 -53 33 -88q28 -30 71 -30q55 0 92 37q43 45 43 115q0 56 -33 89
q-28 28 -75 28zM322 571l-98 -86l-62 52l171 138l137 -138l-70 -52z" />
    <glyph glyph-name="atilde" unicode="&#xe3;" horiz-adv-x="532" 
d="M418 372l6 49h98l-52 -421h-98l5 44q-28 -30 -56 -42q-35 -15 -77 -15q-72 0 -120 46q-58 56 -58 152q0 115 73 188q59 59 154 59q44 0 77 -18q28 -15 48 -42zM298 344q-49 0 -84 -33q-47 -45 -47 -118q0 -53 33 -88q28 -30 71 -30q55 0 92 37q43 45 43 115q0 56 -33 89
q-28 28 -75 28zM448 622l53 -46q-18 -32 -45 -55q-37 -31 -80 -31q-30 0 -60 18l-20 12q-32 18 -50 18q-21 0 -36 -17q-9 -9 -21 -29l-54 41q26 36 49 54q35 27 75 27q35 0 67 -20l15 -10q26 -18 47 -18q22 0 39 21q13 16 21 35z" />
    <glyph glyph-name="adieresis" unicode="&#xe4;" horiz-adv-x="532" 
d="M418 372l6 49h98l-52 -421h-98l5 44q-28 -30 -56 -42q-35 -15 -77 -15q-72 0 -120 46q-58 56 -58 152q0 115 73 188q59 59 154 59q44 0 77 -18q28 -15 48 -42zM298 344q-49 0 -84 -33q-47 -45 -47 -118q0 -53 33 -88q28 -30 71 -30q55 0 92 37q43 45 43 115q0 56 -33 89
q-28 28 -75 28zM165 569q3 26 23.5 44t45.5 18q26 0 42 -18.5t13 -43.5q-4 -26 -24.5 -44t-45.5 -18q-26 0 -42 18.5t-12 43.5zM345 569q3 26 23.5 44t45.5 18q26 0 42 -18.5t13 -43.5q-4 -26 -24.5 -44t-45.5 -18q-26 0 -42 18.5t-12 43.5z" />
    <glyph glyph-name="aring" unicode="&#xe5;" horiz-adv-x="532" 
d="M418 372l6 49h98l-52 -421h-98l5 44q-28 -30 -56 -42q-35 -15 -77 -15q-72 0 -120 46q-58 56 -58 152q0 115 73 188q59 59 154 59q44 0 77 -18q28 -15 48 -42zM298 344q-49 0 -84 -33q-47 -45 -47 -118q0 -53 33 -88q28 -30 71 -30q55 0 92 37q43 45 43 115q0 56 -33 89
q-28 28 -75 28zM226 573q0 42 26 70q28 30 75 30q39 0 64 -23q25 -24 25 -62q0 -46 -29 -75q-28 -28 -70 -28q-41 0 -67 26q-24 26 -24 62zM277 575q0 -17 11 -28t29 -11q21 0 33 12q14 12 14 36q0 18 -13 29q-10 9 -28 9q-20 0 -34 -14q-12 -14 -12 -33z" />
    <glyph glyph-name="ae" unicode="&#xe6;" horiz-adv-x="762" 
d="M140 328l11 91q62 13 119 13q56 0 91 -15q34 -16 53 -43q26 25 57 38q45 20 95 20q79 0 127 -49q52 -55 52 -147q0 -25 -5 -49h-301q0 -52 31 -85q25 -27 69 -27q37 0 67 19q27 18 44 48l77 -46q-30 -50 -78 -79q-50 -30 -118 -30q-52 0 -93 19q-34 16 -59 49
q-27 -34 -66 -51q-38 -17 -97 -17q-68 0 -110 32q-50 37 -50 105q0 60 43 101q48 46 135 46q71 0 113 -28q2 9 2 24q0 39 -27 60q-23 17 -70 17q-53 0 -112 -16zM244 187q-48 0 -75 -23q-18 -15 -18 -39q0 -23 24 -39q23 -15 57 -15q42 0 67 16q28 18 28 47q0 23 -22 38
t-61 15zM454 267h196q-5 37 -25 58q-21 23 -61 23t-71 -25q-25 -20 -39 -56z" />
    <glyph glyph-name="ccedilla" unicode="&#xe7;" horiz-adv-x="422" 
d="M439 396l-13 -106q-25 25 -50 38q-31 16 -62 16q-67 0 -107 -42t-40 -104q0 -58 36 -92q33 -31 87 -31q36 0 68 15q32 18 48 36l-13 -110q-44 -29 -125 -29q-89 0 -143 54q-59 57 -59 153q0 103 70 173q66 65 172 65q75 0 131 -36zM241 -53l79 -32l-119 -134l-60 32z" />
    <glyph glyph-name="egrave" unicode="&#xe8;" horiz-adv-x="489" 
d="M377 142l77 -46q-30 -50 -78 -79q-51 -30 -118 -30q-83 0 -135 53q-57 57 -57 150q0 109 73 180q64 62 154 62q80 0 127 -49q52 -54 52 -147q0 -25 -5 -49h-301q0 -52 31 -85q25 -27 69 -27q37 0 67 19q27 18 44 48zM181 267h196q-5 37 -25 58q-21 23 -61 23t-71 -25
q-25 -20 -39 -56zM331 485l-139 144l96 46l101 -156z" />
    <glyph glyph-name="eacute" unicode="&#xe9;" horiz-adv-x="489" 
d="M377 142l77 -46q-30 -50 -78 -79q-51 -30 -118 -30q-83 0 -135 53q-57 57 -57 150q0 109 73 180q64 62 154 62q80 0 127 -49q52 -54 52 -147q0 -25 -5 -49h-301q0 -52 31 -85q25 -27 69 -27q37 0 67 19q27 18 44 48zM181 267h196q-5 37 -25 58q-21 23 -61 23t-71 -25
q-25 -20 -39 -56zM388 675l84 -46l-173 -144l-50 34z" />
    <glyph glyph-name="ecircumflex" unicode="&#xea;" horiz-adv-x="489" 
d="M377 142l77 -46q-30 -50 -78 -79q-51 -30 -118 -30q-83 0 -135 53q-57 57 -57 150q0 109 73 180q64 62 154 62q80 0 127 -49q52 -54 52 -147q0 -25 -5 -49h-301q0 -52 31 -85q25 -27 69 -27q37 0 67 19q27 18 44 48zM181 267h196q-5 37 -25 58q-21 23 -61 23t-71 -25
q-25 -20 -39 -56zM308 571l-98 -86l-62 52l171 138l137 -138l-70 -52z" />
    <glyph glyph-name="edieresis" unicode="&#xeb;" horiz-adv-x="489" 
d="M377 142l77 -46q-30 -50 -78 -79q-51 -30 -118 -30q-83 0 -135 53q-57 57 -57 150q0 109 73 180q64 62 154 62q80 0 127 -49q52 -54 52 -147q0 -25 -5 -49h-301q0 -52 31 -85q25 -27 69 -27q37 0 67 19q27 18 44 48zM181 267h196q-5 37 -25 58q-21 23 -61 23t-71 -25
q-25 -20 -39 -56zM151 569q3 26 23.5 44t45.5 18q26 0 42 -18.5t13 -43.5q-4 -26 -24.5 -44t-45.5 -18q-26 0 -42 18.5t-12 43.5zM331 569q3 26 23.5 44t45.5 18q26 0 42 -18.5t13 -43.5q-4 -26 -24.5 -44t-45.5 -18q-26 0 -42 18.5t-12 43.5z" />
    <glyph glyph-name="igrave" unicode="&#xec;" horiz-adv-x="223" 
d="M115 421h98l-52 -421h-98zM169 475l-93 178l104 23l52 -183z" />
    <glyph glyph-name="iacute" unicode="&#xed;" horiz-adv-x="223" 
d="M115 421h98l-52 -421h-98zM210 676l98 -23l-137 -178l-57 18z" />
    <glyph glyph-name="icircumflex" unicode="&#xee;" horiz-adv-x="223" 
d="M115 421h98l-52 -421h-98zM182 568l-79 -73l-49 46l140 125l108 -125l-59 -46z" />
    <glyph glyph-name="idieresis" unicode="&#xef;" horiz-adv-x="223" 
d="M115 421h98l-52 -421h-98zM30 569q3 26 23.5 44t45.5 18q26 0 42 -18.5t13 -43.5q-4 -26 -24.5 -44t-45.5 -18q-26 0 -42 18.5t-12 43.5zM210 569q3 26 23.5 44t45.5 18q26 0 42 -18.5t13 -43.5q-4 -26 -24.5 -44t-45.5 -18q-26 0 -42 18.5t-12 43.5z" />
    <glyph glyph-name="eth" unicode="&#xf0;" horiz-adv-x="527" 
d="M156 593l40 77q110 -6 195 -66l133 42l17 -58l-103 -32q41 -38 64 -94q23 -58 23 -145q0 -188 -86 -270q-62 -60 -162 -60q-102 0 -157 56q-55 57 -55 145q0 106 66 176q63 68 166 68q82 0 127 -47q-9 88 -84 139l-185 -59l-17 59l141 45q-59 25 -123 24zM273 75
q64 0 102 42q40 43 40 109q0 62 -38 93q-31 25 -77 25q-58 0 -95 -39q-40 -43 -40 -113q0 -59 32 -89q28 -28 76 -28z" />
    <glyph glyph-name="ntilde" unicode="&#xf1;" horiz-adv-x="485" 
d="M61 0l52 421h98l-5 -38q16 20 42 33q33 16 72 16q64 0 100 -36q38 -38 38 -100q0 -18 -9 -89l-26 -207h-98l27 217q5 37 5 56q0 36 -19 54q-18 17 -50 17q-40 0 -63 -23q-30 -29 -41 -118l-25 -203h-98zM441 622l53 -46q-18 -32 -45 -55q-37 -31 -80 -31q-30 0 -60 18
l-20 12q-32 18 -50 18q-21 0 -36 -17q-9 -9 -21 -29l-54 41q26 36 49 54q35 27 75 27q34 0 67 -20l15 -10q26 -18 47 -18t39 21q13 16 21 35z" />
    <glyph glyph-name="ograve" unicode="&#xf2;" horiz-adv-x="534" 
d="M313 432q94 0 150 -56q57 -59 57 -146q0 -107 -73 -178q-68 -65 -173 -65q-94 0 -150 57q-58 60 -58 147q0 106 73 176q68 65 174 65zM287 75q56 0 93 40q40 43 40 109q0 54 -33 88q-31 32 -80 32q-58 0 -95 -35q-46 -43 -46 -110q0 -51 31 -87q34 -37 90 -37zM331 485
l-139 144l96 46l101 -156z" />
    <glyph glyph-name="oacute" unicode="&#xf3;" horiz-adv-x="534" 
d="M313 432q94 0 150 -56q57 -59 57 -146q0 -107 -73 -178q-68 -65 -173 -65q-94 0 -150 57q-58 60 -58 147q0 106 73 176q68 65 174 65zM287 75q56 0 93 40q40 43 40 109q0 54 -33 88q-31 32 -80 32q-58 0 -95 -35q-46 -43 -46 -110q0 -51 31 -87q34 -37 90 -37zM403 675
l84 -46l-173 -144l-50 34z" />
    <glyph glyph-name="ocircumflex" unicode="&#xf4;" horiz-adv-x="534" 
d="M313 432q94 0 150 -56q57 -59 57 -146q0 -107 -73 -178q-68 -65 -173 -65q-94 0 -150 57q-58 60 -58 147q0 106 73 176q68 65 174 65zM287 75q56 0 93 40q40 43 40 109q0 54 -33 88q-31 32 -80 32q-58 0 -95 -35q-46 -43 -46 -110q0 -51 31 -87q34 -37 90 -37zM327 571
l-98 -86l-62 52l171 138l137 -138l-70 -52z" />
    <glyph glyph-name="otilde" unicode="&#xf5;" horiz-adv-x="534" 
d="M313 432q94 0 150 -56q57 -59 57 -146q0 -107 -73 -178q-68 -65 -173 -65q-94 0 -150 57q-58 60 -58 147q0 106 73 176q68 65 174 65zM287 75q56 0 93 40q40 43 40 109q0 54 -33 88q-31 32 -80 32q-58 0 -95 -35q-46 -43 -46 -110q0 -51 31 -87q34 -37 90 -37zM453 622
l53 -46q-18 -32 -45 -55q-37 -31 -80 -31q-30 0 -60 18l-20 12q-31 18 -50 18q-21 0 -36 -17q-9 -9 -21 -29l-54 41q26 36 49 54q35 27 75 27q34 0 67 -20l15 -10q26 -18 47 -18t39 21q13 16 21 35z" />
    <glyph glyph-name="odieresis" unicode="&#xf6;" horiz-adv-x="534" 
d="M313 432q94 0 150 -56q57 -59 57 -146q0 -107 -73 -178q-68 -65 -173 -65q-94 0 -150 57q-58 60 -58 147q0 106 73 176q68 65 174 65zM287 75q56 0 93 40q40 43 40 109q0 54 -33 88q-31 32 -80 32q-58 0 -95 -35q-46 -43 -46 -110q0 -51 31 -87q34 -37 90 -37zM170 569
q3 26 23.5 44t45.5 18q26 0 42 -18.5t13 -43.5q-4 -26 -24.5 -44t-45.5 -18q-26 0 -42 18.5t-12 43.5zM350 569q3 26 23.5 44t45.5 18q26 0 42 -18.5t13 -43.5q-4 -26 -24.5 -44t-45.5 -18q-26 0 -42 18.5t-12 43.5z" />
    <glyph glyph-name="divide" unicode="&#xf7;" 
d="M232 513q0 25 17.5 42.5t42.5 17.5t42.5 -17.5t17.5 -42.5t-17.5 -42.5t-42.5 -17.5t-42.5 17.5t-17.5 42.5zM232 159q0 25 17.5 42.5t42.5 17.5t42.5 -17.5t17.5 -42.5t-17.5 -42.5t-42.5 -17.5t-42.5 17.5t-17.5 42.5zM75 291v90h434v-90h-434z" />
    <glyph glyph-name="oslash" unicode="&#xf8;" horiz-adv-x="534" 
d="M15 7l81 73q-32 53 -32 111q0 106 73 176q68 65 173 65q80 0 137 -43l82 72l38 -46l-80 -72q31 -52 31 -113q0 -107 -73 -178q-66 -65 -175 -65q-79 0 -133 43l-78 -69zM409 274l-198 -177q31 -22 72 -22q58 0 95 40q40 42 40 107q0 30 -9 52zM174 147l198 176
q-26 21 -65 21q-59 0 -97 -35q-46 -43 -46 -110q0 -27 10 -52z" />
    <glyph glyph-name="ugrave" unicode="&#xf9;" horiz-adv-x="485" 
d="M115 421h98l-27 -219q-5 -37 -5 -49q0 -38 20 -58t55 -20q37 0 61 22q21 20 30 83l30 241h98l-30 -244q-12 -102 -57 -145q-47 -45 -133 -45q-90 0 -134 46q-39 41 -39 102q0 14 5 57zM301 485l-139 144l96 46l101 -156z" />
    <glyph glyph-name="uacute" unicode="&#xfa;" horiz-adv-x="485" 
d="M115 421h98l-27 -219q-5 -37 -5 -49q0 -38 20 -58t55 -20q37 0 61 22q21 20 30 83l30 241h98l-30 -244q-12 -102 -57 -145q-47 -45 -133 -45q-90 0 -134 46q-39 41 -39 102q0 14 5 57zM388 675l84 -46l-173 -144l-50 34z" />
    <glyph glyph-name="ucircumflex" unicode="&#xfb;" horiz-adv-x="485" 
d="M115 421h98l-27 -219q-5 -37 -5 -49q0 -38 20 -58t55 -20q37 0 61 22q21 20 30 83l30 241h98l-30 -244q-12 -102 -57 -145q-47 -45 -133 -45q-90 0 -134 46q-39 41 -39 102q0 14 5 57zM314 571l-98 -86l-62 52l171 138l137 -138l-70 -52z" />
    <glyph glyph-name="udieresis" unicode="&#xfc;" horiz-adv-x="485" 
d="M115 421h98l-27 -219q-5 -37 -5 -49q0 -38 20 -58t55 -20q37 0 61 22q21 20 30 83l30 241h98l-30 -244q-12 -102 -57 -145q-47 -45 -133 -45q-90 0 -134 46q-39 41 -39 102q0 14 5 57zM157 569q3 26 23.5 44t45.5 18q26 0 42 -18.5t13 -43.5q-4 -26 -24.5 -44t-45.5 -18
q-26 0 -42 18.5t-12 43.5zM337 569q3 26 23.5 44t45.5 18q26 0 42 -18.5t13 -43.5q-4 -26 -24.5 -44t-45.5 -18q-26 0 -42 18.5t-12 43.5z" />
    <glyph glyph-name="yacute" unicode="&#xfd;" horiz-adv-x="482" 
d="M3 -229l200 307l-145 343h116l95 -237l147 237h112l-415 -650h-110zM399 675l84 -46l-173 -144l-50 34z" />
    <glyph glyph-name="thorn" unicode="&#xfe;" horiz-adv-x="532" 
d="M166 49l-34 -278h-98l119 958h98l-45 -354q19 26 50 40q35 17 75 17q82 0 134 -54q53 -55 53 -143q0 -53 -19.5 -103.5t-51.5 -84.5q-58 -61 -140 -61q-56 0 -95 23q-25 15 -46 40zM308 344q-52 0 -84 -31q-46 -44 -46 -122q0 -54 28 -83q31 -33 80 -33t83 34
q48 48 48 118q0 52 -30 85q-29 32 -79 32z" />
    <glyph glyph-name="ydieresis" unicode="&#xff;" horiz-adv-x="482" 
d="M3 -229l200 307l-145 343h116l95 -237l147 237h112l-415 -650h-110zM156 569q3 26 23.5 44t45.5 18q26 0 42 -18.5t13 -43.5q-4 -26 -24.5 -44t-45.5 -18q-26 0 -42 18.5t-12 43.5zM336 569q3 26 23.5 44t45.5 18q26 0 42 -18.5t13 -43.5q-4 -26 -24.5 -44t-45.5 -18
q-26 0 -42 18.5t-12 43.5z" />
    <glyph glyph-name="Amacron" unicode="&#x100;" horiz-adv-x="656" 
d="M544 0l-50 161h-285l-93 -161h-112l419 706l229 -706h-108zM263 257h202l-72 226zM240 733l10 80h360l-10 -80h-360z" />
    <glyph glyph-name="amacron" unicode="&#x101;" horiz-adv-x="532" 
d="M418 372l6 49h98l-52 -421h-98l5 44q-28 -30 -56 -42q-35 -15 -77 -15q-72 0 -120 46q-58 56 -58 152q0 115 73 188q59 59 154 59q44 0 77 -18q28 -15 48 -42zM298 344q-49 0 -84 -33q-47 -45 -47 -118q0 -53 33 -88q28 -30 71 -30q55 0 92 37q43 45 43 115q0 56 -33 89
q-28 28 -75 28zM147 508l10 78h330l-10 -78h-330z" />
    <glyph glyph-name="Abreve" unicode="&#x102;" horiz-adv-x="656" 
d="M544 0l-50 161h-285l-93 -161h-112l419 706l229 -706h-108zM263 257h202l-72 226zM525 874h82q-20 -81 -78 -118q-42 -26 -104 -26q-59 0 -96 28q-54 40 -62 116h82q6 -32 28 -49q20 -15 52 -15q39 0 62 16t34 48z" />
    <glyph glyph-name="abreve" unicode="&#x103;" horiz-adv-x="532" 
d="M418 372l6 49h98l-52 -421h-98l5 44q-28 -30 -56 -42q-35 -15 -77 -15q-72 0 -120 46q-58 56 -58 152q0 115 73 188q59 59 154 59q44 0 77 -18q28 -15 48 -42zM298 344q-49 0 -84 -33q-47 -45 -47 -118q0 -53 33 -88q28 -30 71 -30q55 0 92 37q43 45 43 115q0 56 -33 89
q-28 28 -75 28zM408 638h81q-18 -75 -68 -109q-37 -26 -97 -26q-64 0 -102 27q-51 37 -57 108h77q5 -30 27 -49q19 -16 52 -16q34 0 54 16q24 18 33 49z" />
    <glyph glyph-name="Aogonek" unicode="&#x104;" horiz-adv-x="656" 
d="M4 0l419 706l229 -706h-30q-36 -24 -55 -43q-23 -23 -23 -46q0 -12 8 -19q9 -7 28 -7q28 0 54 9l-18 -72q-36 -15 -70 -15q-40 0 -64 22q-23 21 -23 55q0 41 34 75q23 23 51 41l-50 161h-285l-93 -161h-112zM263 257h202l-72 226z" />
    <glyph glyph-name="aogonek" unicode="&#x105;" horiz-adv-x="532" 
d="M418 374l6 47h98l-52 -421h-25q-36 -28 -52 -45q-23 -26 -23 -44q0 -14 11 -20q9 -6 28 -6q22 0 51 9l-17 -64q-33 -19 -68 -19q-36 0 -61 20q-25 21 -25 54q0 39 35 74q19 20 48 41l5 44q-28 -30 -56 -42q-35 -15 -77 -15q-72 0 -120 46q-58 57 -58 154q0 114 73 186
q59 59 154 59q43 0 77 -18q25 -13 48 -40zM298 344q-49 0 -84 -33q-47 -45 -47 -118q0 -53 33 -88q28 -30 71 -30q55 0 92 37q43 45 43 115q0 56 -33 89q-28 28 -75 28z" />
    <glyph glyph-name="Cacute" unicode="&#x106;" horiz-adv-x="622" 
d="M653 631l-14 -120q-74 74 -183 74q-110 0 -181 -68q-38 -36 -61 -93t-23 -123q0 -95 58 -157q58 -63 157 -63t189 77l-14 -121q-92 -50 -184 -50q-136 0 -219 83q-89 89 -89 231q0 168 110 276q105 102 264 102q93 0 190 -48zM453 727l-43 40l155 139l79 -60z" />
    <glyph glyph-name="cacute" unicode="&#x107;" horiz-adv-x="422" 
d="M439 396l-13 -106q-25 25 -50 38q-31 16 -62 16q-67 0 -107 -42t-40 -104q0 -58 36 -92q33 -31 87 -31q36 0 68 15q32 18 48 36l-13 -110q-44 -29 -125 -29q-89 0 -143 54q-59 57 -59 153q0 103 70 173q66 65 172 65q75 0 131 -36zM398 675l84 -46l-173 -144l-50 34z" />
    <glyph glyph-name="Ccircumflex" unicode="&#x108;" horiz-adv-x="622" 
d="M653 631l-14 -120q-74 74 -183 74q-110 0 -181 -68q-38 -36 -61 -93t-23 -123q0 -95 58 -157q58 -63 157 -63t189 77l-14 -121q-92 -50 -184 -50q-136 0 -219 83q-89 89 -89 231q0 168 110 276q105 102 264 102q93 0 190 -48zM473 812l-109 -82l-62 56l181 134l149 -134
l-70 -56z" />
    <glyph glyph-name="ccircumflex" unicode="&#x109;" horiz-adv-x="422" 
d="M439 396l-13 -106q-25 25 -50 38q-31 16 -62 16q-67 0 -107 -42t-40 -104q0 -58 36 -92q33 -31 87 -31q36 0 68 15q32 18 48 36l-13 -110q-44 -29 -125 -29q-89 0 -143 54q-59 57 -59 153q0 103 70 173q66 65 172 65q75 0 131 -36zM332 571l-98 -86l-62 52l171 138
l137 -138l-70 -52z" />
    <glyph glyph-name="Cdotaccent" unicode="&#x10a;" horiz-adv-x="622" 
d="M653 631l-14 -120q-74 74 -183 74q-110 0 -181 -68q-38 -36 -61 -93t-23 -123q0 -95 58 -157q58 -63 157 -63t189 77l-14 -121q-92 -50 -184 -50q-136 0 -219 83q-89 89 -89 231q0 168 110 276q105 102 264 102q93 0 190 -48zM416 794q0 31 22 53q21 21 51 21
q28 0 46 -18q16 -18 16 -41q0 -31 -20 -53t-55 -22q-26 0 -42 16q-18 16 -18 44z" />
    <glyph glyph-name="cdotaccent" unicode="&#x10b;" horiz-adv-x="422" 
d="M439 396l-13 -106q-25 25 -50 38q-31 16 -62 16q-67 0 -107 -42t-40 -104q0 -58 36 -92q33 -31 87 -31q36 0 68 15q32 18 48 36l-13 -110q-44 -29 -125 -29q-89 0 -143 54q-59 57 -59 153q0 103 70 173q66 65 172 65q75 0 131 -36zM267 542q0 32 22 54q19 19 48 19
q26 0 42 -15q19 -17 19 -45q0 -29 -22 -51q-19 -19 -49 -19q-26 0 -42 15q-18 16 -18 42z" />
    <glyph glyph-name="Ccaron" unicode="&#x10c;" horiz-adv-x="622" 
d="M653 631l-14 -120q-74 74 -183 74q-110 0 -181 -68q-38 -36 -61 -93t-23 -123q0 -95 58 -157q58 -63 157 -63t189 77l-14 -121q-92 -50 -184 -50q-136 0 -219 83q-89 89 -89 231q0 168 110 276q105 102 264 102q93 0 190 -48zM481 838l109 82l61 -56l-181 -134l-149 134
l71 56z" />
    <glyph glyph-name="ccaron" unicode="&#x10d;" horiz-adv-x="422" 
d="M439 396l-13 -106q-25 25 -50 38q-31 16 -62 16q-67 0 -107 -42t-40 -104q0 -58 36 -92q33 -31 87 -31q36 0 68 15q32 18 48 36l-13 -110q-44 -29 -125 -29q-89 0 -143 54q-59 57 -59 153q0 103 70 173q66 65 172 65q75 0 131 -36zM324 589l99 86l62 -52l-170 -138
l-138 138l70 52z" />
    <glyph glyph-name="Dcaron" unicode="&#x10e;" horiz-adv-x="646" 
d="M162 667h140q169 0 256 -83q81 -76 81 -218q0 -166 -94 -260q-64 -64 -150 -85t-191 -21h-22h-102zM252 571l-58 -475h44q171 0 243 85q56 65 56 171q0 103 -55 160q-58 59 -186 59h-44zM361 838l109 82l61 -56l-181 -134l-149 134l71 56z" />
    <glyph glyph-name="dcaron" unicode="&#x10f;" horiz-adv-x="660" 
d="M418 372l44 357h98l-90 -729h-98l5 44q-24 -28 -54 -42q-30 -15 -72 -15q-77 0 -125 48q-60 60 -60 158q0 52 20.5 103t56.5 84q57 52 144 52q47 0 81 -17q28 -13 50 -43zM296 344q-52 0 -85 -33q-45 -44 -45 -114q0 -57 32 -91q28 -31 76 -31q54 0 88 34q43 43 43 116
q0 53 -32 87q-31 32 -77 32zM559 484l114 206l86 -44l-134 -196z" />
    <glyph glyph-name="Dcroat" unicode="&#x110;" horiz-adv-x="646" 
d="M130 410l32 257h140q169 0 256 -83q81 -76 81 -218q0 -166 -94 -260q-64 -64 -150 -85t-191 -21h-22h-102l40 324h-80l10 86h80zM252 571l-20 -161h140l-10 -86h-140l-28 -228h44q171 0 243 85q56 65 56 171q0 103 -55 160q-58 59 -186 59h-44z" />
    <glyph glyph-name="dcroat" unicode="&#x111;" horiz-adv-x="531" 
d="M417 372l22 180h-220l9 76h220l13 101h98l-13 -101h96l-9 -76h-96l-67 -552h-98l5 44q-24 -28 -54 -42q-30 -15 -72 -15q-77 0 -125 48q-60 60 -60 158q0 52 20.5 103t56.5 84q55 52 144 52q47 0 81 -17q30 -15 49 -43zM296 344q-52 0 -85 -33q-45 -44 -45 -114
q0 -57 32 -91q28 -31 76 -31q54 0 88 34q43 43 43 116q0 53 -32 87q-31 32 -77 32z" />
    <glyph glyph-name="Emacron" unicode="&#x112;" 
d="M530 667l-12 -96h-266l-20 -169h258l-12 -96h-258l-26 -210h266l-12 -96h-368l82 667h368zM170 733l10 80h360l-10 -80h-360z" />
    <glyph glyph-name="emacron" unicode="&#x113;" horiz-adv-x="489" 
d="M377 142l77 -46q-30 -50 -78 -79q-51 -30 -118 -30q-83 0 -135 53q-57 57 -57 150q0 109 73 180q64 62 154 62q80 0 127 -49q52 -54 52 -147q0 -25 -5 -49h-301q0 -52 31 -85q25 -27 69 -27q37 0 67 19q27 18 44 48zM181 267h196q-5 37 -25 58q-21 23 -61 23t-71 -25
q-25 -20 -39 -56zM131 508l10 78h330l-10 -78h-330z" />
    <glyph glyph-name="Edotaccent" unicode="&#x116;" 
d="M530 667l-12 -96h-266l-20 -169h258l-12 -96h-258l-26 -210h266l-12 -96h-368l82 667h368zM291 794q0 31 22 53q21 21 51 21q28 0 46 -18q16 -18 16 -41q0 -31 -20 -53t-55 -22q-26 0 -42 16q-18 16 -18 44z" />
    <glyph glyph-name="edotaccent" unicode="&#x117;" horiz-adv-x="489" 
d="M377 142l77 -46q-30 -50 -78 -79q-51 -30 -118 -30q-83 0 -135 53q-57 57 -57 150q0 109 73 180q64 62 154 62q80 0 127 -49q52 -54 52 -147q0 -25 -5 -49h-301q0 -52 31 -85q25 -27 69 -27q37 0 67 19q27 18 44 48zM181 267h196q-5 37 -25 58q-21 23 -61 23t-71 -25
q-25 -20 -39 -56zM246 542q0 32 22 54q19 19 48 19q26 0 42 -15q19 -17 19 -45q0 -29 -22 -51q-19 -19 -49 -19q-26 0 -42 15q-18 16 -18 42z" />
    <glyph glyph-name="Eogonek" unicode="&#x118;" 
d="M530 667l-12 -96h-266l-19 -159h258l-12 -96h-258l-27 -220h266l-12 -96h-40q-36 -24 -55 -43q-23 -23 -23 -46q0 -12 8 -19q9 -7 28 -7q28 0 54 9l-18 -72q-36 -15 -70 -15q-40 0 -64 22q-23 21 -23 55q0 41 34 75q23 23 51 41h-250l82 667h368z" />
    <glyph glyph-name="eogonek" unicode="&#x119;" horiz-adv-x="489" 
d="M385 156l77 -46q-29 -48 -77 -87q-61 -51 -76 -68q-23 -26 -23 -44q0 -13 11 -20q9 -6 28 -6q22 0 51 9l-17 -64q-33 -19 -68 -19q-36 0 -61 20q-25 21 -25 54q0 32 24 61q19 25 44 42q-89 -10 -150 50q-57 55 -57 149q0 114 76 187q61 58 154 58q81 0 127 -47
q49 -51 49 -140q0 -8 -5 -58h-301q-2 -52 31 -85q27 -27 71 -27q42 0 71 23q29 22 46 58zM183 267h194q0 32 -21 53q-24 24 -65 24q-39 0 -70 -24q-24 -20 -38 -53z" />
    <glyph glyph-name="Ecaron" unicode="&#x11a;" 
d="M530 667l-12 -96h-266l-20 -169h258l-12 -96h-258l-26 -210h266l-12 -96h-368l82 667h368zM371 838l109 82l61 -56l-181 -134l-149 134l71 56z" />
    <glyph glyph-name="ecaron" unicode="&#x11b;" horiz-adv-x="489" 
d="M377 142l77 -46q-30 -50 -78 -79q-51 -30 -118 -30q-83 0 -135 53q-57 57 -57 150q0 109 73 180q64 62 154 62q80 0 127 -49q52 -54 52 -147q0 -25 -5 -49h-301q0 -52 31 -85q25 -27 69 -27q37 0 67 19q27 18 44 48zM181 267h196q-5 37 -25 58q-21 23 -61 23t-71 -25
q-25 -20 -39 -56zM313 589l99 86l62 -52l-170 -138l-138 138l70 52z" />
    <glyph glyph-name="Gcircumflex" unicode="&#x11c;" horiz-adv-x="751" 
d="M459 253l12 94h275q-13 -177 -110 -273q-88 -87 -238 -87q-137 0 -222 89q-87 89 -87 222q0 79 30 151.5t83 124.5q107 105 273 105q93 0 162 -41q62 -38 105 -97l-82 -61q-33 45 -73 71q-54 34 -122 34q-116 0 -191 -75q-82 -81 -82 -202q0 -102 63 -167q60 -60 155 -60
q90 0 148 53q52 47 67 119h-166zM497 812l-109 -82l-62 56l181 134l149 -134l-70 -56z" />
    <glyph glyph-name="gcircumflex" unicode="&#x11d;" horiz-adv-x="529" 
d="M415 375l6 46h98l-51 -410q-15 -128 -62 -180q-55 -61 -162 -61q-76 0 -124 40q-60 51 -64 143h95q2 -44 27 -71q24 -24 71 -24q50 0 79 29q30 30 40 106l7 54q-42 -60 -122 -60q-79 0 -133 54q-58 58 -58 150q0 110 75 183q59 58 154 58q80 0 124 -57zM297 344
q-58 0 -93 -37q-40 -42 -40 -111q0 -54 31 -87q32 -34 77 -34q49 0 85 36q45 45 45 117q0 54 -32 86q-30 30 -73 30zM322 571l-98 -86l-62 52l171 138l137 -138l-70 -52z" />
    <glyph glyph-name="Gbreve" unicode="&#x11e;" horiz-adv-x="751" 
d="M459 253l12 94h275q-13 -177 -110 -273q-88 -87 -238 -87q-137 0 -222 89q-87 89 -87 222q0 79 30 151.5t83 124.5q107 105 273 105q93 0 162 -41q62 -38 105 -97l-82 -61q-33 45 -73 71q-54 34 -122 34q-116 0 -191 -75q-82 -81 -82 -202q0 -102 63 -167q60 -60 155 -60
q90 0 148 53q52 47 67 119h-166zM589 874h82q-20 -81 -78 -118q-42 -26 -104 -26q-59 0 -96 28q-54 40 -62 116h82q6 -32 28 -49q20 -15 52 -15q39 0 62 16t34 48z" />
    <glyph glyph-name="gbreve" unicode="&#x11f;" horiz-adv-x="529" 
d="M415 375l6 46h98l-51 -410q-15 -128 -62 -180q-55 -61 -162 -61q-76 0 -124 40q-60 51 -64 143h95q2 -44 27 -71q24 -24 71 -24q50 0 79 29q30 30 40 106l7 54q-42 -60 -122 -60q-79 0 -133 54q-58 58 -58 150q0 110 75 183q59 58 154 58q80 0 124 -57zM297 344
q-58 0 -93 -37q-40 -42 -40 -111q0 -54 31 -87q32 -34 77 -34q49 0 85 36q45 45 45 117q0 54 -32 86q-30 30 -73 30zM408 638h81q-18 -75 -68 -109q-37 -26 -97 -26q-64 0 -102 27q-51 37 -57 108h77q5 -30 27 -49q19 -16 52 -16q34 0 54 16q24 18 33 49z" />
    <glyph glyph-name="Gdotaccent" unicode="&#x120;" horiz-adv-x="751" 
d="M459 253l12 94h275q-13 -177 -110 -273q-88 -87 -238 -87q-137 0 -222 89q-87 89 -87 222q0 79 30 151.5t83 124.5q107 105 273 105q93 0 162 -41q62 -38 105 -97l-82 -61q-33 45 -73 71q-54 34 -122 34q-116 0 -191 -75q-82 -81 -82 -202q0 -102 63 -167q60 -60 155 -60
q90 0 148 53q52 47 67 119h-166zM416 794q0 31 22 53q21 21 51 21q28 0 46 -18q16 -18 16 -41q0 -31 -20 -53t-55 -22q-26 0 -42 16q-18 16 -18 44z" />
    <glyph glyph-name="gdotaccent" unicode="&#x121;" horiz-adv-x="529" 
d="M415 375l6 46h98l-51 -410q-15 -128 -62 -180q-55 -61 -162 -61q-76 0 -124 40q-60 51 -64 143h95q2 -44 27 -71q24 -24 71 -24q50 0 79 29q30 30 40 106l7 54q-42 -60 -122 -60q-79 0 -133 54q-58 58 -58 150q0 110 75 183q59 58 154 58q80 0 124 -57zM297 344
q-58 0 -93 -37q-40 -42 -40 -111q0 -54 31 -87q32 -34 77 -34q49 0 85 36q45 45 45 117q0 54 -32 86q-30 30 -73 30zM238 542q0 32 22 54q19 19 48 19q26 0 42 -15q19 -17 19 -45q0 -29 -22 -51q-19 -19 -49 -19q-26 0 -42 15q-18 16 -18 42z" />
    <glyph glyph-name="Gcommaaccent" unicode="&#x122;" horiz-adv-x="751" 
d="M459 253l12 94h275q-13 -177 -110 -273q-88 -87 -238 -87q-137 0 -222 89q-87 89 -87 222q0 79 30 151.5t83 124.5q107 105 273 105q93 0 162 -41q62 -38 105 -97l-82 -61q-33 45 -73 71q-54 34 -122 34q-116 0 -191 -75q-82 -81 -82 -202q0 -102 63 -167q60 -60 155 -60
q90 0 148 53q52 47 67 119h-166zM250 -274l104 224l90 -34l-127 -216z" />
    <glyph glyph-name="gcommaaccent" unicode="&#x123;" horiz-adv-x="529" 
d="M415 375l6 46h98l-51 -410q-15 -128 -62 -180q-55 -61 -162 -61q-76 0 -124 40q-60 51 -64 143h95q2 -44 27 -71q24 -24 71 -24q50 0 79 29q30 30 40 106l7 54q-42 -60 -122 -60q-79 0 -133 54q-58 58 -58 150q0 110 75 183q59 58 154 58q80 0 124 -57zM297 344
q-58 0 -93 -37q-40 -42 -40 -111q0 -54 31 -87q32 -34 77 -34q49 0 85 36q45 45 45 117q0 54 -32 86q-30 30 -73 30zM430 665l-96 -186l-86 42l116 178z" />
    <glyph glyph-name="Hcircumflex" unicode="&#x124;" horiz-adv-x="650" 
d="M264 667l-32 -264h286l32 264h102l-82 -667h-102l38 307h-286l-38 -307h-102l82 667h102zM423 812l-109 -82l-62 56l181 134l149 -134l-70 -56z" />
    <glyph glyph-name="hcircumflex" unicode="&#x125;" horiz-adv-x="486" 
d="M62 0l90 729h98l-43 -344q16 18 42 31q32 16 72 16q64 0 100 -36q38 -38 38 -102q0 -18 -9 -87l-26 -207h-98l27 217q5 37 5 56q0 36 -19 54q-18 17 -50 17q-40 0 -63 -23q-30 -29 -41 -118l-25 -203h-98zM209 821l-98 -86l-62 52l171 138l137 -138l-70 -52z" />
    <glyph glyph-name="Hbar" unicode="&#x126;" horiz-adv-x="650" 
d="M264 667l-7 -53h286l7 53h102l-7 -53h60l-10 -84h-60l-65 -530h-102l38 307h-286l-38 -307h-102l65 530h-60l10 84h60l7 53h102zM533 530h-286l-16 -127h286z" />
    <glyph glyph-name="hbar" unicode="&#x127;" horiz-adv-x="486" 
d="M62 0l68 552h-96l9 76h97l12 101h98l-13 -101h200l-9 -76h-200l-21 -167q16 18 42 31q32 16 72 16q64 0 100 -36q38 -38 38 -102q0 -18 -9 -87l-26 -207h-98l27 217q5 37 5 56q0 36 -19 54q-18 17 -50 17q-40 0 -63 -23q-30 -29 -41 -118l-25 -203h-98z" />
    <glyph glyph-name="Imacron" unicode="&#x12a;" horiz-adv-x="262" 
d="M162 667h102l-82 -667h-102zM80 733l10 80h282l-10 -80h-282z" />
    <glyph glyph-name="imacron" unicode="&#x12b;" horiz-adv-x="223" 
d="M115 421h98l-52 -421h-98zM51 508l9 78h242l-9 -78h-242z" />
    <glyph glyph-name="Iogonek" unicode="&#x12e;" horiz-adv-x="262" 
d="M162 667h102l-82 -667q-38 -26 -55 -43q-23 -23 -23 -46q0 -12 8 -19q9 -7 28 -7q28 0 54 9l-18 -72q-32 -15 -72 -15q-39 0 -62 22q-23 21 -23 55q0 41 34 75q23 23 51 41h-24z" />
    <glyph glyph-name="iogonek" unicode="&#x12f;" horiz-adv-x="223" 
d="M114 421h98l-52 -421q-36 -28 -52 -45q-23 -26 -23 -44q0 -14 11 -20q9 -6 28 -6q22 0 51 9l-17 -64q-33 -19 -68 -19q-36 0 -61 20q-25 21 -25 54q0 39 35 74q19 20 48 41h-25zM120 585q0 31 21 52t51 21q25 0 40 -15q16 -16 16 -38q0 -29 -20 -51t-53 -22q-24 0 -39 15
q-16 14 -16 38z" />
    <glyph glyph-name="Idotaccent" unicode="&#x130;" horiz-adv-x="262" 
d="M162 667h102l-82 -667h-102zM163 794q0 31 22 53q21 21 51 21q28 0 46 -18q16 -18 16 -41q0 -31 -20 -53t-55 -22q-26 0 -42 16q-18 16 -18 44z" />
    <glyph glyph-name="dotlessi" unicode="&#x131;" horiz-adv-x="223" 
d="M115 421h98l-52 -421h-98z" />
    <glyph glyph-name="Jcircumflex" unicode="&#x134;" horiz-adv-x="359" 
d="M259 667h102l-53 -432q-6 -51 -10.5 -77.5t-20 -64.5t-39.5 -61q-46 -45 -132 -45q-73 0 -121 36l57 84q25 -24 64 -24q35 0 59 22q28 26 41 130zM318 812l-109 -82l-62 56l181 134l149 -134l-70 -56z" />
    <glyph glyph-name="jcircumflex" unicode="&#x135;" horiz-adv-x="223" 
d="M115 421h98l-80 -650h-98zM182 571l-98 -86l-60 52l171 138l137 -138l-72 -52z" />
    <glyph glyph-name="Kcommaaccent" unicode="&#x136;" horiz-adv-x="586" 
d="M264 667l-33 -258l288 258h137l-340 -302l258 -365h-134l-202 296l-22 -20l-34 -276h-102l82 667h102zM166 -274l104 224l90 -34l-127 -216z" />
    <glyph glyph-name="kcommaaccent" unicode="&#x137;" horiz-adv-x="442" 
d="M152 729h98l-56 -449l155 141h130l-205 -176l164 -245h-122l-116 180l-20 -18l-20 -162h-98zM108 -236l96 186l86 -42l-116 -178z" />
    <glyph glyph-name="Lacute" unicode="&#x139;" horiz-adv-x="394" 
d="M162 667h102l-70 -571h196l-12 -96h-197h-101zM243 727l-43 40l155 139l79 -60z" />
    <glyph glyph-name="lacute" unicode="&#x13a;" horiz-adv-x="222" 
d="M152 729h98l-90 -729h-98zM258 955l84 -46l-173 -144l-50 34z" />
    <glyph glyph-name="Lcommaaccent" unicode="&#x13b;" horiz-adv-x="394" 
d="M162 667h102l-70 -571h196l-12 -96h-197h-101zM86 -274l104 224l90 -34l-127 -216z" />
    <glyph glyph-name="lcommaaccent" unicode="&#x13c;" horiz-adv-x="222" 
d="M152 729h98l-90 -729h-98zM-1 -236l96 186l86 -42l-116 -178z" />
    <glyph glyph-name="Lcaron" unicode="&#x13d;" horiz-adv-x="394" 
d="M162 667h102l-70 -571h196l-12 -96h-197h-101zM280 474l114 206l86 -44l-134 -196z" />
    <glyph glyph-name="lcaron" unicode="&#x13e;" horiz-adv-x="350" 
d="M152 729h98l-90 -729h-98zM250 484l114 206l86 -44l-134 -196z" />
    <glyph glyph-name="Ldot" unicode="&#x13f;" horiz-adv-x="397" 
d="M162 667h102l-70 -571h196l-12 -96h-197h-101zM295 327q0 31 22 53q21 21 51 21q28 0 46 -18q16 -18 16 -41q0 -31 -20 -53t-55 -22q-26 0 -42 16q-18 16 -18 44z" />
    <glyph glyph-name="ldot" unicode="&#x140;" horiz-adv-x="373" 
d="M152 729h98l-90 -729h-98zM272 355q0 32 22 54q19 19 48 19q26 0 42 -15q19 -17 19 -45q0 -29 -22 -51q-19 -19 -49 -19q-26 0 -42 15q-18 16 -18 42z" />
    <glyph glyph-name="Lslash" unicode="&#x141;" horiz-adv-x="394" 
d="M162 667h102l-31 -251l130 77l-11 -84l-129 -77l-29 -236h196l-12 -96h-197h-101l35 287l-86 -51l10 84l87 51z" />
    <glyph glyph-name="lslash" unicode="&#x142;" horiz-adv-x="222" 
d="M152 729h98l-27 -215l68 48l-10 -80l-68 -48l-53 -434h-98l46 374l-68 -48l10 80l68 48z" />
    <glyph glyph-name="Nacute" unicode="&#x143;" horiz-adv-x="746" 
d="M182 0h-102l87 712l422 -507l57 462h102l-87 -708l-422 507zM446 727l-43 40l155 139l79 -60z" />
    <glyph glyph-name="nacute" unicode="&#x144;" horiz-adv-x="485" 
d="M61 0l52 421h98l-5 -38q16 20 42 33q33 16 72 16q64 0 100 -36q38 -38 38 -100q0 -18 -9 -89l-26 -207h-98l27 217q5 37 5 56q0 36 -19 54q-18 17 -50 17q-40 0 -63 -23q-30 -29 -41 -118l-25 -203h-98zM401 675l84 -46l-173 -144l-50 34z" />
    <glyph glyph-name="Ncommaaccent" unicode="&#x145;" horiz-adv-x="746" 
d="M182 0h-102l87 712l422 -507l57 462h102l-87 -708l-422 507zM246 -274l104 224l90 -34l-127 -216z" />
    <glyph glyph-name="ncommaaccent" unicode="&#x146;" horiz-adv-x="485" 
d="M61 0l52 421h98l-5 -38q16 20 42 33q33 16 72 16q64 0 100 -36q38 -38 38 -100q0 -18 -9 -89l-26 -207h-98l27 217q5 37 5 56q0 36 -19 54q-18 17 -50 17q-40 0 -63 -23q-30 -29 -41 -118l-25 -203h-98zM118 -236l96 186l86 -42l-116 -178z" />
    <glyph glyph-name="Ncaron" unicode="&#x147;" horiz-adv-x="746" 
d="M182 0h-102l87 712l422 -507l57 462h102l-87 -708l-422 507zM474 838l109 82l61 -56l-181 -134l-149 134l71 56z" />
    <glyph glyph-name="ncaron" unicode="&#x148;" horiz-adv-x="485" 
d="M61 0l52 421h98l-5 -38q16 20 42 33q33 16 72 16q64 0 100 -36q38 -38 38 -100q0 -18 -9 -89l-26 -207h-98l27 217q5 37 5 56q0 36 -19 54q-18 17 -50 17q-40 0 -63 -23q-30 -29 -41 -118l-25 -203h-98zM329 589l99 86l62 -52l-170 -138l-138 138l70 52z" />
    <glyph glyph-name="Omacron" unicode="&#x14c;" horiz-adv-x="796" 
d="M478 679q138 0 225 -87q86 -85 86 -226q0 -169 -105 -276q-102 -103 -275 -103q-148 0 -231 86q-89 91 -89 227q0 79 29 151.5t80 122.5q105 105 280 105zM410 81q124 0 196 72q38 37 59.5 92.5t21.5 114.5q0 95 -60 157q-66 68 -169 68q-110 0 -185 -74
q-83 -81 -83 -204q0 -98 62 -162q60 -64 158 -64zM305 733l10 80h360l-10 -80h-360z" />
    <glyph glyph-name="omacron" unicode="&#x14d;" horiz-adv-x="534" 
d="M313 432q94 0 150 -56q57 -59 57 -146q0 -107 -73 -178q-68 -65 -173 -65q-94 0 -150 57q-58 60 -58 147q0 106 73 176q68 65 174 65zM287 75q56 0 93 40q40 43 40 109q0 54 -33 88q-31 32 -80 32q-58 0 -95 -35q-46 -43 -46 -110q0 -51 31 -87q34 -37 90 -37zM152 508
l10 78h330l-10 -78h-330z" />
    <glyph glyph-name="Obreve" unicode="&#x14e;" horiz-adv-x="796" 
d="M478 679q138 0 225 -87q86 -85 86 -226q0 -169 -105 -276q-102 -103 -275 -103q-148 0 -231 86q-89 91 -89 227q0 79 29 151.5t80 122.5q105 105 280 105zM410 81q124 0 196 72q38 37 59.5 92.5t21.5 114.5q0 95 -60 157q-66 68 -169 68q-110 0 -185 -74
q-83 -81 -83 -204q0 -98 62 -162q60 -64 158 -64zM575 874h82q-20 -81 -78 -118q-42 -26 -104 -26q-59 0 -96 28q-54 40 -62 116h82q6 -32 28 -49q20 -15 52 -15q39 0 62 16t34 48z" />
    <glyph glyph-name="obreve" unicode="&#x14f;" horiz-adv-x="534" 
d="M313 432q94 0 150 -56q57 -59 57 -146q0 -107 -73 -178q-68 -65 -173 -65q-94 0 -150 57q-58 60 -58 147q0 106 73 176q68 65 174 65zM287 75q56 0 93 40q40 43 40 109q0 54 -33 88q-31 32 -80 32q-58 0 -95 -35q-46 -43 -46 -110q0 -51 31 -87q34 -37 90 -37zM408 638
h81q-18 -75 -68 -109q-37 -26 -97 -26q-64 0 -102 27q-51 37 -57 108h77q5 -30 27 -49q19 -16 52 -16q34 0 54 16q24 18 33 49z" />
    <glyph glyph-name="Ohungarumlaut" unicode="&#x150;" horiz-adv-x="796" 
d="M478 679q138 0 225 -87q86 -85 86 -226q0 -169 -105 -276q-102 -103 -275 -103q-148 0 -231 86q-89 91 -89 227q0 79 29 151.5t80 122.5q105 105 280 105zM410 81q124 0 196 72q38 37 59.5 92.5t21.5 114.5q0 95 -60 157q-66 68 -169 68q-110 0 -185 -74
q-83 -81 -83 -204q0 -98 62 -162q60 -64 158 -64zM473 906l72 -52l-172 -127l-39 36zM673 906l72 -52l-172 -127l-39 36z" />
    <glyph glyph-name="ohungarumlaut" unicode="&#x151;" horiz-adv-x="534" 
d="M313 432q94 0 150 -56q57 -59 57 -146q0 -107 -73 -178q-68 -65 -173 -65q-94 0 -150 57q-58 60 -58 147q0 106 73 176q68 65 174 65zM287 75q56 0 93 40q40 43 40 109q0 54 -33 88q-31 32 -80 32q-58 0 -95 -35q-46 -43 -46 -110q0 -51 31 -87q34 -37 90 -37zM305 675
l76 -46l-163 -144l-38 34zM485 675l76 -46l-163 -144l-38 34z" />
    <glyph glyph-name="OE" unicode="&#x152;" horiz-adv-x="1061" 
d="M1091 667l-12 -96h-266l-19 -159h258l-12 -96h-258l-27 -220h266l-12 -96h-262h-106l10 81q-45 -45 -94 -67q-59 -27 -141 -27q-72 0 -130 17.5t-108 68.5q-89 91 -89 227q0 79 29 151.5t80 122.5q107 105 276 105q79 0 146 -35q57 -29 90 -80l13 103h368zM413 81
q118 0 192 72q38 37 59.5 92.5t21.5 114.5q0 95 -60 157q-66 68 -169 68q-108 0 -182 -74q-83 -81 -83 -204q0 -98 62 -162q60 -64 159 -64z" />
    <glyph glyph-name="oe" unicode="&#x153;" horiz-adv-x="845" 
d="M733 142l77 -46q-30 -50 -78 -79q-51 -30 -120 -30q-58 0 -101 25q-35 21 -58 58q-27 -35 -71 -59q-50 -24 -110 -24q-92 0 -148 57q-58 58 -58 147q0 108 71 176q67 65 176 65q59 0 103 -22q41 -20 66 -56q26 34 66 56q42 22 101 22q80 0 127 -49q52 -55 52 -147
q0 -25 -5 -49h-301q0 -52 31 -85q25 -27 69 -27q37 0 67 19q27 18 44 48zM287 75q56 0 93 40q40 44 40 109q0 54 -33 88q-32 32 -82 32q-55 0 -92 -35q-46 -43 -46 -110q0 -51 31 -87q34 -37 89 -37zM537 267h196q-3 38 -30 62q-23 19 -56 19q-43 0 -71 -25q-25 -20 -39 -56
z" />
    <glyph glyph-name="Racute" unicode="&#x154;" horiz-adv-x="534" 
d="M162 667h119q115 0 168 -41q64 -48 64 -141q0 -90 -58 -144q-46 -43 -114 -56l173 -285h-123l-157 273h-18l-34 -273h-102zM252 573l-26 -212h32q76 0 116 32q41 32 41 86q0 50 -37 75q-28 19 -91 19h-35zM323 727l-43 40l155 139l79 -60z" />
    <glyph glyph-name="racute" unicode="&#x155;" horiz-adv-x="332" 
d="M62 0l52 421h98l-5 -38q19 23 45 36t64 13q39 0 72 -20l-48 -89q-23 15 -52 15q-40 0 -65 -25q-26 -27 -36 -95l-27 -218h-98zM368 675l84 -46l-173 -144l-50 34z" />
    <glyph glyph-name="Rcommaaccent" unicode="&#x156;" horiz-adv-x="534" 
d="M162 667h119q115 0 168 -41q64 -48 64 -141q0 -90 -58 -144q-46 -43 -114 -56l173 -285h-123l-157 273h-18l-34 -273h-102zM252 573l-26 -212h32q76 0 116 32q41 32 41 86q0 50 -37 75q-28 19 -91 19h-35zM136 -274l104 224l90 -34l-127 -216z" />
    <glyph glyph-name="rcommaaccent" unicode="&#x157;" horiz-adv-x="332" 
d="M62 0l52 421h98l-5 -38q19 23 45 36t64 13q39 0 72 -20l-48 -89q-23 15 -52 15q-40 0 -65 -25q-26 -27 -36 -95l-27 -218h-98zM58 -236l96 186l86 -42l-116 -178z" />
    <glyph glyph-name="Rcaron" unicode="&#x158;" horiz-adv-x="534" 
d="M162 667h119q115 0 168 -41q64 -48 64 -141q0 -90 -58 -144q-46 -43 -114 -56l173 -285h-123l-157 273h-18l-34 -273h-102zM252 573l-26 -212h32q76 0 116 32q41 32 41 86q0 50 -37 75q-28 19 -91 19h-35zM341 838l109 82l61 -56l-181 -134l-149 134l71 56z" />
    <glyph glyph-name="rcaron" unicode="&#x159;" horiz-adv-x="332" 
d="M62 0l52 421h98l-5 -38q19 23 45 36t64 13q39 0 72 -20l-48 -89q-23 15 -52 15q-40 0 -65 -25q-26 -27 -36 -95l-27 -218h-98zM273 589l99 86l62 -52l-170 -138l-138 138l70 52z" />
    <glyph glyph-name="Sacute" unicode="&#x15a;" horiz-adv-x="516" 
d="M520 567l-88 -48q-8 30 -30 47q-26 19 -66 19q-48 0 -76 -26q-28 -25 -28 -60q0 -29 24 -51q7 -7 16 -12.5t14.5 -8t17.5 -7.5t17 -7l54 -24q55 -24 84 -61q35 -43 35 -109q0 -100 -61 -165q-65 -67 -174 -67q-86 0 -134 47q-59 57 -62 150l103 22q-2 -56 23 -90
q27 -35 85 -35q48 0 79 28q38 34 38 98q0 35 -26 63q-19 20 -68 42l-51 23q-52 24 -79 53q-37 42 -37 98q0 73 53 129q61 64 159 64q68 0 115 -31q45 -30 63 -81zM331 727l-43 40l155 139l79 -60z" />
    <glyph glyph-name="sacute" unicode="&#x15b;" horiz-adv-x="364" 
d="M354 358l-76 -48q-7 16 -20 26t-30 10q-22 0 -34 -12q-9 -9 -9 -22q0 -15 12 -24q4 -4 41 -22l28 -14q34 -17 53 -36q32 -34 32 -87q0 -62 -42 -102q-43 -40 -118 -40q-58 0 -94 27q-37 28 -52 77l85 38q7 -26 23 -41q17 -15 41 -15t39 13q16 13 16 37q0 21 -14 35
q-8 8 -40 24l-27 14q-35 19 -48 32q-29 27 -29 73q0 55 38 93t104 38q42 0 73 -20q28 -19 48 -54zM338 675l84 -46l-173 -144l-50 34z" />
    <glyph glyph-name="Scircumflex" unicode="&#x15c;" horiz-adv-x="516" 
d="M520 567l-88 -48q-8 30 -30 47q-26 19 -66 19q-48 0 -76 -26q-28 -25 -28 -60q0 -29 24 -51q7 -7 16 -12.5t14.5 -8t17.5 -7.5t17 -7l54 -24q55 -24 84 -61q35 -43 35 -109q0 -100 -61 -165q-65 -67 -174 -67q-86 0 -134 47q-59 57 -62 150l103 22q-2 -56 23 -90
q27 -35 85 -35q48 0 79 28q38 34 38 98q0 35 -26 63q-19 20 -68 42l-51 23q-52 24 -79 53q-37 42 -37 98q0 73 53 129q61 64 159 64q68 0 115 -31q45 -30 63 -81zM363 812l-109 -82l-62 56l181 134l149 -134l-70 -56z" />
    <glyph glyph-name="scircumflex" unicode="&#x15d;" horiz-adv-x="364" 
d="M354 358l-76 -48q-7 16 -20 26t-30 10q-22 0 -34 -12q-9 -9 -9 -22q0 -15 12 -24q4 -4 41 -22l28 -14q34 -17 53 -36q32 -34 32 -87q0 -62 -42 -102q-43 -40 -118 -40q-58 0 -94 27q-37 28 -52 77l85 38q7 -26 23 -41q17 -15 41 -15t39 13q16 13 16 37q0 21 -14 35
q-8 8 -40 24l-27 14q-35 19 -48 32q-29 27 -29 73q0 55 38 93t104 38q42 0 73 -20q28 -19 48 -54zM252 571l-98 -86l-62 52l171 138l137 -138l-70 -52z" />
    <glyph glyph-name="Scedilla" unicode="&#x15e;" horiz-adv-x="516" 
d="M520 567l-88 -48q-8 30 -30 47q-26 19 -66 19q-48 0 -76 -26q-28 -25 -28 -60q0 -29 24 -51q7 -7 16 -12.5t14.5 -8t17.5 -7.5t17 -7l54 -24q55 -24 84 -61q35 -43 35 -109q0 -100 -61 -165q-65 -67 -174 -67q-86 0 -134 47q-59 57 -62 150l103 22q-2 -56 23 -90
q27 -35 85 -35q48 0 79 28q38 34 38 98q0 35 -26 63q-19 20 -68 42l-51 23q-52 24 -79 53q-37 42 -37 98q0 73 53 129q61 64 159 64q68 0 115 -31q45 -30 63 -81zM233 -53l82 -38l-129 -133l-60 32z" />
    <glyph glyph-name="scedilla" unicode="&#x15f;" horiz-adv-x="364" 
d="M354 358l-76 -48q-7 16 -20 26t-30 10q-22 0 -34 -12q-9 -9 -9 -22q0 -15 12 -24q4 -4 41 -22l28 -14q34 -17 53 -36q32 -34 32 -87q0 -62 -42 -102q-43 -40 -118 -40q-58 0 -94 27q-37 28 -52 77l85 38q7 -26 23 -41q17 -15 41 -15t39 13q16 13 16 37q0 21 -14 35
q-8 8 -40 24l-27 14q-35 19 -48 32q-29 27 -29 73q0 55 38 93t104 38q42 0 73 -20q28 -19 48 -54zM161 -53l79 -32l-119 -134l-60 32z" />
    <glyph glyph-name="Scaron" unicode="&#x160;" horiz-adv-x="516" 
d="M520 567l-88 -48q-8 30 -30 47q-26 19 -66 19q-48 0 -76 -26q-28 -25 -28 -60q0 -29 24 -51q7 -7 16 -12.5t14.5 -8t17.5 -7.5t17 -7l54 -24q55 -24 84 -61q35 -43 35 -109q0 -100 -61 -165q-65 -67 -174 -67q-86 0 -134 47q-59 57 -62 150l103 22q-2 -56 23 -90
q27 -35 85 -35q48 0 79 28q38 34 38 98q0 35 -26 63q-19 20 -68 42l-51 23q-52 24 -79 53q-37 42 -37 98q0 73 53 129q61 64 159 64q68 0 115 -31q45 -30 63 -81zM361 838l109 82l61 -56l-181 -134l-149 134l71 56z" />
    <glyph glyph-name="scaron" unicode="&#x161;" horiz-adv-x="364" 
d="M354 358l-76 -48q-7 16 -20 26t-30 10q-22 0 -34 -12q-9 -9 -9 -22q0 -15 12 -24q4 -4 41 -22l28 -14q34 -17 53 -36q32 -34 32 -87q0 -62 -42 -102q-43 -40 -118 -40q-58 0 -94 27q-37 28 -52 77l85 38q7 -26 23 -41q17 -15 41 -15t39 13q16 13 16 37q0 21 -14 35
q-8 8 -40 24l-27 14q-35 19 -48 32q-29 27 -29 73q0 55 38 93t104 38q42 0 73 -20q28 -19 48 -54zM250 589l99 86l62 -52l-170 -138l-138 138l70 52z" />
    <glyph glyph-name="Tcedilla" unicode="&#x162;" horiz-adv-x="428" 
d="M488 571h-153l-70 -571h-102l70 571h-153l12 96h408zM193 -53l82 -38l-129 -133l-60 32z" />
    <glyph glyph-name="tcedilla" unicode="&#x163;" horiz-adv-x="242" 
d="M279 331h-75l-41 -331h-98l41 331h-41l11 90h41l19 154h98l-19 -154h75zM91 -53l79 -32l-119 -134l-60 32z" />
    <glyph glyph-name="Tcaron" unicode="&#x164;" horiz-adv-x="428" 
d="M488 571h-153l-70 -571h-102l70 571h-153l12 96h408zM315 838l109 82l61 -56l-181 -134l-149 134l71 56z" />
    <glyph glyph-name="tcaron" unicode="&#x165;" horiz-adv-x="360" 
d="M279 331h-75l-41 -331h-98l41 331h-41l11 90h41l19 154h98l-19 -154h75zM260 484l114 206l86 -44l-134 -196z" />
    <glyph glyph-name="Utilde" unicode="&#x168;" horiz-adv-x="656" 
d="M164 667h102l-46 -375q-7 -70 -7 -76q0 -64 35 -99q36 -36 94 -36q66 0 111 43q20 20 31.5 45.5t15 44t7.5 51.5l49 402h102l-53 -429q-16 -128 -94 -194q-69 -57 -177 -57q-119 0 -181 78q-44 54 -44 137q0 25 11 111zM556 863l52 -46q-22 -37 -48 -58q-31 -26 -76 -26
q-25 0 -61 16l-21 10q-32 16 -49 16q-18 0 -34 -14q-12 -10 -22 -28l-54 41q26 35 49 54q33 27 74 27q32 0 60 -15l19 -10q36 -19 50 -19q21 0 38 19q11 12 23 33z" />
    <glyph glyph-name="utilde" unicode="&#x169;" horiz-adv-x="485" 
d="M115 421h98l-27 -219q-5 -37 -5 -49q0 -38 20 -58t55 -20q37 0 61 22q21 20 30 83l30 241h98l-30 -244q-12 -102 -57 -145q-47 -45 -133 -45q-90 0 -134 46q-39 41 -39 102q0 14 5 57zM440 622l53 -46q-18 -32 -45 -55q-37 -31 -80 -31q-30 0 -60 18l-20 12
q-32 18 -50 18q-21 0 -36 -17q-9 -9 -21 -29l-54 41q26 36 49 54q35 27 75 27q35 0 67 -20l15 -10q26 -18 47 -18q22 0 39 21q13 16 21 35z" />
    <glyph glyph-name="Umacron" unicode="&#x16a;" horiz-adv-x="656" 
d="M164 667h102l-46 -375q-7 -70 -7 -76q0 -64 35 -99q36 -36 94 -36q66 0 111 43q20 20 31.5 45.5t15 44t7.5 51.5l49 402h102l-53 -429q-16 -128 -94 -194q-69 -57 -177 -57q-119 0 -181 78q-44 54 -44 137q0 25 11 111zM237 733l10 80h360l-10 -80h-360z" />
    <glyph glyph-name="umacron" unicode="&#x16b;" horiz-adv-x="485" 
d="M115 421h98l-27 -219q-5 -37 -5 -49q0 -38 20 -58t55 -20q37 0 61 22q21 20 30 83l30 241h98l-30 -244q-12 -102 -57 -145q-47 -45 -133 -45q-90 0 -134 46q-39 41 -39 102q0 14 5 57zM139 508l10 78h330l-10 -78h-330z" />
    <glyph glyph-name="Ubreve" unicode="&#x16c;" horiz-adv-x="656" 
d="M164 667h102l-46 -375q-7 -70 -7 -76q0 -64 35 -99q36 -36 94 -36q66 0 111 43q20 20 31.5 45.5t15 44t7.5 51.5l49 402h102l-53 -429q-16 -128 -94 -194q-69 -57 -177 -57q-119 0 -181 78q-44 54 -44 137q0 25 11 111zM522 874h82q-20 -81 -78 -118q-42 -26 -104 -26
q-59 0 -96 28q-54 40 -62 116h82q6 -32 28 -49q20 -15 52 -15q39 0 62 16t34 48z" />
    <glyph glyph-name="ubreve" unicode="&#x16d;" horiz-adv-x="485" 
d="M115 421h98l-27 -219q-5 -37 -5 -49q0 -38 20 -58t55 -20q37 0 61 22q21 20 30 83l30 241h98l-30 -244q-12 -102 -57 -145q-47 -45 -133 -45q-90 0 -134 46q-39 41 -39 102q0 14 5 57zM400 638h81q-18 -75 -68 -109q-37 -26 -97 -26q-64 0 -102 27q-51 37 -57 108h77
q5 -30 27 -49q19 -16 52 -16q34 0 54 16q24 18 33 49z" />
    <glyph glyph-name="Uring" unicode="&#x16e;" horiz-adv-x="656" 
d="M164 667h102l-46 -375q-7 -70 -7 -76q0 -64 35 -99q36 -36 94 -36q66 0 111 43q20 20 31.5 45.5t15 44t7.5 51.5l49 402h102l-53 -429q-16 -128 -94 -194q-69 -57 -177 -57q-119 0 -181 78q-44 54 -44 137q0 25 11 111zM330 815q0 42 27 71q31 34 80 34q40 0 64 -24
q25 -24 25 -64q0 -47 -29 -76q-30 -30 -78 -30q-39 0 -63 24q-26 26 -26 65zM385 819q0 -18 11 -29q10 -10 27 -10q21 0 35 14q13 13 13 34q0 16 -11 27t-27 11q-19 0 -34 -13q-14 -14 -14 -34z" />
    <glyph glyph-name="uring" unicode="&#x16f;" horiz-adv-x="485" 
d="M115 421h98l-27 -219q-5 -37 -5 -49q0 -38 20 -58t55 -20q37 0 61 22q21 20 30 83l30 241h98l-30 -244q-12 -102 -57 -145q-47 -45 -133 -45q-90 0 -134 46q-39 41 -39 102q0 14 5 57zM218 573q0 42 26 70q28 30 75 30q39 0 64 -23q25 -24 25 -62q0 -46 -29 -75
q-28 -28 -70 -28q-41 0 -67 26q-24 26 -24 62zM269 575q0 -17 11 -28t29 -11q21 0 33 12q14 12 14 36q0 18 -13 29q-11 9 -28 9q-20 0 -34 -14q-12 -14 -12 -33z" />
    <glyph glyph-name="Uhungarumlaut" unicode="&#x170;" horiz-adv-x="656" 
d="M164 667h102l-46 -375q-7 -70 -7 -76q0 -64 35 -99q36 -36 94 -36q66 0 111 43q20 20 31.5 45.5t15 44t7.5 51.5l49 402h102l-53 -429q-16 -128 -94 -194q-69 -57 -177 -57q-119 0 -181 78q-44 54 -44 137q0 25 11 111zM400 906l72 -52l-172 -127l-39 36zM600 906l72 -52
l-172 -127l-39 36z" />
    <glyph glyph-name="uhungarumlaut" unicode="&#x171;" horiz-adv-x="485" 
d="M115 421h98l-27 -219q-5 -37 -5 -49q0 -38 20 -58t55 -20q37 0 61 22q21 20 30 83l30 241h98l-30 -244q-12 -102 -57 -145q-47 -45 -133 -45q-90 0 -134 46q-39 41 -39 102q0 14 5 57zM295 675l76 -46l-163 -144l-38 34zM475 675l76 -46l-163 -144l-38 34z" />
    <glyph glyph-name="Uogonek" unicode="&#x172;" horiz-adv-x="656" 
d="M164 667h102l-46 -375q-7 -70 -7 -76q0 -64 35 -99q36 -36 94 -36q66 0 111 43q20 20 31.5 45.5t15 44t7.5 51.5l49 402h102l-53 -429q-14 -117 -80 -181q-12 -12 -77 -58q-28 -18 -52 -42q-23 -23 -23 -46q0 -12 8 -19q9 -7 28 -7q29 0 54 9l-18 -72q-32 -15 -72 -15
q-39 0 -62 22q-23 21 -23 55q0 41 34 75q8 8 34 29q-121 -9 -189 60q-58 58 -58 154q0 19 11 111z" />
    <glyph glyph-name="uogonek" unicode="&#x173;" horiz-adv-x="485" 
d="M115 421h98l-27 -219q-5 -37 -5 -49q0 -38 20 -58t55 -20q37 0 61 22q22 20 30 83l30 241h98l-30 -244q-6 -52 -16.5 -83t-40.5 -62q-15 -15 -47 -43q-30 -28 -36 -34q-23 -26 -23 -44q0 -14 11 -20q9 -6 28 -6q22 0 51 9l-17 -64q-33 -19 -68 -19q-36 0 -61 20
q-25 21 -25 54q0 31 26 63q19 24 41 39q-99 -2 -147 46q-39 41 -39 102q0 14 5 57z" />
    <glyph glyph-name="Ydieresis" unicode="&#x178;" horiz-adv-x="540" 
d="M219 0l35 288l-172 379h114l121 -267l187 267h118l-266 -379l-35 -288h-102zM393 788q0 28 21 49q20 20 50 20q24 0 38 -15q16 -16 16 -41q0 -30 -21 -49t-49 -19q-24 0 -39 15q-16 15 -16 40zM198 788q0 28 21 49q20 20 50 20q24 0 38 -15q16 -16 16 -41q0 -30 -21 -49
t-49 -19q-24 0 -39 15q-16 15 -16 40z" />
    <glyph glyph-name="Zacute" unicode="&#x179;" horiz-adv-x="554" 
d="M606 667l-398 -571h320l-12 -96h-486l398 571h-274l12 96h440zM363 727l-43 40l155 139l79 -60z" />
    <glyph glyph-name="zacute" unicode="&#x17a;" horiz-adv-x="480" 
d="M524 421l-312 -331h250l-11 -90h-443l314 331h-215l11 90h406zM398 675l84 -46l-173 -144l-50 34z" />
    <glyph glyph-name="Zdotaccent" unicode="&#x17b;" horiz-adv-x="554" 
d="M606 667l-398 -571h320l-12 -96h-486l398 571h-274l12 96h440zM321 794q0 31 22 53q21 21 51 21q28 0 46 -18q16 -18 16 -41q0 -31 -20 -53t-55 -22q-26 0 -42 16q-18 16 -18 44z" />
    <glyph glyph-name="zdotaccent" unicode="&#x17c;" horiz-adv-x="480" 
d="M524 421l-312 -331h250l-11 -90h-443l314 331h-215l11 90h406zM252 542q0 32 22 54q19 19 48 19q26 0 42 -15q19 -17 19 -45q0 -29 -22 -51q-19 -19 -49 -19q-26 0 -42 15q-18 16 -18 42z" />
    <glyph glyph-name="Zcaron" unicode="&#x17d;" horiz-adv-x="554" 
d="M606 667l-398 -571h320l-12 -96h-486l398 571h-274l12 96h440zM391 838l109 82l61 -56l-181 -134l-149 134l71 56z" />
    <glyph glyph-name="zcaron" unicode="&#x17e;" horiz-adv-x="480" 
d="M524 421l-312 -331h250l-11 -90h-443l314 331h-215l11 90h406zM329 589l99 86l62 -52l-170 -138l-138 138l70 52z" />
    <glyph glyph-name="uni018F" unicode="&#x18f;" horiz-adv-x="750" 
d="M214 484l-81 60q51 58 122 97q73 38 165 38q145 0 229 -81q94 -92 94 -241q0 -164 -95 -269q-93 -101 -246 -101q-149 0 -232 87q-83 86 -83 224q0 8 0.5 19t2 23t1.5 17h549q0 101 -65 168q-59 60 -158 60q-69 0 -122 -30q-44 -25 -81 -71zM626 263h-432q5 -81 60 -132
q53 -50 149 -50q93 0 150 49q59 51 73 133z" />
    <glyph glyph-name="florin" unicode="&#x192;" horiz-adv-x="568" 
d="M598 731l-25 -93q-23 10 -43 10q-33 0 -53 -21q-19 -19 -33 -74l-33 -132h112l-20 -78h-112l-70 -278q-36 -141 -87 -188q-57 -54 -163 -54q-18 0 -27 1l23 93h6q63 0 92 27q30 27 53 119l71 280h-85l20 78h85l36 144q22 90 68 132q46 43 118 43q31 0 67 -9z" />
    <glyph glyph-name="uni01CF" unicode="&#x1cf;" horiz-adv-x="262" 
d="M162 667h102l-82 -667h-102zM234 838l88 77l53 -49l-154 -131l-122 131l65 49z" />
    <glyph glyph-name="uni01D0" unicode="&#x1d0;" horiz-adv-x="223" 
d="M115 421h98l-52 -421h-98zM185 593l79 73l48 -46l-139 -125l-109 125l60 46z" />
    <glyph glyph-name="uni01DD" unicode="&#x1dd;" horiz-adv-x="489" 
d="M69 242h304q-2 50 -33 78q-27 23 -68 23q-37 0 -63 -16q-21 -13 -38 -35l-89 30q32 53 82 81q51 29 113 29q86 0 140 -50q58 -54 58 -147q0 -123 -69 -192q-56 -56 -151 -56q-85 0 -132 47q-57 57 -57 160q0 22 3 48zM362 162h-199q3 -41 28 -67q24 -24 66 -24t68 22
q29 22 37 69z" />
    <glyph glyph-name="Gcaron" unicode="&#x1e6;" horiz-adv-x="751" 
d="M459 253l12 94h275q-13 -177 -110 -273q-88 -87 -238 -87q-137 0 -222 89q-87 89 -87 222q0 79 30 151.5t83 124.5q107 105 273 105q93 0 162 -41q62 -38 105 -97l-82 -61q-33 45 -73 71q-54 34 -122 34q-116 0 -191 -75q-82 -81 -82 -202q0 -102 63 -167q60 -60 155 -60
q90 0 148 53q52 47 67 119h-166zM491 838l109 82l61 -56l-181 -134l-149 134l71 56z" />
    <glyph glyph-name="gcaron" unicode="&#x1e7;" horiz-adv-x="529" 
d="M415 375l6 46h98l-51 -410q-15 -128 -62 -180q-55 -61 -162 -61q-76 0 -124 40q-60 51 -64 143h95q2 -44 27 -71q24 -24 71 -24q50 0 79 29q30 30 40 106l7 54q-42 -60 -122 -60q-79 0 -133 54q-58 58 -58 150q0 110 75 183q59 58 154 58q80 0 124 -57zM297 344
q-58 0 -93 -37q-40 -42 -40 -111q0 -54 31 -87q32 -34 77 -34q49 0 85 36q45 45 45 117q0 54 -32 86q-30 30 -73 30zM319 589l99 86l62 -52l-170 -138l-138 138l70 52z" />
    <glyph glyph-name="AEacute" unicode="&#x1fc;" horiz-adv-x="926" 
d="M546 0l-50 159h-283l-93 -159h-110l402 667h295l30 -96h-265l51 -159h258l30 -96h-258l68 -220h265l30 -96h-370zM269 255h198l-68 217zM536 727l-43 40l155 139l79 -60z" />
    <glyph glyph-name="aeacute" unicode="&#x1fd;" horiz-adv-x="762" 
d="M140 328l11 91q62 13 119 13q56 0 91 -15q34 -16 53 -43q26 25 57 38q45 20 95 20q79 0 127 -49q52 -55 52 -147q0 -25 -5 -49h-301q0 -52 31 -85q25 -27 69 -27q37 0 67 19q27 18 44 48l77 -46q-30 -50 -78 -79q-50 -30 -118 -30q-52 0 -93 19q-34 16 -59 49
q-27 -34 -66 -51q-38 -17 -97 -17q-68 0 -110 32q-50 37 -50 105q0 60 43 101q48 46 135 46q71 0 113 -28q2 9 2 24q0 39 -27 60q-23 17 -70 17q-53 0 -112 -16zM244 187q-48 0 -75 -23q-18 -15 -18 -39q0 -23 24 -39q23 -15 57 -15q42 0 67 16q28 18 28 47q0 23 -22 38
t-61 15zM454 267h196q-5 37 -25 58q-21 23 -61 23t-71 -25q-25 -20 -39 -56zM539 675l84 -46l-173 -144l-50 34z" />
    <glyph glyph-name="Scommaaccent" unicode="&#x218;" horiz-adv-x="516" 
d="M520 567l-88 -48q-8 30 -30 47q-26 19 -66 19q-48 0 -76 -26q-28 -25 -28 -60q0 -29 24 -51q7 -7 16 -12.5t14.5 -8t17.5 -7.5t17 -7l54 -24q55 -24 84 -61q35 -43 35 -109q0 -100 -61 -165q-65 -67 -174 -67q-86 0 -134 47q-59 57 -62 150l103 22q-2 -56 23 -90
q27 -35 85 -35q48 0 79 28q38 34 38 98q0 35 -26 63q-19 20 -68 42l-51 23q-52 24 -79 53q-37 42 -37 98q0 73 53 129q61 64 159 64q68 0 115 -31q45 -30 63 -81zM126 -274l104 224l90 -34l-127 -216z" />
    <glyph glyph-name="scommaaccent" unicode="&#x219;" horiz-adv-x="364" 
d="M354 358l-76 -48q-7 16 -20 26t-30 10q-22 0 -34 -12q-9 -9 -9 -22q0 -15 12 -24q4 -4 41 -22l28 -14q34 -17 53 -36q32 -34 32 -87q0 -62 -42 -102q-43 -40 -118 -40q-58 0 -94 27q-37 28 -52 77l85 38q7 -26 23 -41q17 -15 41 -15t39 13q16 13 16 37q0 21 -14 35
q-8 8 -40 24l-27 14q-35 19 -48 32q-29 27 -29 73q0 55 38 93t104 38q42 0 73 -20q28 -19 48 -54zM58 -236l96 186l86 -42l-116 -178z" />
    <glyph glyph-name="Tcommaaccent" unicode="&#x21a;" horiz-adv-x="428" 
d="M488 571h-153l-70 -571h-102l70 571h-153l12 96h408zM86 -274l104 224l90 -34l-127 -216z" />
    <glyph glyph-name="tcommaaccent" unicode="&#x21b;" horiz-adv-x="242" 
d="M279 331h-75l-41 -331h-98l41 331h-41l11 90h41l19 154h98l-19 -154h75zM-2 -236l96 186l86 -42l-116 -178z" />
    <glyph glyph-name="uni0228" unicode="&#x228;" 
d="M530 667l-12 -96h-266l-20 -169h258l-12 -96h-258l-26 -210h266l-12 -96h-368l82 667h368zM268 -53l82 -38l-129 -133l-60 32z" />
    <glyph glyph-name="uni0229" unicode="&#x229;" horiz-adv-x="489" 
d="M377 142l77 -46q-30 -50 -78 -79q-51 -30 -118 -30q-83 0 -135 53q-57 57 -57 150q0 109 73 180q64 62 154 62q80 0 127 -49q52 -54 52 -147q0 -25 -5 -49h-301q0 -52 31 -85q25 -27 69 -27q37 0 67 19q27 18 44 48zM181 267h196q-5 37 -25 58q-21 23 -61 23t-71 -25
q-25 -20 -39 -56zM246 -53l79 -32l-119 -134l-60 32z" />
    <glyph glyph-name="uni0237" unicode="&#x237;" horiz-adv-x="223" 
d="M114 421h98l-80 -650h-98z" />
    <glyph glyph-name="uni0259" unicode="&#x259;" horiz-adv-x="489" 
d="M69 242h304q-2 50 -33 78q-27 23 -68 23q-37 0 -63 -16q-21 -13 -38 -35l-89 30q32 53 82 81q51 29 113 29q86 0 140 -50q58 -54 58 -147q0 -123 -69 -192q-56 -56 -151 -56q-85 0 -132 47q-57 57 -57 160q0 22 3 48zM362 162h-199q3 -41 28 -67q24 -24 66 -24t68 22
q29 22 37 69z" />
    <glyph glyph-name="afii57929" unicode="&#x2bc;" 
d="M180 484l114 206l86 -44l-134 -196z" />
    <glyph glyph-name="circumflex" unicode="&#x2c6;" 
d="M322 571l-98 -86l-62 52l171 138l137 -138l-70 -52z" />
    <glyph glyph-name="caron" unicode="&#x2c7;" 
d="M319 589l99 86l62 -52l-170 -138l-138 138l70 52z" />
    <glyph glyph-name="uni02C9" unicode="&#x2c9;" 
d="M147 508l10 78h330l-10 -78h-330z" />
    <glyph glyph-name="breve" unicode="&#x2d8;" 
d="M408 638h81q-18 -75 -68 -109q-37 -26 -97 -26q-64 0 -102 27q-51 37 -57 108h77q5 -30 27 -49q19 -16 52 -16q34 0 54 16q24 18 33 49z" />
    <glyph glyph-name="dotaccent" unicode="&#x2d9;" 
d="M252 542q0 32 22 54q19 19 48 19q26 0 42 -15q19 -17 19 -45q0 -29 -22 -51q-19 -19 -49 -19q-26 0 -42 15q-18 16 -18 42z" />
    <glyph glyph-name="ring" unicode="&#x2da;" 
d="M226 573q0 42 26 70q28 30 75 30q39 0 64 -23q25 -24 25 -62q0 -46 -29 -75q-28 -28 -70 -28q-41 0 -67 26q-24 26 -24 62zM277 575q0 -17 11 -28t29 -11q21 0 33 12q14 12 14 36q0 18 -13 29q-10 9 -28 9q-20 0 -34 -14q-12 -14 -12 -33z" />
    <glyph glyph-name="ogonek" unicode="&#x2db;" 
d="M241 0h73q-36 -28 -52 -45q-23 -26 -23 -44q0 -14 11 -20q9 -6 28 -6q22 0 51 9l-17 -64q-33 -19 -68 -19q-36 0 -61 20q-25 21 -25 54q0 39 35 74q19 20 48 41z" />
    <glyph glyph-name="tilde" unicode="&#x2dc;" 
d="M448 622l53 -46q-18 -32 -45 -55q-37 -31 -80 -31q-30 0 -60 18l-20 12q-32 18 -50 18q-21 0 -36 -17q-9 -9 -21 -29l-54 41q26 36 49 54q35 27 75 27q35 0 67 -20l15 -10q26 -18 47 -18q22 0 39 21q13 16 21 35z" />
    <glyph glyph-name="hungarumlaut" unicode="&#x2dd;" 
d="M315 675l76 -46l-163 -144l-38 34zM495 675l76 -46l-163 -144l-38 34z" />
    <glyph glyph-name="acutecomb" unicode="&#x301;" horiz-adv-x="2" 
d="M-132 675l84 -46l-173 -144l-50 34z" />
    <glyph glyph-name="uni0394" unicode="&#x394;" horiz-adv-x="668" 
d="M644 0h-620l256 667h104zM332 529l-160 -433h320z" />
    <glyph glyph-name="uni0394" unicode="&#x2206;" horiz-adv-x="668" 
d="M644 0h-620l256 667h104zM332 529l-160 -433h320z" />
    <glyph glyph-name="uni03A9" unicode="&#x3a9;" horiz-adv-x="621" 
d="M374 0v108q71 30 114 90q48 65 48 153q0 112 -69 179q-58 55 -134 55q-77 0 -134 -55q-69 -67 -69 -179q0 -88 48 -153q43 -60 114 -90v-108h-264v96h161q-80 40 -124 117q-37 63 -37 144q0 150 93 241q82 81 212 81t212 -81q93 -91 93 -241q0 -81 -37 -144
q-44 -77 -124 -117h161v-96h-264z" />
    <glyph glyph-name="uni03A9" unicode="&#x2126;" horiz-adv-x="621" 
d="M374 0v108q71 30 114 90q48 65 48 153q0 112 -69 179q-58 55 -134 55q-77 0 -134 -55q-69 -67 -69 -179q0 -88 48 -153q43 -60 114 -90v-108h-264v96h161q-80 40 -124 117q-37 63 -37 144q0 150 93 241q82 81 212 81t212 -81q93 -91 93 -241q0 -81 -37 -144
q-44 -77 -124 -117h161v-96h-264z" />
    <glyph glyph-name="pi" unicode="&#x3c0;" horiz-adv-x="543" 
d="M236 0h-98v331h-75v90h510v-90h-75v-331h-98v331h-164v-331z" />
    <glyph glyph-name="afii10023" unicode="&#x401;" 
d="M530 667l-12 -96h-266l-20 -169h258l-12 -96h-258l-26 -210h266l-12 -96h-368l82 667h368zM397 788q0 28 21 49q20 20 50 20q24 0 38 -15q16 -16 16 -41q0 -30 -21 -49t-49 -19q-24 0 -39 15q-16 15 -16 40zM202 788q0 28 21 49q20 20 50 20q24 0 38 -15q16 -16 16 -41
q0 -30 -21 -49t-49 -19q-24 0 -39 15q-16 15 -16 40z" />
    <glyph glyph-name="afii10051" unicode="&#x402;" horiz-adv-x="651" 
d="M556 571h-220l-23 -186q66 23 134 23q98 0 149 -49q55 -53 55 -153q0 -104 -61 -163q-52 -50 -151 -50q-44 0 -95 8l11 93q40 -7 74 -7q59 0 88 27q32 30 32 89q0 54 -26 81q-29 30 -89 30q-69 0 -132 -23l-36 -291h-102l70 571h-154l12 96h476z" />
    <glyph glyph-name="afii10052" unicode="&#x403;" horiz-adv-x="428" 
d="M80 0l82 667h334l-12 -96h-232l-70 -571h-102zM323 727l-43 40l155 139l79 -60z" />
    <glyph glyph-name="afii10053" unicode="&#x404;" horiz-adv-x="622" 
d="M653 631l-14 -120q-74 74 -184 74q-111 0 -182 -68q-55 -53 -71 -127h330l-12 -96h-329q0 -90 56 -151q56 -62 159 -62q102 0 189 77l-14 -121q-92 -50 -184 -50q-136 0 -219 83q-89 89 -89 231q0 168 110 276q105 102 264 102q93 0 190 -48z" />
    <glyph glyph-name="afii10054" unicode="&#x405;" horiz-adv-x="516" 
d="M520 567l-88 -48q-8 30 -30 47q-26 19 -66 19q-48 0 -76 -26q-28 -25 -28 -60q0 -29 24 -51q7 -7 16 -12.5t14.5 -8t17.5 -7.5t17 -7l54 -24q55 -24 84 -61q35 -43 35 -109q0 -100 -61 -165q-65 -67 -174 -67q-86 0 -134 47q-59 57 -62 150l103 22q0 -59 23 -90
q27 -35 85 -35q48 0 79 28q38 34 38 98q0 35 -26 63q-19 20 -68 42l-51 23q-52 24 -79 53q-37 42 -37 98q0 73 53 129q61 64 159 64q68 0 115 -31q45 -30 63 -81z" />
    <glyph glyph-name="afii10055" unicode="&#x406;" horiz-adv-x="262" 
d="M162 667h102l-82 -667h-102z" />
    <glyph glyph-name="afii10056" unicode="&#x407;" horiz-adv-x="262" 
d="M162 667h102l-82 -667h-102zM245 789q0 27 19 46q18 16 38 16t32 -15q12 -14 12 -33q0 -26 -18 -46q-15 -18 -38 -18q-17 0 -31 14q-14 16 -14 36zM112 788q0 27 19 46q16 17 38 17q19 0 32 -15q12 -14 12 -33q0 -26 -18 -46q-15 -18 -38 -18q-17 0 -31 14q-14 16 -14 35
z" />
    <glyph glyph-name="afii10057" unicode="&#x408;" horiz-adv-x="359" 
d="M259 667h102l-53 -432q-6 -51 -10.5 -77.5t-20 -64.5t-39.5 -61q-46 -45 -132 -45q-73 0 -121 36l57 84q25 -24 64 -24q35 0 59 22q28 26 41 130z" />
    <glyph glyph-name="afii10058" unicode="&#x409;" horiz-adv-x="898" 
d="M464 0l71 572l-223 -1l-39 -314q-19 -154 -73 -211q-49 -52 -132 -52q-24 0 -54 7l12 94q14 -7 36 -7q40 0 65 26q20 21 29 55.5t17 99.5l49 398h426l-33 -269h70q105 0 161 -51q52 -47 52 -127q0 -103 -57 -160q-38 -38 -86 -49t-112 -11h-80h-99zM603 302l-25 -206h72
q86 0 118 33q29 29 29 81q0 44 -34 70q-31 22 -99 22h-61z" />
    <glyph glyph-name="afii10059" unicode="&#x40a;" horiz-adv-x="901" 
d="M468 0l38 307h-286l-38 -307h-102l82 667h102l-32 -264h286l32 264h101l-32 -264h69q105 0 161 -51q52 -46 52 -132q0 -103 -57 -160q-38 -38 -86 -49t-112 -11h-178zM606 307l-25 -211h72q86 0 118 33q29 31 29 82q0 50 -34 74q-31 22 -99 22h-61z" />
    <glyph glyph-name="afii10060" unicode="&#x40b;" horiz-adv-x="693" 
d="M556 571h-220l-22 -178q62 7 116 7q125 0 180 -47q27 -24 37.5 -58.5t10 -57.5t-5.5 -60l-22 -177h-102l21 166q4 26 4.5 42t-7.5 40.5t-28 37.5q-29 20 -113 20q-48 0 -102 -7l-37 -299h-102l70 571h-154l12 96h476z" />
    <glyph glyph-name="afii10061" unicode="&#x40c;" horiz-adv-x="586" 
d="M264 667l-33 -258l288 258h137l-340 -302l258 -365h-134l-202 296l-22 -20l-34 -276h-102l82 667h102zM366 727l-43 40l155 139l79 -60z" />
    <glyph glyph-name="afii10062" unicode="&#x40e;" horiz-adv-x="559" 
d="M88 667h109l135 -361l197 361h106l-374 -667h-106l113 203zM203 832l81 36q7 -22 24 -38q21 -18 59 -18q34 0 55 15q23 16 32 41l79 -36q-20 -46 -60 -72q-45 -30 -111 -30t-107 31q-35 25 -52 71z" />
    <glyph glyph-name="afii10145" unicode="&#x40f;" horiz-adv-x="640" 
d="M80 0l82 667h102l-70 -571h276l70 571h102l-82 -667h-192l-21 -166h-96l21 166h-192z" />
    <glyph glyph-name="afii10017" unicode="&#x410;" horiz-adv-x="656" 
d="M544 0l-50 161h-285l-93 -161h-112l419 706l229 -706h-108zM263 257h202l-72 226z" />
    <glyph glyph-name="afii10018" unicode="&#x411;" horiz-adv-x="527" 
d="M80 0l82 667h334l-12 -96h-232l-21 -173h66q100 0 154 -49q52 -47 52 -129q0 -99 -60 -159q-28 -27 -65 -41.5t-61.5 -17t-61.5 -2.5h-76h-99zM219 302l-25 -206h62q47 0 75.5 7.5t48.5 32.5q23 28 23 74q0 40 -20 61q-28 31 -109 31h-55z" />
    <glyph glyph-name="afii10019" unicode="&#x412;" horiz-adv-x="526" 
d="M162 667h101q122 0 174 -52q42 -43 42 -113q0 -51 -19 -87q-20 -37 -59 -58q45 -16 73 -52q29 -38 29 -92q0 -91 -53 -146q-64 -67 -214 -67h-57h-99zM252 571l-23 -191h31q59 0 90 27q33 30 33 81q0 36 -22 58q-25 25 -81 25h-28zM218 296l-24 -200h62q81 0 117 34
q31 29 31 77q0 41 -30 65t-92 24h-64z" />
    <glyph glyph-name="afii10020" unicode="&#x413;" horiz-adv-x="428" 
d="M80 0l82 667h334l-12 -96h-232l-70 -571h-102z" />
    <glyph glyph-name="afii10021" unicode="&#x414;" horiz-adv-x="650" 
d="M226 667h416l-70 -571h76l-30 -246h-96l18 150h-430l-18 -150h-96l30 246q45 4 79 36q38 35 58 101q15 45 25 128zM316 571l-26 -210q-15 -128 -43 -186q-22 -46 -61 -79h284l58 475h-212z" />
    <glyph glyph-name="afii10022" unicode="&#x415;" 
d="M530 667l-12 -96h-266l-20 -169h258l-12 -96h-258l-26 -210h266l-12 -96h-368l82 667h368z" />
    <glyph glyph-name="afii10024" unicode="&#x416;" horiz-adv-x="850" 
d="M454 667h102l-33 -269l271 269h128l-319 -310l233 -357h-120l-190 294l-18 -18l-34 -276h-102l34 276l-12 18l-262 -294h-128l329 362l-237 306l120 -1l205 -269z" />
    <glyph glyph-name="afii10025" unicode="&#x417;" horiz-adv-x="565" 
d="M188 516l-63 65q42 45 84 68q53 29 130 29q105 0 159 -56q40 -41 40 -109q0 -53 -26 -93q-27 -41 -76 -61q38 -13 61 -35q44 -41 44 -115q0 -92 -59 -153q-66 -68 -191 -68q-99 0 -159 42q-61 44 -88 118l89 46q12 -46 45 -76q41 -36 109 -36q77 0 115 33q37 32 37 87
q0 52 -39 79q-33 23 -108 23h-60l12 96h56q75 0 110 33q27 25 27 68q0 41 -30 63q-28 20 -80 20q-48 0 -82 -20q-32 -19 -57 -48z" />
    <glyph glyph-name="afii10026" unicode="&#x418;" horiz-adv-x="712" 
d="M530 0l55 449l-509 -479l86 697h102l-55 -451l508 479l-85 -695h-102z" />
    <glyph glyph-name="afii10027" unicode="&#x419;" horiz-adv-x="712" 
d="M530 0l55 449l-509 -479l86 697h102l-55 -451l508 479l-85 -695h-102zM297 832l81 36q7 -22 24 -38q21 -18 59 -18q34 0 55 15q23 16 32 41l79 -36q-20 -46 -60 -72q-45 -30 -111 -30t-107 31q-35 25 -52 71z" />
    <glyph glyph-name="afii10028" unicode="&#x41a;" horiz-adv-x="586" 
d="M264 667l-33 -258l288 258h137l-340 -302l258 -365h-134l-202 296l-22 -20l-34 -276h-102l82 667h102z" />
    <glyph glyph-name="afii10029" unicode="&#x41b;" horiz-adv-x="646" 
d="M222 667h426l-82 -667h-102l70 571h-222l-39 -314q-19 -154 -73 -211q-49 -52 -132 -52q-24 0 -54 7l12 94q14 -7 36 -7q40 0 65 26q20 21 29 55.5t17 99.5z" />
    <glyph glyph-name="afii10030" unicode="&#x41c;" horiz-adv-x="852" 
d="M166 0h-106l228 717l168 -518l298 518l38 -717h-102l-19 402l-247 -433l-139 434z" />
    <glyph glyph-name="afii10031" unicode="&#x41d;" horiz-adv-x="650" 
d="M264 667l-32 -264h286l32 264h102l-82 -667h-102l38 307h-286l-38 -307h-102l82 667h102z" />
    <glyph glyph-name="afii10032" unicode="&#x41e;" horiz-adv-x="796" 
d="M478 679q138 0 225 -87q86 -85 86 -226q0 -169 -105 -276q-102 -103 -275 -103q-148 0 -231 86q-89 91 -89 227q0 79 29 151.5t80 122.5q105 105 280 105zM410 81q124 0 196 72q38 37 59.5 92.5t21.5 114.5q0 95 -60 157q-66 68 -169 68q-110 0 -185 -74
q-83 -81 -83 -204q0 -98 62 -162q60 -64 158 -64z" />
    <glyph glyph-name="afii10033" unicode="&#x41f;" horiz-adv-x="650" 
d="M162 667h490l-82 -667h-102l70 571h-286l-70 -571h-102z" />
    <glyph glyph-name="afii10034" unicode="&#x420;" horiz-adv-x="481" 
d="M162 667h143q107 0 161 -52q49 -47 49 -130q0 -93 -57 -150q-64 -64 -209 -64h-34l-33 -271h-102zM252 573l-25 -208h38q83 0 118 31q34 29 34 83q0 45 -31 71q-28 23 -91 23h-43z" />
    <glyph glyph-name="afii10035" unicode="&#x421;" horiz-adv-x="622" 
d="M653 631l-14 -120q-74 74 -183 74q-110 0 -181 -68q-38 -36 -61 -93t-23 -123q0 -95 58 -157q58 -63 157 -63t189 77l-14 -121q-92 -50 -184 -50q-136 0 -219 83q-89 89 -89 231q0 168 110 276q105 102 264 102q93 0 190 -48z" />
    <glyph glyph-name="afii10036" unicode="&#x422;" horiz-adv-x="428" 
d="M488 571h-153l-70 -571h-102l70 571h-153l12 96h408z" />
    <glyph glyph-name="afii10037" unicode="&#x423;" horiz-adv-x="559" 
d="M88 667h109l135 -361l197 361h106l-374 -667h-106l113 203z" />
    <glyph glyph-name="afii10038" unicode="&#x424;" horiz-adv-x="831" 
d="M364 0l12 94h-7q-145 0 -220 71q-58 55 -58 153q0 129 78 209q84 87 252 87h18l10 80h102l-10 -80h7q141 0 214 -71q64 -62 64 -164q0 -61 -20.5 -116t-58.5 -91q-82 -78 -258 -78h-11l-12 -94h-102zM387 188l41 332h-20q-114 0 -169 -60q-46 -50 -46 -126q0 -58 35 -96
q48 -50 149 -50h10zM530 520l-41 -332h12q113 0 167 50q55 52 55 136q0 62 -35 99q-46 47 -146 47h-12z" />
    <glyph glyph-name="afii10039" unicode="&#x425;" horiz-adv-x="540" 
d="M10 0l253 348l-145 319h108l102 -226l161 226h114l-231 -319l158 -348h-108l-115 255l-183 -255h-114z" />
    <glyph glyph-name="afii10040" unicode="&#x426;" horiz-adv-x="660" 
d="M80 0l82 667h102l-70 -571h276l70 571h102l-70 -571h86l-30 -246h-96l18 150h-470z" />
    <glyph glyph-name="afii10041" unicode="&#x427;" horiz-adv-x="608" 
d="M426 0l34 278q-52 -11 -121 -11q-107 0 -169 44q-52 40 -52 120q0 23 7 80l19 156h102l-19 -151q-6 -53 -6 -68q0 -42 28 -64q29 -23 103 -23q64 0 120 11l36 295h102l-82 -667h-102z" />
    <glyph glyph-name="afii10042" unicode="&#x428;" horiz-adv-x="938" 
d="M80 0l82 667h102l-70 -571h236l70 571h102l-70 -571h236l70 571h102l-82 -667h-778z" />
    <glyph glyph-name="afii10043" unicode="&#x429;" horiz-adv-x="958" 
d="M80 0l82 667h102l-70 -571h236l70 571h102l-70 -571h236l70 571h102l-70 -571h86l-30 -246h-96l18 150h-768z" />
    <glyph glyph-name="afii10044" unicode="&#x42a;" horiz-adv-x="594" 
d="M160 0l70 571h-150l12 96h252l-33 -269h70q105 0 161 -51q52 -47 52 -127q0 -103 -57 -160q-38 -38 -86 -49t-112 -11h-77h-102zM299 302l-25 -206h72q86 0 118 33q29 29 29 81q0 44 -34 70q-31 22 -99 22h-61z" />
    <glyph glyph-name="afii10045" unicode="&#x42b;" horiz-adv-x="740" 
d="M640 667h102l-82 -667h-102zM80 0l83 667h101l-33 -269h70q105 0 161 -51q52 -47 52 -127q0 -103 -57 -160q-38 -38 -86 -49t-112 -11h-78h-101zM219 302l-25 -206h72q86 0 118 33q29 29 29 81q0 44 -34 70q-31 22 -99 22h-61z" />
    <glyph glyph-name="afii10046" unicode="&#x42c;" horiz-adv-x="514" 
d="M80 0l83 667h101l-33 -269h70q105 0 161 -51q52 -47 52 -127q0 -103 -57 -160q-38 -38 -86 -49t-112 -11h-78h-101zM219 302l-25 -206h72q86 0 118 33q29 29 29 81q0 44 -34 70q-31 22 -99 22h-61z" />
    <glyph glyph-name="afii10047" unicode="&#x42d;" horiz-adv-x="621" 
d="M107 511l14 120q82 48 190 48q143 0 223 -80t80 -222q0 -75 -25 -156t-86 -142q-91 -92 -256 -92q-104 0 -194 52l14 119q70 -77 186 -77q106 0 169 60q59 56 78 149h-330l12 96h328q-3 92 -64 149q-54 50 -145 50q-116 0 -194 -74z" />
    <glyph glyph-name="afii10048" unicode="&#x42e;" horiz-adv-x="1007" 
d="M231 402h102q25 104 97 174q103 103 262 103q137 0 222 -85q86 -86 86 -227q0 -172 -105 -278q-101 -102 -260 -102q-140 0 -226 86q-89 89 -89 233h-100l-38 -306h-102l82 667h102zM644 81q102 0 173 72q81 81 81 209q0 92 -60 156q-64 67 -159 67q-104 0 -178 -74
q-80 -80 -80 -201q0 -102 60 -165q61 -64 163 -64z" />
    <glyph glyph-name="afii10049" unicode="&#x42f;" horiz-adv-x="534" 
d="M20 0l232 278q-60 13 -97 53q-42 45 -42 116q0 93 49 148q63 72 210 72h164l-82 -667h-102l33 267h-24l-215 -267h-126zM422 573h-52q-94 0 -130 -36q-28 -28 -28 -79q0 -40 23 -63q34 -34 118 -34h43z" />
    <glyph glyph-name="afii10065" unicode="&#x430;" horiz-adv-x="532" 
d="M418 372l6 49h98l-52 -421h-98l5 44q-28 -30 -56 -42q-35 -15 -77 -15q-72 0 -120 46q-58 56 -58 152q0 115 73 188q59 59 154 59q44 0 77 -18q28 -15 48 -42zM298 344q-49 0 -84 -33q-47 -45 -47 -118q0 -53 33 -88q28 -30 71 -30q55 0 92 37q43 45 43 115q0 56 -33 89
q-28 28 -75 28z" />
    <glyph glyph-name="afii10066" unicode="&#x431;" horiz-adv-x="530" 
d="M467 710h100q-9 -35 -28.5 -62t-43.5 -43t-42.5 -24t-37.5 -13l-62 -16q-28 -7 -39.5 -10.5t-32 -15.5t-36.5 -29q-44 -48 -56 -124h1q52 59 135 59q87 0 143 -53q55 -53 55 -144q0 -114 -70 -182q-66 -66 -177 -66q-91 0 -146 56q-59 61 -59 159q0 78 34 198
q33 120 95 178q49 45 111 60l72 17q17 4 23.5 6t21.5 8.5t24 16.5t15 24zM279 75q60 0 100 42q43 45 43 113q0 56 -33 86q-29 28 -80 28q-61 0 -98 -41q-41 -44 -41 -111q0 -48 28 -81q31 -36 81 -36z" />
    <glyph glyph-name="afii10067" unicode="&#x432;" horiz-adv-x="443" 
d="M114 421h148q62 0 97 -20q43 -26 43 -79q0 -33 -18 -59q-17 -23 -43 -33q30 -8 51 -29q26 -27 26 -69q0 -57 -37 -92q-41 -40 -119 -40h-104h-96zM192 257h50q30 0 44 10q19 12 19 37q0 20 -19 30q-14 7 -41 7h-43zM170 80h80q31 0 48 11q23 13 23 39t-18 37
q-14 10 -45 10h-76z" />
    <glyph glyph-name="afii10068" unicode="&#x433;" horiz-adv-x="328" 
d="M62 0l52 421h258l-11 -90h-160l-41 -331h-98z" />
    <glyph glyph-name="afii10069" unicode="&#x434;" horiz-adv-x="486" 
d="M150 421h316l-41 -331h64l-26 -210h-90l15 120h-294l-15 -120h-90l26 210q39 4 65 30q36 36 49 136zM327 90l30 241h-124l-14 -112q-6 -49 -22 -79q-15 -28 -43 -50h173z" />
    <glyph glyph-name="afii10070" unicode="&#x435;" horiz-adv-x="489" 
d="M377 142l77 -46q-30 -50 -78 -79q-51 -30 -118 -30q-83 0 -135 53q-57 57 -57 150q0 109 73 180q64 62 154 62q80 0 127 -49q52 -54 52 -147q0 -25 -5 -49h-301q0 -52 31 -85q25 -27 69 -27q37 0 67 19q27 18 44 48zM181 267h196q-5 37 -25 58q-21 23 -61 23t-71 -25
q-25 -20 -39 -56z" />
    <glyph glyph-name="afii10072" unicode="&#x436;" horiz-adv-x="622" 
d="M315 421h98l-19 -156l146 156h116l-187 -194l151 -227h-120l-106 169l-14 -14l-19 -155h-98l19 155l-8 14l-148 -169h-124l209 229l-139 192h116l108 -156z" />
    <glyph glyph-name="afii10073" unicode="&#x437;" horiz-adv-x="431" 
d="M149 309l-58 58q26 27 62 45q40 20 94 20q70 0 110 -29q44 -32 44 -87q0 -36 -19 -59q-18 -23 -50 -30q28 -8 50 -30q25 -26 25 -66q0 -58 -39 -97q-47 -47 -140 -47q-71 0 -113 27q-41 25 -64 73l79 40q13 -27 33 -42q25 -18 63 -18q36 0 57 15q24 18 24 45t-22 40
q-15 10 -49 10h-50l10 80h36q43 0 60 16q13 11 13 33q0 21 -18 34q-16 12 -48 12q-29 0 -52 -12q-20 -11 -38 -31z" />
    <glyph glyph-name="afii10074" unicode="&#x438;" horiz-adv-x="510" 
d="M114 421h98l-30 -239l322 277l-56 -459h-98l30 245l-322 -277z" />
    <glyph glyph-name="afii10075" unicode="&#x439;" horiz-adv-x="510" 
d="M114 421h98l-30 -239l322 277l-56 -459h-98l30 245l-322 -277zM168 603l83 23q5 -28 23 -46q20 -19 53 -19q35 0 57 16q24 18 31 49l77 -23q-16 -56 -63 -88q-45 -30 -107 -30q-60 0 -100 32t-54 86z" />
    <glyph glyph-name="afii10076" unicode="&#x43a;" horiz-adv-x="442" 
d="M114 421h98l-18 -144l156 144h132l-209 -184l165 -237h-122l-119 173l-18 -16l-19 -157h-98z" />
    <glyph glyph-name="afii10077" unicode="&#x43b;" horiz-adv-x="470" 
d="M460 421l-52 -421h-98l41 331h-124l-19 -151q-5 -34 -7.5 -48.5t-14.5 -42.5t-31 -47q-56 -55 -147 -42l11 90q44 -9 70 17q18 18 25 69l30 245h316z" />
    <glyph glyph-name="afii10078" unicode="&#x43c;" horiz-adv-x="580" 
d="M14 0l158 459l135 -321l213 321l46 -459h-98l-16 211l-164 -243l-104 243l-68 -211h-102z" />
    <glyph glyph-name="afii10079" unicode="&#x43d;" horiz-adv-x="494" 
d="M62 0l52 421h98l-19 -156h174l19 156h98l-52 -421h-98l21 175h-174l-21 -175h-98z" />
    <glyph glyph-name="afii10080" unicode="&#x43e;" horiz-adv-x="534" 
d="M313 432q94 0 150 -56q57 -59 57 -146q0 -107 -73 -178q-68 -65 -173 -65q-94 0 -150 57q-58 60 -58 147q0 106 73 176q68 65 174 65zM287 75q56 0 93 40q40 43 40 109q0 54 -33 88q-31 32 -80 32q-58 0 -95 -35q-46 -43 -46 -110q0 -51 31 -87q34 -37 90 -37z" />
    <glyph glyph-name="afii10081" unicode="&#x43f;" horiz-adv-x="490" 
d="M114 421h366l-52 -421h-98l41 331h-170l-41 -331h-98z" />
    <glyph glyph-name="afii10082" unicode="&#x440;" horiz-adv-x="532" 
d="M166 49l-34 -278h-98l80 650h98l-6 -46q19 26 50 40q35 17 75 17q82 0 134 -54q53 -55 53 -143q0 -53 -19.5 -103.5t-51.5 -84.5q-58 -61 -140 -61q-56 0 -95 23q-25 15 -46 40zM308 344q-52 0 -84 -31q-46 -44 -46 -122q0 -54 28 -83q31 -33 80 -33t83 34q48 48 48 118
q0 52 -30 85q-29 32 -79 32z" />
    <glyph glyph-name="afii10083" unicode="&#x441;" horiz-adv-x="422" 
d="M439 396l-13 -106q-25 25 -50 38q-31 16 -62 16q-67 0 -107 -42t-40 -104q0 -58 36 -92q33 -31 87 -31q36 0 68 15q32 18 48 36l-13 -110q-44 -29 -125 -29q-89 0 -143 54q-59 57 -59 153q0 103 70 173q66 65 172 65q75 0 131 -36z" />
    <glyph glyph-name="afii10084" unicode="&#x442;" horiz-adv-x="360" 
d="M393 331h-123l-41 -331h-98l41 331h-123l11 90h344z" />
    <glyph glyph-name="afii10085" unicode="&#x443;" horiz-adv-x="482" 
d="M3 -229l200 307l-145 343h116l95 -237l147 237h112l-415 -650h-110z" />
    <glyph glyph-name="afii10086" unicode="&#x444;" horiz-adv-x="674" 
d="M260 -229l27 222q-111 7 -169 67q-50 51 -50 128q0 101 67 165q76 73 206 75l29 239h98l-29 -239q107 -8 167 -67q52 -52 52 -135q0 -102 -69 -167q-70 -66 -204 -66l-27 -222h-98zM298 81l32 259q-74 4 -122 -42q-39 -39 -39 -96q0 -54 40 -88q35 -30 89 -33zM428 340
l-32 -259q69 -2 111 30q51 39 51 113q0 60 -46 92q-36 24 -84 24z" />
    <glyph glyph-name="afii10087" unicode="&#x445;" horiz-adv-x="496" 
d="M6 0l214 228l-126 193h114l78 -123l109 123h122l-179 -193l152 -228h-116l-102 157l-144 -157h-122z" />
    <glyph glyph-name="afii10088" unicode="&#x446;" horiz-adv-x="502" 
d="M62 0l52 421h98l-41 -331h166l41 331h98l-41 -331h70l-26 -210h-90l15 120h-342z" />
    <glyph glyph-name="afii10089" unicode="&#x447;" horiz-adv-x="449" 
d="M289 0l20 166q-36 -12 -80 -12q-66 0 -106 30q-38 29 -38 79q0 19 5 54l13 104h98l-12 -97q-3 -24 -3 -34q0 -28 20 -40q18 -12 57 -12q29 0 57 11l21 172h98l-52 -421h-98z" />
    <glyph glyph-name="afii10090" unicode="&#x448;" horiz-adv-x="698" 
d="M62 0l52 421h98l-41 -331h140l41 331h98l-41 -331h140l41 331h98l-52 -421h-574z" />
    <glyph glyph-name="afii10091" unicode="&#x449;" horiz-adv-x="714" 
d="M62 0l52 421h98l-41 -331h140l41 331h98l-41 -331h140l41 331h98l-41 -331h70l-26 -210h-90l15 120h-554z" />
    <glyph glyph-name="afii10092" unicode="&#x44a;" horiz-adv-x="438" 
d="M98 0l41 331h-90l11 90h188l-19 -149h53q76 0 115 -37q34 -33 34 -83q0 -69 -42 -109q-45 -43 -138 -43h-55h-98zM206 84h46q41 0 61 15q19 15 19 42q0 26 -21 38q-15 9 -48 9h-44z" />
    <glyph glyph-name="afii10093" unicode="&#x44b;" horiz-adv-x="581" 
d="M421 0l52 421h98l-52 -421h-98zM62 0l51 421h99l-19 -149h53q76 0 115 -37q34 -34 34 -86q0 -66 -42 -106q-45 -43 -138 -43h-57h-96zM170 84h46q41 0 61 15q19 15 19 42q0 26 -21 38q-15 9 -48 9h-44z" />
    <glyph glyph-name="afii10094" unicode="&#x44c;" horiz-adv-x="402" 
d="M62 0l51 421h99l-19 -149h53q76 0 115 -37q34 -33 34 -83q0 -69 -42 -109q-45 -43 -138 -43h-57h-96zM170 84h46q41 0 61 15q19 15 19 42q0 26 -21 38q-15 9 -48 9h-44z" />
    <glyph glyph-name="afii10095" unicode="&#x44d;" horiz-adv-x="429" 
d="M76 314l11 93q55 25 119 25q101 0 157 -58q52 -53 52 -143q0 -114 -71 -183q-62 -61 -174 -61q-72 0 -129 26l12 93q52 -31 114 -31q57 0 90 25q35 27 43 74h-195l11 82h192q-8 46 -42 68q-31 20 -76 20q-58 0 -114 -30z" />
    <glyph glyph-name="afii10096" unicode="&#x44e;" horiz-adv-x="702" 
d="M193 265h67q16 70 72 115q63 52 155 52q86 0 142 -52q59 -55 59 -147q0 -111 -70 -181q-65 -65 -171 -65q-108 0 -161 67q-40 51 -40 121h-65l-21 -175h-98l52 421h98zM480 344q-55 0 -92 -35q-21 -21 -33 -54.5t-12 -65.5q0 -52 28 -83t81 -31q58 0 92 37q44 47 44 122
q0 53 -31 82q-28 28 -77 28z" />
    <glyph glyph-name="afii10097" unicode="&#x44f;" horiz-adv-x="411" 
d="M8 0l146 167q-37 6 -61 30q-28 27 -28 78q0 65 36 102q43 44 145 44h155l-52 -421h-98l19 155h-16l-127 -155h-119zM280 235l12 102h-57q-40 0 -57 -10q-25 -14 -25 -47q0 -25 19 -36q14 -9 50 -9h58z" />
    <glyph glyph-name="afii10071" unicode="&#x451;" horiz-adv-x="489" 
d="M377 142l77 -46q-30 -50 -78 -79q-51 -30 -118 -30q-83 0 -135 53q-57 57 -57 150q0 109 73 180q64 62 154 62q80 0 127 -49q52 -54 52 -147q0 -25 -5 -49h-301q0 -52 31 -85q25 -27 69 -27q37 0 67 19q27 18 44 48zM181 267h196q-5 37 -25 58q-21 23 -61 23t-71 -25
q-25 -20 -39 -56zM175 569q3 26 23.5 44t45.5 18q26 0 42 -18.5t13 -43.5q-4 -26 -24.5 -44t-45.5 -18q-26 0 -42 18.5t-12 43.5zM355 569q3 26 23.5 44t45.5 18q26 0 42 -18.5t13 -43.5q-4 -26 -24.5 -44t-45.5 -18q-26 0 -42 18.5t-12 43.5z" />
    <glyph glyph-name="afii10099" unicode="&#x452;" horiz-adv-x="486" 
d="M62 0l63 512h-96l9 76h96l18 141h98l-18 -141h200l-9 -76h-200l-21 -167q16 18 42 31q32 16 72 16q64 0 100 -36q37 -37 37 -102q0 -27 -8 -87l-32 -253q-6 -43 -16 -70t-36 -47q-35 -27 -98 -27q-37 0 -67 9l11 88q21 -9 46 -9q28 0 44 16q15 16 20 57l31 246q5 35 5 56
q0 36 -19 54q-18 17 -50 17q-39 0 -62 -23q-32 -31 -42 -118l-20 -163h-98z" />
    <glyph glyph-name="afii10100" unicode="&#x453;" horiz-adv-x="328" 
d="M62 0l52 421h258l-11 -90h-160l-41 -331h-98zM348 675l84 -46l-173 -144l-50 34z" />
    <glyph glyph-name="afii10101" unicode="&#x454;" horiz-adv-x="429" 
d="M439 402l-12 -101q-48 43 -117 43q-51 0 -86 -24q-34 -24 -44 -63h195l-10 -80h-195q2 -45 30 -73q31 -29 87 -29q68 0 117 46l-12 -103q-57 -31 -127 -31q-91 0 -145 56t-54 145q0 109 70 179q65 65 170 65q73 0 133 -30z" />
    <glyph glyph-name="afii10102" unicode="&#x455;" horiz-adv-x="364" 
d="M354 358l-76 -48q-7 16 -20 26t-30 10q-22 0 -34 -12q-9 -9 -9 -22q0 -15 12 -24q4 -4 41 -22l28 -14q34 -17 53 -36q32 -34 32 -87q0 -62 -42 -102q-43 -40 -118 -40q-58 0 -94 27q-37 28 -52 77l85 38q7 -26 23 -41q17 -15 41 -15t39 13q16 13 16 37q0 21 -14 35
q-8 8 -40 24l-27 14q-35 19 -48 32q-29 27 -29 73q0 55 38 93t104 38q42 0 73 -20q28 -19 48 -54z" />
    <glyph glyph-name="afii10103" unicode="&#x456;" horiz-adv-x="223" 
d="M114 421h98l-52 -421h-98zM120 585q0 31 21 52t51 21q25 0 40 -15q16 -16 16 -38q0 -29 -20 -51t-53 -22q-24 0 -39 15q-16 14 -16 38z" />
    <glyph glyph-name="afii10104" unicode="&#x457;" horiz-adv-x="233" 
d="M119 421h98l-52 -421h-98zM257 658q20 0 32 -17q10 -13 10 -33q0 -28 -15 -50q-16 -24 -41 -24q-18 0 -31 13t-13 38q0 37 23 58q17 15 35 15zM137 658q20 0 32 -17q10 -13 10 -33q0 -27 -15 -50q-16 -24 -41 -24q-18 0 -31 13t-13 38q0 37 23 58q17 15 35 15z" />
    <glyph glyph-name="afii10105" unicode="&#x458;" horiz-adv-x="223" 
d="M114 421h98l-80 -650h-98zM121 595q3 26 23.5 44.5t46.5 18.5t42.5 -18.5t13.5 -44.5q-4 -26 -24.5 -44.5t-46.5 -18.5t-42.5 18.5t-12.5 44.5z" />
    <glyph glyph-name="afii10106" unicode="&#x459;" horiz-adv-x="650" 
d="M310 0l41 331h-124l-19 -151q-5 -34 -7.5 -48.5t-14.5 -42.5t-31 -47q-56 -55 -147 -42l11 90q44 -9 70 17q18 18 25 69l30 245h316l-19 -149h53q76 0 115 -37q34 -33 34 -83q0 -69 -42 -109q-45 -43 -138 -43h-59h-94zM418 84h46q41 0 61 15q19 15 19 42q0 26 -21 38
q-15 9 -48 9h-44z" />
    <glyph glyph-name="afii10107" unicode="&#x45a;" horiz-adv-x="674" 
d="M334 0l23 188h-174l-23 -188h-98l52 421h98l-19 -149h174l18 149h99l-19 -149h53q72 0 110 -32q39 -33 39 -89q0 -68 -42 -108q-45 -43 -138 -43h-54h-99zM442 84h46q41 0 61 15q19 15 19 42q0 26 -21 38q-15 9 -48 9h-44z" />
    <glyph glyph-name="afii10108" unicode="&#x45b;" horiz-adv-x="486" 
d="M62 0l63 512h-96l9 76h96l18 141h98l-18 -141h200l-9 -76h-200l-21 -167q16 18 42 31q32 16 72 16q64 0 100 -36q37 -37 37 -102q0 -27 -8 -87l-21 -167h-98l22 177q5 38 5 56q0 36 -19 54q-18 17 -50 17q-39 0 -62 -23q-32 -31 -42 -118l-20 -163h-98z" />
    <glyph glyph-name="afii10109" unicode="&#x45c;" horiz-adv-x="442" 
d="M114 421h98l-18 -144l156 144h132l-209 -184l165 -237h-122l-119 173l-18 -16l-19 -157h-98zM379 675l84 -46l-173 -144l-50 34z" />
    <glyph glyph-name="afii10110" unicode="&#x45e;" horiz-adv-x="482" 
d="M3 -229l200 307l-145 343h116l95 -237l147 237h112l-415 -650h-110zM147 603l83 23q5 -28 23 -46q20 -19 53 -19q35 0 57 16q24 18 31 49l77 -23q-16 -56 -63 -88q-45 -30 -107 -30q-60 0 -100 32t-54 86z" />
    <glyph glyph-name="afii10193" unicode="&#x45f;" horiz-adv-x="486" 
d="M62 0l52 421h98l-41 -331h166l41 331h98l-52 -421h-136l-16 -130h-90l16 130h-136z" />
    <glyph glyph-name="afii10146" unicode="&#x462;" horiz-adv-x="594" 
d="M160 0l62 503h-150l11 94h150l12 97h102l-12 -97h180l-11 -94h-180l-13 -105h70q105 0 161 -51q52 -47 52 -127q0 -103 -57 -160q-38 -38 -86 -49t-112 -11h-179zM299 302l-25 -206h72q86 0 118 33q29 29 29 81q0 44 -34 70q-31 22 -99 22h-61z" />
    <glyph glyph-name="afii10194" unicode="&#x463;" horiz-adv-x="438" 
d="M98 0l41 337h-90l11 84h90l30 246h96l-29 -246h121l-11 -84h-120l-8 -65h53q76 0 115 -37q34 -33 34 -83q0 -69 -42 -109q-45 -43 -138 -43h-58h-95zM206 84h46q41 0 61 15q19 15 19 42q0 26 -21 38q-15 9 -48 9h-44z" />
    <glyph glyph-name="afii10147" unicode="&#x472;" horiz-adv-x="796" 
d="M478 679q138 0 225 -87q86 -85 86 -226q0 -169 -105 -276q-102 -103 -275 -103q-148 0 -231 86q-89 91 -89 227q0 79 29 151.5t80 122.5q107 105 280 105zM678 287h-487q4 -82 61 -142q61 -64 158 -64q121 0 196 72q57 54 72 134zM199 383h487q-7 81 -59 134
q-66 68 -169 68q-108 0 -185 -74q-56 -53 -74 -128z" />
    <glyph glyph-name="afii10195" unicode="&#x473;" horiz-adv-x="534" 
d="M313 432q94 0 150 -56q57 -59 57 -146q0 -107 -73 -178q-68 -65 -173 -65q-94 0 -150 57q-58 60 -58 147q0 106 73 176q68 65 174 65zM413 173h-244q6 -44 35 -70q31 -28 83 -28q50 0 83 27q33 28 43 71zM175 253h242q-6 41 -36 66q-29 25 -77 25q-52 0 -88 -29
q-29 -23 -41 -62z" />
    <glyph glyph-name="afii10148" unicode="&#x474;" horiz-adv-x="600" 
d="M86 667h108l129 -465l243 465h112l-383 -710z" />
    <glyph glyph-name="afii10196" unicode="&#x475;" horiz-adv-x="448" 
d="M58 421h108l78 -240l138 240h112l-274 -451z" />
    <glyph glyph-name="afii10050" unicode="&#x490;" horiz-adv-x="428" 
d="M80 0l82 667h238l18 150h96l-30 -246h-232l-70 -571h-102z" />
    <glyph glyph-name="afii10098" unicode="&#x491;" horiz-adv-x="328" 
d="M62 0l52 421h168l14 120h90l-25 -210h-160l-41 -331h-98z" />
    <glyph glyph-name="uni0492" unicode="&#x492;" horiz-adv-x="428" 
d="M80 0l40 322h-90l10 86h90l32 259h334l-12 -96h-232l-20 -163h150l-10 -86h-150l-40 -322h-102z" />
    <glyph glyph-name="uni0493" unicode="&#x493;" horiz-adv-x="328" 
d="M62 0l21 168h-72l9 80h72l22 173h258l-11 -90h-160l-11 -83h100l-9 -80h-100l-21 -168h-98z" />
    <glyph glyph-name="uni0494" unicode="&#x494;" horiz-adv-x="567" 
d="M472 571h-220l-23 -186q66 23 134 23q98 0 149 -49q55 -53 55 -153q0 -104 -61 -163q-52 -50 -151 -50q-44 0 -95 8l11 93q40 -7 74 -7q59 0 88 27q32 30 32 89q0 54 -26 81q-29 30 -89 30q-69 0 -132 -23l-36 -291h-102l82 667h322z" />
    <glyph glyph-name="uni0495" unicode="&#x495;" horiz-adv-x="480" 
d="M102 0l52 421h258l-11 -90h-160l-12 -95h17q98 0 149 -49q50 -48 50 -134q0 -126 -97 -201q-69 -53 -157 -60l11 90q48 7 82 36q59 49 59 132q0 52 -28 76q-25 22 -81 22h-16l-18 -148h-98z" />
    <glyph glyph-name="uni0496" unicode="&#x496;" horiz-adv-x="860" 
d="M454 667h102l-33 -269l271 269h128l-319 -310l170 -261h75l-30 -246h-96l18 150h-24l-190 294l-18 -18l-34 -276h-102l34 276l-12 18l-262 -294h-128l329 362l-237 305h120l205 -269z" />
    <glyph glyph-name="uni0497" unicode="&#x497;" horiz-adv-x="628" 
d="M315 421h98l-19 -156l146 156h116l-187 -194l92 -137h70l-26 -210h-90l15 120h-30l-106 169l-14 -14l-19 -155h-98l19 155l-8 14l-148 -169h-124l209 229l-139 192h116l108 -156z" />
    <glyph glyph-name="uni0498" unicode="&#x498;" horiz-adv-x="565" 
d="M188 516l-63 65q42 45 84 68q53 29 130 29q105 0 159 -56q40 -41 40 -109q0 -53 -26 -93q-27 -41 -76 -61q38 -13 61 -35q44 -41 44 -115q0 -91 -58 -153q-59 -61 -148 -66l-20 -156h-96l20 156q-67 7 -120 52q-53 46 -75 106l89 46q12 -46 45 -76q41 -36 109 -36
q77 0 115 33q37 32 37 87q0 52 -39 79q-33 23 -108 23h-60l12 96h56q75 0 110 33q27 25 27 68q0 41 -30 63q-28 20 -80 20q-48 0 -82 -20q-32 -19 -57 -48z" />
    <glyph glyph-name="uni0499" unicode="&#x499;" horiz-adv-x="431" 
d="M149 309l-58 58q26 27 62 45q40 20 94 20q70 0 110 -29q44 -32 44 -87q0 -36 -19 -59q-18 -23 -50 -30q28 -8 50 -30q25 -26 25 -66q0 -61 -38 -99q-35 -38 -94 -40l-15 -122h-90l15 119q-42 6 -78 31t-56 67l79 40q13 -27 33 -42q25 -18 63 -18q36 0 57 15q24 18 24 45
t-22 40q-15 10 -49 10h-50l10 80h36q43 0 60 16q13 11 13 33q0 21 -18 34q-16 12 -48 12q-29 0 -52 -12q-20 -11 -38 -31z" />
    <glyph glyph-name="uni049A" unicode="&#x49a;" horiz-adv-x="582" 
d="M264 667l-33 -264l285 264h132l-337 -305l189 -266h80l-30 -246h-96l18 150h-32l-202 296l-22 -20l-34 -276h-102l82 667h102z" />
    <glyph glyph-name="uni049B" unicode="&#x49b;" horiz-adv-x="448" 
d="M114 421h98l-18 -144l156 144h132l-209 -184l103 -147h73l-26 -210h-90l15 120h-32l-119 173l-18 -16l-19 -157h-98z" />
    <glyph glyph-name="uni049C" unicode="&#x49c;" horiz-adv-x="680" 
d="M162 667h102l-33 -264h86l18 140h90l-18 -140l225 264h120l-264 -308l180 -359h-118l-154 313l-18 -150h-90l18 150h-86l-38 -313h-102z" />
    <glyph glyph-name="uni049D" unicode="&#x49d;" horiz-adv-x="530" 
d="M114 421h98l-19 -152h60l12 100h80l-13 -106l134 158h114l-169 -190l113 -231h-110l-90 195l-14 -116h-80l13 110h-60l-23 -189h-98z" />
    <glyph glyph-name="uni04A0" unicode="&#x4a0;" horiz-adv-x="692" 
d="M680 0h-126l-202 296l-22 -20l-34 -276h-102l70 571h-184l12 96h286l-33 -264l285 264h132l-337 -305z" />
    <glyph glyph-name="uni04A1" unicode="&#x4a1;" horiz-adv-x="510" 
d="M228 0h-98l41 331h-122l11 90h220l-18 -144l156 144h132l-209 -184l165 -237h-122l-119 173l-18 -16z" />
    <glyph glyph-name="uni04A2" unicode="&#x4a2;" horiz-adv-x="670" 
d="M80 0l82 667h102l-32 -264h285l33 264h102l-70 -571h86l-30 -246h-96l18 150h-92l37 307h-285l-38 -307h-102z" />
    <glyph glyph-name="uni04A3" unicode="&#x4a3;" horiz-adv-x="510" 
d="M62 0l52 421h98l-19 -156h174l19 156h98l-41 -331h70l-26 -210h-90l15 120h-78l21 175h-174l-21 -175h-98z" />
    <glyph glyph-name="uni04A4" unicode="&#x4a4;" horiz-adv-x="816" 
d="M80 0l82 667h102l-32 -264h286l32 264h334l-12 -96h-232l-70 -571h-102l38 307h-286l-38 -307h-102z" />
    <glyph glyph-name="uni04A5" unicode="&#x4a5;" horiz-adv-x="600" 
d="M62 0l52 421h98l-19 -156h174l19 156h258l-11 -90h-160l-41 -331h-98l21 175h-174l-21 -175h-98z" />
    <glyph glyph-name="uni04AA" unicode="&#x4aa;" horiz-adv-x="622" 
d="M653 631l-14 -120q-74 74 -183 74q-110 0 -181 -68q-38 -36 -61 -93t-23 -123q0 -94 58 -157q59 -63 157 -63q102 0 189 77l-14 -121q-61 -37 -132 -47l-19 -156h-96l19 156q-102 9 -175 80q-89 88 -89 232q0 168 110 275q105 102 264 102q93 0 190 -48z" />
    <glyph glyph-name="uni04AB" unicode="&#x4ab;" horiz-adv-x="422" 
d="M439 396l-13 -106q-25 25 -50 38q-31 16 -62 16q-67 0 -107 -42t-40 -104q0 -58 36 -92q33 -31 87 -31q36 0 68 15q32 18 48 36l-13 -110q-31 -20 -71 -25l-15 -121h-90l15 120q-72 9 -118 63q-48 57 -48 141q0 103 70 173q66 65 172 65q75 0 131 -36z" />
    <glyph glyph-name="uni04AE" unicode="&#x4ae;" horiz-adv-x="540" 
d="M219 0l35 288l-172 379h114l121 -267l187 267h118l-266 -379l-35 -288h-102z" />
    <glyph glyph-name="uni04AF" unicode="&#x4af;" horiz-adv-x="448" 
d="M58 421h108l79 -237l137 237h112l-212 -350l-37 -300h-98l37 300z" />
    <glyph glyph-name="uni04B0" unicode="&#x4b0;" horiz-adv-x="540" 
d="M219 0l25 202h-190l10 86h190l-172 379h114l121 -267l187 267h118l-266 -379h190l-10 -86h-190l-25 -202h-102z" />
    <glyph glyph-name="uni04B1" unicode="&#x4b1;" horiz-adv-x="448" 
d="M58 421h108l79 -237l137 237h112l-212 -350l-7 -51h130l-10 -86h-130l-20 -163h-98l20 163h-130l10 86h130l7 51z" />
    <glyph glyph-name="uni04B2" unicode="&#x4b2;" horiz-adv-x="564" 
d="M10 0l253 348l-145 319h108l102 -226l161 226h114l-231 -319l117 -252h76l-30 -246h-96l18 150h-35l-115 255l-183 -255h-114z" />
    <glyph glyph-name="uni04B3" unicode="&#x4b3;" horiz-adv-x="498" 
d="M6 0l214 228l-126 193h114l78 -123l109 123h122l-179 -193l92 -138h71l-26 -210h-90l15 120h-26l-102 157l-144 -157h-122z" />
    <glyph glyph-name="uni04B6" unicode="&#x4b6;" horiz-adv-x="629" 
d="M519 0h-93l34 278q-52 -11 -121 -11q-107 0 -169 44q-52 40 -52 120q0 23 7 80l19 156h102l-19 -151q-6 -53 -6 -68q0 -42 28 -64q29 -23 103 -23q64 0 120 11l36 295h102l-69 -571h86l-30 -246h-96z" />
    <glyph glyph-name="uni04B7" unicode="&#x4b7;" horiz-adv-x="464" 
d="M366 0h-77l20 166q-35 -12 -77 -12q-66 0 -104 26q-43 30 -43 86q0 14 5 51l13 104h98l-12 -97q-3 -24 -3 -35q0 -24 20 -39q19 -12 53 -12q29 0 61 11l21 172h98l-42 -331h70l-26 -210h-90z" />
    <glyph glyph-name="uni04B8" unicode="&#x4b8;" horiz-adv-x="642" 
d="M460 0l34 274q-54 -8 -99 -8l-17 -136h-90l17 138q-74 2 -124 33q-63 40 -63 127q0 28 8 88l18 151h102l-20 -164q-5 -46 -5 -59q0 -44 31 -65q26 -17 64 -17l19 148h90l-19 -151q51 0 99 9l37 299h102l-82 -667h-102z" />
    <glyph glyph-name="uni04B9" unicode="&#x4b9;" horiz-adv-x="528" 
d="M368 0l20 159q-42 -7 -69 -7l-11 -87h-80l11 88q-68 -4 -109 25q-45 29 -45 90q0 20 5 57l12 96h98l-11 -91q-4 -37 -4 -40q0 -28 20 -40q19 -11 45 -9l14 114h80l-14 -117q36 -2 68 6l22 177h98l-52 -421h-98z" />
    <glyph glyph-name="uni04BA" unicode="&#x4ba;" horiz-adv-x="609" 
d="M264 667l-33 -264q62 7 116 7q125 0 180 -47q21 -18 32 -39.5t13 -49.5t1 -42.5t-4 -44.5l-23 -187h-102l22 176q7 24 2.5 62.5t-33.5 57.5q-29 20 -113 20q-48 0 -102 -7l-38 -309h-102l82 667h102z" />
    <glyph glyph-name="uni04BB" unicode="&#x4bb;" horiz-adv-x="486" 
d="M62 0l90 729h98l-43 -344q16 18 42 31q32 16 72 16q64 0 100 -36q38 -38 38 -102q0 -18 -9 -87l-26 -207h-98l27 217q5 37 5 56q0 36 -19 54q-18 17 -50 17q-40 0 -63 -23q-30 -29 -41 -118l-25 -203h-98z" />
    <glyph glyph-name="uni04C0" unicode="&#x4c0;" horiz-adv-x="262" 
d="M162 667h102l-82 -667h-102z" />
    <glyph glyph-name="uni04C1" unicode="&#x4c1;" horiz-adv-x="850" 
d="M454 667h102l-33 -269l271 269h128l-319 -310l233 -357h-120l-190 294l-18 -18l-34 -276h-102l34 276l-12 18l-262 -294h-128l329 362l-237 306l120 -1l205 -269zM362 832l81 36q7 -22 24 -38q21 -18 59 -18q34 0 55 15q23 16 32 41l79 -36q-20 -46 -60 -72
q-45 -30 -111 -30t-107 31q-35 25 -52 71z" />
    <glyph glyph-name="uni04C2" unicode="&#x4c2;" horiz-adv-x="622" 
d="M315 421h98l-19 -156l146 156h116l-187 -194l151 -227h-120l-106 169l-14 -14l-19 -155h-98l19 155l-8 14l-148 -169h-124l209 229l-139 192h116l108 -156zM223 603l83 23q5 -28 23 -46q20 -19 53 -19q35 0 57 16q24 18 31 49l77 -23q-16 -56 -63 -88q-45 -30 -107 -30
q-60 0 -100 32t-54 86z" />
    <glyph glyph-name="uni04C3" unicode="&#x4c3;" horiz-adv-x="592" 
d="M264 667l-33 -264l285 264h132l-296 -268q54 5 106 -10.5t84 -45.5q51 -47 51 -134q0 -111 -62 -170q-53 -50 -155 -50q-36 0 -57 5l11 94q18 -5 44 -5q58 0 86 29q30 32 30 86q0 56 -39 84q-34 24 -112 24q-66 0 -121 -15l-36 -291h-102l82 667h102z" />
    <glyph glyph-name="uni04C4" unicode="&#x4c4;" horiz-adv-x="445" 
d="M114 421h98l-20 -157l158 157h132l-207 -193q61 -10 98 -56q37 -47 37 -119q0 -126 -97 -201q-69 -53 -157 -60l11 90q49 7 82 36q59 50 59 130q0 52 -31 80q-29 26 -85 26h-12l-20 -154h-98z" />
    <glyph glyph-name="uni04C7" unicode="&#x4c7;" horiz-adv-x="638" 
d="M80 0l82 667h102l-32 -264h286l32 264h102l-91 -743q-10 -85 -42 -117q-37 -37 -110 -37q-35 0 -76 9l11 93q21 -8 44 -8q33 0 49 16q24 24 24 72l45 355h-286l-38 -307h-102z" />
    <glyph glyph-name="uni04C8" unicode="&#x4c8;" horiz-adv-x="494" 
d="M62 0l52 421h98l-19 -156h174l19 156h98l-63 -507q-6 -43 -16 -70t-36 -47q-35 -27 -98 -27q-37 0 -67 9l11 88q21 -9 46 -9q28 0 44 16q15 16 20 57l30 244h-174l-21 -175h-98z" />
    <glyph glyph-name="uni04D0" unicode="&#x4d0;" horiz-adv-x="656" 
d="M544 0l-50 161h-285l-93 -161h-112l419 706l229 -706h-108zM263 257h202l-72 226zM265 832l81 36q7 -22 24 -38q21 -18 59 -18q34 0 55 15q23 16 32 41l79 -36q-20 -46 -60 -72q-45 -30 -111 -30t-107 31q-35 25 -52 71z" />
    <glyph glyph-name="uni04D1" unicode="&#x4d1;" horiz-adv-x="532" 
d="M418 372l6 49h98l-52 -421h-98l5 44q-28 -30 -56 -42q-35 -15 -77 -15q-72 0 -120 46q-58 56 -58 152q0 115 73 188q59 59 154 59q44 0 77 -18q28 -15 48 -42zM298 344q-49 0 -84 -33q-47 -45 -47 -118q0 -53 33 -88q28 -30 71 -30q55 0 92 37q43 45 43 115q0 56 -33 89
q-28 28 -75 28zM154 603l83 23q5 -28 23 -46q20 -19 53 -19q35 0 57 16q24 18 31 49l77 -23q-16 -56 -63 -88q-45 -30 -107 -30q-60 0 -100 32t-54 86z" />
    <glyph glyph-name="uni04D2" unicode="&#x4d2;" horiz-adv-x="656" 
d="M544 0l-50 161h-285l-93 -161h-112l419 706l229 -706h-108zM263 257h202l-72 226zM461 788q0 28 21 49q20 20 50 20q24 0 38 -15q16 -16 16 -41q0 -30 -21 -49t-49 -19q-24 0 -39 15q-16 15 -16 40zM266 788q0 28 21 49q20 20 50 20q24 0 38 -15q16 -16 16 -41
q0 -30 -21 -49t-49 -19q-24 0 -39 15q-16 15 -16 40z" />
    <glyph glyph-name="uni04D3" unicode="&#x4d3;" horiz-adv-x="532" 
d="M418 372l6 49h98l-52 -421h-98l5 44q-28 -30 -56 -42q-35 -15 -77 -15q-72 0 -120 46q-58 56 -58 152q0 115 73 188q59 59 154 59q44 0 77 -18q28 -15 48 -42zM298 344q-49 0 -84 -33q-47 -45 -47 -118q0 -53 33 -88q28 -30 71 -30q55 0 92 37q43 45 43 115q0 56 -33 89
q-28 28 -75 28zM165 569q3 26 23.5 44t45.5 18q26 0 42 -18.5t13 -43.5q-4 -26 -24.5 -44t-45.5 -18q-26 0 -42 18.5t-12 43.5zM345 569q3 26 23.5 44t45.5 18q26 0 42 -18.5t13 -43.5q-4 -26 -24.5 -44t-45.5 -18q-26 0 -42 18.5t-12 43.5z" />
    <glyph glyph-name="uni04D4" unicode="&#x4d4;" horiz-adv-x="926" 
d="M546 0l-50 159h-283l-93 -159h-110l402 667h295l30 -96h-265l51 -159h258l30 -96h-258l68 -220h265l30 -96h-370zM269 255h198l-68 217z" />
    <glyph glyph-name="uni04D5" unicode="&#x4d5;" horiz-adv-x="762" 
d="M140 328l11 91q62 13 119 13q56 0 91 -15q34 -16 53 -43q26 25 57 38q45 20 95 20q79 0 127 -49q52 -55 52 -147q0 -25 -5 -49h-301q0 -52 31 -85q25 -27 69 -27q37 0 67 19q27 18 44 48l77 -46q-30 -50 -78 -79q-50 -30 -118 -30q-52 0 -93 19q-34 16 -59 49
q-27 -34 -66 -51q-38 -17 -97 -17q-68 0 -110 32q-50 37 -50 105q0 60 43 101q48 46 135 46q71 0 113 -28q2 9 2 24q0 39 -27 60q-23 17 -70 17q-53 0 -112 -16zM244 187q-48 0 -75 -23q-18 -15 -18 -39q0 -23 24 -39q23 -15 57 -15q42 0 67 16q28 18 28 47q0 23 -22 38
t-61 15zM454 267h196q-5 37 -25 58q-21 23 -61 23t-71 -25q-25 -20 -39 -56z" />
    <glyph glyph-name="uni04D6" unicode="&#x4d6;" 
d="M530 667l-12 -96h-266l-20 -169h258l-12 -96h-258l-26 -210h266l-12 -96h-368l82 667h368zM197 832l81 36q7 -22 24 -38q21 -18 59 -18q34 0 55 15q23 16 32 41l79 -36q-20 -46 -60 -72q-45 -30 -111 -30t-107 31q-35 25 -52 71z" />
    <glyph glyph-name="uni04D7" unicode="&#x4d7;" horiz-adv-x="489" 
d="M377 142l77 -46q-30 -50 -78 -79q-51 -30 -118 -30q-83 0 -135 53q-57 57 -57 150q0 109 73 180q64 62 154 62q80 0 127 -49q52 -54 52 -147q0 -25 -5 -49h-301q0 -52 31 -85q25 -27 69 -27q37 0 67 19q27 18 44 48zM181 267h196q-5 37 -25 58q-21 23 -61 23t-71 -25
q-25 -20 -39 -56zM147 603l83 23q5 -28 23 -46q20 -19 53 -19q35 0 57 16q24 18 31 49l77 -23q-16 -56 -63 -88q-45 -30 -107 -30q-60 0 -100 32t-54 86z" />
    <glyph glyph-name="uni04D8" unicode="&#x4d8;" horiz-adv-x="750" 
d="M214 484l-81 60q51 58 122 97q73 38 165 38q145 0 229 -81q94 -92 94 -241q0 -164 -95 -269q-93 -101 -246 -101q-149 0 -232 87q-83 86 -83 224q0 8 0.5 19t2 23t1.5 17h549q0 101 -65 168q-59 60 -158 60q-69 0 -122 -30q-44 -25 -81 -71zM626 263h-432q5 -81 60 -132
q53 -50 149 -50q93 0 150 49q59 51 73 133z" />
    <glyph glyph-name="afii10846" unicode="&#x4d9;" horiz-adv-x="489" 
d="M69 242h304q-2 50 -33 78q-27 23 -68 23q-37 0 -63 -16q-21 -13 -38 -35l-89 30q32 53 82 81q51 29 113 29q86 0 140 -50q58 -54 58 -147q0 -123 -69 -192q-56 -56 -151 -56q-85 0 -132 47q-57 57 -57 160q0 22 3 48zM362 162h-199q3 -41 28 -67q24 -24 66 -24t68 22
q29 22 37 69z" />
    <glyph glyph-name="uni04DA" unicode="&#x4da;" horiz-adv-x="750" 
d="M214 484l-81 60q51 58 122 97q73 38 165 38q145 0 229 -81q94 -92 94 -241q0 -164 -95 -269q-93 -101 -246 -101q-149 0 -232 87q-83 86 -83 224q0 8 0.5 19t2 23t1.5 17h549q0 101 -65 168q-59 60 -158 60q-69 0 -122 -30q-44 -25 -81 -71zM626 263h-432q5 -81 60 -132
q53 -50 149 -50q93 0 150 49q59 51 73 133zM473 788q0 28 21 49q20 20 50 20q24 0 38 -15q16 -16 16 -41q0 -30 -21 -49t-49 -19q-24 0 -39 15q-16 15 -16 40zM278 788q0 28 21 49q20 20 50 20q24 0 38 -15q16 -16 16 -41q0 -30 -21 -49t-49 -19q-24 0 -39 15q-16 15 -16 40
z" />
    <glyph glyph-name="uni04DB" unicode="&#x4db;" horiz-adv-x="489" 
d="M69 242h304q-2 50 -33 78q-27 23 -68 23q-37 0 -63 -16q-21 -13 -38 -35l-89 30q32 53 82 81q51 29 113 29q86 0 140 -50q58 -54 58 -147q0 -123 -69 -192q-56 -56 -151 -56q-85 0 -132 47q-57 57 -57 160q0 22 3 48zM362 162h-199q3 -41 28 -67q24 -24 66 -24t68 22
q29 22 37 69zM145 569q3 26 23.5 44t45.5 18q26 0 42 -18.5t13 -43.5q-4 -26 -24.5 -44t-45.5 -18q-26 0 -42 18.5t-12 43.5zM325 569q3 26 23.5 44t45.5 18q26 0 42 -18.5t13 -43.5q-4 -26 -24.5 -44t-45.5 -18q-26 0 -42 18.5t-12 43.5z" />
    <glyph glyph-name="uni04DC" unicode="&#x4dc;" horiz-adv-x="850" 
d="M454 667h102l-33 -269l271 269h128l-319 -310l233 -357h-120l-190 294l-18 -18l-34 -276h-102l34 276l-12 18l-262 -294h-128l329 362l-237 306l120 -1l205 -269zM549 788q0 28 21 49q20 20 50 20q24 0 38 -15q16 -16 16 -41q0 -30 -21 -49t-49 -19q-24 0 -39 15
q-16 15 -16 40zM354 788q0 28 21 49q20 20 50 20q24 0 38 -15q16 -16 16 -41q0 -30 -21 -49t-49 -19q-24 0 -39 15q-16 15 -16 40z" />
    <glyph glyph-name="uni04DD" unicode="&#x4dd;" horiz-adv-x="622" 
d="M315 421h98l-19 -156l146 156h116l-187 -194l151 -227h-120l-106 169l-14 -14l-19 -155h-98l19 155l-8 14l-148 -169h-124l209 229l-139 192h116l108 -156zM227 569q3 26 23.5 44t45.5 18q26 0 42 -18.5t13 -43.5q-4 -26 -24.5 -44t-45.5 -18q-26 0 -42 18.5t-12 43.5z
M407 569q3 26 23.5 44t45.5 18q26 0 42 -18.5t13 -43.5q-4 -26 -24.5 -44t-45.5 -18q-26 0 -42 18.5t-12 43.5z" />
    <glyph glyph-name="uni04DE" unicode="&#x4de;" horiz-adv-x="565" 
d="M188 516l-63 65q42 45 84 68q53 29 130 29q105 0 159 -56q40 -41 40 -109q0 -53 -26 -93q-27 -41 -76 -61q38 -13 61 -35q44 -41 44 -115q0 -92 -59 -153q-66 -68 -191 -68q-99 0 -159 42q-61 44 -88 118l89 46q12 -46 45 -76q41 -36 109 -36q77 0 115 33q37 32 37 87
q0 52 -39 79q-33 23 -108 23h-60l12 96h56q75 0 110 33q27 25 27 68q0 41 -30 63q-28 20 -80 20q-48 0 -82 -20q-32 -19 -57 -48zM403 788q0 28 21 49q20 20 50 20q24 0 38 -15q16 -16 16 -41q0 -30 -21 -49t-49 -19q-24 0 -39 15q-16 15 -16 40zM208 788q0 28 21 49
q20 20 50 20q24 0 38 -15q16 -16 16 -41q0 -30 -21 -49t-49 -19q-24 0 -39 15q-16 15 -16 40z" />
    <glyph glyph-name="uni04DF" unicode="&#x4df;" horiz-adv-x="431" 
d="M149 309l-58 58q26 27 62 45q40 20 94 20q70 0 110 -29q44 -32 44 -87q0 -36 -19 -59q-18 -23 -50 -30q28 -8 50 -30q25 -26 25 -66q0 -58 -39 -97q-47 -47 -140 -47q-71 0 -113 27q-41 25 -64 73l79 40q13 -27 33 -42q25 -18 63 -18q36 0 57 15q24 18 24 45t-22 40
q-15 10 -49 10h-50l10 80h36q43 0 60 16q13 11 13 33q0 21 -18 34q-16 12 -48 12q-29 0 -52 -12q-20 -11 -38 -31zM125 569q3 26 23.5 44t45.5 18q26 0 42 -18.5t13 -43.5q-4 -26 -24.5 -44t-45.5 -18q-26 0 -42 18.5t-12 43.5zM305 569q3 26 23.5 44t45.5 18q26 0 42 -18.5
t13 -43.5q-4 -26 -24.5 -44t-45.5 -18q-26 0 -42 18.5t-12 43.5z" />
    <glyph glyph-name="uni04E2" unicode="&#x4e2;" horiz-adv-x="712" 
d="M530 0l55 449l-509 -479l86 697h102l-55 -451l508 479l-85 -695h-102zM274 733l10 80h360l-10 -80h-360z" />
    <glyph glyph-name="uni04E3" unicode="&#x4e3;" horiz-adv-x="510" 
d="M114 421h98l-30 -239l322 277l-56 -459h-98l30 245l-322 -277zM147 508l10 78h330l-10 -78h-330z" />
    <glyph glyph-name="uni04E4" unicode="&#x4e4;" horiz-adv-x="712" 
d="M530 0l55 449l-509 -479l86 697h102l-55 -451l508 479l-85 -695h-102zM497 788q0 28 21 49q20 20 50 20q24 0 38 -15q16 -16 16 -41q0 -30 -21 -49t-49 -19q-24 0 -39 15q-16 15 -16 40zM302 788q0 28 21 49q20 20 50 20q24 0 38 -15q16 -16 16 -41q0 -30 -21 -49
t-49 -19q-24 0 -39 15q-16 15 -16 40z" />
    <glyph glyph-name="uni04E5" unicode="&#x4e5;" horiz-adv-x="510" 
d="M114 421h98l-30 -239l322 277l-56 -459h-98l30 245l-322 -277zM170 569q3 26 23.5 44t45.5 18q26 0 42 -18.5t13 -43.5q-4 -26 -24.5 -44t-45.5 -18q-26 0 -42 18.5t-12 43.5zM350 569q3 26 23.5 44t45.5 18q26 0 42 -18.5t13 -43.5q-4 -26 -24.5 -44t-45.5 -18
q-26 0 -42 18.5t-12 43.5z" />
    <glyph glyph-name="uni04E6" unicode="&#x4e6;" horiz-adv-x="796" 
d="M478 679q138 0 225 -87q86 -85 86 -226q0 -169 -105 -276q-102 -103 -275 -103q-148 0 -231 86q-89 91 -89 227q0 79 29 151.5t80 122.5q105 105 280 105zM410 81q124 0 196 72q38 37 59.5 92.5t21.5 114.5q0 95 -60 157q-66 68 -169 68q-110 0 -185 -74
q-83 -81 -83 -204q0 -98 62 -162q60 -64 158 -64zM513 788q0 28 21 49q20 20 50 20q24 0 38 -15q16 -16 16 -41q0 -30 -21 -49t-49 -19q-24 0 -39 15q-16 15 -16 40zM318 788q0 28 21 49q20 20 50 20q24 0 38 -15q16 -16 16 -41q0 -30 -21 -49t-49 -19q-24 0 -39 15
q-16 15 -16 40z" />
    <glyph glyph-name="uni04E7" unicode="&#x4e7;" horiz-adv-x="534" 
d="M313 432q94 0 150 -56q57 -59 57 -146q0 -107 -73 -178q-68 -65 -173 -65q-94 0 -150 57q-58 60 -58 147q0 106 73 176q68 65 174 65zM287 75q56 0 93 40q40 43 40 109q0 54 -33 88q-31 32 -80 32q-58 0 -95 -35q-46 -43 -46 -110q0 -51 31 -87q34 -37 90 -37zM170 569
q3 26 23.5 44t45.5 18q26 0 42 -18.5t13 -43.5q-4 -26 -24.5 -44t-45.5 -18q-26 0 -42 18.5t-12 43.5zM350 569q3 26 23.5 44t45.5 18q26 0 42 -18.5t13 -43.5q-4 -26 -24.5 -44t-45.5 -18q-26 0 -42 18.5t-12 43.5z" />
    <glyph glyph-name="uni04E8" unicode="&#x4e8;" horiz-adv-x="796" 
d="M478 679q138 0 225 -87q86 -85 86 -226q0 -169 -105 -276q-102 -103 -275 -103q-148 0 -231 86q-89 91 -89 227q0 79 29 151.5t80 122.5q107 105 280 105zM678 287h-487q4 -82 61 -142q61 -64 158 -64q121 0 196 72q57 54 72 134zM199 383h487q-7 81 -59 134
q-66 68 -169 68q-108 0 -185 -74q-56 -53 -74 -128z" />
    <glyph glyph-name="uni04E9" unicode="&#x4e9;" horiz-adv-x="534" 
d="M313 432q94 0 150 -56q57 -59 57 -146q0 -107 -73 -178q-68 -65 -173 -65q-94 0 -150 57q-58 60 -58 147q0 106 73 176q68 65 174 65zM413 173h-244q6 -44 35 -70q31 -28 83 -28q50 0 83 27q33 28 43 71zM175 253h242q-6 41 -36 66q-29 25 -77 25q-52 0 -88 -29
q-29 -23 -41 -62z" />
    <glyph glyph-name="uni04EA" unicode="&#x4ea;" horiz-adv-x="796" 
d="M478 679q138 0 225 -87q86 -85 86 -226q0 -169 -105 -276q-102 -103 -275 -103q-148 0 -231 86q-89 91 -89 227q0 79 29 151.5t80 122.5q107 105 280 105zM678 287h-487q4 -82 61 -142q61 -64 158 -64q121 0 196 72q57 54 72 134zM199 383h487q-7 81 -59 134
q-66 68 -169 68q-108 0 -185 -74q-56 -53 -74 -128zM513 788q0 28 21 49q20 20 50 20q24 0 38 -15q16 -16 16 -41q0 -30 -21 -49t-49 -19q-24 0 -39 15q-16 15 -16 40zM318 788q0 28 21 49q20 20 50 20q24 0 38 -15q16 -16 16 -41q0 -30 -21 -49t-49 -19q-24 0 -39 15
q-16 15 -16 40z" />
    <glyph glyph-name="uni04EB" unicode="&#x4eb;" horiz-adv-x="534" 
d="M313 432q94 0 150 -56q57 -59 57 -146q0 -107 -73 -178q-68 -65 -173 -65q-94 0 -150 57q-58 60 -58 147q0 106 73 176q68 65 174 65zM413 173h-244q6 -44 35 -70q31 -28 83 -28q50 0 83 27q33 28 43 71zM175 253h242q-6 41 -36 66q-29 25 -77 25q-52 0 -88 -29
q-29 -23 -41 -62zM170 569q3 26 23.5 44t45.5 18q26 0 42 -18.5t13 -43.5q-4 -26 -24.5 -44t-45.5 -18q-26 0 -42 18.5t-12 43.5zM350 569q3 26 23.5 44t45.5 18q26 0 42 -18.5t13 -43.5q-4 -26 -24.5 -44t-45.5 -18q-26 0 -42 18.5t-12 43.5z" />
    <glyph glyph-name="uni04EE" unicode="&#x4ee;" horiz-adv-x="559" 
d="M88 667h109l135 -361l197 361h106l-374 -667h-106l113 203zM184 733l10 80h360l-10 -80h-360z" />
    <glyph glyph-name="uni04EF" unicode="&#x4ef;" horiz-adv-x="482" 
d="M3 -229l200 307l-145 343h116l95 -237l147 237h112l-415 -650h-110zM131 508l10 78h330l-10 -78h-330z" />
    <glyph glyph-name="uni04F0" unicode="&#x4f0;" horiz-adv-x="559" 
d="M88 667h109l135 -361l197 361h106l-374 -667h-106l113 203zM407 788q0 28 21 49q20 20 50 20q24 0 38 -15q16 -16 16 -41q0 -30 -21 -49t-49 -19q-24 0 -39 15q-16 15 -16 40zM212 788q0 28 21 49q20 20 50 20q24 0 38 -15q16 -16 16 -41q0 -30 -21 -49t-49 -19
q-24 0 -39 15q-16 15 -16 40z" />
    <glyph glyph-name="uni04F1" unicode="&#x4f1;" horiz-adv-x="482" 
d="M3 -229l200 307l-145 343h116l95 -237l147 237h112l-415 -650h-110zM156 569q3 26 23.5 44t45.5 18q26 0 42 -18.5t13 -43.5q-4 -26 -24.5 -44t-45.5 -18q-26 0 -42 18.5t-12 43.5zM336 569q3 26 23.5 44t45.5 18q26 0 42 -18.5t13 -43.5q-4 -26 -24.5 -44t-45.5 -18
q-26 0 -42 18.5t-12 43.5z" />
    <glyph glyph-name="uni04F2" unicode="&#x4f2;" horiz-adv-x="559" 
d="M88 667h109l135 -361l197 361h106l-374 -667h-106l113 203zM343 906l72 -52l-172 -127l-39 36zM543 906l72 -52l-172 -127l-39 36z" />
    <glyph glyph-name="uni04F3" unicode="&#x4f3;" horiz-adv-x="482" 
d="M3 -229l200 307l-145 343h116l95 -237l147 237h112l-415 -650h-110zM295 675l76 -46l-163 -144l-38 34zM475 675l76 -46l-163 -144l-38 34z" />
    <glyph glyph-name="uni04F4" unicode="&#x4f4;" horiz-adv-x="608" 
d="M426 0l34 278q-52 -11 -121 -11q-107 0 -169 44q-52 40 -52 120q0 23 7 80l19 156h102l-19 -151q-6 -53 -6 -68q0 -42 28 -64q29 -23 103 -23q64 0 120 11l36 295h102l-82 -667h-102zM426 788q0 28 21 49q20 20 50 20q24 0 38 -15q16 -16 16 -41q0 -30 -21 -49t-49 -19
q-24 0 -39 15q-16 15 -16 40zM231 788q0 28 21 49q20 20 50 20q24 0 38 -15q16 -16 16 -41q0 -30 -21 -49t-49 -19q-24 0 -39 15q-16 15 -16 40z" />
    <glyph glyph-name="uni04F5" unicode="&#x4f5;" horiz-adv-x="449" 
d="M289 0l20 166q-36 -12 -80 -12q-66 0 -106 30q-38 29 -38 79q0 19 5 54l13 104h98l-12 -97q-3 -24 -3 -34q0 -28 20 -40q18 -12 57 -12q29 0 57 11l21 172h98l-52 -421h-98zM135 569q3 26 23.5 44t45.5 18q26 0 42 -18.5t13 -43.5q-4 -26 -24.5 -44t-45.5 -18
q-26 0 -42 18.5t-12 43.5zM315 569q3 26 23.5 44t45.5 18q26 0 42 -18.5t13 -43.5q-4 -26 -24.5 -44t-45.5 -18q-26 0 -42 18.5t-12 43.5z" />
    <glyph glyph-name="uni04F8" unicode="&#x4f8;" horiz-adv-x="740" 
d="M640 667h102l-82 -667h-102zM80 0l83 667h101l-33 -269h70q105 0 161 -51q52 -47 52 -127q0 -103 -57 -160q-38 -38 -86 -49t-112 -11h-78h-101zM219 302l-25 -206h72q86 0 118 33q29 29 29 81q0 44 -34 70q-31 22 -99 22h-61zM498 788q0 28 21 49q20 20 50 20
q24 0 38 -15q16 -16 16 -41q0 -30 -21 -49t-49 -19q-24 0 -39 15q-16 15 -16 40zM303 788q0 28 21 49q20 20 50 20q24 0 38 -15q16 -16 16 -41q0 -30 -21 -49t-49 -19q-24 0 -39 15q-16 15 -16 40z" />
    <glyph glyph-name="uni04F9" unicode="&#x4f9;" horiz-adv-x="581" 
d="M421 0l52 421h98l-52 -421h-98zM62 0l51 421h99l-19 -149h53q76 0 115 -37q34 -34 34 -86q0 -66 -42 -106q-45 -43 -138 -43h-57h-96zM170 84h46q41 0 61 15q19 15 19 42q0 26 -21 38q-15 9 -48 9h-44zM200 569q3 26 23.5 44t45.5 18q26 0 42 -18.5t13 -43.5
q-4 -26 -24.5 -44t-45.5 -18q-26 0 -42 18.5t-12 43.5zM380 569q3 26 23.5 44t45.5 18q26 0 42 -18.5t13 -43.5q-4 -26 -24.5 -44t-45.5 -18q-26 0 -42 18.5t-12 43.5z" />
    <glyph glyph-name="uni1E9E" unicode="&#x1e9e;" horiz-adv-x="575" 
d="M80 0l56 449q15 122 84 181q57 49 140 49q77 0 126 -39q28 -22 47 -58t19 -79l-128 -113q55 -17 93 -60q35 -40 34 -102q0 -109 -99 -182q-67 -49 -182 -60l12 96q70 4 115 39q53 41 53 101q0 47 -37 78q-31 26 -101 30l8 60l120 114q-3 38 -28 62q-23 21 -64 21
q-17 0 -37.5 -9t-32.5 -23q-33 -38 -41 -108l-55 -447h-102z" />
    <glyph glyph-name="uni2010" unicode="&#x2010;" horiz-adv-x="340" 
d="M70 162l12 102h240l-12 -102h-240z" />
    <glyph glyph-name="uni2011" unicode="&#x2011;" horiz-adv-x="340" 
d="M70 162l12 102h240l-12 -102h-240z" />
    <glyph glyph-name="figuredash" unicode="&#x2012;" horiz-adv-x="620" 
d="M91 294l11 90h480l-11 -90h-480z" />
    <glyph glyph-name="endash" unicode="&#x2013;" horiz-adv-x="620" 
d="M91 168l11 90h480l-11 -90h-480z" />
    <glyph glyph-name="emdash" unicode="&#x2014;" horiz-adv-x="840" 
d="M91 168l11 90h700l-11 -90h-700z" />
    <glyph glyph-name="afii00208" unicode="&#x2015;" horiz-adv-x="840" 
d="M91 168l11 90h700l-11 -90h-700z" />
    <glyph glyph-name="quoteleft" unicode="&#x2018;" horiz-adv-x="290" 
d="M322 669l-133 -254l-84 34l154 247z" />
    <glyph glyph-name="quoteright" unicode="&#x2019;" horiz-adv-x="340" 
d="M104 447l133 254l84 -34l-154 -247z" />
    <glyph glyph-name="quotesinglbase" unicode="&#x201a;" horiz-adv-x="340" 
d="M34 -129l133 254l84 -34l-154 -247z" />
    <glyph glyph-name="quotedblleft" unicode="&#x201c;" horiz-adv-x="462" 
d="M494 669l-133 -254l-82 34l153 247zM320 669l-133 -254l-82 34l153 247z" />
    <glyph glyph-name="quotedblright" unicode="&#x201d;" horiz-adv-x="512" 
d="M104 447l133 254l82 -34l-153 -247zM278 447l133 254l82 -34l-153 -247z" />
    <glyph glyph-name="quotedblbase" unicode="&#x201e;" horiz-adv-x="512" 
d="M34 -129l133 254l82 -34l-153 -247zM208 -129l133 254l82 -34l-153 -247z" />
    <glyph glyph-name="dagger" unicode="&#x2020;" horiz-adv-x="567" 
d="M305 516l27 213h98l-27 -213h138l-11 -94h-138l-74 -599h-98l74 599h-138l11 94h138z" />
    <glyph glyph-name="daggerdbl" unicode="&#x2021;" horiz-adv-x="566" 
d="M304 516l27 213h98l-27 -213h138l-11 -94h-138l-31 -251h138l-12 -94h-138l-31 -254h-98l31 254h-138l12 94h138l31 251h-138l11 94h138z" />
    <glyph glyph-name="bullet" unicode="&#x2022;" horiz-adv-x="1000" 
d="M401 322q0 58 42 105q48 53 116 53q51 0 88 -35q36 -36 36 -88q0 -61 -46 -109q-48 -48 -113 -48q-55 0 -89 36t-34 86z" />
    <glyph glyph-name="ellipsis" unicode="&#x2026;" horiz-adv-x="801" 
d="M86 42q0 26 18 46t49 20q24 0 39 -15q16 -15 16 -40q0 -27 -20 -47q-18 -18 -46 -18q-26 0 -40 14q-16 15 -16 40zM346 42q0 26 18 46t49 20q24 0 39 -15q16 -15 16 -40q0 -27 -20 -47q-18 -18 -46 -18q-26 0 -40 14q-16 15 -16 40zM606 42q0 26 18 46t49 20q24 0 39 -15
q16 -15 16 -40q0 -27 -20 -47q-18 -18 -46 -18q-26 0 -40 14q-16 15 -16 40z" />
    <glyph glyph-name="perthousand" unicode="&#x2030;" horiz-adv-x="1203" 
d="M194 18l462 660l44 -27l-462 -662zM645 307q68 0 112 -44q40 -40 40 -102q0 -73 -50 -123q-46 -45 -119 -45q-72 0 -114 42t-42 104q0 66 50 118q48 50 123 50zM630 65q39 0 62 25q27 27 27 69q0 36 -24 57q-21 19 -53 19q-40 0 -64 -26q-26 -26 -26 -67q0 -34 22 -56
q21 -21 56 -21zM268 673q69 0 113 -44q40 -40 40 -102q0 -71 -50 -121q-47 -47 -122 -47q-69 0 -111 42t-42 104q0 67 49 118q48 50 123 50zM254 431q39 0 62 25q27 27 27 69q0 36 -24 57q-21 19 -53 19q-40 0 -64 -26q-26 -26 -26 -67q0 -34 22 -56q21 -21 56 -21z
M1036 307q68 0 112 -44q40 -40 40 -102q0 -73 -50 -123q-46 -45 -119 -45q-72 0 -114 42t-42 104q0 66 50 118q48 50 123 50zM1021 65q39 0 62 25q27 27 27 69q0 36 -24 57q-21 19 -53 19q-40 0 -64 -26q-26 -26 -26 -67q0 -34 22 -56q21 -21 56 -21z" />
    <glyph glyph-name="guilsinglleft" unicode="&#x2039;" horiz-adv-x="326" 
d="M167 215l106 -165l-71 -43l-135 212l193 216l59 -51z" />
    <glyph glyph-name="guilsinglright" unicode="&#x203a;" horiz-adv-x="326" 
d="M208 222l-109 165l71 44l139 -212l-185 -212l-59 50z" />
    <glyph glyph-name="fraction" unicode="&#x2044;" horiz-adv-x="220" 
d="M-98 17l463 661l45 -28l-463 -661z" />
    <glyph glyph-name="uni2080" unicode="&#x2080;" horiz-adv-x="370" 
d="M192 -7q-64 0 -100 44q-37 45 -37 121q0 131 72 203q46 46 108 46q50 0 85 -33q45 -43 45 -136q0 -133 -70 -203q-42 -42 -103 -42zM227 341q-28 0 -51 -23q-50 -50 -50 -154q0 -60 26 -87q15 -18 40 -18q29 0 52 23t36 67t13 87q0 64 -26 90q-15 15 -40 15z" />
    <glyph glyph-name="uni2081" unicode="&#x2081;" horiz-adv-x="370" 
d="M162 0l41 334h-78l50 66h110l-49 -400h-74z" />
    <glyph glyph-name="uni2082" unicode="&#x2082;" horiz-adv-x="370" 
d="M321 66l-8 -66h-289l165 162q36 34 58 61q28 35 28 63q0 25 -17 40t-45 15q-33 0 -52 -19q-20 -20 -24 -54h-70q9 57 45 96q39 43 106 43q66 0 100 -36q30 -30 30 -78q0 -45 -32 -88q-22 -28 -69 -74l-67 -65h141z" />
    <glyph glyph-name="uni2083" unicode="&#x2083;" horiz-adv-x="370" 
d="M45 119h70q2 -28 18 -44t50 -16q32 0 51 17q20 18 20 51q0 29 -21 42q-15 10 -51 10h-14l8 66h24q37 0 53 13q17 13 17 37q0 22 -15 34q-16 12 -41 12q-31 0 -46 -16q-14 -14 -19 -39h-70q8 52 43 86q37 35 96 35q63 0 96 -33q28 -28 28 -73q0 -38 -20 -62
q-17 -21 -44 -28q21 -6 35 -24q17 -22 17 -55q0 -59 -36 -96q-40 -43 -113 -43q-66 0 -101 35t-35 91z" />
    <glyph glyph-name="uni2084" unicode="&#x2084;" horiz-adv-x="370" 
d="M158 123h80l14 110zM348 430l-38 -307h43l-8 -66h-43l-7 -57h-72l7 57h-209z" />
    <glyph glyph-name="uni2085" unicode="&#x2085;" horiz-adv-x="370" 
d="M348 400l-8 -66h-126l-24 -61q72 8 113 -33q33 -32 33 -86q0 -75 -44 -119q-43 -42 -116 -42q-59 0 -97 28q-28 20 -49 57l60 39q11 -26 32 -42q23 -16 55 -16q40 0 62 21q25 23 25 62q0 36 -23 55q-20 17 -55 17q-48 0 -79 -34h-27l93 220h175z" />
    <glyph glyph-name="uni2086" unicode="&#x2086;" horiz-adv-x="370" 
d="M262 424l58 -43l-105 -128q63 7 101 -33q31 -31 31 -81q0 -65 -38 -103q-41 -43 -117 -43q-60 0 -96 29q-42 34 -42 95q0 40 23 78q12 20 49 64zM204 190q-34 0 -55 -20q-22 -22 -22 -53q0 -25 20 -43q20 -17 50 -17q31 0 52 18q24 19 24 54q0 30 -20 46q-17 15 -49 15z
" />
    <glyph glyph-name="uni2087" unicode="&#x2087;" horiz-adv-x="370" 
d="M36 16l233 318h-192l8 66h318l-303 -414z" />
    <glyph glyph-name="uni2088" unicode="&#x2088;" horiz-adv-x="370" 
d="M233 407q56 0 87 -32q28 -31 28 -73q0 -29 -15 -56q-15 -25 -40 -38q44 -24 44 -82q0 -61 -42 -99q-37 -34 -105 -34q-58 0 -92 28q-37 30 -37 81q0 36 21 68q16 24 47 38q-35 27 -35 74q0 52 36 88q37 37 103 37zM223 343q-27 0 -43 -15q-17 -15 -17 -41q0 -17 13 -32
q14 -16 41 -16q30 0 45 15q17 15 17 41q0 23 -17 37q-14 11 -39 11zM202 175q-30 0 -48 -17q-20 -17 -20 -44q0 -28 18 -43q15 -14 45 -14q31 0 49 18q18 17 18 48q0 26 -20 40q-17 12 -42 12z" />
    <glyph glyph-name="uni2089" unicode="&#x2089;" horiz-adv-x="370" 
d="M158 -23l-59 42l105 128q-60 -1 -97 31q-35 32 -35 81q0 66 42 107q41 41 116 41q61 0 96 -30q39 -33 39 -92q0 -33 -14 -64q-11 -23 -42 -61zM215 210q33 0 53 17q25 20 25 55q0 27 -20 45q-19 16 -49 16q-33 0 -55 -20q-23 -21 -23 -52q0 -29 21 -46q18 -15 48 -15z
" />
    <glyph glyph-name="Euro" unicode="&#x20ac;" horiz-adv-x="568" 
d="M601 641l-54 -89q-46 33 -126 33q-20 0 -42 -3.5t-58.5 -15t-68 -42.5t-48.5 -78h289l-39 -70h-274q-9 -31 -11 -74h247l-39 -70h-203q6 -68 54.5 -109.5t128.5 -41.5q93 0 172 57l-13 -109q-87 -42 -173 -42q-140 0 -215 82q-61 68 -62 163h-68l39 70h30q2 43 11 74h-62
l39 70h43q25 86 92 146q98 87 251 87q94 0 160 -38z" />
    <glyph glyph-name="uni20B4" unicode="&#x20b4;" horiz-adv-x="568" 
d="M242 519l-76 48q34 45 83 77q55 35 124 35q83 0 127 -42q39 -37 39 -91q0 -56 -47 -99h87l-9 -70h-146l-87 -74h224l-8 -70h-299q-45 -38 -45 -84q0 -34 29 -53q22 -15 62 -15q44 0 78 20q38 22 64 73l83 -50q-39 -76 -115 -111q-55 -26 -124 -26q-79 0 -125 34
q-55 40 -55 110q0 59 42 102h-79l8 70h144l87 74h-222l9 70h283q58 36 58 78q0 25 -20 43q-21 17 -55 17q-39 0 -69 -19q-32 -20 -50 -47z" />
    <glyph glyph-name="uni20B6" unicode="&#x20b6;" horiz-adv-x="568" 
d="M359 667q107 0 161 -52q49 -47 49 -131q0 -89 -55 -143q-64 -64 -209 -64h-34l-11 -74h158l-8 -70h-158l-16 -133h-102l17 133h-73l8 70h73l9 74h-73l11 88h73l37 302h143zM306 573l-25 -208h38q83 0 118 31q34 29 34 83q0 45 -31 71q-28 23 -91 23h-43z" />
    <glyph glyph-name="uni20B6" unicode="&#x20cf;" horiz-adv-x="568" 
d="M359 667q107 0 161 -52q49 -47 49 -131q0 -89 -55 -143q-64 -64 -209 -64h-34l-11 -74h158l-8 -70h-158l-16 -133h-102l17 133h-73l8 70h73l9 74h-73l11 88h73l37 302h143zM306 573l-25 -208h38q83 0 118 31q34 29 34 83q0 45 -31 71q-28 23 -91 23h-43z" />
    <glyph glyph-name="uni20B6" unicode="&#x20ce;" horiz-adv-x="568" 
d="M359 667q107 0 161 -52q49 -47 49 -131q0 -89 -55 -143q-64 -64 -209 -64h-34l-11 -74h158l-8 -70h-158l-16 -133h-102l17 133h-73l8 70h73l9 74h-73l11 88h73l37 302h143zM306 573l-25 -208h38q83 0 118 31q34 29 34 83q0 45 -31 71q-28 23 -91 23h-43z" />
    <glyph glyph-name="uni20B6" unicode="&#x20cd;" horiz-adv-x="568" 
d="M359 667q107 0 161 -52q49 -47 49 -131q0 -89 -55 -143q-64 -64 -209 -64h-34l-11 -74h158l-8 -70h-158l-16 -133h-102l17 133h-73l8 70h73l9 74h-73l11 88h73l37 302h143zM306 573l-25 -208h38q83 0 118 31q34 29 34 83q0 45 -31 71q-28 23 -91 23h-43z" />
    <glyph glyph-name="uni20B6" unicode="&#x20cc;" horiz-adv-x="568" 
d="M359 667q107 0 161 -52q49 -47 49 -131q0 -89 -55 -143q-64 -64 -209 -64h-34l-11 -74h158l-8 -70h-158l-16 -133h-102l17 133h-73l8 70h73l9 74h-73l11 88h73l37 302h143zM306 573l-25 -208h38q83 0 118 31q34 29 34 83q0 45 -31 71q-28 23 -91 23h-43z" />
    <glyph glyph-name="uni20B6" unicode="&#x20cb;" horiz-adv-x="568" 
d="M359 667q107 0 161 -52q49 -47 49 -131q0 -89 -55 -143q-64 -64 -209 -64h-34l-11 -74h158l-8 -70h-158l-16 -133h-102l17 133h-73l8 70h73l9 74h-73l11 88h73l37 302h143zM306 573l-25 -208h38q83 0 118 31q34 29 34 83q0 45 -31 71q-28 23 -91 23h-43z" />
    <glyph glyph-name="uni20B6" unicode="&#x20ca;" horiz-adv-x="568" 
d="M359 667q107 0 161 -52q49 -47 49 -131q0 -89 -55 -143q-64 -64 -209 -64h-34l-11 -74h158l-8 -70h-158l-16 -133h-102l17 133h-73l8 70h73l9 74h-73l11 88h73l37 302h143zM306 573l-25 -208h38q83 0 118 31q34 29 34 83q0 45 -31 71q-28 23 -91 23h-43z" />
    <glyph glyph-name="uni20B6" unicode="&#x20c9;" horiz-adv-x="568" 
d="M359 667q107 0 161 -52q49 -47 49 -131q0 -89 -55 -143q-64 -64 -209 -64h-34l-11 -74h158l-8 -70h-158l-16 -133h-102l17 133h-73l8 70h73l9 74h-73l11 88h73l37 302h143zM306 573l-25 -208h38q83 0 118 31q34 29 34 83q0 45 -31 71q-28 23 -91 23h-43z" />
    <glyph glyph-name="uni20B6" unicode="&#x20c8;" horiz-adv-x="568" 
d="M359 667q107 0 161 -52q49 -47 49 -131q0 -89 -55 -143q-64 -64 -209 -64h-34l-11 -74h158l-8 -70h-158l-16 -133h-102l17 133h-73l8 70h73l9 74h-73l11 88h73l37 302h143zM306 573l-25 -208h38q83 0 118 31q34 29 34 83q0 45 -31 71q-28 23 -91 23h-43z" />
    <glyph glyph-name="uni20B6" unicode="&#x20c7;" horiz-adv-x="568" 
d="M359 667q107 0 161 -52q49 -47 49 -131q0 -89 -55 -143q-64 -64 -209 -64h-34l-11 -74h158l-8 -70h-158l-16 -133h-102l17 133h-73l8 70h73l9 74h-73l11 88h73l37 302h143zM306 573l-25 -208h38q83 0 118 31q34 29 34 83q0 45 -31 71q-28 23 -91 23h-43z" />
    <glyph glyph-name="uni20B6" unicode="&#x20c6;" horiz-adv-x="568" 
d="M359 667q107 0 161 -52q49 -47 49 -131q0 -89 -55 -143q-64 -64 -209 -64h-34l-11 -74h158l-8 -70h-158l-16 -133h-102l17 133h-73l8 70h73l9 74h-73l11 88h73l37 302h143zM306 573l-25 -208h38q83 0 118 31q34 29 34 83q0 45 -31 71q-28 23 -91 23h-43z" />
    <glyph glyph-name="uni20B6" unicode="&#x20c5;" horiz-adv-x="568" 
d="M359 667q107 0 161 -52q49 -47 49 -131q0 -89 -55 -143q-64 -64 -209 -64h-34l-11 -74h158l-8 -70h-158l-16 -133h-102l17 133h-73l8 70h73l9 74h-73l11 88h73l37 302h143zM306 573l-25 -208h38q83 0 118 31q34 29 34 83q0 45 -31 71q-28 23 -91 23h-43z" />
    <glyph glyph-name="uni20B6" unicode="&#x20c4;" horiz-adv-x="568" 
d="M359 667q107 0 161 -52q49 -47 49 -131q0 -89 -55 -143q-64 -64 -209 -64h-34l-11 -74h158l-8 -70h-158l-16 -133h-102l17 133h-73l8 70h73l9 74h-73l11 88h73l37 302h143zM306 573l-25 -208h38q83 0 118 31q34 29 34 83q0 45 -31 71q-28 23 -91 23h-43z" />
    <glyph glyph-name="uni20B6" unicode="&#x20c3;" horiz-adv-x="568" 
d="M359 667q107 0 161 -52q49 -47 49 -131q0 -89 -55 -143q-64 -64 -209 -64h-34l-11 -74h158l-8 -70h-158l-16 -133h-102l17 133h-73l8 70h73l9 74h-73l11 88h73l37 302h143zM306 573l-25 -208h38q83 0 118 31q34 29 34 83q0 45 -31 71q-28 23 -91 23h-43z" />
    <glyph glyph-name="uni20B6" unicode="&#x20c2;" horiz-adv-x="568" 
d="M359 667q107 0 161 -52q49 -47 49 -131q0 -89 -55 -143q-64 -64 -209 -64h-34l-11 -74h158l-8 -70h-158l-16 -133h-102l17 133h-73l8 70h73l9 74h-73l11 88h73l37 302h143zM306 573l-25 -208h38q83 0 118 31q34 29 34 83q0 45 -31 71q-28 23 -91 23h-43z" />
    <glyph glyph-name="uni20B6" unicode="&#x20c1;" horiz-adv-x="568" 
d="M359 667q107 0 161 -52q49 -47 49 -131q0 -89 -55 -143q-64 -64 -209 -64h-34l-11 -74h158l-8 -70h-158l-16 -133h-102l17 133h-73l8 70h73l9 74h-73l11 88h73l37 302h143zM306 573l-25 -208h38q83 0 118 31q34 29 34 83q0 45 -31 71q-28 23 -91 23h-43z" />
    <glyph glyph-name="uni20B6" unicode="&#x20c0;" horiz-adv-x="568" 
d="M359 667q107 0 161 -52q49 -47 49 -131q0 -89 -55 -143q-64 -64 -209 -64h-34l-11 -74h158l-8 -70h-158l-16 -133h-102l17 133h-73l8 70h73l9 74h-73l11 88h73l37 302h143zM306 573l-25 -208h38q83 0 118 31q34 29 34 83q0 45 -31 71q-28 23 -91 23h-43z" />
    <glyph glyph-name="uni20B6" unicode="&#x20bf;" horiz-adv-x="568" 
d="M359 667q107 0 161 -52q49 -47 49 -131q0 -89 -55 -143q-64 -64 -209 -64h-34l-11 -74h158l-8 -70h-158l-16 -133h-102l17 133h-73l8 70h73l9 74h-73l11 88h73l37 302h143zM306 573l-25 -208h38q83 0 118 31q34 29 34 83q0 45 -31 71q-28 23 -91 23h-43z" />
    <glyph glyph-name="uni20B6" unicode="&#x20be;" horiz-adv-x="568" 
d="M359 667q107 0 161 -52q49 -47 49 -131q0 -89 -55 -143q-64 -64 -209 -64h-34l-11 -74h158l-8 -70h-158l-16 -133h-102l17 133h-73l8 70h73l9 74h-73l11 88h73l37 302h143zM306 573l-25 -208h38q83 0 118 31q34 29 34 83q0 45 -31 71q-28 23 -91 23h-43z" />
    <glyph glyph-name="uni20B6" unicode="&#x20bd;" horiz-adv-x="568" 
d="M359 667q107 0 161 -52q49 -47 49 -131q0 -89 -55 -143q-64 -64 -209 -64h-34l-11 -74h158l-8 -70h-158l-16 -133h-102l17 133h-73l8 70h73l9 74h-73l11 88h73l37 302h143zM306 573l-25 -208h38q83 0 118 31q34 29 34 83q0 45 -31 71q-28 23 -91 23h-43z" />
    <glyph glyph-name="uni20B6" unicode="&#x20bc;" horiz-adv-x="568" 
d="M359 667q107 0 161 -52q49 -47 49 -131q0 -89 -55 -143q-64 -64 -209 -64h-34l-11 -74h158l-8 -70h-158l-16 -133h-102l17 133h-73l8 70h73l9 74h-73l11 88h73l37 302h143zM306 573l-25 -208h38q83 0 118 31q34 29 34 83q0 45 -31 71q-28 23 -91 23h-43z" />
    <glyph glyph-name="uni20B6" unicode="&#x20bb;" horiz-adv-x="568" 
d="M359 667q107 0 161 -52q49 -47 49 -131q0 -89 -55 -143q-64 -64 -209 -64h-34l-11 -74h158l-8 -70h-158l-16 -133h-102l17 133h-73l8 70h73l9 74h-73l11 88h73l37 302h143zM306 573l-25 -208h38q83 0 118 31q34 29 34 83q0 45 -31 71q-28 23 -91 23h-43z" />
    <glyph glyph-name="uni20B6" unicode="&#x20ba;" horiz-adv-x="568" 
d="M359 667q107 0 161 -52q49 -47 49 -131q0 -89 -55 -143q-64 -64 -209 -64h-34l-11 -74h158l-8 -70h-158l-16 -133h-102l17 133h-73l8 70h73l9 74h-73l11 88h73l37 302h143zM306 573l-25 -208h38q83 0 118 31q34 29 34 83q0 45 -31 71q-28 23 -91 23h-43z" />
    <glyph glyph-name="uni20B6" unicode="&#x20b9;" horiz-adv-x="568" 
d="M359 667q107 0 161 -52q49 -47 49 -131q0 -89 -55 -143q-64 -64 -209 -64h-34l-11 -74h158l-8 -70h-158l-16 -133h-102l17 133h-73l8 70h73l9 74h-73l11 88h73l37 302h143zM306 573l-25 -208h38q83 0 118 31q34 29 34 83q0 45 -31 71q-28 23 -91 23h-43z" />
    <glyph glyph-name="uni20B6" unicode="&#x20b7;" horiz-adv-x="568" 
d="M359 667q107 0 161 -52q49 -47 49 -131q0 -89 -55 -143q-64 -64 -209 -64h-34l-11 -74h158l-8 -70h-158l-16 -133h-102l17 133h-73l8 70h73l9 74h-73l11 88h73l37 302h143zM306 573l-25 -208h38q83 0 118 31q34 29 34 83q0 45 -31 71q-28 23 -91 23h-43z" />
    <glyph glyph-name="uni20B8" unicode="&#x20b8;" horiz-adv-x="568" 
d="M538 441h-153l-55 -441h-102l55 441h-153l12 96h408zM554 581h-408l11 86h408z" />
    <glyph glyph-name="afii61352" unicode="&#x2116;" horiz-adv-x="1061" 
d="M182 0h-102l87 712l385 -483l54 438h102l-87 -708l-385 483zM933 667q68 0 109 -39q40 -39 40 -104q0 -78 -48 -125q-46 -46 -122 -46q-71 0 -113 42q-41 41 -41 102q0 70 46 118q48 52 129 52zM914 425q39 0 63 24q27 27 27 67q0 35 -22 57t-56 22q-38 0 -64 -26
t-26 -66q0 -35 22 -57q21 -21 56 -21zM741 203l10 80h282l-10 -80h-282z" />
    <glyph glyph-name="uni2117" unicode="&#x2117;" horiz-adv-x="758" 
d="M315 527h109q62 0 94 -31q30 -28 30 -80q0 -51 -28 -80q-33 -35 -112 -35h-22v-148h-71v374zM386 464v-104h14q40 0 60 15q18 14 18 41q0 25 -19 39q-13 9 -49 9h-24zM420 630q-122 0 -206 -84t-84 -213t84 -213t206 -84t206 84t84 213t-84 213t-206 84zM766 333
q0 -151 -98 -249t-248 -98t-248 98t-98 249t98 249t248 98t248 -98t98 -249z" />
    <glyph glyph-name="trademark" unicode="&#x2122;" horiz-adv-x="710" 
d="M312 601h-84l-39 -314h-70l39 314h-84l8 66h238zM366 287h-71l133 414l92 -280l161 280l30 -414h-71l-9 206l-129 -213l-75 213z" />
    <glyph glyph-name="partialdiff" unicode="&#x2202;" horiz-adv-x="521" 
d="M122 586l18 87q123 -15 213 -76q78 -54 118 -135q45 -89 45 -212q0 -137 -66 -204q-59 -59 -157 -59q-100 0 -162 63q-65 66 -65 160q0 100 64 164q58 58 142 58q78 0 131 -47q-27 96 -114 148q-76 46 -167 53zM291 75q56 0 86 30q39 38 39 107q0 65 -40 101
q-35 31 -85 31q-52 0 -85 -31q-40 -40 -40 -104q0 -69 40 -105q33 -29 85 -29z" />
    <glyph glyph-name="product" unicode="&#x220f;" horiz-adv-x="728" 
d="M80 654v96h638v-96h-80v-808h80v-96h-263v96h81v808h-273v-808h80v-96h-263v96h81v808h-81z" />
    <glyph glyph-name="summation" unicode="&#x2211;" horiz-adv-x="696" 
d="M80 750h598v-245h-94v149h-364l220 -382l-220 -426h372v147h94v-243h-606v46l252 476l-252 432v46z" />
    <glyph glyph-name="minus" unicode="&#x2212;" 
d="M75 291v90h434v-90h-434z" />
    <glyph glyph-name="uni2215" unicode="&#x2215;" horiz-adv-x="687" 
d="M-18 -177l635 942l78 -36l-635 -942z" />
    <glyph glyph-name="uni2219" unicode="&#x2219;" horiz-adv-x="200" 
d="M63 329q0 38 29 65q25 24 59 24q31 0 51 -20q19 -21 19 -47q0 -36 -26 -64q-24 -25 -60 -25q-32 0 -52 19q-20 18 -20 48z" />
    <glyph glyph-name="radical" unicode="&#x221a;" horiz-adv-x="568" 
d="M444 827h274v-88h-190l-193 -739h-126l-71 286h-88v88h168l50 -251h8z" />
    <glyph glyph-name="infinity" unicode="&#x221e;" horiz-adv-x="670" 
d="M377 275q-23 -34 -57 -59q-48 -34 -105 -34q-68 0 -111 43q-44 46 -44 115q0 73 46 117q41 41 111 41q54 0 97 -30q34 -24 63 -63q29 39 63 63q43 30 97 30q70 0 111 -41q46 -44 46 -117q0 -69 -44 -115q-43 -43 -111 -43q-57 0 -105 34q-34 25 -57 59zM524 410
q-31 0 -58 -24q-19 -16 -40 -46q16 -28 39 -46q30 -24 60 -24t50 20t20 52q0 30 -20 48q-22 20 -51 20zM230 410q-29 0 -51 -20q-20 -18 -20 -48q0 -32 20 -52t50 -20t60 24q23 18 39 46q-21 30 -40 46q-27 24 -58 24z" />
    <glyph glyph-name="integral" unicode="&#x222b;" horiz-adv-x="380" 
d="M46 -239l18 86q24 -13 53 -13q26 0 40 15t14 87v632q0 53 7.5 87t32.5 57q42 38 110 38q42 0 75 -11l-18 -86q-25 13 -52 13q-28 0 -41 -15q-14 -16 -14 -87v-618q0 -42 -1.5 -64t-11 -48t-27.5 -45q-38 -39 -110 -39q-41 0 -75 11z" />
    <glyph glyph-name="approxequal" unicode="&#x2248;" 
d="M476 505l57 -33q-19 -45 -51 -79q-41 -42 -98 -42q-40 0 -94 23l-40 17q-43 18 -63 18q-31 0 -53 -22q-17 -17 -29 -45l-56 36q24 59 57 90q35 35 86 35q39 0 86 -21l39 -17q49 -21 77 -21q32 0 55 23q14 14 27 38zM476 323l57 -33q-19 -45 -51 -79q-41 -42 -98 -42
q-40 0 -94 23l-40 17q-43 18 -63 18q-31 0 -53 -22q-17 -17 -29 -45l-56 36q24 59 57 90q35 35 86 35q39 0 86 -21l39 -17q49 -21 77 -21q32 0 55 23q14 14 27 38z" />
    <glyph glyph-name="notequal" unicode="&#x2260;" 
d="M75 380v84h238l52 110h78l-52 -110h118v-84h-158l-37 -78h195v-84h-235l-55 -116h-78l55 116h-121v84h161l37 78h-198z" />
    <glyph glyph-name="lessequal" unicode="&#x2264;" 
d="M178 391l330 -149v-92l-434 200v82l434 200v-92zM508 32h-434v90h434v-90z" />
    <glyph glyph-name="greaterequal" unicode="&#x2265;" 
d="M392 391l-330 149v92l434 -200v-82l-434 -200v92zM496 32h-434v90h434v-90z" />
    <glyph glyph-name="dotmath" unicode="&#x22c5;" horiz-adv-x="200" 
d="M63 329q0 38 29 65q25 24 59 24q31 0 51 -20q19 -21 19 -47q0 -36 -26 -64q-24 -25 -60 -25q-32 0 -52 19q-20 18 -20 48z" />
    <glyph glyph-name="lozenge" unicode="&#x25ca;" horiz-adv-x="700" 
d="M131 334l260 360l260 -360l-260 -360zM537 334l-146 202l-146 -202l146 -202z" />
    <glyph glyph-name="openbullet" unicode="&#x25e6;" horiz-adv-x="502" 
d="M168 510q0 64 41 109q44 48 115 48q59 0 98 -35q40 -36 40 -98q0 -72 -43 -115q-42 -42 -112 -42q-64 0 -104 40q-35 35 -35 93zM230 515q0 -36 23 -59q21 -21 56 -21q40 0 64 24q27 26 27 70q0 37 -22 59q-21 21 -57 21q-40 0 -65 -25q-26 -26 -26 -69z" />
    <glyph glyph-name="uniF400" unicode="&#xf400;" horiz-adv-x="2" 
d="M-132 675l84 -46l-173 -144l-50 34z" />
    <glyph glyph-name="uniF401" unicode="&#xf401;" horiz-adv-x="2" 
d="M-259 727l-43 40l155 139l79 -60z" />
    <glyph glyph-name="uniF406" unicode="&#xf406;" 
d="M445 874h82q-20 -81 -78 -118q-42 -26 -104 -26q-59 0 -96 28q-54 40 -62 116h82q6 -32 28 -49q20 -15 52 -15q39 0 62 16t34 48z" />
    <glyph glyph-name="uniF407" unicode="&#xf407;" 
d="M283 -53l82 -38l-129 -133l-60 32z" />
    <glyph glyph-name="uniF408" unicode="&#xf408;" 
d="M353 812l-109 -82l-62 56l181 134l149 -134l-70 -56z" />
    <glyph glyph-name="uniF409" unicode="&#xf409;" 
d="M126 -274l104 224l90 -34l-127 -216z" />
    <glyph glyph-name="uniF40A" unicode="&#xf40a;" 
d="M180 474l114 206l86 -44l-134 -196z" />
    <glyph glyph-name="uniF40B" unicode="&#xf40b;" 
d="M281 794q0 31 22 53q21 21 51 21q28 0 46 -18q16 -18 16 -41q0 -31 -20 -53t-55 -22q-26 0 -42 16q-18 16 -18 44z" />
    <glyph glyph-name="uniF40C" unicode="&#xf40c;" 
d="M253 815q0 42 27 71q31 34 80 34q40 0 64 -24q25 -24 25 -64q0 -47 -29 -76q-30 -30 -78 -30q-39 0 -63 24q-26 26 -26 65zM308 819q0 -18 11 -29q10 -10 27 -10q21 0 35 14q13 13 13 34q0 16 -11 27t-27 11q-19 0 -34 -13q-14 -14 -14 -34z" />
    <glyph glyph-name="uniF40D" unicode="&#xf40d;" 
d="M478 863l52 -46q-22 -37 -48 -58q-31 -26 -76 -26q-25 0 -61 16l-21 10q-32 16 -49 16q-18 0 -34 -14q-12 -10 -22 -28l-54 41q26 35 49 54q33 27 74 27q32 0 60 -15l19 -10q36 -19 50 -19q21 0 38 19q11 12 23 33z" />
    <glyph glyph-name="uniF40E" unicode="&#xf40e;" 
d="M241 0h78q-38 -26 -55 -43q-23 -23 -23 -46q0 -12 8 -19q9 -7 28 -7q29 0 54 9l-18 -72q-32 -15 -72 -15q-39 0 -62 22q-23 21 -23 55q0 41 34 75q23 23 51 41z" />
    <glyph glyph-name="uniF4C6" unicode="&#xf4c6;" horiz-adv-x="608" 
d="M508 667h102l-92 -742q-10 -87 -43 -119q-37 -36 -111 -36q-40 0 -74 9l11 93q21 -8 44 -8q33 0 49 16q20 20 27 85l39 313q-52 -11 -121 -11q-49 0 -89.5 9.5t-56.5 18.5t-23 16q-52 40 -52 120q0 23 7 80l19 156h102l-19 -151q-6 -53 -6 -68q0 -42 28 -64
q29 -23 103 -23q64 0 120 11z" />
    <glyph glyph-name="uniF4C7" unicode="&#xf4c7;" horiz-adv-x="449" 
d="M341 421h98l-63 -507q-6 -43 -16 -70t-36 -47q-35 -27 -98 -27q-37 0 -67 9l11 88q21 -9 46 -9q28 0 44 16q15 16 20 57l29 235q-36 -12 -80 -12q-66 0 -106 30q-38 29 -38 79q0 16 5 54l13 104h98l-12 -97q-3 -24 -3 -34q0 -28 20 -40q18 -12 57 -12q29 0 57 11z" />
    <glyph glyph-name="uniF4CC" unicode="&#xf4cc;" horiz-adv-x="559" 
d="M88 667h109l135 -361l197 361h106l-374 -667h-106l113 203zM361 727l-43 40l155 139l79 -60z" />
    <glyph glyph-name="uniF4CD" unicode="&#xf4cd;" horiz-adv-x="482" 
d="M3 -229l200 307l-145 343h116l95 -237l147 237h112l-415 -650h-110zM399 675l84 -46l-173 -144l-50 34z" />
    <glyph glyph-name="dollar.fitted" unicode="&#xf5f5;" horiz-adv-x="482" 
d="M468 567l-88 -48q-8 30 -30 47q-25 19 -67 19q-45 0 -75 -26q-28 -25 -28 -60q0 -29 24 -51q7 -7 16 -12.5t14.5 -8t17.5 -7.5t17 -7l54 -24q55 -24 84 -61q35 -43 35 -109q0 -100 -61 -165q-54 -57 -134 -64l-13 -100h-74l13 99q-59 6 -100 45q-59 57 -62 150l103 22
q0 -61 23 -90q28 -35 77 -35q60 0 95 40q30 35 30 87q0 34 -26 62q-19 20 -68 42l-51 23q-52 24 -79 53q-37 42 -37 98q0 73 53 129q51 53 126 62l10 88h74l-10 -89q46 -7 82 -34q39 -28 55 -75z" />
    <glyph glyph-name="Euro.fitted" unicode="&#xf5f6;" horiz-adv-x="642" 
d="M619 641l-54 -89q-46 33 -126 33q-20 0 -42 -3.5t-58.5 -15t-68 -42.5t-48.5 -78h289l-39 -70h-274q-9 -31 -11 -74h247l-39 -70h-203q6 -68 54.5 -109.5t128.5 -41.5q93 0 172 57l-13 -109q-87 -42 -173 -42q-140 0 -215 82q-61 68 -62 163h-68l39 70h30q2 43 11 74h-62
l39 70h43q25 86 92 146q98 87 251 87q94 0 160 -38z" />
    <glyph glyph-name="cent.fitted" unicode="&#xf5f7;" horiz-adv-x="398" 
d="M385 524l-13 -107q-48 52 -117 52q-61 0 -98 -35q-44 -42 -44 -111q0 -61 36 -93q32 -30 83 -30q69 0 119 49l-13 -106q-45 -27 -98 -29l-12 -101h-74l12 102q-60 11 -100 53q-54 56 -54 145q0 109 70 179q55 55 137 63l13 100h74l-13 -101q49 -3 92 -30z" />
    <glyph glyph-name="sterling.fitted" unicode="&#xf5f8;" horiz-adv-x="588" 
d="M554 444h-97q2 12 2 32q0 47 -28 75q-33 33 -85 33q-53 0 -86 -33q-35 -35 -35 -90q0 -42 34 -131h130l-9 -72h-101q5 -21 5 -41q0 -47 -23 -89l39 -15q63 -24 87 -24q26 0 45 19q18 20 30 44l76 -48q-28 -53 -67 -82q-39 -31 -95 -31q-42 0 -95 20l-39 15q-48 18 -64 18
q-32 0 -54 -22q-15 -14 -26 -37l-81 44q24 44 56 73q35 31 86 36q24 42 24 79q0 20 -9 41h-114l9 72h78q-25 63 -25 125q0 100 65 163q61 60 165 60q99 0 151 -51q54 -53 54 -142q0 -11 -3 -41z" />
    <glyph glyph-name="yen.fitted" unicode="&#xf5f9;" horiz-adv-x="575" 
d="M512 377h-143l-50 -74h184l-8 -70h-192l-29 -233h-94l29 233h-192l8 70h184l-32 74h-143l9 70h104l-94 220h108l113 -267l179 267h112l-148 -220h104z" />
    <glyph glyph-name="florin.fitted" unicode="&#xf5fa;" horiz-adv-x="564" 
d="M559 731l-25 -93q-23 10 -43 10q-33 0 -53 -21q-19 -19 -33 -74l-33 -132h112l-20 -78h-112l-70 -278q-36 -141 -87 -188q-57 -54 -163 -54q-18 0 -27 1l23 93h6q63 0 92 27q30 27 53 119l71 280h-85l20 78h85l36 144q22 90 68 132q46 43 118 43q31 0 67 -9z" />
    <glyph glyph-name="uni20B4.fitted" unicode="&#xf5fb;" horiz-adv-x="546" 
d="M190 519l-76 48q34 45 83 77q55 35 124 35q83 0 127 -42q39 -37 39 -91q0 -56 -47 -99h87l-9 -70h-146l-87 -74h224l-8 -70h-299q-45 -38 -45 -84q0 -34 29 -53q22 -15 62 -15q44 0 78 20q38 22 64 73l83 -50q-39 -76 -115 -111q-55 -26 -124 -26q-79 0 -125 34
q-55 40 -55 110q0 59 42 102h-79l8 70h144l87 74h-222l9 70h283q58 36 58 78q0 25 -20 43q-21 17 -55 17q-39 0 -69 -19q-32 -20 -50 -47z" />
    <glyph glyph-name="uni20B6.fitted" unicode="&#xf5fc;" horiz-adv-x="518" 
d="M298 667q107 0 161 -52q49 -47 49 -131q0 -89 -55 -143q-64 -64 -209 -64h-34l-11 -74h158l-8 -70h-158l-16 -133h-102l17 133h-73l8 70h73l9 74h-73l11 88h73l37 302h143zM245 573l-25 -208h38q83 0 118 31q34 29 34 83q0 45 -31 71q-28 23 -91 23h-43z" />
    <glyph glyph-name="uni20B8.fitted" unicode="&#xf5fd;" horiz-adv-x="457" 
d="M423 441h-153l-55 -441h-102l55 441h-153l12 96h408zM439 581h-408l11 86h408z" />
    <glyph glyph-name="uniF639" unicode="&#xf639;" horiz-adv-x="532" 
d="M270 -11q-88 0 -140 62q-63 74 -63 205q0 95 28 193t94 162q67 67 161 67q72 0 124 -49q75 -70 75 -215q0 -237 -118 -357q-68 -68 -161 -68zM339 588q-48 0 -82 -36q-41 -41 -65 -123.5t-24 -164.5q0 -113 47 -160q24 -24 61 -24q47 0 82 35q45 46 67.5 128.5
t22.5 157.5q0 120 -49 165q-25 22 -60 22z" />
    <glyph glyph-name="uniF63A" unicode="&#xf63a;" horiz-adv-x="490" 
d="M476 94l-12 -94h-448l265 280q78 83 93 101q48 60 48 110q0 45 -32 72q-30 25 -77 25q-50 0 -82 -30q-34 -34 -41 -91h-98q13 90 64 146q59 65 163 65q93 0 148 -49q56 -49 56 -127q0 -75 -55 -149q-32 -42 -122 -136l-119 -123h249z" />
    <glyph glyph-name="uniF63B" unicode="&#xf63b;" horiz-adv-x="498" 
d="M215 497h-98q13 75 58 123q55 58 153 58q89 0 139 -49q47 -45 47 -122q0 -59 -27 -100q-27 -43 -72 -59q35 -17 55 -49q21 -35 21 -82q0 -106 -63 -169q-59 -59 -166 -59q-98 0 -149 53q-52 56 -55 139h98q2 -47 31 -75q27 -27 78 -27q55 0 86 30q38 38 38 102
q0 58 -39 83q-22 16 -71 16h-13l11 86h21q63 0 90 27q28 28 28 76q0 44 -30 69q-23 20 -66 20q-45 0 -71 -24q-27 -27 -34 -67z" />
    <glyph glyph-name="uniF63C" unicode="&#xf63c;" 
d="M500 716l-61 -496h72l-11 -94h-72l-16 -126h-98l16 126h-331zM194 220h147l25 207z" />
    <glyph glyph-name="uniF63D" unicode="&#xf63d;" horiz-adv-x="514" 
d="M543 667l-12 -94h-206l-47 -115q20 2 30 2q84 0 138 -54q57 -56 57 -153q0 -124 -72 -196q-67 -68 -185 -68q-84 0 -140 35q-46 29 -74 76l75 60q21 -38 55 -59q36 -22 85 -22q68 0 111 40q43 43 43 118q0 71 -42 107q-33 30 -95 30q-68 0 -139 -44l142 337h276z" />
    <glyph glyph-name="uniF63E" unicode="&#xf63e;" horiz-adv-x="509" 
d="M413 690l74 -55l-190 -204q18 2 27 2q90 0 148 -60q54 -54 54 -142q0 -106 -72 -175q-70 -67 -178 -67q-97 0 -158 58q-66 63 -66 157q0 69 44 140q27 43 100 118zM302 351q-64 0 -106 -42q-41 -43 -41 -105q0 -52 35 -89q34 -36 90 -36q58 0 101 41q45 45 45 111
q0 58 -38 91q-32 29 -86 29z" />
    <glyph glyph-name="uniF63F" unicode="&#xf63f;" horiz-adv-x="458" 
d="M23 27l369 546h-326l12 94h496l-475 -690z" />
    <glyph glyph-name="uniF640" unicode="&#xf640;" horiz-adv-x="490" 
d="M402 347q37 -18 60 -51q24 -36 24 -85q0 -105 -64 -166q-58 -56 -163 -56q-87 0 -141 50q-56 53 -56 143q0 64 33 109q34 47 91 64q-27 17 -43 39q-26 34 -26 86q0 76 51 133q59 65 157 65q78 0 129 -48q52 -49 52 -129q0 -55 -26 -95q-28 -42 -78 -59zM303 387
q51 0 80 29q30 30 30 81q0 41 -28 67q-25 24 -66 24q-48 0 -80 -32q-30 -30 -30 -77q0 -39 26 -65q26 -27 68 -27zM264 79q55 0 87 33q33 35 33 91q0 43 -27 71q-27 29 -75 29q-51 0 -85 -32q-34 -33 -34 -87q0 -44 26 -74q28 -31 75 -31z" />
    <glyph glyph-name="uniF641" unicode="&#xf641;" horiz-adv-x="510" 
d="M178 -23l-74 55l185 200q-15 -3 -31 -3q-78 0 -135 59q-59 61 -59 147q0 101 69 170q75 73 184 73t169 -63q53 -55 53 -141q0 -74 -44 -144q-29 -46 -99 -120zM291 316q61 0 101 37q45 40 45 108q0 58 -37 93q-36 34 -91 34q-58 0 -98 -37q-45 -41 -45 -110q0 -57 36 -91
t89 -34z" />
    <glyph glyph-name="uniF6BA" unicode="&#xf6ba;" horiz-adv-x="340" 
d="M70 288l12 102h240l-12 -102h-240z" />
    <glyph glyph-name="uniF6BB" unicode="&#xf6bb;" horiz-adv-x="620" 
d="M91 294l11 90h480l-11 -90h-480z" />
    <glyph glyph-name="uniF6BC" unicode="&#xf6bc;" horiz-adv-x="840" 
d="M91 294l11 90h700l-11 -90h-700z" />
    <glyph glyph-name="uniF6C3" unicode="&#xf6c3;" 
d="M158 -236l96 186l86 -42l-116 -178z" />
    <glyph glyph-name="uniF6C9" unicode="&#xf6c9;" 
d="M323 727l-43 40l155 139l79 -60z" />
    <glyph glyph-name="uniF6CA" unicode="&#xf6ca;" 
d="M351 838l109 82l61 -56l-181 -134l-149 134l71 56z" />
    <glyph glyph-name="uniF6CB" unicode="&#xf6cb;" 
d="M383 788q0 28 21 49q20 20 50 20q24 0 38 -15q16 -16 16 -41q0 -30 -21 -49t-49 -19q-24 0 -39 15q-16 15 -16 40zM188 788q0 28 21 49q20 20 50 20q24 0 38 -15q16 -16 16 -41q0 -30 -21 -49t-49 -19q-24 0 -39 15q-16 15 -16 40z" />
    <glyph glyph-name="uniF6CE" unicode="&#xf6ce;" 
d="M355 727l-161 119l93 60l121 -139z" />
    <glyph glyph-name="uniF6CF" unicode="&#xf6cf;" 
d="M343 906l72 -52l-172 -127l-39 36zM543 906l72 -52l-172 -127l-39 36z" />
    <glyph glyph-name="uniF6D0" unicode="&#xf6d0;" 
d="M160 733l10 80h360l-10 -80h-360z" />
    <glyph glyph-name="uniF6D1" unicode="&#xf6d1;" 
d="M187 832l81 36q7 -22 24 -38q21 -18 59 -18q34 0 55 15q23 16 32 41l79 -36q-20 -46 -60 -72q-45 -30 -111 -30t-107 31q-35 25 -52 71z" />
    <glyph glyph-name="uniF6D4" unicode="&#xf6d4;" 
d="M162 603l83 23q5 -28 23 -46q20 -19 53 -19q35 0 57 16q24 18 31 49l77 -23q-16 -56 -63 -88q-45 -30 -107 -30q-60 0 -100 32t-54 86z" />
    <glyph glyph-name="uniF6DC" unicode="&#xf6dc;" horiz-adv-x="261" 
d="M91 0l70 573h-116l68 94h162l-82 -667h-102z" />
    <glyph glyph-name="uniF6DE" unicode="&#xf6de;" horiz-adv-x="630" 
d="M68 168l8 90h525l-8 -90h-525z" />
    <glyph glyph-name="nbspace" horiz-adv-x="233" 
 />
    <glyph glyph-name="hyphenminus" horiz-adv-x="340" 
d="M70 162l12 102h240l-12 -102h-240z" />
    <glyph glyph-name="dotlessi1" horiz-adv-x="223" 
d="M115 421h98l-52 -421h-98z" />
    </font>
</defs>
</svg>
