<?xml version="1.0" standalone="no"?>
<!DOCTYPE svg PUBLIC "-//W3C//DTD SVG 1.1//EN" "http://www.w3.org/Graphics/SVG/1.1/DTD/svg11.dtd" >
<svg xmlns="http://www.w3.org/2000/svg" xmlns:xlink="http://www.w3.org/1999/xlink" version="1.1">
<metadata>
Created by FontForge 20170731 at Tue Jan 27 12:39:47 2015
 By Aleksey,,,
Copyright (c) 1995 ParaGraph Intl., (c) 1998 ParaType Inc., ParaType Ltd. All rights reserved.
</metadata>
<defs>
<font id="FuturaPT-Medium" horiz-adv-x="1024" >
  <font-face 
    font-family="FuturaPT-Medium"
    font-weight="450"
    font-stretch="normal"
    units-per-em="2048"
    panose-1="2 11 6 2 2 2 4 2 3 3"
    ascent="1563"
    descent="-485"
    x-height="862"
    cap-height="1366"
    bbox="-741 -553 2390 1915"
    underline-thickness="102"
    underline-position="-306"
    unicode-range="U+0020-FB02"
  />
<missing-glyph 
d="M102 1049h820v-1049h-820v1049zM905 16v1016h-786v-1016h786z" />
    <glyph glyph-name="afii10017.var.accented" unicode="&#x410;`" horiz-adv-x="1343" 
d="M883 526l-203 463l-211 -463h414zM967 330h-584l-150 -330h-225l680 1446l647 -1446h-225zM541 1571l282 284l176 -122l-360 -244z" />
    <glyph glyph-name="afii10022.var.accented" unicode="&#x415;`" 
d="M918 1169h-545v-346h528v-196h-528v-430h545v-197h-754v1366h754v-197zM381 1571l283 284l176 -122l-361 -244z" />
    <glyph glyph-name="afii10026.var.accented" unicode="&#x418;`" horiz-adv-x="1458" 
d="M164 1366h209v-924l921 981v-1423h-209v920l-921 -981v1427zM598 1571l283 284l176 -122l-361 -244z" />
    <glyph glyph-name="afii10032.var.accented" unicode="&#x41e;`" horiz-adv-x="1617" 
d="M1311 682q0 227 -140 371q-140 145 -361 145t-363 -144q-140 -144 -140 -371t140 -372t362 -145t362 145q140 144 140 371zM809 1391q154 -1 284 -55t225 -149t148 -225q54 -130 54 -281q1 -302 -202 -504q-202 -202 -508 -203t-508 201t-204 507q0 150 54 280
q108 264 373 374q130 55 284 55zM678 1571l283 284l176 -122l-361 -244z" />
    <glyph glyph-name="afii10037.var.accented" unicode="&#x423;`" horiz-adv-x="1167" 
d="M266 1366l352 -729l320 729h217l-616 -1366h-217l176 387l-486 979h254zM453 1571l282 284l176 -122l-360 -244z" />
    <glyph glyph-name="afii10045.var.accented" unicode="&#x42b;`" horiz-adv-x="1515" 
d="M1352 1366v-1366h-209v1366h209zM373 197h147q98 0 152 22q123 51 123 191t-136 189q-53 19 -135 19h-151v-421zM164 1366h209v-551h155q328 0 437 -237q35 -78 35 -172t-43 -184q-42 -90 -122 -144q-81 -54 -161 -66t-144 -12h-366v1366zM627 1571l282 284l176 -122
l-360 -244z" />
    <glyph glyph-name="afii10047.var.accented" unicode="&#x42d;`" horiz-adv-x="1273" 
d="M494 1391q133 0 254 -38t225 -141q169 -169 194 -406q8 -67 9 -122q0 -321 -195 -516t-494 -195q-215 0 -389 103v248q158 -158 378 -158t342 122t140 306h-675v197h671q-30 254 -254 366q-82 41 -211 41q-221 0 -391 -151v245q174 99 396 99zM391 1571l283 284l176 -122
l-361 -244z" />
    <glyph glyph-name="afii10048.var.accented" unicode="&#x42e;`" horiz-adv-x="2048" 
d="M1741 682q0 224 -133 370t-346 146t-349 -144q-135 -148 -135 -372t133 -370t346 -146t349 144q135 148 135 372zM373 627v-627h-209v1366h209v-543h205q39 216 182 365q92 92 211 147q119 54 279 55q306 2 502 -200t197 -506t-195 -506q-196 -203 -494 -205
q-186 0 -320 69t-203 156q-152 190 -159 429h-205zM893 1571l283 284l176 -122l-361 -244z" />
    <glyph glyph-name="afii10049.var.accented" unicode="&#x42f;`" horiz-adv-x="1093" 
d="M618 1174q-168 0 -233 -63q-64 -63 -65 -146q-2 -189 179 -215q60 -10 107 -11h115v435h-103zM594 1366h336v-1366h-209v547h-49l-373 -547h-258l405 569q-118 13 -200 85q-82 71 -105 147q-45 150 0 299q23 72 75 128q119 128 296 136q45 2 82 2zM416 1571l282 284
l176 -122l-360 -244z" />
    <glyph glyph-name="afii10023.var.accented" unicode="&#x401;`" 
d="M723 1641q0 48 32.5 81t72.5 33q63 0 93.5 -37t30.5 -65q0 -51 -30.5 -88t-81.5 -37t-84 32.5t-33 80.5zM159.5 1718.5q30.5 36.5 82.5 36.5q51 0 83.5 -32.5t32.5 -80.5t-32.5 -81t-71.5 -33t-60.5 11t-43 37t-21.5 66t30.5 76.5zM381 1571l227 284l129 -94l-288 -250z
M918 1169h-545v-346h528v-196h-528v-430h545v-197h-754v1366h754v-197z" />
    <glyph glyph-name="afii10065.var.accented" unicode="&#x430;`" horiz-adv-x="1085" 
d="M523 705q-103 0 -170 -80q-66 -80 -66 -195q0 -114 66 -196t170 -81q103 1 175 73t72 204q0 133 -72 204t-175 71zM758 90q-99 -117 -258 -117q-193 0 -305 137q-113 137 -113 331q0 195 122 319q122 125 288 125q165 0 266 -123v100h200v-862h-200v90zM881 1288
l-320 -295l-110 70l245 319z" />
    <glyph glyph-name="afii10070.var.accented" unicode="&#x435;`" horiz-adv-x="987" 
d="M700 547q-18 106 -114 150q-33 15 -100 16t-124 -56q-45 -41 -61 -110h399zM219 768q117 117 289 117t277 -112q120 -128 120 -365v-25h-618q9 -110 69 -170q58 -59 148 -59q126 0 193 88q19 25 34 49l168 -94q-63 -106 -152 -164t-258 -59t-288 118t-119 326t137 350z
M838 1288l-320 -295l-110 70l245 319z" />
    <glyph glyph-name="afii10074.var.accented" unicode="&#x438;`" horiz-adv-x="1044" 
d="M328 862v-489l590 567v-940h-201v502l-590 -568v928h201zM860 1288l-319 -295l-111 70l246 319z" />
    <glyph glyph-name="afii10080.var.accented" unicode="&#x43e;`" horiz-adv-x="1085" 
d="M543 154q119 0 187 74t69 204q0 129 -74 200t-182 73q-167 0 -234 -151q-23 -52 -22 -126q0 -125 68 -200q69 -74 188 -74zM543 885q98 0 182 -34q168 -68 243 -238q36 -83 36 -182q0 -195 -132 -327t-330 -131q-198 0 -329 131q-131 132 -131 326t132 324
q131 130 329 131zM881 1288l-320 -295l-110 70l245 319z" />
    <glyph glyph-name="afii10085.var.accented" unicode="&#x443;`" horiz-adv-x="987" 
d="M381 135l-369 727h242l246 -504l250 504h225l-686 -1331h-226zM834 1288l-320 -295l-111 70l246 319z" />
    <glyph glyph-name="afii10093.var.accented" unicode="&#x44b;`" horiz-adv-x="1187" 
d="M860 862h201v-862h-201v862zM420 172q74 0 94 13t38 33t17 68q0 49 -34 72q-35 23 -63 25t-50 2h-94v-213h92zM127 862h201v-305h114q185 0 260 -88q68 -74 68 -169q0 -145 -78 -226q-57 -54 -122 -64t-130 -10h-313v862zM932 1288l-320 -295l-110 70l246 319z" />
    <glyph glyph-name="afii10095.var.accented" unicode="&#x44d;`" horiz-adv-x="876" 
d="M795 434q0 -199 -127 -332q-119 -129 -322 -129q-142 0 -264 50v190q104 -59 210 -59q107 0 152 24t68 45q51 51 63 133h-399v168h393q-19 94 -86 138q-55 40 -172 42q-117 1 -229 -55v191q107 43 240 44q220 2 347 -125q126 -126 126 -325zM643 1288l-319 -295l-111 70
l246 319z" />
    <glyph glyph-name="afii10096.var.accented" unicode="&#x44e;`" horiz-adv-x="1433" 
d="M651 428q0 -135 72 -205q72 -69 176 -69q166 0 226 148q22 52 22 126q0 134 -72 206t-176 71q-165 0 -226 -151q-22 -52 -22 -126zM888 885q201 0 333 -128q131 -129 131 -325t-128 -327q-128 -132 -325 -132q-117 0 -200 41t-125 88q-100 109 -113 256h-133v-358h-201
v862h201v-319h137q35 198 239 302q78 40 184 40zM1055 1288l-320 -295l-110 70l245 319z" />
    <glyph glyph-name="afii10097.var.accented" unicode="&#x44f;`" horiz-adv-x="856" 
d="M528 690h-116q-72 0 -98 -15q-56 -31 -56 -90t41 -83q31 -21 111 -21h118v209zM408 862h321v-862h-201v317h-41l-235 -317h-236l271 342q-80 11 -144 75q-65 63 -65 179t80 188q55 54 120 66t130 12zM768 1288l-319 -295l-111 70l246 319z" />
    <glyph glyph-name="afii10071.var.accented" unicode="&#x451;`" horiz-adv-x="987" 
d="M659 1188q0 39 33 71.5t72 32.5q64 0 94.5 -38t30.5 -80q0 -43 -34.5 -77t-66.5 -34t-51.5 7t-37 21.5t-29 36t-11.5 60.5zM106 1175q0 52 32 84.5t81 32.5t82 -32.5t33 -71.5q0 -63 -37.5 -94t-75.5 -31q-39 0 -77 30t-38 82zM694 1307l-295 -295l-77 51l221 319z
M700 547q-12 72 -64 119t-135 47t-139 -56q-45 -41 -61 -110h399zM514 154q140 0 217 137l168 -94q-101 -170 -215 -197t-192 -27q-171 0 -290.5 118t-119.5 326t137 351q117 117 287 117t285 -120q114 -120 114 -357v-25h-618q9 -108 69 -169q59 -60 158 -60z" />
    <glyph glyph-name="fi" unicode="fi" horiz-adv-x="962" 
d="M836 862v-862h-201v862h201zM332 678v-678h-201v678h-70v184h70v287q0 61 7 120.5t43 110.5t106.5 94.5t170.5 43.5q156 0 223 -40t103 -98q37 -57 44.5 -113.5t7.5 -117.5v-59h-201v36q0 29 -2 64t-24 72q-37 63 -126 63q-114 0 -132.5 -68.5t-18.5 -130.5v-264h217
v-184h-217z" />
    <glyph glyph-name="fl" unicode="fl" horiz-adv-x="962" 
d="M332 678v-678h-201v678h-70v184h70v287q0 61 7 120.5t43 110.5t106.5 94.5t170.5 43.5q156 0 223 -40t102 -96q36 -55 44.5 -111.5t8.5 -121.5v-1149h-201v1126q0 162 -62.5 180.5t-101.5 18.5q-139 0 -139 -199v-264h217v-184h-217z" />
    <glyph glyph-name=".notdef" 
d="M102 1049h820v-1049h-820v1049zM905 16v1016h-786v-1016h786z" />
    <glyph glyph-name=".null" horiz-adv-x="0" 
 />
    <glyph glyph-name="nonmarkingreturn" horiz-adv-x="477" 
 />
    <glyph glyph-name="space" unicode=" " horiz-adv-x="477" 
 />
    <glyph glyph-name="exclam" unicode="!" horiz-adv-x="516" 
d="M135 98.5q0 51.5 36 87t87 35.5t87 -35.5t36 -87t-36 -87.5t-87 -36t-87 36t-36 87.5zM158 338v1028h200v-1028h-200z" />
    <glyph glyph-name="quotedbl" unicode="&#x22;" horiz-adv-x="749" 
d="M614 817h-147l-37 549h221zM283 817h-148l-37 549h221z" />
    <glyph glyph-name="numbersign" unicode="#" horiz-adv-x="1228" 
d="M762 811h-234l-36 -229h233zM633 0l63 401h-233l-64 -401h-200l63 401h-221l29 181h221l37 229h-222l29 180h221l60 375h200l-59 -375h234l59 375h201l-60 -375h221l-28 -180h-221l-37 -229h221l-29 -181h-221l-63 -401h-201z" />
    <glyph glyph-name="dollar" unicode="$" horiz-adv-x="1163" 
d="M598 1198q-94 0 -143 -48t-49 -97q0 -86 55 -130t127 -69l102 -41q155 -63 218 -132q104 -115 104 -282t-119 -299q-93 -97 -225 -118v-207h-152v200q-159 13 -266 136q-102 113 -115 266l207 45q0 -96 60 -176t168 -80q107 0 170 64t63 158q0 93 -60 157
q-35 35 -66.5 51t-70.5 33l-131 55q-120 51 -180 113q-59 61 -78.5 113t-19.5 122t28.5 136.5t69.5 107.5q90 90 221 108v183h152v-181q102 -10 161 -54q96 -72 146 -171l-168 -98q-59 135 -209 135z" />
    <glyph glyph-name="percent" unicode="%" horiz-adv-x="1658" 
d="M1262 133q43 0 74.5 16.5t53 41t32 55t10.5 61.5t-10.5 61.5t-32 55.5t-53 41t-74.5 16t-75 -16t-53.5 -41t-31.5 -55.5t-10 -61.5t10 -61.5t31.5 -55t53.5 -41t75 -16.5zM1261.5 629q67.5 0 128 -25.5t104.5 -70t70.5 -102.5t26.5 -123.5t-25.5 -124t-70.5 -102.5
t-105.5 -69.5t-128 -25.5t-128 25.5t-105.5 69.5t-70.5 102.5t-25.5 124t26.5 123.5t70.5 102.5t104.5 70t128 25.5zM1171 1389l97 -56l-781 -1356l-96 60zM397 883q43 0 75 16t53.5 41t31.5 55.5t10 61t-10 61.5t-31.5 55.5t-53.5 41t-75 16.5t-74.5 -16.5t-53 -41
t-32 -55.5t-10.5 -61.5t10.5 -61t32 -55.5t53 -41t74.5 -16zM397.5 1378q67.5 0 128 -25.5t104.5 -69.5t70.5 -102.5t26.5 -124t-25.5 -124t-70.5 -102.5t-105.5 -69.5t-128 -25.5t-128 25.5t-105.5 69.5t-70.5 102.5t-25.5 124t26.5 124t70.5 102.5t104.5 69.5t128 25.5z
" />
    <glyph glyph-name="ampersand" unicode="&#x26;" horiz-adv-x="1323" 
d="M739 1099q0 42 -31.5 81t-99.5 39t-101.5 -34t-33.5 -91t47 -115l62 -74l75 56q82 60 82 138zM372.5 211q57.5 -61 159.5 -61t180.5 73.5t96.5 91.5l-270 328q-93 -48 -143 -104q-81 -91 -81 -179t57.5 -149zM934 168q-179 -195 -414 -195q-188 0 -298.5 110.5
t-110.5 283.5t81.5 249.5t97.5 87.5l126 89q-135 135 -135 282q0 207 119.5 261.5t202.5 54.5q155 0 242 -89t87 -199t-57 -182q-57 -73 -173 -161l242 -295l156 176l133 -139l-162 -187l252 -315h-254z" />
    <glyph glyph-name="quotesingle" unicode="'" horiz-adv-x="417" 
d="M283 817h-148l-37 549h221z" />
    <glyph glyph-name="parenleft" unicode="(" horiz-adv-x="663" 
d="M164 574q0 529 192 942l185 -72q-172 -386 -172 -816q0 -322 46 -526q46 -203 126 -393l-185 -71q-176 374 -184 620t-8 316z" />
    <glyph glyph-name="parenright" unicode=")" horiz-adv-x="663" 
d="M123 -291q172 406 172 827t-65.5 618.5t-106.5 289.5l184 72q193 -411 193 -943q0 -293 -52 -521q-52 -227 -141 -414z" />
    <glyph glyph-name="asterisk" unicode="*" horiz-adv-x="1126" 
d="M498 1249l-15 244h160l-16 -242l221 90l51 -147l-233 -57l151 -185l-123 -96l-131 199l-131 -199l-123 96l152 181l-234 57l52 151z" />
    <glyph glyph-name="plus" unicode="+" 
d="M68 780h348v348h192v-348h348v-184h-348v-348h-192v348h-348v184z" />
    <glyph glyph-name="comma" unicode="," horiz-adv-x="655" 
d="M229 256l181 -70l-254 -505l-136 55z" />
    <glyph glyph-name="hyphen" unicode="-" horiz-adv-x="696" 
d="M102 541h492v-209h-492v209z" />
    <glyph glyph-name="period" unicode="." horiz-adv-x="516" 
d="M135 98.5q0 51.5 36 87t87 35.5t87 -35.5t36 -87t-36 -87.5t-87 -36t-87 36t-36 87.5z" />
    <glyph glyph-name="slash" unicode="/" horiz-adv-x="1400" 
d="M1077 1567l164 -74l-1077 -1929l-164 74z" />
    <glyph glyph-name="zero" unicode="0" horiz-adv-x="1163" 
d="M397 1092q-94 -139 -94 -406.5t94 -411.5q74 -112 184 -112t185 112q94 139 94 409t-94 409q-74 112 -184 112t-185 -112zM581.5 -23q-180.5 0 -309.5 148q-174 200 -174 558t174 558q129 147 309.5 147.5t309.5 -147.5q174 -200 174 -558t-174 -558
q-129 -148 -309.5 -148z" />
    <glyph glyph-name="one" unicode="1" horiz-adv-x="1163" 
d="M512 1174h-238l115 192h332v-1366h-209v1174z" />
    <glyph glyph-name="two" unicode="2" horiz-adv-x="1163" 
d="M987 0h-917l473 573q175 215 205 283t30 119t-14 91t-43 70.5t-71 49t-125 18.5t-147.5 -74t-68.5 -174h-200q4 100 38.5 177t64.5 109q133 146 330 147q206 0 323.5 -119.5t117.5 -275.5t-98 -304q-60 -89 -195 -246l-213 -251h510v-193z" />
    <glyph glyph-name="three" unicode="3" horiz-adv-x="1163" 
d="M948 1016q0 -201 -170 -295q91 -34 135 -109q58 -86 58 -200q0 -200 -118 -317q-118 -118 -333 -118q-199 0 -301 110q-103 110 -121 284h201q16 -94 74 -148q70 -61 164 -61t161 57q72 72 72 185t-53 162q-53 50 -102.5 59.5t-82.5 9.5h-40v176h28q115 0 171 56
q57 56 57 146t-52 140q-52 51 -147 51q-156 0 -182.5 -84t-26.5 -102h-201q7 156 117 266q72 68 151.5 86.5t152.5 18.5q183 0 286 -108q102 -107 102 -265z" />
    <glyph glyph-name="four" unicode="4" horiz-adv-x="1163" 
d="M717 446v441l-311 -441h311zM918 451h147v-193h-147v-258h-201v258h-676l877 1208v-1015z" />
    <glyph glyph-name="five" unicode="5" horiz-adv-x="1163" 
d="M578 950q59 0 142 -30t139 -84q140 -136 140 -358t-141 -362t-377 -139q-157 0 -262 62q-16 10 -65.5 47t-96.5 111l158 131q83 -166 283 -166q127 0 209 76q88 88 88 230t-82 222q-82 76 -224 76q-149 0 -280 -90l203 690h565v-192h-422l-68 -228q32 4 91 4z" />
    <glyph glyph-name="six" unicode="6" horiz-adv-x="1163" 
d="M307 440q0 -187 111.5 -232.5t161.5 -45.5t103.5 18.5t113 77t59.5 182t-78 201.5t-194.5 78t-196.5 -76q-80 -75 -80 -203zM625 897q195 0 322 -135q48 -51 81 -134t33 -176t-33 -185.5t-89 -148.5q-143 -142 -365 -141q-226 -1 -340 121q-132 140 -132 298t66 286
q39 78 79 131t87 113l379 487l151 -113l-325 -411q41 8 86 8z" />
    <glyph glyph-name="seven" unicode="7" horiz-adv-x="1163" 
d="M111 1174v192h1015l-860 -1413l-164 102l680 1119h-671z" />
    <glyph glyph-name="eight" unicode="8" horiz-adv-x="1163" 
d="M152 395q0 225 204 316q-77 32 -123 105q-47 73 -47 169q0 188 113 296t282 108t283 -108q113 -108 113 -272t-63.5 -222t-106.5 -76q96 -41 143 -111q62 -81 62 -195q0 -187 -109 -301q-117 -127 -321.5 -127t-321.5 127q-108 113 -108 291zM432 1149q-57 -57 -57 -147
t58 -150q58 -59 149.5 -59t148.5 58t57 149.5t-57 148.5q-59 55 -149.5 55t-149.5 -55zM356 391q0 -136 81 -182.5t163 -46.5t145 69q62 70 62 166t-63 160t-161.5 64t-162.5 -64t-64 -166z" />
    <glyph glyph-name="nine" unicode="9" horiz-adv-x="1163" 
d="M776 729q80 84 80 203t-81.5 195.5t-193.5 76.5t-194 -78q-80 -80 -80 -202t80 -201q81 -76 194 -76t195 82zM326.5 521.5q-116.5 52.5 -170.5 166t-54 218.5q0 205 138 344t355 139t341 -130q125 -130 125 -315q0 -132 -66 -260q-39 -78 -78.5 -131t-87.5 -113
l-378 -487l-152 113l322 411q-35 -8 -107 -8q-71 0 -187.5 52.5z" />
    <glyph glyph-name="colon" unicode=":" horiz-adv-x="516" 
d="M135 96q0 51 36 87t87 36t87 -36t36 -87t-36 -87t-87 -36t-87 36t-36 87zM135 762q0 51 36 87t87 36t87 -36t36 -87t-36 -87t-87 -36t-87 36t-36 87z" />
    <glyph glyph-name="semicolon" unicode=";" horiz-adv-x="655" 
d="M229 256l181 -70l-254 -505l-136 55zM184 762q0 51 36 87t87 36t87 -36t36 -87t-36 -87t-87 -36t-87 36t-36 87z" />
    <glyph glyph-name="less" unicode="&#x3c;" 
d="M956 360v-196l-888 432v168l888 432v-197l-675 -319z" />
    <glyph glyph-name="equal" unicode="=" 
d="M68 618h888v-172h-888v172zM68 950h888v-172h-888v172z" />
    <glyph glyph-name="greater" unicode="&#x3e;" 
d="M68 999v197l888 -432v-168l-888 -432v196l675 320z" />
    <glyph glyph-name="question" unicode="?" horiz-adv-x="888" 
d="M324 96q0 51 35.5 87t87 36t87 -36t35.5 -87t-35.5 -87t-87 -36t-87 36t-35.5 87zM315 1058q0 -34 9 -65h-209q-4 35 -4 39v31q0 216 120.5 272t212.5 56q149 1 242 -87q92 -88 92 -244t-121 -241q-51 -36 -143 -71l-61 -25q-65 -28 -89 -51.5t-24 -79.5q0 -57 37 -72.5
t73 -15.5t66 34q31 34 31 105h201q0 -144 -89 -234t-219 -90t-221 84q-84 84 -84 201t58 184q58 66 186 113q41 16 81 30.5t76 49.5t37 94q0 98 -53 114.5t-79 16.5t-76 -20.5t-50 -127.5z" />
    <glyph glyph-name="at" unicode="@" horiz-adv-x="1499" 
d="M698 434q95 0 162.5 78t67.5 186q0 107 -48.5 148t-99.5 41q-99 0 -162 -73t-63 -181t46.5 -153.5t96.5 -45.5zM1038 490q0 -36 22.5 -53t50.5 -17t62.5 27.5t60 64.5t45 118.5t19.5 157.5t-29.5 162t-133 200t-348.5 114q-246 0 -416 -170t-170 -434t176.5 -413
t406.5 -149t418 84l35 -127q-200 -80 -440 -80q-369 0 -548 215t-179 484q0 311 202 511.5t497 200.5t478 -166.5t183 -439.5q0 -86 -23 -182t-70 -158q-105 -138 -241 -137q-66 0 -106 37t-50 90q-49 -78 -120.5 -108.5t-123.5 -30.5q-117 0 -208 79t-91 258q0 178 109 290
t258 112t207 -131l20 107h139l-79 -412q-4 -23 -8.5 -45.5t-4.5 -58.5z" />
    <glyph glyph-name="A" unicode="A" horiz-adv-x="1343" 
d="M883 526l-203 463l-211 -463h414zM967 330h-584l-150 -330h-225l680 1446l647 -1446h-225z" />
    <glyph glyph-name="B" unicode="B" horiz-adv-x="1077" 
d="M373 197h127q202 0 238 78.5t36 125.5q0 89 -49 137t-107.5 58t-113.5 10h-131v-409zM436 778q223 0 223 209q0 85 -42 125q-42 41 -85 49t-88 8h-71v-391h63zM371 1366q133 0 221 -21.5t156 -84.5q109 -102 108 -271q0 -95 -41 -162q-36 -64 -102 -94q104 -23 167 -90
q64 -67 81.5 -134t17.5 -135q0 -143 -90 -241q-127 -133 -383 -133h-342v1366h207z" />
    <glyph glyph-name="C" unicode="C" horiz-adv-x="1269" 
d="M1176 1047q-169 151 -381 151t-350 -146.5t-138 -369.5q0 -222 141 -369t359 -147q157 0 248.5 64.5t120.5 93.5v-248q-176 -103 -375 -103q-282 0 -484 189q-121 113 -170 241.5t-49 248.5q0 198 60.5 332.5t162.5 230.5q185 176 490 176q210 0 365 -99v-245z" />
    <glyph glyph-name="D" unicode="D" horiz-adv-x="1318" 
d="M373 197h90q78 0 198.5 18.5t210.5 117.5t115 189t25 160q0 135 -80.5 283.5t-227 176t-241.5 27.5h-90v-972zM451 1366q143 0 268 -24.5t245 -113.5t188.5 -231.5t68.5 -314.5t-70 -313.5t-213 -244.5t-281.5 -113.5t-210.5 -10.5h-282v1366h287z" />
    <glyph glyph-name="E" unicode="E" 
d="M918 1169h-545v-346h528v-196h-528v-430h545v-197h-754v1366h754v-197z" />
    <glyph glyph-name="F" unicode="F" horiz-adv-x="921" 
d="M848 1169h-475v-346h458v-196h-458v-627h-209v1366h684v-197z" />
    <glyph glyph-name="G" unicode="G" horiz-adv-x="1531" 
d="M1223 983q-155 215 -392 215t-378 -141q-68 -68 -107 -170.5t-39 -209.5q0 -224 136 -367q136 -144 334 -144t319 121q100 97 114 231h-340v193h564v-11q0 -352 -203 -553q-181 -174 -465 -174q-150 0 -260.5 43.5t-207.5 145.5q-200 209 -200 514q0 160 56.5 292
t143.5 220t220 145.5t315 57.5t330 -82t226 -209z" />
    <glyph glyph-name="H" unicode="H" horiz-adv-x="1331" 
d="M373 842h585v524h209v-1366h-209v645h-585v-645h-209v1366h209v-524z" />
    <glyph glyph-name="I" unicode="I" horiz-adv-x="536" 
d="M373 1366v-1366h-209v1366h209z" />
    <glyph glyph-name="J" unicode="J" horiz-adv-x="741" 
d="M66 219q61 -49 154 -49t126 92q23 53 23 219v885h209v-885q0 -203 -42 -291q-105 -216 -314 -217q-109 0 -168.5 25t-90.5 45z" />
    <glyph glyph-name="K" unicode="K" horiz-adv-x="1200" 
d="M373 0h-209v1366h209v-545l528 545h275l-617 -618l621 -748h-279l-487 606l-41 -41v-565z" />
    <glyph glyph-name="L" unicode="L" horiz-adv-x="806" 
d="M373 1366v-1169h401v-197h-610v1366h209z" />
    <glyph glyph-name="M" unicode="M" horiz-adv-x="1744" 
d="M123 0l287 1468l475 -1060l479 1060l258 -1468h-213l-139 823l-398 -886l-393 888l-143 -825h-213z" />
    <glyph glyph-name="N" unicode="N" horiz-adv-x="1527" 
d="M164 0v1458l991 -1038v946h209v-1450l-991 1038v-954h-209z" />
    <glyph glyph-name="O" unicode="O" horiz-adv-x="1617" 
d="M809 166q221 0 361.5 144.5t140.5 371.5t-140.5 371.5t-361.5 144.5t-361.5 -144.5t-140.5 -371.5t140.5 -371.5t361.5 -144.5zM809 1391q154 0 284 -54.5t225 -149.5t148.5 -226t53.5 -281t-53.5 -279t-148.5 -224t-225 -149.5t-359.5 -54.5t-432.5 203t-203 506
q0 150 53.5 280t148.5 225t225 149.5t284 54.5z" />
    <glyph glyph-name="P" unicode="P" horiz-adv-x="983" 
d="M373 748h94q135 0 200.5 59t65.5 150t-58 154t-210 63h-92v-426zM465 1366q187 0 286 -66q183 -121 183 -339q0 -188 -133 -299q-82 -70 -170 -88.5t-164 -18.5h-94v-555h-209v1366h301z" />
    <glyph glyph-name="Q" unicode="Q" horiz-adv-x="1617" 
d="M1190 334q121 141 121 358t-140.5 361.5t-361.5 144.5t-361.5 -144.5t-140.5 -371.5t140.5 -371.5t361.5 -144.5q127 0 235 53l-323 322h260zM98 682q0 150 53.5 280t148.5 225t225 149.5t284 54.5t284 -54.5t225 -149.5t148.5 -225.5t53.5 -279.5q0 -293 -189 -489
l221 -220h-258l-102 103q-162 -103 -383 -103q-307 0 -509 202t-202 507z" />
    <glyph glyph-name="R" unicode="R" horiz-adv-x="1093" 
d="M729 963q0 211 -285 211h-71v-435h65q171 0 231 71t60 153zM408 1366q242 0 354 -76q168 -114 168 -325q0 -147 -83 -249t-220 -132l426 -584h-252l-391 559h-37v-559h-209v1366h244z" />
    <glyph glyph-name="S" unicode="S" horiz-adv-x="1056" 
d="M352 1034q0 -103 148 -166l137 -55q263 -109 292 -226t29 -195t-32.5 -158t-123 -170.5t-284.5 -90.5q-119 0 -193.5 39.5t-128.5 99.5q-101 114 -114 265l207 45q0 -96 57 -174q64 -82 169 -82t170 62.5t65 159.5t-50 147t-147 94l-131 55q-115 48 -169 102t-82 110
t-28 130q0 149 108 257t292 108q256 0 379 -230l-168 -98q-59 135 -209 135q-96 0 -144.5 -49t-48.5 -115z" />
    <glyph glyph-name="T" unicode="T" horiz-adv-x="876" 
d="M543 1169v-1169h-209v1169h-314v197h836v-197h-313z" />
    <glyph glyph-name="U" unicode="U" horiz-adv-x="1339" 
d="M373 1366v-823q0 -55 6 -119t36.5 -117t96.5 -97t158 -44t157.5 44t102.5 108.5t37 224.5v823h209v-879q0 -264 -162 -389t-371 -125t-352 160q-127 140 -127 354v879h209z" />
    <glyph glyph-name="V" unicode="V" horiz-adv-x="1228" 
d="M233 1366l381 -952l381 952h226l-607 -1454l-606 1454h225z" />
    <glyph glyph-name="W" unicode="W" horiz-adv-x="1925" 
d="M233 1366l361 -913l369 979l356 -979l373 913h225l-610 -1454l-357 969l-360 -969l-582 1454h225z" />
    <glyph glyph-name="X" unicode="X" horiz-adv-x="1118" 
d="M451 713l-377 653h233l266 -463l273 463h233l-393 -653l412 -713h-234l-299 522l-311 -522h-234z" />
    <glyph glyph-name="Y" unicode="Y" horiz-adv-x="1105" 
d="M657 0h-208v590l-449 776h238l315 -547l315 547h238l-449 -776v-590z" />
    <glyph glyph-name="Z" unicode="Z" horiz-adv-x="1134" 
d="M1057 197v-197h-996l672 1169h-561v197h901l-672 -1169h656z" />
    <glyph glyph-name="bracketleft" unicode="[" horiz-adv-x="647" 
d="M381 1309v-1487h172v-184h-373v1855h373v-184h-172z" />
    <glyph glyph-name="backslash" unicode="\" horiz-adv-x="1400" 
d="M1237 -436l-1077 1929l164 74l1077 -1929z" />
    <glyph glyph-name="bracketright" unicode="]" horiz-adv-x="647" 
d="M266 -178v1487h-172v184h373v-1855h-373v184h172z" />
    <glyph glyph-name="asciicircum" unicode="^" 
d="M246 717h-213l350 649h258l350 -649h-213l-266 491z" />
    <glyph glyph-name="underscore" unicode="_" horiz-adv-x="819" 
d="M0 -119h819v-176h-819v176z" />
    <glyph glyph-name="grave" unicode="`" 
d="M174 1288l184 94l246 -319l-110 -70z" />
    <glyph glyph-name="a" unicode="a" horiz-adv-x="1085" 
d="M287 429q0 -114 65.5 -194.5t170.5 -80.5t176 72t71 203t-71 203.5t-177 72.5q-104 0 -169.5 -81t-65.5 -195zM758 862h200v-862h-200v90q-99 -117 -258 -117q-193 0 -305.5 135.5t-112.5 331.5t122.5 320.5t289.5 124.5t264 -123v100z" />
    <glyph glyph-name="b" unicode="b" horiz-adv-x="1085" 
d="M563 705q-104 0 -176 -72t-72 -204t71.5 -203.5t175.5 -71.5t170.5 80t66.5 195q0 114 -66 195t-170 81zM328 762q98 123 264 123t289 -124.5t123 -319.5t-112 -331.5t-306 -136.5q-101 0 -163.5 39t-94.5 78v-90h-201v1493h201v-731z" />
    <glyph glyph-name="c" unicode="c" horiz-adv-x="860" 
d="M287 428q0 -127 78 -205q73 -69 182 -69q147 0 248 110v-223q-109 -68 -241 -68q-131 0 -209.5 31t-132.5 87q-130 135 -130 333q0 203 129 332t348 129q125 0 236 -62v-225q-110 107 -244 107q-171 0 -217.5 -101.5t-46.5 -175.5z" />
    <glyph glyph-name="d" unicode="d" horiz-adv-x="1085" 
d="M287 429q0 -114 65.5 -194.5t170.5 -80.5t176 72t71 203t-71 203.5t-177 72.5q-104 0 -169.5 -81t-65.5 -195zM758 1493h200v-1493h-200v90q-99 -117 -258 -117q-193 0 -305.5 135.5t-112.5 331.5t122.5 320.5t289.5 124.5t264 -123v731z" />
    <glyph glyph-name="e" unicode="e" horiz-adv-x="987" 
d="M700 547q-12 72 -64 119t-135 47t-139 -56q-45 -41 -61 -110h399zM514 154q140 0 217 137l168 -94q-101 -170 -215 -197t-192 -27q-171 0 -290.5 118t-119.5 326t137 351q117 117 287 117t285 -120q114 -120 114 -357v-25h-618q9 -108 69 -169q59 -60 158 -60z" />
    <glyph glyph-name="f" unicode="f" horiz-adv-x="552" 
d="M481 1323q-72 0 -100 -33q-33 -33 -33 -102v-326h217v-184h-217v-678h-201v678h-86v184h86v299q0 175 84 271q84 84 205 84q70 0 129 -25v-199q-54 31 -84 31z" />
    <glyph glyph-name="g" unicode="g" horiz-adv-x="1085" 
d="M688 643q-62 62 -157 62t-156 -58q-88 -79 -88 -219q0 -194 96 -234t171 -40t145 74q71 74 71 206q0 131 -82 209zM758 862h200v-792q0 -152 -34 -294.5t-160 -194.5t-218 -52q-192 0 -298 106t-127 269h194q21 -123 90 -159t131 -36q102 0 156 58q49 47 57.5 108.5
t8.5 108.5v112q-100 -123 -269 -123t-278 117q-129 133 -129 341t123 331t288 123t265 -117v94z" />
    <glyph glyph-name="h" unicode="h" horiz-adv-x="995" 
d="M328 788q97 97 215 97t173.5 -33.5t96.5 -83.5q41 -59 48 -126t7 -114v-528h-200v510q0 104 -40 150q-40 45 -101 45q-108 0 -158 -72q-41 -55 -41 -217v-416h-201v1493h201v-705z" />
    <glyph glyph-name="i" unicode="i" horiz-adv-x="454" 
d="M98 1218.5q0 55.5 37 92.5t92.5 37t92 -37t36.5 -92.5t-36.5 -92t-92 -36.5t-92.5 36.5t-37 92zM328 862v-862h-201v862h201z" />
    <glyph glyph-name="j" unicode="j" horiz-adv-x="454" 
d="M98 1218.5q0 55.5 37 92.5t92.5 37t92 -37t36.5 -92.5t-36.5 -92t-92 -36.5t-92.5 36.5t-37 92zM328 862v-1331h-201v1331h201z" />
    <glyph glyph-name="k" unicode="k" horiz-adv-x="905" 
d="M328 1493v-920l280 289h266l-370 -358l397 -504h-254l-282 369l-37 -37v-332h-201v1493h201z" />
    <glyph glyph-name="l" unicode="l" horiz-adv-x="454" 
d="M328 1493v-1493h-201v1493h201z" />
    <glyph glyph-name="m" unicode="m" horiz-adv-x="1437" 
d="M764 758q88 127 266 127q68 0 133.5 -35t102.5 -100q45 -86 45 -218v-532h-201v475q0 109 -14 144q-34 86 -113 86t-121 -59q-43 -59 -43 -202v-444h-201v475q0 109 -14 144q-34 86 -114 86q-79 0 -120 -59q-42 -59 -42 -202v-444h-201v862h201v-80q86 103 224 103
q137 0 212 -127z" />
    <glyph glyph-name="n" unicode="n" horiz-adv-x="993" 
d="M326 782q92 103 248 103t239 -117q53 -74 53 -240v-528h-200v479q0 205 -64.5 215.5t-96.5 10.5q-83 0 -131 -51t-48 -240v-414h-201v862h201v-80z" />
    <glyph glyph-name="o" unicode="o" horiz-adv-x="1085" 
d="M543 154q119 0 187.5 74.5t68.5 204.5t-75 201t-212 71t-181 -101.5t-44 -175.5q0 -125 68.5 -199.5t187.5 -74.5zM1004 431q0 -195 -131.5 -326.5t-330.5 -131.5t-329.5 132t-130.5 326t131.5 324t329 130t329.5 -129.5t132 -324.5z" />
    <glyph glyph-name="p" unicode="p" horiz-adv-x="1085" 
d="M563 705q-104 0 -176 -72t-72 -204t71.5 -203.5t175.5 -71.5t170.5 80t66.5 195q0 114 -66 195t-170 81zM328 768q98 117 264 117t289 -124.5t123 -326.5q0 -203 -127 -332t-291 -129q-94 0 -160 43t-98 84v-569h-201v1331h201v-94z" />
    <glyph glyph-name="q" unicode="q" horiz-adv-x="1085" 
d="M287 429q0 -114 65.5 -194.5t170.5 -80.5t176 72t71 203t-71 203.5t-177 72.5q-104 0 -169.5 -81t-65.5 -195zM758 862h200v-1331h-200v565q-99 -123 -258 -123q-192 0 -305 134t-113 332q0 197 122.5 321.5t288.5 124.5t265 -117v94z" />
    <glyph glyph-name="r" unicode="r" horiz-adv-x="679" 
d="M328 446v-446h-201v862h201v-78q81 101 207 101q87 0 157 -41l-82 -182q-46 30 -90 30q-45 0 -76.5 -8t-66.5 -46t-42 -93.5t-7 -98.5z" />
    <glyph glyph-name="s" unicode="s" horiz-adv-x="737" 
d="M381 709q-39 -1 -59 -21t-21 -49q0 -29 22 -42t74 -40l103 -51q81 -37 119 -76q65 -68 65 -172t-83 -194q-83 -91 -234 -91q-112 0 -188 58t-109 155l163 78q20 -58 39 -75q43 -39 96 -39t83 28q29 29 29 67t-27 65q-26 27 -86 55l-74 34q-84 41 -119 74q-61 58 -61 145
q0 166 100.5 216.5t164.5 50.5q193 0 275 -152l-149 -98q-47 74 -123 74z" />
    <glyph glyph-name="t" unicode="t" horiz-adv-x="495" 
d="M334 678v-678h-201v678h-84v184h84v316h201v-316h153v-184h-153z" />
    <glyph glyph-name="u" unicode="u" horiz-adv-x="991" 
d="M328 862v-493q0 -108 28 -145q53 -70 139 -70t132 59q27 35 32 76t5 80v493h200v-500q0 -84 -16.5 -153.5t-99 -152.5t-252.5 -83t-253 83t-99.5 153t-16.5 153v500h201z" />
    <glyph glyph-name="v" unicode="v" horiz-adv-x="917" 
d="M238 862l221 -491l221 491h225l-446 -923l-447 923h226z" />
    <glyph glyph-name="w" unicode="w" horiz-adv-x="1404" 
d="M238 862l223 -493l241 567l242 -567l223 493h226l-449 -923l-242 550l-241 -550l-449 923h226z" />
    <glyph glyph-name="x" unicode="x" horiz-adv-x="1015" 
d="M393 467l-307 395h238l190 -252l193 252h245l-317 -395l369 -467h-242l-248 322l-256 -322h-246z" />
    <glyph glyph-name="y" unicode="y" horiz-adv-x="987" 
d="M381 135l-369 727h242l246 -504l250 504h225l-686 -1331h-226z" />
    <glyph glyph-name="z" unicode="z" horiz-adv-x="983" 
d="M924 184v-184h-908l559 678h-440v184h832l-555 -678h512z" />
    <glyph glyph-name="braceleft" unicode="{" 
d="M389 817v391q0 161 90 236q63 49 211 49h96v-172h-16q-111 0 -140 -29q-30 -29 -35 -64.5t-5 -70.5v-344q0 -104 -20 -143q-38 -72 -107 -105q110 -50 118.5 -133.5t8.5 -114.5v-344q0 -95 35 -129q35 -33 145 -34h16v-172h-96q-147 0 -211 49q-81 65 -85.5 138t-4.5 97
v391q0 152 -115 170v164q115 18 115 170z" />
    <glyph glyph-name="bar" unicode="|" 
d="M414 1536h196v-2048h-196v2048z" />
    <glyph glyph-name="braceright" unicode="}" 
d="M672 313v-391q0 -163 -90 -235q-66 -49 -211 -49h-97v172h17q110 0 140 28t35 64.5t5 70.5v344q1 103 21 143q38 74 106 105q-110 50 -118.5 133.5t-8.5 114.5v344q0 97 -30 126q-30 28 -72.5 33t-77.5 5h-17v172h97q145 0 211 -49q80 -65 85 -138t5 -98v-391
q0 -153 114 -170v-164q-114 -17 -114 -170z" />
    <glyph glyph-name="asciitilde" unicode="~" 
d="M717 614q110 0 174 125l117 -67q-47 -121 -146 -199q-62 -49 -149 -49t-194 46t-149 59.5t-90 13.5t-87 -41q-40 -41 -62 -96l-115 73q47 106 87 151q39 46 86 75.5t94 29.5t98 -10.5t123 -40.5t119 -50t94 -20z" />
    <glyph glyph-name="uni00A0" unicode="&#xa0;" horiz-adv-x="477" 
 />
    <glyph glyph-name="exclamdown" unicode="&#xa1;" horiz-adv-x="516" 
d="M381 796.5q0 -51.5 -36 -87t-87 -35.5t-87 35.5t-36 87t36 87.5t87 36t87 -36t36 -87.5zM358 557v-1028h-200v1028h200z" />
    <glyph glyph-name="cent" unicode="&#xa2;" horiz-adv-x="1163" 
d="M647 961q-105 0 -181 -73q-77 -73 -77 -201t78 -206q76 -71 188 -71q144 0 242 110v-223q-78 -55 -192 -66v-204h-152v211q-147 23 -246 122q-123 123 -123 327t140 337q98 91 229 111v206h152v-202q98 -7 192 -60v-223q-96 105 -250 105z" />
    <glyph glyph-name="sterling" unicode="&#xa3;" horiz-adv-x="1163" 
d="M168 953q0 190 117 307q135 129 333 129q199 0 319 -120t120 -349v-11h-201v9q0 142 -68 210t-171 68q-104 0 -173 -63q-67 -67 -67 -162t104 -295h267v-148h-207q24 -60 24 -132t-28 -134l108 -39q33 -10 75 -25.5t77 -15.5q58 0 93.5 40.5t51.5 88.5l168 -98
q-41 -89 -95 -144t-102.5 -71t-123.5 -16t-179 39t-152 54t-85 15t-78 -24.5t-64 -96.5l-178 90q52 116 144 179q59 40 129 45q30 61 30 130t-30 115h-234v148h160q-84 179 -84 277z" />
    <glyph glyph-name="currency" unicode="&#xa4;" horiz-adv-x="1368" 
d="M684 432q66 0 123 23.5t99 66.5t65.5 101.5t23.5 128t-23.5 128t-65.5 101.5t-99 66.5t-123 23.5t-123 -23.5t-99 -66.5t-65.5 -101.5t-23.5 -128t23.5 -128t65.5 -101.5t99 -66.5t123 -23.5zM684 1247q171 0 293 -98l203 203l110 -111l-203 -203q93 -121 93 -286.5
t-93 -286.5l203 -203l-110 -110l-203 202q-122 -98 -291 -98t-295 98l-203 -202l-110 110l203 203q-93 121 -93 288.5t93 284.5l-203 203l110 111l203 -203q122 98 293 98z" />
    <glyph glyph-name="yen" unicode="&#xa5;" horiz-adv-x="1163" 
d="M1071 621v-144h-393v-477h-193v477h-393v144h377l-84 151h-293v143h213l-248 451h226l299 -547l299 547h225l-248 -451h213v-143h-293l-84 -151h377z" />
    <glyph glyph-name="brokenbar" unicode="&#xa6;" 
d="M414 225h196v-737h-196v737zM414 1536h196v-737h-196v737z" />
    <glyph glyph-name="section" unicode="&#xa7;" horiz-adv-x="1163" 
d="M446 717q-57 -57 -57 -144.5t55 -144.5q56 -57 142 -57t143 57q57 56 57 144t-56 144t-141 56q-86 0 -143 -55zM991 575q0 -219 -192 -317q151 -83 151 -248q0 -164 -104 -268t-280 -104t-286 108q-108 108 -108 291h193q0 -158 74.5 -190.5t128.5 -32.5q113 0 149.5 60
t36.5 106q0 108 -85 156t-119 52q-52 6 -150 56.5t-127 81.5q-53 58 -71 116t-18 125q0 219 197 312q-68 35 -105 87t-46 88t-9 98q0 128 103 234q103 107 281 107q179 0 278 -99t103.5 -187.5t4.5 -121.5v-10h-192q0 110 -29 154q-57 88 -154 88t-149 -57q-49 -50 -49 -144
q0 -46 30 -77t65 -47.5t113 -43.5t150 -57.5t114 -71.5q101 -99 101 -244z" />
    <glyph glyph-name="dieresis" unicode="&#xa8;" 
d="M569 1165.5q0 53.5 37 90t90.5 36.5t90 -36.5t36.5 -90t-36.5 -90.5t-90 -37t-90.5 37t-37 90.5zM201 1165.5q0 53.5 36.5 90t90 36.5t90.5 -36.5t37 -90t-37 -90.5t-90.5 -37t-90 37t-36.5 90.5z" />
    <glyph glyph-name="copyright" unicode="&#xa9;" horiz-adv-x="1552" 
d="M1049 866q-103 103 -227 103t-212 -75.5t-88 -206.5q0 -132 79 -211t208 -79t240 105v-180q-117 -64 -226 -64q-205 0 -330.5 120t-125.5 305q0 184 128 304.5t320 120.5q124 0 234 -64v-178zM776 1290q-257 0 -425.5 -174.5t-168.5 -434.5q0 -259 170 -433t424 -174
t424 174t170 433t-168.5 434t-425.5 175zM68 682q0 154 53 284t147 225t224.5 148.5t284 53.5t283.5 -53.5t224 -148.5t147.5 -225t53.5 -284t-53.5 -284t-147.5 -225t-224 -148.5t-283.5 -53.5t-284 53.5t-224.5 148.5t-147 225t-53 284z" />
    <glyph glyph-name="ordfeminine" unicode="&#xaa;" horiz-adv-x="761" 
d="M653 702v-106h-547v106h547zM475 1212q-43 37 -103 37t-107 -41q-46 -41 -46 -126q0 -127 62.5 -151t91.5 -24q68 0 110 47q41 41 41 126t-49 132zM356 793q-183 0 -227.5 107.5t-44.5 177.5q0 132 82 214q70 74 184 74q72 0 112 -24.5t56 -47.5v58h135v-545h-135v51
q-59 -65 -162 -65z" />
    <glyph glyph-name="guillemotleft" unicode="&#xab;" horiz-adv-x="1038" 
d="M928 111l-133 -97l-332 435l332 434l133 -97l-260 -337zM547 111l-133 -97l-332 435l332 434l133 -97l-260 -337z" />
    <glyph glyph-name="logicalnot" unicode="&#xac;" 
d="M756 0v367h-688v180h888v-547h-200z" />
    <glyph glyph-name="uni00AD" unicode="&#xad;" horiz-adv-x="696" 
d="M102 541h492v-209h-492v209z" />
    <glyph glyph-name="registered" unicode="&#xae;" horiz-adv-x="1552" 
d="M895 846q0 104 -156 104h-32v-213h28q80 0 120 30t40 79zM707 313h-146v766h203q161 0 217.5 -71.5t56.5 -157.5t-46 -141.5t-124 -75.5l254 -320h-178l-237 303v-303zM776 1290q-257 0 -425.5 -174.5t-168.5 -434.5q0 -259 170 -433t424 -174t424 174t170 433
t-168.5 434t-425.5 175zM68 682q0 154 53 284t147 225t224.5 148.5t284 53.5t283.5 -53.5t224 -148.5t147.5 -225t53.5 -284t-53.5 -284t-147.5 -225t-224 -148.5t-283.5 -53.5t-284 53.5t-224.5 148.5t-147 225t-53 284z" />
    <glyph glyph-name="macron" unicode="&#xaf;" 
d="M174 1200h676v-160h-676v160z" />
    <glyph glyph-name="degree" unicode="&#xb0;" 
d="M340 1069q0 -78 50 -128t122 -50t122 50t50 128t-50 128t-122 50t-122 -50t-50 -128zM213 1069q0 61 22.5 115.5t62.5 94.5t95.5 63.5t118.5 23.5t118.5 -23.5t95.5 -63.5t62.5 -94.5t22.5 -115.5t-22.5 -115.5t-62.5 -94.5t-95.5 -63.5t-118.5 -23.5t-118.5 23.5
t-95.5 63.5t-62.5 94.5t-22.5 115.5z" />
    <glyph glyph-name="plusminus" unicode="&#xb1;" 
d="M68 307h888v-184h-888v184zM68 901h348v334h192v-334h348v-184h-348v-334h-192v334h-348v184z" />
    <glyph glyph-name="twosuperior" unicode="&#xb2;" horiz-adv-x="757" 
d="M643 549h-594l299 332q74 86 109 137q35 50 36 107q1 56 -36 89t-83 33t-84 -18t-55 -62q-18 -43 -20 -69h-143q9 119 68 187q60 69 118 83t114 14t108 -20q102 -39 143 -138q18 -46 18 -109t-53 -148q-53 -84 -121 -156l-113 -127h289v-135z" />
    <glyph glyph-name="threesuperior" unicode="&#xb3;" horiz-adv-x="757" 
d="M209 793q10 -123 158 -123q57 0 91 39t34 98t-65 94q-28 14 -77 14h-49v136h49q129 0 129 96q0 103 -122 101q-56 0 -87 -33q-31 -32 -34 -80h-144q10 89 40 133q30 45 83 80q53 34 137 34q143 -1 207 -65t66 -164q-1 -45 -13 -75q-29 -70 -94 -97q8 -4 28 -13
q46 -20 70 -71q23 -51 23 -102q0 -113 -75 -187t-214 -73q-194 0 -262 159q-18 41 -22 99h143z" />
    <glyph glyph-name="acute" unicode="&#xb4;" 
d="M850 1288l-320 -295l-110 70l246 319z" />
    <glyph glyph-name="mu" unicode="&#xb5;" horiz-adv-x="1073" 
d="M127 -469v1331h201v-420q0 -217 83 -251.5t109 -34.5q57 0 125.5 32t84 119.5t15.5 147.5v407h201v-862h-201v150q-25 -80 -83 -127.5t-132 -47.5t-124 41t-78 101v-586h-201z" />
    <glyph glyph-name="mu" unicode="&#x3bc;" horiz-adv-x="1073" 
d="M127 -469v1331h201v-420q0 -217 83 -251.5t109 -34.5q57 0 125.5 32t84 119.5t15.5 147.5v407h201v-862h-201v150q-25 -80 -83 -127.5t-132 -47.5t-124 41t-78 101v-586h-201z" />
    <glyph glyph-name="paragraph" unicode="&#xb6;" horiz-adv-x="1261" 
d="M446 -195v844h-26q-172 -1 -272 99t-99 261q0 161 115 263q111 94 344 94h608v-156h-135v-1405h-168v1405h-197v-1405h-170z" />
    <glyph glyph-name="periodcentered" unicode="&#xb7;" horiz-adv-x="409" 
d="M45 696.5q0 67.5 46 113.5t113.5 46t114 -46t46.5 -113.5t-46.5 -113.5t-114 -46t-113.5 46t-46 113.5z" />
    <glyph glyph-name="cedilla" unicode="&#xb8;" 
d="M696 -174l-209 -275l-131 66l172 274z" />
    <glyph glyph-name="onesuperior" unicode="&#xb9;" horiz-adv-x="757" 
d="M332 1233h-160l86 135h225v-819h-151v684z" />
    <glyph glyph-name="ordmasculine" unicode="&#xba;" horiz-adv-x="770" 
d="M664 702v-106h-558v106h558zM385 1251q-106 0 -134 -65.5t-28 -123.5t45 -107q45 -48 115 -48t104 35t47 64.5t13 89.5t-51 112q-48 43 -111 43zM604 874q-88 -83 -220 -83q-132 -1 -215 81t-83 211q0 176 107.5 229.5t188.5 53.5q129 0 218 -78q84 -77 84 -205
q0 -127 -80 -209z" />
    <glyph glyph-name="guillemotright" unicode="&#xbb;" horiz-adv-x="1038" 
d="M111 786l133 97l331 -434l-331 -435l-133 97l260 338zM492 786l133 97l331 -434l-331 -435l-133 97l260 338z" />
    <glyph glyph-name="onequarter" unicode="&#xbc;" horiz-adv-x="1638" 
d="M332 1233h-160l86 135h225v-819h-151v684zM1243 1389l98 -58l-782 -1354l-98 58zM1337 283v211l-159 -211h159zM1485 291h88v-135h-88v-156h-148v156h-428l576 725v-590z" />
    <glyph glyph-name="onehalf" unicode="&#xbd;" horiz-adv-x="1638" 
d="M332 1233h-160l86 135h225v-819h-151v684zM1120 1389l99 -58l-783 -1354l-98 58zM1524 0h-594l299 332q105 124 125 166t20 88t-37 80t-83 32q-46 0 -83 -18t-55 -62q-18 -43 -20 -69h-144q9 117 69 186q61 69 119 83q199 49 309 -61q71 -71 72 -187t-173 -308l-113 -127
h289v-135z" />
    <glyph glyph-name="threequarters" unicode="&#xbe;" horiz-adv-x="1638" 
d="M209 793q10 -123 158 -123q57 0 91 39t34 98t-65 94q-28 14 -77 14h-49v136h49q129 0 129 96q0 103 -122 101q-56 0 -87 -33q-31 -32 -34 -80h-144q10 89 40 133q30 45 83 80q53 34 137 34q143 -1 207 -65t66 -164q-1 -45 -13 -75q-29 -70 -94 -97q8 -4 28 -13
q46 -20 70 -71q23 -51 23 -102q0 -113 -75 -187t-214 -73q-194 0 -262 159q-18 41 -22 99h143zM1243 1389l98 -58l-782 -1354l-98 58zM1335 283v211l-159 -211h159zM1483 291h88v-135h-88v-156h-148v156h-428l576 725v-590z" />
    <glyph glyph-name="questiondown" unicode="&#xbf;" horiz-adv-x="888" 
d="M565 796.5q0 -51.5 -35.5 -87t-87 -35.5t-87.5 35.5t-36 87t36 87.5t87.5 36t87 -36t35.5 -87.5zM573 -164q0 32 -8 66h209q4 -35 4 -38v-32q0 -216 -121 -272t-213 -56q-150 0 -241 87q-92 87 -92 243t120 242q52 36 144 71l61 25q65 28 89 51.5t24 79.5
q0 57 -36.5 72.5t-72.5 15.5t-67 -34t-31 -105h-201q0 142 90 237q86 86 217 86t222 -83q84 -84 84 -201t-58 -184q-58 -66 -186 -113q-41 -16 -81 -30.5t-77 -49.5t-37 -95t35 -95t79 -35t94 20.5t50 126.5z" />
    <glyph glyph-name="Agrave" unicode="&#xc0;" horiz-adv-x="1343" 
d="M883 526l-203 463l-211 -463h414zM967 330h-584l-150 -330h-225l680 1446l647 -1446h-225zM344 1733l176 122l283 -284l-98 -82z" />
    <glyph glyph-name="Aacute" unicode="&#xc1;" horiz-adv-x="1343" 
d="M883 526l-203 463l-211 -463h414zM967 330h-584l-150 -330h-225l680 1446l647 -1446h-225zM541 1571l282 284l176 -122l-360 -244z" />
    <glyph glyph-name="Acircumflex" unicode="&#xc2;" horiz-adv-x="1343" 
d="M883 526l-203 463l-211 -463h414zM967 330h-584l-150 -330h-225l680 1446l647 -1446h-225zM473 1495l-135 115l338 274l338 -274l-135 -115l-203 168z" />
    <glyph glyph-name="Atilde" unicode="&#xc3;" horiz-adv-x="1343" 
d="M883 526l-203 463l-211 -463h414zM967 330h-584l-150 -330h-225l680 1446l647 -1446h-225zM537 1751q79 0 163 -45t117 -45t63 27t46 79l118 -94q-35 -72 -90 -122q-54 -50 -130 -50q-76 1 -114 19t-55 26q-16 8 -44 24q-28 17 -65 17q-36 0 -66 -13t-52 -73l-121 84
q93 166 230 166z" />
    <glyph glyph-name="Adieresis" unicode="&#xc4;" horiz-adv-x="1343" 
d="M883 526l-203 463l-211 -463h414zM967 330h-584l-150 -330h-225l680 1446l647 -1446h-225zM750 1628q0 53 36 90t90 37t91 -37t37 -90t-37 -90t-90 -37t-91 37q-36 37 -36 90zM348 1628q0 53 37 90t90 37t90 -37t37 -90t-37 -90t-90 -37t-90 37t-37 90z" />
    <glyph glyph-name="Aring" unicode="&#xc5;" horiz-adv-x="1343" 
d="M883 526l-203 463l-211 -463h414zM967 330h-584l-150 -330h-225l680 1446l647 -1446h-225zM596 1686q0 -37 26 -63t62 -26t62 26t26 63q0 36 -26 62t-62 26t-62 -26t-26 -62zM685 1884q83 0 140 -57t57 -140t-58 -141t-141 -59q-83 1 -141 59q-57 58 -57 140q1 82 59 140
t141 58z" />
    <glyph glyph-name="AE" unicode="&#xc6;" horiz-adv-x="1896" 
d="M893 522l-195 445l-211 -445h406zM1876 0h-758l-143 326h-580l-149 -326h-226l656 1366h604l86 -197h-543l144 -325h528l86 -197h-528l194 -450h543z" />
    <glyph glyph-name="Ccedilla" unicode="&#xc7;" horiz-adv-x="1269" 
d="M1176 1047q-169 151 -380 151t-350 -146t-139 -368t140 -371q141 -147 360 -147q155 0 301 101q39 28 68 57v-248q-171 -100 -388 -102q-217 -1 -396 126q-181 136 -245 303q-49 129 -49 249q0 351 219 560q190 179 494 179q210 0 365 -99v-245zM893 -186l-229 -273
l-132 66l185 284z" />
    <glyph glyph-name="Egrave" unicode="&#xc8;" 
d="M918 1169h-545v-346h528v-196h-528v-430h545v-197h-754v1366h754v-197zM225 1733l176 122l283 -284l-98 -82z" />
    <glyph glyph-name="Eacute" unicode="&#xc9;" 
d="M918 1169h-545v-346h528v-196h-528v-430h545v-197h-754v1366h754v-197zM381 1571l283 284l176 -122l-361 -244z" />
    <glyph glyph-name="Ecircumflex" unicode="&#xca;" 
d="M918 1169h-545v-346h528v-196h-528v-430h545v-197h-754v1366h754v-197zM350 1495l-135 115l338 274l338 -274l-135 -115l-203 168z" />
    <glyph glyph-name="Edieresis" unicode="&#xcb;" 
d="M918 1169h-545v-346h528v-196h-528v-430h545v-197h-754v1366h754v-197zM627 1628q0 53 37 90t90 37t90 -37t37 -90t-37 -90t-90 -37t-90 37t-37 90zM225 1628q0 53 37 90t90 37t90 -37t37 -90t-37 -90t-90 -37t-90 37t-37 90z" />
    <glyph glyph-name="Igrave" unicode="&#xcc;" horiz-adv-x="536" 
d="M-20 1790l200 72l201 -346l-117 -56zM373 1366v-1366h-209v1366h209z" />
    <glyph glyph-name="Iacute" unicode="&#xcd;" horiz-adv-x="536" 
d="M557 1790l-285 -330l-116 56l200 346zM373 1366v-1366h-209v1366h209z" />
    <glyph glyph-name="Icircumflex" unicode="&#xce;" horiz-adv-x="536" 
d="M106 1505l-120 101l282 268l283 -268l-121 -101l-162 158zM373 1366v-1366h-209v1366h209z" />
    <glyph glyph-name="Idieresis" unicode="&#xcf;" horiz-adv-x="536" 
d="M303 1628q0 47 31 81t71.5 34t71.5 -34t31 -81t-31 -81t-71.5 -34t-71.5 34t-31 81zM29 1628q0 47 30.5 81t71.5 34t73 -34t32 -81t-32 -81t-73 -34t-71.5 34t-30.5 81zM373 1366v-1366h-209v1366h209z" />
    <glyph glyph-name="Eth" unicode="&#xd0;" horiz-adv-x="1318" 
d="M373 840h286v-176h-286v-467h90q78 0 198.5 18.5t210.5 117.5t115 189t25 160q0 135 -80.5 283.5t-227 176t-241.5 27.5h-90v-329zM451 1366q143 0 268 -24.5t245 -113.5t188.5 -231.5t68.5 -314.5q0 -245 -98.5 -369.5t-168.5 -176.5q-119 -88 -225 -112t-283 -24h-282
v664h-164v176h164v526h287z" />
    <glyph glyph-name="Ntilde" unicode="&#xd1;" horiz-adv-x="1527" 
d="M164 0v1458l991 -1038v946h209v-1450l-991 1038v-954h-209zM639 1751q77 0 163 -45t119 -45q31 0 61 27t46 79l119 -94q-35 -72 -90 -122t-131 -50q-76 1 -114 19t-56 26t-44 25q-27 16 -64 16q-36 0 -66 -13t-52 -73l-120 84q93 166 229 166z" />
    <glyph glyph-name="Ograve" unicode="&#xd2;" horiz-adv-x="1617" 
d="M1311 682q0 227 -140 371q-140 145 -361 145t-363 -144q-140 -144 -140 -371t140 -372t362 -145t362 145q140 144 140 371zM809 1391q154 -1 284 -55t225 -149t148 -225q54 -130 54 -281q1 -302 -202 -504q-202 -202 -508 -203t-508 201t-204 507q0 150 54 280
q108 264 373 374q130 55 284 55zM532 1733l177 122l282 -284l-98 -82z" />
    <glyph glyph-name="Oacute" unicode="&#xd3;" horiz-adv-x="1617" 
d="M1311 682q0 227 -140 371q-140 145 -361 145t-363 -144q-140 -144 -140 -371t140 -372t362 -145t362 145q140 144 140 371zM809 1391q154 -1 284 -55t225 -149t148 -225q54 -130 54 -281q1 -302 -202 -504q-202 -202 -508 -203t-508 201t-204 507q0 150 54 280
q108 264 373 374q130 55 284 55zM627 1571l282 284l176 -122l-360 -244z" />
    <glyph glyph-name="Ocircumflex" unicode="&#xd4;" horiz-adv-x="1617" 
d="M1311 682q0 227 -140 371q-140 145 -361 145t-363 -144q-140 -144 -140 -371t140 -372t362 -145t362 145q140 144 140 371zM809 1391q154 -1 284 -55t225 -149t148 -225q54 -130 54 -281q1 -302 -202 -504q-202 -202 -508 -203t-508 201t-204 507q0 150 54 280
q108 264 373 374q130 55 284 55zM606 1495l-135 115l338 274l338 -274l-135 -115l-203 168z" />
    <glyph glyph-name="Otilde" unicode="&#xd5;" horiz-adv-x="1617" 
d="M1311 682q0 227 -140 371q-140 145 -361 145t-363 -144q-140 -144 -140 -371t140 -372t362 -145t362 145q140 144 140 371zM809 1391q154 -1 284 -55t225 -149t148 -225q54 -130 54 -281q1 -302 -202 -504q-202 -202 -508 -203t-508 201t-204 507q0 150 54 280
q108 264 373 374q130 55 284 55zM670 1751q79 0 163 -45t117 -45t63 27t46 79l119 -94q-34 -72 -90 -122t-130 -50t-131 26q-56 26 -66 32q-9 6 -39 17t-54 11q-25 0 -55 -13t-52 -73l-121 84q93 166 230 166z" />
    <glyph glyph-name="Odieresis" unicode="&#xd6;" horiz-adv-x="1617" 
d="M1311 682q0 227 -140 371q-140 145 -361 145t-363 -144q-140 -144 -140 -371t140 -372t362 -145t362 145q140 144 140 371zM809 1391q154 -1 284 -55t225 -149t148 -225q54 -130 54 -281q1 -302 -202 -504q-202 -202 -508 -203t-508 201t-204 507q0 150 54 280
q108 264 373 374q130 55 284 55zM883 1628q0 53 37 90t90 37t90 -37t37 -90t-37 -90t-90 -37t-90 37t-37 90zM481 1628q0 53 37 90t90 37t90 -37t37 -90t-37 -90t-90 -37t-90 37t-37 90z" />
    <glyph glyph-name="multiply" unicode="&#xd7;" 
d="M381 688l-291 293l129 129l293 -291l293 291l129 -129l-291 -293l291 -293l-129 -129l-293 291l-293 -291l-129 129z" />
    <glyph glyph-name="Oslash" unicode="&#xd8;" horiz-adv-x="1617" 
d="M809 1198q-221 0 -361.5 -144.5t-140.5 -371.5q0 -181 82 -297l709 727q-122 86 -289 86zM1311 682q0 125 -32 199.5t-62 117.5l-715 -733q124 -100 307 -100q221 0 361.5 144.5t140.5 371.5zM98 682q0 150 53.5 280t203 279.5t454.5 149.5q265 0 438 -142l191 193
l116 -117l-190 -192q156 -199 156 -451q0 -303 -203 -506t-508 -203q-265 0 -455 154l-190 -188l-117 116l193 191q-142 197 -142 436z" />
    <glyph glyph-name="Ugrave" unicode="&#xd9;" horiz-adv-x="1339" 
d="M373 1366v-823q0 -55 6 -119q13 -133 133 -214q66 -44 158 -44t158 44q121 81 133 214q6 63 6 119v823h209v-879q0 -266 -191 -411q-128 -100 -315 -103q-230 0 -379 160q-130 143 -127 354v879h209zM342 1733l176 122l283 -284l-99 -82z" />
    <glyph glyph-name="Uacute" unicode="&#xda;" horiz-adv-x="1339" 
d="M373 1366v-823q0 -55 6 -119q13 -133 133 -214q66 -44 158 -44t158 44q121 81 133 214q6 63 6 119v823h209v-879q0 -266 -191 -411q-128 -100 -315 -103q-230 0 -379 160q-130 143 -127 354v879h209zM539 1571l282 284l176 -122l-360 -244z" />
    <glyph glyph-name="Ucircumflex" unicode="&#xdb;" horiz-adv-x="1339" 
d="M373 1366v-823q0 -55 6 -119q13 -133 133 -214q66 -44 158 -44t158 44q121 81 133 214q6 63 6 119v823h209v-879q0 -266 -191 -411q-128 -100 -315 -103q-230 0 -379 160q-130 143 -127 354v879h209zM467 1495l-135 115l338 274l338 -274l-136 -115l-202 168z" />
    <glyph glyph-name="Udieresis" unicode="&#xdc;" horiz-adv-x="1339" 
d="M373 1366v-823q0 -55 6 -119q13 -133 133 -214q66 -44 158 -44t158 44q121 81 133 214q6 63 6 119v823h209v-879q0 -266 -191 -411q-128 -100 -315 -103q-230 0 -379 160q-130 143 -127 354v879h209zM743 1628q0 53 37 90t90 37q52 0 90 -37t38 -90t-38 -90
q-36 -37 -90 -37t-90 37q-37 37 -37 90zM342 1628q0 53 37 90t90 37t90 -37t37 -90t-37 -90t-90 -37t-90 37t-37 90z" />
    <glyph glyph-name="Yacute" unicode="&#xdd;" horiz-adv-x="1105" 
d="M657 0h-208v590l-449 776h238l315 -547l315 547h238l-449 -776v-590zM422 1571l283 284l176 -122l-361 -244z" />
    <glyph glyph-name="Thorn" unicode="&#xde;" horiz-adv-x="983" 
d="M373 543h94q135 0 200.5 59.5t65.5 149.5t-57.5 153.5t-210.5 63.5h-92v-426zM373 1366v-205h92q189 1 287 -65q182 -122 182 -340q0 -185 -133 -299q-82 -70 -170 -88.5t-164 -18.5h-94v-350h-209v1366h209z" />
    <glyph glyph-name="germandbls" unicode="&#xdf;" horiz-adv-x="1163" 
d="M1077 436q0 -106 -50.5 -195t-112.5 -143t-162.5 -90.5t-216.5 -36.5v193q170 0 266 104q71 75 71 205t-108 211q-94 66 -229 66v182h26q100 0 156 58q57 58 57 148t-57 144q-57 55 -152 55q-96 0 -151 -63q-54 -63 -54 -184v-1090h-200v684h-148v178h148v217
q0 219 112 329t297 110q184 0 293 -109t109 -280t-146 -267q173 -76 212.5 -198t39.5 -228z" />
    <glyph glyph-name="agrave" unicode="&#xe0;" horiz-adv-x="1085" 
d="M523 705q-103 0 -170 -80q-66 -80 -66 -195q0 -114 66 -196t170 -81q103 1 175 73t72 204q0 133 -72 204t-175 71zM758 90q-99 -117 -258 -117q-193 0 -305 137q-113 137 -113 331q0 195 122 319q122 125 288 125q165 0 266 -123v100h200v-862h-200v90zM225 1288l185 94
l245 -319l-110 -70z" />
    <glyph glyph-name="aacute" unicode="&#xe1;" horiz-adv-x="1085" 
d="M523 705q-103 0 -170 -80q-66 -80 -66 -195q0 -114 66 -196t170 -81q103 1 175 73t72 204q0 133 -72 204t-175 71zM758 90q-99 -117 -258 -117q-193 0 -305 137q-113 137 -113 331q0 195 122 319q122 125 288 125q165 0 266 -123v100h200v-862h-200v90zM811 1288
l-319 -295l-111 70l246 319z" />
    <glyph glyph-name="acircumflex" unicode="&#xe2;" horiz-adv-x="1085" 
d="M523 705q-103 0 -170 -80q-66 -80 -66 -195q0 -114 66 -196t170 -81q103 1 175 73t72 204q0 133 -72 204t-175 71zM758 90q-99 -117 -258 -117q-193 0 -305 137q-113 137 -113 331q0 195 122 319q122 125 288 125q165 0 266 -123v100h200v-862h-200v90zM332 993l-135 107
l315 282l315 -282l-135 -107l-180 176z" />
    <glyph glyph-name="atilde" unicode="&#xe3;" horiz-adv-x="1085" 
d="M523 705q-103 0 -170 -80q-66 -80 -66 -195q0 -114 66 -196t170 -81q103 1 175 73t72 204q0 133 -72 204t-175 71zM758 90q-99 -117 -258 -117q-193 0 -305 137q-113 137 -113 331q0 195 122 319q122 125 288 125q165 0 266 -123v100h200v-862h-200v90zM375 1102
q-69 0 -102 -70q-7 -16 -9 -24l-121 84q92 165 230 165q68 0 148 -42q24 -11 60 -33t70 -23q76 0 111 115l119 -94q-78 -176 -238 -176q-39 0 -61 9q-25 9 -100 49q-74 40 -107 40z" />
    <glyph glyph-name="adieresis" unicode="&#xe4;" horiz-adv-x="1085" 
d="M523 705q-103 0 -170 -80q-66 -80 -66 -195q0 -114 66 -196t170 -81q103 1 175 73t72 204q0 133 -72 204t-175 71zM758 90q-99 -117 -258 -117q-193 0 -305 137q-113 137 -113 331q0 195 122 319q122 125 288 125q165 0 266 -123v100h200v-862h-200v90zM569 1165
q0 53 37 90t90 37t90 -37t37 -90t-37 -90t-90 -37t-90 37t-37 90zM201 1165q0 53 37 90t90 37t90 -37t37 -90t-37 -90t-90 -37t-90 37t-37 90z" />
    <glyph glyph-name="aring" unicode="&#xe5;" horiz-adv-x="1085" 
d="M523 705q-103 0 -170 -80q-66 -80 -66 -195q0 -114 66 -196t170 -81q103 1 175 73t72 204q0 133 -72 204t-175 71zM758 90q-99 -117 -258 -117q-193 0 -305 137q-113 137 -113 331q0 195 122 319q122 125 288 125q165 0 266 -123v100h200v-862h-200v90zM424 1186
q0 -37 26 -63q26 -25 62 -25t62 26t26 62t-26 62t-62 26t-62 -26t-26 -62zM319 1187q-1 78 57 135q58 56 137 56t135 -56q55 -56 56 -136q1 -79 -56 -135t-136 -57t-136 57t-57 136z" />
    <glyph glyph-name="ae" unicode="&#xe6;" horiz-adv-x="1548" 
d="M1262 547q-12 72 -65 119t-144 47q-92 0 -136.5 -61.5t-54.5 -104.5h400zM470 383q-116 1 -156 -37q-40 -37 -40 -82q0 -72 61.5 -95.5t124.5 -23.5t120 33q55 36 55 90t-68 90q-45 24 -97 25zM408 885q214 0 268.5 -47t77.5 -76q48 61 118 88q72 35 164 35
q93 0 168.5 -22.5t129.5 -78.5q87 -90 109.5 -184.5t22.5 -191.5v-25h-618q9 -109 69 -169t158 -60q140 0 217 137l168 -94q-133 -224 -403 -224q-206 0 -303 140q-105 -122 -201.5 -131t-144.5 -9q-145 0 -236 88q-90 88 -90 206q0 119 89 203q89 85 255 85q119 0 221 -57
q0 207 -233 207q-96 0 -211 -33v186q124 27 205 27z" />
    <glyph glyph-name="ccedilla" unicode="&#xe7;" horiz-adv-x="860" 
d="M211 756q129 129 348 129q125 0 236 -62v-225q-107 104 -232 106q-125 1 -201 -74q-77 -75 -76 -202t79 -205q73 -69 182 -69q149 0 248 110v-223q-109 -68 -241 -68t-210 31t-132 87q-130 135 -130 335q0 201 129 330zM616 -174l-208 -275l-132 66l173 274z" />
    <glyph glyph-name="egrave" unicode="&#xe8;" horiz-adv-x="987" 
d="M700 547q-18 106 -114 150q-33 15 -100 16t-124 -56q-45 -41 -61 -110h399zM219 768q117 117 289 117t277 -112q120 -128 120 -365v-25h-618q9 -110 69 -170q58 -59 148 -59q126 0 193 88q19 25 34 49l168 -94q-63 -106 -152 -164t-258 -59t-288 118t-119 326t137 350z
M236 1288l184 94l246 -319l-111 -70z" />
    <glyph glyph-name="eacute" unicode="&#xe9;" horiz-adv-x="987" 
d="M700 547q-18 106 -114 150q-33 15 -100 16t-124 -56q-45 -41 -61 -110h399zM219 768q117 117 289 117t277 -112q120 -128 120 -365v-25h-618q9 -110 69 -170q58 -59 148 -59q126 0 193 88q19 25 34 49l168 -94q-63 -106 -152 -164t-258 -59t-288 118t-119 326t137 350z
M770 1288l-319 -295l-111 70l246 319z" />
    <glyph glyph-name="ecircumflex" unicode="&#xea;" horiz-adv-x="987" 
d="M700 547q-18 106 -114 150q-33 15 -100 16t-124 -56q-45 -41 -61 -110h399zM219 768q117 117 289 117t277 -112q120 -128 120 -365v-25h-618q9 -110 69 -170q58 -59 148 -59q126 0 193 88q19 25 34 49l168 -94q-63 -106 -152 -164t-258 -59t-288 118t-119 326t137 350z
M305 993l-135 107l315 282l316 -282l-135 -107l-181 176z" />
    <glyph glyph-name="edieresis" unicode="&#xeb;" horiz-adv-x="987" 
d="M700 547q-18 106 -114 150q-33 15 -100 16t-124 -56q-45 -41 -61 -110h399zM219 768q117 117 289 117t277 -112q120 -128 120 -365v-25h-618q9 -110 69 -170q58 -59 148 -59q126 0 193 88q19 25 34 49l168 -94q-63 -106 -152 -164t-258 -59t-288 118t-119 326t137 350z
M559 1165q0 53 37 90t90 37t90 -37t37 -90t-37 -90t-90 -37t-90 37t-37 90zM190 1165q0 53 37 90t90 37t91 -37t36 -90q0 -53 -36 -90t-90 -37t-91 37t-37 90z" />
    <glyph glyph-name="igrave" unicode="&#xec;" horiz-adv-x="454" 
d="M-10 1337l207 47l151 -374l-123 -37zM328 862v-862h-201v862h201z" />
    <glyph glyph-name="iacute" unicode="&#xed;" horiz-adv-x="454" 
d="M465 1337l-236 -364l-123 37l152 374zM328 862v-862h-201v862h201z" />
    <glyph glyph-name="icircumflex" unicode="&#xee;" horiz-adv-x="454" 
d="M84 1014l-111 94l254 256l254 -256l-110 -94l-144 149zM328 862v-862h-201v862h201z" />
    <glyph glyph-name="idieresis" unicode="&#xef;" horiz-adv-x="454" 
d="M328 862v-862h-201v862h201zM287 1165q0 53 37 90t90 37t90 -37t37 -90t-37 -90t-90 -37t-90 37t-37 90zM-82 1165q0 53 37 90t90 37t90 -37t37 -90t-37 -90t-90 -37t-90 37t-37 90z" />
    <glyph glyph-name="eth" unicode="&#xf0;" horiz-adv-x="1085" 
d="M534 154q189 0 227 105.5t38 166.5q0 135 -72 207t-182 72t-184 -71t-74 -203t71 -205q72 -72 176 -72zM911 946q93 -177 93 -412t-76 -362q-127 -199 -375 -199t-359.5 147.5t-111.5 331.5q0 183 131 314q119 119 293 119q62 0 128 -16.5t138 -80.5q-47 178 -207 285
l-364 -121l-41 123l258 84q-107 58 -244 72l59 147q231 -27 416 -141l269 88l40 -125l-200 -61q98 -76 153 -193z" />
    <glyph glyph-name="ntilde" unicode="&#xf1;" horiz-adv-x="993" 
d="M559 885q104 0 184 -49t109 -155q14 -52 14 -153v-528h-200v479q0 146 -52 196q-22 21 -50 25q-131 17 -185 -40q-53 -57 -53 -246v-414h-201v862h201v-80q92 103 233 103zM358 1102q-64 0 -97 -70q-7 -16 -9 -24l-121 84q92 165 229 165q69 0 149 -42q24 -11 60 -33
t67 -23q73 0 102 83q7 19 12 32l118 -94q-78 -176 -237 -176q-39 0 -62 9t-72 35t-80 40q-30 14 -59 14z" />
    <glyph glyph-name="ograve" unicode="&#xf2;" horiz-adv-x="1085" 
d="M543 154q119 0 187 74t69 204q0 129 -74 200t-182 73q-167 0 -234 -151q-23 -52 -22 -126q0 -125 68 -200q69 -74 188 -74zM543 885q98 0 182 -34q168 -68 243 -238q36 -83 36 -182q0 -195 -132 -327t-330 -131q-198 0 -329 131q-131 132 -131 326t132 324
q131 130 329 131zM236 1288l184 94l246 -319l-111 -70z" />
    <glyph glyph-name="oacute" unicode="&#xf3;" horiz-adv-x="1085" 
d="M543 154q119 0 187 74t69 204q0 129 -74 200t-182 73q-167 0 -234 -151q-23 -52 -22 -126q0 -125 68 -200q69 -74 188 -74zM543 885q98 0 182 -34q168 -68 243 -238q36 -83 36 -182q0 -195 -132 -327t-330 -131q-198 0 -329 131q-131 132 -131 326t132 324
q131 130 329 131zM842 1288l-320 -295l-110 70l245 319z" />
    <glyph glyph-name="ocircumflex" unicode="&#xf4;" horiz-adv-x="1085" 
d="M543 154q119 0 187 74t69 204q0 129 -74 200t-182 73q-167 0 -234 -151q-23 -52 -22 -126q0 -125 68 -200q69 -74 188 -74zM543 885q98 0 182 -34q168 -68 243 -238q36 -83 36 -182q0 -195 -132 -327t-330 -131q-198 0 -329 131q-131 132 -131 326t132 324
q131 130 329 131zM362 993l-135 107l316 282l315 -282l-135 -107l-180 176z" />
    <glyph glyph-name="otilde" unicode="&#xf5;" horiz-adv-x="1085" 
d="M543 154q119 0 187 74t69 204q0 129 -74 200t-182 73q-167 0 -234 -151q-23 -52 -22 -126q0 -125 68 -200q69 -74 188 -74zM543 885q98 0 182 -34q168 -68 243 -238q36 -83 36 -182q0 -195 -132 -327t-330 -131q-198 0 -329 131q-131 132 -131 326t132 324
q131 130 329 131zM403 1257q68 0 149 -42q24 -11 60 -33t67 -23q73 0 102 83q7 19 12 32l118 -94q-78 -176 -237 -176q-39 0 -62 9t-72 35t-80 40q-30 14 -59 14q-64 0 -97 -70q-7 -16 -9 -24l-121 84q92 165 229 165z" />
    <glyph glyph-name="odieresis" unicode="&#xf6;" horiz-adv-x="1085" 
d="M543 154q119 0 187 74t69 204q0 129 -74 200t-182 73q-167 0 -234 -151q-23 -52 -22 -126q0 -125 68 -200q69 -74 188 -74zM543 885q98 0 182 -34q168 -68 243 -238q36 -83 36 -182q0 -195 -132 -327t-330 -131q-198 0 -329 131q-131 132 -131 326t132 324
q131 130 329 131zM600 1165q0 53 37 90t90 37t90 -37t37 -90t-37 -90t-90 -37t-90 37t-37 90zM231 1165q0 53 37 90t90 37q52 0 90 -37t38 -90t-38 -90q-36 -37 -90 -37t-90 37q-37 37 -37 90z" />
    <glyph glyph-name="divide" unicode="&#xf7;" 
d="M68 780h888v-184h-888v184zM389 325.5q0 51.5 36 87.5t87 36t87 -36t36 -87.5t-36 -87t-87 -35.5t-87 35.5t-36 87zM389 1050.5q0 51.5 36 87.5t87 36t87 -36t36 -87.5t-36 -87t-87 -35.5t-87 35.5t-36 87z" />
    <glyph glyph-name="oslash" unicode="&#xf8;" horiz-adv-x="1085" 
d="M553 705q-117 0 -191.5 -71t-74.5 -206q0 -61 24 -131l363 377q-64 31 -121 31zM799 428q0 81 -33 147l-371 -380q59 -41 127 -41q127 0 202 68.5t75 205.5zM82 452.5q0 175.5 132 304t312 128.5t287 -84l145 143l91 -94l-140 -135q95 -126 95 -302q0 -177 -131.5 -308.5
t-315.5 -131.5t-297 95l-137 -148l-103 94l146 150q-84 113 -84 288.5z" />
    <glyph glyph-name="ugrave" unicode="&#xf9;" horiz-adv-x="991" 
d="M328 862v-493q0 -108 28 -145q53 -70 139 -70t132 59q27 35 31 76q5 41 6 80v493h200v-500q0 -84 -16 -154t-76 -128q-108 -107 -277 -107t-276 107q-59 59 -76 129q-16 70 -16 153v500h201zM174 1288l184 94l246 -319l-110 -70z" />
    <glyph glyph-name="uacute" unicode="&#xfa;" horiz-adv-x="991" 
d="M328 862v-493q0 -108 28 -145q53 -70 139 -70t132 59q27 35 31 76q5 41 6 80v493h200v-500q0 -84 -16 -154t-76 -128q-108 -107 -277 -107t-276 107q-59 59 -76 129q-16 70 -16 153v500h201zM811 1288l-319 -295l-111 70l246 319z" />
    <glyph glyph-name="ucircumflex" unicode="&#xfb;" horiz-adv-x="991" 
d="M328 862v-493q0 -108 28 -145q53 -70 139 -70t132 59q27 35 31 76q5 41 6 80v493h200v-500q0 -84 -16 -154t-76 -128q-108 -107 -277 -107t-276 107q-59 59 -76 129q-16 70 -16 153v500h201zM317 993l-135 107l316 282l315 -282l-135 -107l-180 176z" />
    <glyph glyph-name="udieresis" unicode="&#xfc;" horiz-adv-x="991" 
d="M328 862v-493q0 -108 28 -145q53 -70 139 -70t132 59q27 35 31 76q5 41 6 80v493h200v-500q0 -84 -16 -154t-76 -128q-108 -107 -277 -107t-276 107q-59 59 -76 129q-16 70 -16 153v500h201zM555 1165q0 53 37 90t90 37t90 -37t37 -90t-37 -90t-90 -37t-90 37t-37 90z
M186 1165q0 53 37 90t90 37t90 -37t37 -90t-37 -90t-90 -37t-90 37t-37 90z" />
    <glyph glyph-name="yacute" unicode="&#xfd;" horiz-adv-x="987" 
d="M381 135l-369 727h242l246 -504l250 504h225l-686 -1331h-226zM834 1288l-320 -295l-111 70l246 319z" />
    <glyph glyph-name="thorn" unicode="&#xfe;" horiz-adv-x="1085" 
d="M732.5 234q66.5 80 66.5 195q0 114 -66 195t-170 81t-176 -72t-72 -204t71.5 -203.5t175.5 -71.5t170.5 80zM328 -469h-201v1962h201v-725q98 117 264 117t289 -124.5t123 -320.5q0 -197 -112.5 -332t-290.5 -135q-177 0 -273 123v-565z" />
    <glyph glyph-name="ydieresis" unicode="&#xff;" horiz-adv-x="987" 
d="M381 135l-369 727h242l246 -504l250 504h225l-686 -1331h-226zM553 1165q0 53 37 90t90 37t90 -37t37 -90t-37 -90t-90 -37t-90 37t-37 90zM184 1165q0 53 37 90t90 37t90 -37t37 -90t-37 -90t-90 -37t-90 37t-37 90z" />
    <glyph glyph-name="Amacron" unicode="&#x100;" horiz-adv-x="1343" 
d="M883 526l-203 463l-211 -463h414zM967 330h-584l-150 -330h-225l680 1446l647 -1446h-225zM315 1665h738v-164h-738v164z" />
    <glyph glyph-name="amacron" unicode="&#x101;" horiz-adv-x="1085" 
d="M523 705q-103 0 -170 -80q-66 -80 -66 -195q0 -114 66 -196t170 -81q103 1 175 73t72 204q0 133 -72 204t-175 71zM758 90q-99 -117 -258 -117q-193 0 -305 137q-113 137 -113 331q0 195 122 319q122 125 288 125q165 0 266 -123v100h200v-862h-200v90zM174 1200h676
v-160h-676v160z" />
    <glyph glyph-name="Abreve" unicode="&#x102;" horiz-adv-x="1343" 
d="M883 526l-203 463l-211 -463h414zM967 330h-584l-150 -330h-225l680 1446l647 -1446h-225zM682 1495q-93 0 -162 36t-102 83q-60 72 -82 176h168q18 -68 66 -100q48 -31 93 -31q47 0 75 5t57 26q51 33 69 100h168q-37 -175 -176 -253q-81 -42 -174 -42z" />
    <glyph glyph-name="abreve" unicode="&#x103;" horiz-adv-x="1085" 
d="M523 705q-103 0 -170 -80q-66 -80 -66 -195q0 -114 66 -196t170 -81q103 1 175 73t72 204q0 133 -72 204t-175 71zM758 90q-99 -117 -258 -117q-193 0 -305 137q-113 137 -113 331q0 195 122 319q122 125 288 125q165 0 266 -123v100h200v-862h-200v90zM516 1030
q-167 0 -256 100q-56 67 -80 177h162q20 -67 55 -96t62 -33t73 -4q47 0 89 32t61 101h162q-36 -163 -138 -229q-72 -48 -190 -48z" />
    <glyph glyph-name="Aogonek" unicode="&#x104;" horiz-adv-x="1343" 
d="M883 526l-203 463l-211 -463h414zM1122 -172q0 -28 18 -44q49 -47 171 -5l-19 -144q-66 -30 -118 -30q-153 0 -186.5 69.5t-33.5 124.5t54 117q38 49 102 84l-143 330h-584l-150 -330h-225l676 1452l651 -1452h-65q-148 -83 -148 -172z" />
    <glyph glyph-name="aogonek" unicode="&#x105;" horiz-adv-x="1085" 
d="M696 637q-68 68 -167 68t-171 -74q-71 -74 -71 -166t20.5 -149.5t52.5 -90.5q68 -71 200.5 -71t171 105.5t38.5 170.5q0 117 -74 207zM758 862h200v-862h-51q-147 -82 -147 -170q0 -30 22 -50t67 -20t99 19l-18 -127q-59 -39 -122 -39q-102 0 -155 52q-53 53 -53 107
q0 109 64.5 160.5t93.5 67.5v90q-98 -117 -264 -117t-283 117q-129 134 -129 342q0 129 44 213t92 131q111 109 277 109q165 0 263 -123v100z" />
    <glyph glyph-name="Cacute" unicode="&#x106;" horiz-adv-x="1269" 
d="M1176 1047q-169 151 -380 151t-350 -146t-139 -368t140 -371q141 -147 360 -147q155 0 301 101q39 28 68 57v-248q-171 -100 -388 -102q-217 -1 -396 126q-181 136 -245 303q-49 129 -49 249q0 351 219 560q190 179 494 179q210 0 365 -99v-245zM647 1571l283 284
l176 -122l-361 -244z" />
    <glyph glyph-name="cacute" unicode="&#x107;" horiz-adv-x="860" 
d="M211 756q129 129 348 129q125 0 236 -62v-225q-107 104 -232 106q-125 1 -201 -74q-77 -75 -76 -202t79 -205q73 -69 182 -69q149 0 248 110v-223q-109 -68 -241 -68t-210 31t-132 87q-130 135 -130 335q0 201 129 330zM811 1288l-319 -295l-111 70l246 319z" />
    <glyph glyph-name="Ccircumflex" unicode="&#x108;" horiz-adv-x="1269" 
d="M1176 1047q-169 151 -380 151t-350 -146t-139 -368t140 -371q141 -147 360 -147q155 0 301 101q39 28 68 57v-248q-171 -100 -388 -102q-217 -1 -396 126q-181 136 -245 303q-49 129 -49 249q0 351 219 560q190 179 494 179q210 0 365 -99v-245zM596 1495l-135 115
l338 274l338 -274l-136 -115l-202 168z" />
    <glyph glyph-name="ccircumflex" unicode="&#x109;" horiz-adv-x="860" 
d="M211 756q129 129 348 129q125 0 236 -62v-225q-107 104 -232 106q-125 1 -201 -74q-77 -75 -76 -202t79 -205q73 -69 182 -69q149 0 248 110v-223q-109 -68 -241 -68t-210 31t-132 87q-130 135 -130 335q0 201 129 330zM352 993l-135 107l315 282l316 -282l-135 -107
l-181 176z" />
    <glyph glyph-name="Cdotaccent" unicode="&#x10a;" horiz-adv-x="1269" 
d="M1176 1047q-169 151 -380 151t-350 -146t-139 -368t140 -371q141 -147 360 -147q155 0 301 101q39 28 68 57v-248q-171 -100 -388 -102q-217 -1 -396 126q-181 136 -245 303q-49 129 -49 249q0 351 219 560q190 179 494 179q210 0 365 -99v-245zM659 1640q0 58 39 98
q38 40 98 40t99 -39t39 -99t-39 -98q-39 -39 -98 -39t-99 39q-39 39 -39 98z" />
    <glyph glyph-name="cdotaccent" unicode="&#x10b;" horiz-adv-x="860" 
d="M211 756q129 129 348 129q125 0 236 -62v-225q-107 104 -232 106q-125 1 -201 -74q-77 -75 -76 -202t79 -205q73 -69 182 -69q149 0 248 110v-223q-109 -68 -241 -68t-210 31t-132 87q-130 135 -130 335q0 201 129 330zM408 1126q0 55 38 95q38 39 94 39t95 -39t39 -95
t-39 -94q-39 -39 -94 -39t-95 39q-38 39 -38 94z" />
    <glyph glyph-name="Ccaron" unicode="&#x10c;" horiz-adv-x="1269" 
d="M1176 1047q-169 151 -380 151t-350 -146t-139 -368t140 -371q141 -147 360 -147q155 0 301 101q39 28 68 57v-248q-171 -100 -388 -102q-217 -1 -396 126q-181 136 -245 303q-49 129 -49 249q0 351 219 560q190 179 494 179q210 0 365 -99v-245zM1001 1884l136 -115
l-338 -274l-338 274l135 115l203 -168z" />
    <glyph glyph-name="ccaron" unicode="&#x10d;" horiz-adv-x="860" 
d="M211 756q129 129 348 129q125 0 236 -62v-225q-107 104 -232 106q-125 1 -201 -74q-77 -75 -76 -202t79 -205q73 -69 182 -69q149 0 248 110v-223q-109 -68 -241 -68t-210 31t-132 87q-130 135 -130 335q0 201 129 330zM713 1382l135 -106l-316 -283l-315 283l135 106
l180 -176z" />
    <glyph glyph-name="Dcaron" unicode="&#x10e;" horiz-adv-x="1318" 
d="M373 197h90q78 0 175 15q143 22 257 148t117 322q0 136 -56 238q-84 154 -210 201q-127 48 -283 48h-90v-972zM451 1366q143 0 268 -25t245 -113t188 -232q69 -142 69 -314q0 -353 -275 -551q-112 -82 -231 -106q-118 -25 -269 -25h-282v1366h287zM715 1884l135 -115
l-338 -274l-338 274l135 115l203 -168z" />
    <glyph glyph-name="dcaron" unicode="&#x10f;" horiz-adv-x="1310" 
d="M523 705q-103 0 -170 -80q-66 -80 -66 -195q0 -114 66 -196t170 -81q103 1 175 73t72 204q0 133 -72 204t-175 71zM758 90q-99 -117 -258 -117q-193 0 -305 137q-113 137 -113 331q0 195 122 319q122 125 288 125q165 0 266 -123v731h200v-1493h-200v90zM1194 1413
l180 -70l-213 -421l-135 57z" />
    <glyph glyph-name="Dcroat" unicode="&#x110;" horiz-adv-x="1318" 
d="M373 840h286v-176h-286v-467h90q78 0 198.5 18.5t210.5 117.5t115 189t25 160q0 135 -80.5 283.5t-227 176t-241.5 27.5h-90v-329zM451 1366q143 0 268 -24.5t245 -113.5t188.5 -231.5t68.5 -314.5q0 -245 -98.5 -369.5t-168.5 -176.5q-119 -88 -225 -112t-283 -24h-282
v664h-164v176h164v526h287z" />
    <glyph glyph-name="dcroat" unicode="&#x111;" horiz-adv-x="1085" 
d="M352.5 623.5q-65.5 -81.5 -65.5 -194.5q0 -114 65.5 -194.5t171.5 -80.5t176 71t70 205t-72.5 204.5t-176.5 70.5q-103 0 -168.5 -81.5zM758 1130h-451v156h451v207h200v-207h148v-156h-148v-1130h-200v90q-99 -117 -258 -117q-193 0 -305.5 135.5t-112.5 331.5
t122.5 320.5t289.5 124.5t264 -123v368z" />
    <glyph glyph-name="Emacron" unicode="&#x112;" 
d="M918 1169h-545v-346h528v-196h-528v-430h545v-197h-754v1366h754v-197zM164 1665h737v-164h-737v164z" />
    <glyph glyph-name="emacron" unicode="&#x113;" horiz-adv-x="987" 
d="M700 547q-18 106 -114 150q-33 15 -100 16t-124 -56q-45 -41 -61 -110h399zM219 768q117 117 289 117t277 -112q120 -128 120 -365v-25h-618q9 -110 69 -170q58 -59 148 -59q126 0 193 88q19 25 34 49l168 -94q-63 -106 -152 -164t-258 -59t-288 118t-119 326t137 350z
M164 1200h676v-160h-676v160z" />
    <glyph glyph-name="Edotaccent" unicode="&#x116;" 
d="M918 1169h-545v-346h528v-196h-528v-430h545v-197h-754v1366h754v-197zM416 1640q0 58 39 98t98 40t98 -39t39 -99t-39 -98q-39 -39 -98 -39t-98 39t-39 98z" />
    <glyph glyph-name="edotaccent" unicode="&#x117;" horiz-adv-x="987" 
d="M700 547q-18 106 -114 150q-33 15 -100 16t-124 -56q-45 -41 -61 -110h399zM219 768q117 117 289 117t277 -112q120 -128 120 -365v-25h-618q9 -110 69 -170q58 -59 148 -59q126 0 193 88q19 25 34 49l168 -94q-63 -106 -152 -164t-258 -59t-288 118t-119 326t137 350z
M369 1126q0 54 39 94t94 40t94 -39t39 -95t-39 -94q-39 -39 -94 -39t-94 39t-39 94z" />
    <glyph glyph-name="Eogonek" unicode="&#x118;" 
d="M688 -172q0 -68 88 -68q46 0 101 19l-19 -144q-66 -30 -118 -30q-155 0 -187.5 69.5t-32.5 109.5q0 98 63.5 149t92.5 67h-512v1366h754v-197h-545v-325h528v-197h-528v-450h545v-197h-82q-148 -83 -148 -172z" />
    <glyph glyph-name="eogonek" unicode="&#x119;" horiz-adv-x="987" 
d="M700 547q-12 72 -64 119t-135 47t-139 -56q-45 -41 -61 -110h399zM362 -231q0 125 119 204q-168 7 -272 111q-127 123 -127 330q0 98 35 192t95 154q123 124 294 125q171 0 285 -120t114 -357v-25h-618q9 -108 69 -169q59 -60 158 -60q140 0 217 137l168 -94
q-41 -77 -102 -123q-76 -58 -143 -95t-100 -73q-32 -36 -32 -71t23 -55t66 -20q44 0 100 19l-19 -127q-63 -39 -122 -39q-108 0 -162 59q-46 46 -46 97z" />
    <glyph glyph-name="Ecaron" unicode="&#x11a;" 
d="M918 1169h-545v-346h528v-196h-528v-430h545v-197h-754v1366h754v-197zM756 1884l135 -115l-338 -274l-338 274l135 115l203 -168z" />
    <glyph glyph-name="ecaron" unicode="&#x11b;" horiz-adv-x="987" 
d="M700 547q-18 106 -114 150q-33 15 -100 16t-124 -56q-45 -41 -61 -110h399zM219 768q117 117 289 117t277 -112q120 -128 120 -365v-25h-618q9 -110 69 -170q58 -59 148 -59q126 0 193 88q19 25 34 49l168 -94q-63 -106 -152 -164t-258 -59t-288 118t-119 326t137 350z
M682 1382l135 -106l-315 -283l-316 283l136 106l180 -176z" />
    <glyph glyph-name="Gcircumflex" unicode="&#x11c;" horiz-adv-x="1531" 
d="M1223 983q-155 215 -392 215t-378 -141q-68 -68 -107 -170q-39 -101 -39 -209q0 -224 136 -368t333 -144t320 121q103 99 114 231h-340v193h564v-11q0 -352 -203 -553q-181 -174 -465 -174q-150 0 -260 44q-110 43 -208 145q-198 207 -200 514q0 160 57 292
q56 132 143 220t220 145q222 95 477 37q92 -20 175 -66q142 -78 219 -204zM604 1495l-135 115l338 274l338 -274l-135 -115l-203 168z" />
    <glyph glyph-name="gcircumflex" unicode="&#x11d;" horiz-adv-x="1085" 
d="M688 643q-62 62 -158 62t-155 -58q-90 -81 -88 -219q0 -194 153 -258q39 -16 86 -16q103 0 173 74q71 74 71 206q0 131 -82 209zM758 862h200v-792q0 -152 -26 -263q-42 -175 -225 -249q-69 -29 -161 -29q-192 0 -298 106t-127 269h194q21 -123 120 -175q39 -19 101 -19
q101 -1 156 57q49 47 58 108q8 61 8 109v112q-100 -123 -269 -123t-278 117q-129 133 -129 341t123 331t289 123t264 -117v94zM332 993l-135 107l315 282l315 -282l-135 -107l-180 176z" />
    <glyph glyph-name="Gbreve" unicode="&#x11e;" horiz-adv-x="1531" 
d="M1223 983q-155 215 -392 215t-378 -141q-68 -68 -107 -170q-39 -101 -39 -209q0 -224 136 -368t333 -144t320 121q103 99 114 231h-340v193h564v-11q0 -352 -203 -553q-181 -174 -465 -174q-150 0 -260 44q-110 43 -208 145q-198 207 -200 514q0 160 57 292
q56 132 143 220t220 145q222 95 477 37q92 -20 175 -66q142 -78 219 -204zM786 1659q46 0 74 5t58 26q51 33 69 100h168q-37 -175 -176 -253q-82 -42 -174 -42q-93 0 -162 36t-102 83q-63 76 -82 176h168q18 -68 66 -100q47 -32 93 -31z" />
    <glyph glyph-name="gbreve" unicode="&#x11f;" horiz-adv-x="1085" 
d="M688 643q-62 62 -158 62t-155 -58q-90 -81 -88 -219q0 -194 153 -258q39 -16 86 -16q103 0 173 74q71 74 71 206q0 131 -82 209zM758 862h200v-792q0 -152 -26 -263q-42 -175 -225 -249q-69 -29 -161 -29q-192 0 -298 106t-127 269h194q21 -123 120 -175q39 -19 101 -19
q101 -1 156 57q49 47 58 108q8 61 8 109v112q-100 -123 -269 -123t-278 117q-129 133 -129 341t123 331t289 123t264 -117v94zM516 1030q-167 0 -256 100q-56 67 -80 177h162q20 -67 55 -96t62 -33t73 -4q47 0 89 32t61 101h162q-36 -163 -138 -229q-72 -48 -190 -48z" />
    <glyph glyph-name="Gdotaccent" unicode="&#x120;" horiz-adv-x="1531" 
d="M1223 983q-155 215 -392 215t-378 -141q-68 -68 -107 -170q-39 -101 -39 -209q0 -224 136 -368t333 -144t320 121q103 99 114 231h-340v193h564v-11q0 -352 -203 -553q-181 -174 -465 -174q-150 0 -260 44q-110 43 -208 145q-198 207 -200 514q0 160 57 292
q56 132 143 220t220 145q222 95 477 37q92 -20 175 -66q142 -78 219 -204zM672 1640q0 58 39 98t98 40t98 -39t39 -99t-39 -98q-39 -39 -98 -39t-98 39t-39 98z" />
    <glyph glyph-name="gdotaccent" unicode="&#x121;" horiz-adv-x="1085" 
d="M688 643q-62 62 -158 62t-155 -58q-90 -81 -88 -219q0 -194 153 -258q39 -16 86 -16q103 0 173 74q71 74 71 206q0 131 -82 209zM758 862h200v-792q0 -152 -26 -263q-42 -175 -225 -249q-69 -29 -161 -29q-192 0 -298 106t-127 269h194q21 -123 120 -175q39 -19 101 -19
q101 -1 156 57q49 47 58 108q8 61 8 109v112q-100 -123 -269 -123t-278 117q-129 133 -129 341t123 331t289 123t264 -117v94zM381 1126q0 54 39 94t94 40t94 -39t39 -95t-39 -94q-39 -39 -94 -39t-94 39t-39 94z" />
    <glyph glyph-name="Gcommaaccent" unicode="&#x122;" horiz-adv-x="1531" 
d="M1223 983q-155 215 -392 215t-378 -141q-68 -68 -107 -170q-39 -101 -39 -209q0 -224 136 -368t333 -144t320 121q103 99 114 231h-340v193h564v-11q0 -352 -203 -553q-181 -174 -465 -174q-150 0 -260 44q-110 43 -208 145q-198 207 -200 514q0 160 57 292
q56 132 143 220t220 145q222 95 477 37q92 -20 175 -66q142 -78 219 -204zM721 -102l180 -70l-184 -381l-144 57z" />
    <glyph glyph-name="gcommaaccent" unicode="&#x123;" horiz-adv-x="1085" 
d="M688 643q-62 62 -158 62t-155 -58q-90 -81 -88 -219q0 -194 153 -258q39 -16 86 -16q103 0 173 74q71 74 71 206q0 131 -82 209zM758 862h200v-792q0 -152 -26 -263q-42 -175 -225 -249q-69 -29 -161 -29q-192 0 -298 106t-127 269h194q21 -123 120 -175q39 -19 101 -19
q101 -1 156 57q49 47 58 108q8 61 8 109v112q-100 -123 -269 -123t-278 117q-129 133 -129 341t123 331t289 123t264 -117v94zM600 981l-180 70l184 381l144 -58z" />
    <glyph glyph-name="Hcircumflex" unicode="&#x124;" horiz-adv-x="1331" 
d="M373 842h585v524h209v-1366h-209v645h-585v-645h-209v1366h209v-524zM463 1495l-135 115l338 274l338 -274l-136 -115l-202 168z" />
    <glyph glyph-name="hcircumflex" unicode="&#x125;" horiz-adv-x="995" 
d="M127 1493h201v-705q66 66 129 81q164 39 278 -29q31 -18 49 -38t51 -67q33 -46 33 -207v-528h-200v510q0 39 -5 78q-9 69 -79 103q-29 13 -74 13t-83 -21q-37 -21 -59 -51q-40 -54 -40 -216v-416h-201v1493zM47 1485l-135 106l315 283l316 -283l-135 -106l-181 176z" />
    <glyph glyph-name="Hbar" unicode="&#x126;" horiz-adv-x="1331" 
d="M373 1085v-260h585v260h-585zM373 1257h585v109h209v-109h123v-172h-123v-1085h-209v629h-585v-629h-209v1085h-123v172h123v109h209v-109z" />
    <glyph glyph-name="hbar" unicode="&#x127;" horiz-adv-x="995" 
d="M328 788q97 97 215 97t173.5 -33.5t96.5 -83.5q41 -59 48 -126t7 -114v-528h-200v510q0 104 -40 150q-40 45 -101 45q-108 0 -158 -72q-41 -55 -41 -217v-416h-201v1130h-147v156h147v207h201v-207h409v-156h-409v-342z" />
    <glyph glyph-name="Imacron" unicode="&#x12a;" horiz-adv-x="536" 
d="M-20 1665h577v-164h-577v164zM373 1366v-1366h-209v1366h209z" />
    <glyph glyph-name="imacron" unicode="&#x12b;" horiz-adv-x="454" 
d="M-20 1200h495v-160h-495v160zM328 862v-862h-201v862h201z" />
    <glyph glyph-name="Iogonek" unicode="&#x12e;" horiz-adv-x="536" 
d="M225 -172q0 -64 82 -64q46 0 107 15l-19 -144q-66 -30 -141 -30q-76 0 -136.5 48t-60.5 126t54 137q38 49 102 84h-49v1366h209v-1366q-96 -54 -122 -98.5t-26 -73.5z" />
    <glyph glyph-name="iogonek" unicode="&#x12f;" horiz-adv-x="454" 
d="M98 1218.5q0 55.5 37 92.5t92.5 37t92 -37t36.5 -92.5t-36.5 -92t-92 -36.5t-92.5 36.5t-37 92zM180 -172q0 -64 82 -64q52 0 107 15l-19 -127q-53 -39 -110 -39q-100 0 -160 48.5t-60 133.5t65 137t93 68h-51v862h201v-862q-96 -54 -122 -98.5t-26 -73.5z" />
    <glyph glyph-name="Idotaccent" unicode="&#x130;" horiz-adv-x="536" 
d="M373 1366v-1366h-209v1366h209zM133 1640q0 58 39 98t98 40q58 0 98 -39t40 -99t-39 -98q-39 -39 -99 -39t-98 39q-39 39 -39 98z" />
    <glyph glyph-name="dotlessi" unicode="&#x131;" horiz-adv-x="454" 
d="M328 862v-862h-201v862h201z" />
    <glyph glyph-name="Jcircumflex" unicode="&#x134;" horiz-adv-x="741" 
d="M209 170q132 0 153 161q6 46 7 150v885h209v-885q0 -204 -46 -299t-122 -151t-187 -57q-109 -1 -169 24t-91 45l103 176q61 -49 143 -49zM270 1495l-135 115l338 274l338 -274l-135 -115l-203 168z" />
    <glyph glyph-name="jcircumflex" unicode="&#x135;" horiz-adv-x="454" 
d="M47 993l-135 107l315 282l316 -282l-135 -107l-181 176zM328 862v-1331h-201v1331h201z" />
    <glyph glyph-name="Kcommaaccent" unicode="&#x136;" horiz-adv-x="1200" 
d="M373 0h-209v1366h209v-545l528 545h275l-617 -618l621 -748h-279l-487 606l-41 -41v-565zM537 -102l180 -70l-185 -381l-143 57z" />
    <glyph glyph-name="kcommaaccent" unicode="&#x137;" horiz-adv-x="905" 
d="M328 1493v-920l280 289h266l-370 -358l397 -504h-254l-282 369l-37 -37v-332h-201v1493h201zM416 -102l180 -70l-184 -381l-144 57z" />
    <glyph glyph-name="Lacute" unicode="&#x139;" horiz-adv-x="806" 
d="M373 1366v-1169h401v-197h-610v1366h209zM219 1571l283 284l176 -122l-361 -244z" />
    <glyph glyph-name="lacute" unicode="&#x13a;" horiz-adv-x="454" 
d="M328 1493v-1493h-201v1493h201zM545 1821l-320 -295l-110 69l245 320z" />
    <glyph glyph-name="Lcommaaccent" unicode="&#x13b;" horiz-adv-x="806" 
d="M373 1366v-1169h401v-197h-610v1366h209zM416 -102l180 -70l-184 -381l-144 57z" />
    <glyph glyph-name="lcommaaccent" unicode="&#x13c;" horiz-adv-x="454" 
d="M328 1493v-1493h-201v1493h201zM190 -102l181 -70l-185 -381l-143 57z" />
    <glyph glyph-name="Lcaron" unicode="&#x13d;" horiz-adv-x="806" 
d="M373 1366v-1169h401v-197h-610v1366h209zM639 1393l180 -70l-213 -422l-135 57z" />
    <glyph glyph-name="lcaron" unicode="&#x13e;" horiz-adv-x="675" 
d="M328 1493v-1493h-201v1493h201zM557 1413l180 -70l-213 -421l-135 57z" />
    <glyph glyph-name="Ldot" unicode="&#x13f;" horiz-adv-x="806" 
d="M373 1366v-1169h401v-197h-610v1366h209zM522 686q0 59 39 98t98 39t99 -39t39 -98q0 -59 -39 -98q-38 -39 -98 -39t-99 39t-39 98z" />
    <glyph glyph-name="ldot" unicode="&#x140;" horiz-adv-x="720" 
d="M328 1493v-1493h-201v1493h201zM455 745q0 55 39 95t94 39q55 0 94 -39q39 -38 39 -94t-39 -95t-94 -39t-94 39t-39 94z" />
    <glyph glyph-name="Lslash" unicode="&#x141;" horiz-adv-x="806" 
d="M373 1366v-514l245 158v-172l-245 -158v-483h401v-197h-610v588l-164 -105v172l164 105v606h209z" />
    <glyph glyph-name="lslash" unicode="&#x142;" horiz-adv-x="454" 
d="M328 1493v-440l127 98v-164l-127 -98v-889h-201v766l-127 -98v163l127 99v563h201z" />
    <glyph glyph-name="Nacute" unicode="&#x143;" horiz-adv-x="1527" 
d="M164 0v1458l991 -1038v946h209v-1450l-991 1038v-954h-209zM633 1571l282 284l177 -122l-361 -244z" />
    <glyph glyph-name="nacute" unicode="&#x144;" horiz-adv-x="993" 
d="M559 885q104 0 184 -49t109 -155q14 -52 14 -153v-528h-200v479q0 146 -52 196q-22 21 -50 25q-131 17 -185 -40q-53 -57 -53 -246v-414h-201v862h201v-80q92 103 233 103zM838 1288l-320 -295l-110 70l245 319z" />
    <glyph glyph-name="Ncommaaccent" unicode="&#x145;" horiz-adv-x="1527" 
d="M164 0v1458l991 -1038v946h209v-1450l-991 1038v-954h-209zM721 -102l180 -70l-184 -381l-144 57z" />
    <glyph glyph-name="ncommaaccent" unicode="&#x146;" horiz-adv-x="993" 
d="M559 885q104 0 184 -49t109 -155q14 -52 14 -153v-528h-200v479q0 146 -52 196q-22 21 -50 25q-131 17 -185 -40q-53 -57 -53 -246v-414h-201v862h201v-80q92 103 233 103zM436 -102l180 -70l-184 -381l-143 57z" />
    <glyph glyph-name="Ncaron" unicode="&#x147;" horiz-adv-x="1527" 
d="M164 0v1458l991 -1038v946h209v-1450l-991 1038v-954h-209zM967 1884l135 -115l-338 -274l-338 274l135 115l203 -168z" />
    <glyph glyph-name="ncaron" unicode="&#x148;" horiz-adv-x="993" 
d="M559 885q104 0 184 -49t109 -155q14 -52 14 -153v-528h-200v479q0 146 -52 196q-22 21 -50 25q-131 17 -185 -40q-53 -57 -53 -246v-414h-201v862h201v-80q92 103 233 103zM713 1382l135 -106l-316 -283l-315 283l135 106l180 -176z" />
    <glyph glyph-name="Omacron" unicode="&#x14c;" horiz-adv-x="1617" 
d="M1311 682q0 227 -140 371q-140 145 -361 145t-363 -144q-140 -144 -140 -371t140 -372t362 -145t362 145q140 144 140 371zM809 1391q154 -1 284 -55t225 -149t148 -225q54 -130 54 -281q1 -302 -202 -504q-202 -202 -508 -203t-508 201t-204 507q0 150 54 280
q108 264 373 374q130 55 284 55zM440 1665h738v-164h-738v164z" />
    <glyph glyph-name="omacron" unicode="&#x14d;" horiz-adv-x="1085" 
d="M543 154q119 0 187 74t69 204q0 129 -74 200t-182 73q-167 0 -234 -151q-23 -52 -22 -126q0 -125 68 -200q69 -74 188 -74zM543 885q98 0 182 -34q168 -68 243 -238q36 -83 36 -182q0 -195 -132 -327t-330 -131q-198 0 -329 131q-131 132 -131 326t132 324
q131 130 329 131zM205 1200h676v-160h-676v160z" />
    <glyph glyph-name="Obreve" unicode="&#x14e;" horiz-adv-x="1617" 
d="M1311 682q0 227 -140 371q-140 145 -361 145t-363 -144q-140 -144 -140 -371t140 -372t362 -145t362 145q140 144 140 371zM809 1391q154 -1 284 -55t225 -149t148 -225q54 -130 54 -281q1 -302 -202 -504q-202 -202 -508 -203t-508 201t-204 507q0 150 54 280
q108 264 373 374q130 55 284 55zM543 1614q-60 72 -82 176h168q18 -68 66 -100q48 -31 93 -31q46 0 74 5t58 26q51 33 69 100h168q-37 -175 -176 -253q-82 -42 -174 -42q-93 0 -162 36q-68 37 -102 83z" />
    <glyph glyph-name="obreve" unicode="&#x14f;" horiz-adv-x="1085" 
d="M543 154q119 0 187 74t69 204q0 129 -74 200t-182 73q-167 0 -234 -151q-23 -52 -22 -126q0 -125 68 -200q69 -74 188 -74zM543 885q98 0 182 -34q168 -68 243 -238q36 -83 36 -182q0 -195 -132 -327t-330 -131q-198 0 -329 131q-131 132 -131 326t132 324
q131 130 329 131zM490 1178q26 -4 73 -4t89 32t61 101h161q-26 -117 -86 -187q-78 -90 -244 -90q-165 0 -253 100q-56 67 -80 177h162q21 -69 55 -97q36 -28 62 -32z" />
    <glyph glyph-name="Ohungarumlaut" unicode="&#x150;" horiz-adv-x="1617" 
d="M1311 682q0 227 -140 371q-140 145 -361 145t-363 -144q-140 -144 -140 -371t140 -372t362 -145t362 145q140 144 140 371zM809 1391q154 -1 284 -55t225 -149t148 -225q54 -130 54 -281q1 -302 -202 -504q-202 -202 -508 -203t-508 201t-204 507q0 150 54 280
q108 264 373 374q130 55 284 55zM1341 1749l-319 -260l-90 74l250 292zM932 1749l-320 -260l-90 74l250 292z" />
    <glyph glyph-name="ohungarumlaut" unicode="&#x151;" horiz-adv-x="1085" 
d="M543 154q119 0 187 74t69 204q0 129 -74 200t-182 73q-167 0 -234 -151q-23 -52 -22 -126q0 -125 68 -200q69 -74 188 -74zM543 885q98 0 182 -34q168 -68 243 -238q36 -83 36 -182q0 -195 -132 -327t-330 -131q-198 0 -329 131q-131 132 -131 326t132 324
q131 130 329 131zM1042 1288l-299 -295l-86 70l217 319zM674 1288l-299 -295l-86 70l217 319z" />
    <glyph glyph-name="OE" unicode="&#x152;" horiz-adv-x="2166" 
d="M307 682q0 -227 140.5 -371.5t361.5 -144.5t361.5 144.5t140.5 371.5t-140.5 371.5t-361.5 144.5t-361.5 -144.5t-140.5 -371.5zM1307 1366h753v-197h-544v-325h528v-197h-528v-450h544v-197h-753v188q-99 -119 -235.5 -167t-276.5 -48t-270 55.5t-225 150.5t-148.5 224
t-53.5 278.5t53.5 280t203 280t454.5 149.5t498 -222v197z" />
    <glyph glyph-name="oe" unicode="&#x153;" horiz-adv-x="1716" 
d="M1430 547q-12 72 -64 119t-137 47q-84 0 -137 -56q-45 -41 -62 -110h400zM799 432q0 189 -98.5 231t-183.5 41.5t-157 -72.5t-73 -204t71 -202q72 -72 183 -72t184 71q74 70 74 207zM899 719q117 166 323 166q184 1 282 -103q85 -89 107.5 -183t22.5 -191v-25h-618
q9 -109 69 -169t158 -60q140 0 217 137l168 -94q-133 -224 -381 -224t-348 166q-132 -166 -369 -166q-191 0 -319.5 134t-128.5 371.5t175 322t286 84.5q242 0 356 -166z" />
    <glyph glyph-name="Racute" unicode="&#x154;" horiz-adv-x="1093" 
d="M373 739h65q171 0 253 97q38 45 38 122q0 129 -103 182q-62 31 -182 34h-71v-435zM408 1366q244 0 354 -76q168 -115 168 -333q0 -139 -83 -241t-220 -132l426 -584h-252l-391 559h-37v-559h-209v1366h244zM381 1571l283 284l176 -122l-361 -244z" />
    <glyph glyph-name="racute" unicode="&#x155;" horiz-adv-x="679" 
d="M328 446v-446h-201v862h201v-78q81 101 207 101q90 0 157 -41l-82 -182q-46 30 -90 30q-45 0 -77 -8q-33 -8 -67 -46t-41 -93t-7 -99zM770 1288l-319 -295l-111 70l246 319z" />
    <glyph glyph-name="Rcommaaccent" unicode="&#x156;" horiz-adv-x="1093" 
d="M373 739h65q171 0 253 97q38 45 38 122q0 129 -103 182q-62 31 -182 34h-71v-435zM408 1366q244 0 354 -76q168 -115 168 -333q0 -139 -83 -241t-220 -132l426 -584h-252l-391 559h-37v-559h-209v1366h244zM516 -102l180 -70l-184 -381l-143 57z" />
    <glyph glyph-name="rcommaaccent" unicode="&#x157;" horiz-adv-x="679" 
d="M328 446v-446h-201v862h201v-78q81 101 207 101q90 0 157 -41l-82 -182q-46 30 -90 30q-45 0 -77 -8q-33 -8 -67 -46t-41 -93t-7 -99zM293 -102l180 -70l-184 -381l-144 57z" />
    <glyph glyph-name="Rcaron" unicode="&#x158;" horiz-adv-x="1093" 
d="M373 739h65q171 0 253 97q38 45 38 122q0 129 -103 182q-62 31 -182 34h-71v-435zM408 1366q244 0 354 -76q168 -115 168 -333q0 -139 -83 -241t-220 -132l426 -584h-252l-391 559h-37v-559h-209v1366h244zM696 1884l135 -115l-337 -274l-338 274l135 115l203 -168z" />
    <glyph glyph-name="rcaron" unicode="&#x159;" horiz-adv-x="679" 
d="M328 446v-446h-201v862h201v-78q81 101 207 101q90 0 157 -41l-82 -182q-46 30 -90 30q-45 0 -77 -8q-33 -8 -67 -46t-41 -93t-7 -99zM612 1382l136 -106l-316 -283l-315 283l135 106l180 -176z" />
    <glyph glyph-name="Sacute" unicode="&#x15a;" horiz-adv-x="1056" 
d="M352 1034q0 -106 148 -166l137 -55q263 -109 307 -288q14 -55 14 -133t-32 -158q-66 -164 -231 -229q-81 -32 -189 -32q-188 0 -309 138q-102 113 -115 266l207 45q0 -99 61 -178q61 -80 166 -79q104 1 169 63t65 160t-65 162q-35 35 -132 79l-131 55q-115 48 -169 102
t-82 110t-28 130q0 149 108 257t292 108q256 0 379 -230l-168 -98q-59 135 -209 135q-97 0 -145 -49t-48 -115zM397 1571l283 284l176 -122l-360 -244z" />
    <glyph glyph-name="sacute" unicode="&#x15b;" horiz-adv-x="737" 
d="M233 264q40 -114 115 -114q76 0 104 28t27 77q-1 59 -112 110l-74 34q-89 43 -122 75q-58 58 -58 127q0 131 71 202q77 82 206 82t214 -85q27 -26 49 -67l-149 -98q-47 74 -123 74q-39 -1 -59 -21t-21 -49t19 -41t32 -18t45 -23l103 -51q81 -37 119 -76q65 -68 65 -173
t-82 -193q-82 -89 -235 -91q-112 0 -188 58t-109 155zM709 1288l-320 -295l-110 70l245 319z" />
    <glyph glyph-name="Scircumflex" unicode="&#x15c;" horiz-adv-x="1056" 
d="M352 1034q0 -106 148 -166l137 -55q263 -109 307 -288q14 -55 14 -133t-32 -158q-66 -164 -231 -229q-81 -32 -189 -32q-188 0 -309 138q-102 113 -115 266l207 45q0 -99 61 -178q61 -80 166 -79q104 1 169 63t65 160t-65 162q-35 35 -132 79l-131 55q-115 48 -169 102
t-82 110t-28 130q0 149 108 257t292 108q256 0 379 -230l-168 -98q-59 135 -209 135q-97 0 -145 -49t-48 -115zM330 1495l-135 115l337 274l338 -274l-135 -115l-203 168z" />
    <glyph glyph-name="scircumflex" unicode="&#x15d;" horiz-adv-x="737" 
d="M233 264q40 -114 115 -114q76 0 104 28t27 77q-1 59 -112 110l-74 34q-89 43 -122 75q-58 58 -58 127q0 131 71 202q77 82 206 82t214 -85q27 -26 49 -67l-149 -98q-47 74 -123 74q-39 -1 -59 -21t-21 -49t19 -41t32 -18t45 -23l103 -51q81 -37 119 -76q65 -68 65 -173
t-82 -193q-82 -89 -235 -91q-112 0 -188 58t-109 155zM190 993l-135 107l316 282l315 -282l-135 -107l-180 176z" />
    <glyph glyph-name="Scedilla" unicode="&#x15e;" horiz-adv-x="1056" 
d="M352 1034q0 -106 148 -166l137 -55q263 -109 307 -288q14 -55 14 -133t-32 -158q-66 -164 -231 -229q-81 -32 -189 -32q-188 0 -309 138q-102 113 -115 266l207 45q0 -99 61 -178q61 -80 166 -79q104 1 169 63t65 160t-65 162q-35 35 -132 79l-131 55q-115 48 -169 102
t-82 110t-28 130q0 149 108 257t292 108q256 0 379 -230l-168 -98q-59 135 -209 135q-97 0 -145 -49t-48 -115zM670 -186l-230 -273l-131 66l185 284z" />
    <glyph glyph-name="scedilla" unicode="&#x15f;" horiz-adv-x="737" 
d="M233 264q40 -114 115 -114q76 0 104 28t27 77q-1 59 -112 110l-74 34q-89 43 -122 75q-58 58 -58 127q0 131 71 202q77 82 206 82t214 -85q27 -26 49 -67l-149 -98q-47 74 -123 74q-39 -1 -59 -21t-21 -49t19 -41t32 -18t45 -23l103 -51q81 -37 119 -76q65 -68 65 -173
t-82 -193q-82 -89 -235 -91q-112 0 -188 58t-109 155zM514 -174l-209 -275l-131 66l172 274z" />
    <glyph glyph-name="Scaron" unicode="&#x160;" horiz-adv-x="1056" 
d="M352 1034q0 -106 148 -166l137 -55q263 -109 307 -288q14 -55 14 -133t-32 -158q-66 -164 -231 -229q-81 -32 -189 -32q-188 0 -309 138q-102 113 -115 266l207 45q0 -99 61 -178q61 -80 166 -79q104 1 169 63t65 160t-65 162q-35 35 -132 79l-131 55q-115 48 -169 102
t-82 110t-28 130q0 149 108 257t292 108q256 0 379 -230l-168 -98q-59 135 -209 135q-97 0 -145 -49t-48 -115zM735 1884l135 -115l-338 -274l-337 274l135 115l202 -168z" />
    <glyph glyph-name="scaron" unicode="&#x161;" horiz-adv-x="737" 
d="M233 264q40 -114 115 -114q76 0 104 28t27 77q-1 59 -112 110l-74 34q-89 43 -122 75q-58 58 -58 127q0 131 71 202q77 82 206 82t214 -85q27 -26 49 -67l-149 -98q-47 74 -123 74q-39 -1 -59 -21t-21 -49t19 -41t32 -18t45 -23l103 -51q81 -37 119 -76q65 -68 65 -173
t-82 -193q-82 -89 -235 -91q-112 0 -188 58t-109 155zM551 1382l135 -106l-315 -283l-316 283l135 106l181 -176z" />
    <glyph glyph-name="Tcedilla" unicode="&#x162;" horiz-adv-x="876" 
d="M543 1169v-1169h-209v1169h-314v197h836v-197h-313zM588 -186l-230 -273l-131 66l185 284z" />
    <glyph glyph-name="tcedilla" unicode="&#x163;" horiz-adv-x="495" 
d="M334 678v-678h-201v678h-84v184h84v316h201v-316h153v-184h-153zM371 -174l-209 -275l-131 66l172 274z" />
    <glyph glyph-name="Tcaron" unicode="&#x164;" horiz-adv-x="876" 
d="M543 1169v-1169h-209v1169h-314v197h836v-197h-313zM643 1884l135 -115l-338 -274l-338 274l136 115l202 -168z" />
    <glyph glyph-name="tcaron" unicode="&#x165;" horiz-adv-x="696" 
d="M334 678v-678h-201v678h-84v184h84v316h201v-316h153v-184h-153zM578 1413l180 -70l-213 -421l-135 57z" />
    <glyph glyph-name="Utilde" unicode="&#x168;" horiz-adv-x="1339" 
d="M373 1366v-823q0 -55 6 -119q13 -133 133 -214q66 -44 158 -44t158 44q121 81 133 214q6 63 6 119v823h209v-879q0 -266 -191 -411q-128 -100 -315 -103q-230 0 -379 160q-130 143 -127 354v879h209zM801 1434q-39 0 -62 9t-72 35t-80 40q-30 14 -59 14q-64 0 -97 -70
q-7 -16 -9 -24l-121 84q91 162 229 166q61 0 149 -42q24 -11 60 -34t66 -23q74 0 103 83q7 19 12 32l118 -94q-78 -176 -237 -176z" />
    <glyph glyph-name="utilde" unicode="&#x169;" horiz-adv-x="991" 
d="M328 862v-493q0 -108 28 -145q53 -70 139 -70t132 59q27 35 31 76q5 41 6 80v493h200v-500q0 -84 -16 -154t-76 -128q-108 -107 -277 -107t-276 107q-59 59 -76 129q-16 70 -16 153v500h201zM356 1102q-64 0 -97 -70q-7 -16 -9 -24l-121 84q92 165 229 165q68 0 149 -42
q24 -11 60 -33t67 -23q73 0 102 83q7 19 12 32l118 -94q-78 -176 -237 -176q-39 0 -62 9t-72 35t-80 40q-30 14 -59 14z" />
    <glyph glyph-name="Umacron" unicode="&#x16a;" horiz-adv-x="1339" 
d="M373 1366v-823q0 -55 6 -119q13 -133 133 -214q66 -44 158 -44t158 44q121 81 133 214q6 63 6 119v823h209v-879q0 -266 -191 -411q-128 -100 -315 -103q-230 0 -379 160q-130 143 -127 354v879h209zM301 1665h737v-164h-737v164z" />
    <glyph glyph-name="umacron" unicode="&#x16b;" horiz-adv-x="991" 
d="M328 862v-493q0 -108 28 -145q53 -70 139 -70t132 59q27 35 31 76q5 41 6 80v493h200v-500q0 -84 -16 -154t-76 -128q-108 -107 -277 -107t-276 107q-59 59 -76 129q-16 70 -16 153v500h201zM160 1200h676v-160h-676v160z" />
    <glyph glyph-name="Ubreve" unicode="&#x16c;" horiz-adv-x="1339" 
d="M373 1366v-823q0 -55 6 -119q13 -133 133 -214q66 -44 158 -44t158 44q121 81 133 214q6 63 6 119v823h209v-879q0 -266 -191 -411q-128 -100 -315 -103q-230 0 -379 160q-130 143 -127 354v879h209zM667 1495q-94 0 -163 37q-68 37 -101 82q-62 74 -81 176h167
q18 -68 70 -100q45 -31 90 -31q47 0 75 5t56 26q51 33 70 100h168q-37 -175 -176 -253q-81 -42 -175 -42z" />
    <glyph glyph-name="ubreve" unicode="&#x16d;" horiz-adv-x="991" 
d="M328 862v-493q0 -108 28 -145q53 -70 139 -70t132 59q27 35 31 76q5 41 6 80v493h200v-500q0 -84 -16 -154t-76 -128q-108 -107 -277 -107t-276 107q-59 59 -76 129q-16 70 -16 153v500h201zM444 1178q26 -4 74 -4q47 0 89 32t61 101h161q-25 -113 -87 -187
q-76 -90 -242 -90q-165 0 -254 100q-56 67 -80 177h162q21 -69 55 -97q35 -28 61 -32z" />
    <glyph glyph-name="Uring" unicode="&#x16e;" horiz-adv-x="1339" 
d="M373 1366v-823q0 -55 6 -119q13 -133 133 -214q66 -44 158 -44t158 44q121 81 133 214q6 63 6 119v823h209v-879q0 -266 -191 -411q-128 -100 -315 -103q-230 0 -379 160q-130 143 -127 354v879h209zM582 1686q0 -37 26 -63t62 -26t62 26t26 63q0 36 -26 62t-62 26
t-62 -26t-26 -62zM529 1826q57 58 141 58t141 -57t57 -141t-58 -141q-58 -58 -140 -58t-141 58q-58 59 -58 141t58 140z" />
    <glyph glyph-name="uring" unicode="&#x16f;" horiz-adv-x="991" 
d="M328 862v-493q0 -108 28 -145q53 -70 139 -70t132 59q27 35 31 76q5 41 6 80v493h200v-500q0 -84 -16 -154t-76 -128q-108 -107 -277 -107t-276 107q-59 59 -76 129q-16 70 -16 153v500h201zM410 1186q0 -37 26 -63q26 -25 62 -25t62 26t26 62t-26 62t-62 26t-62 -26
t-26 -62zM305 1186q0 78 57 135q58 57 136 57t135 -57t57 -136t-56 -135q-56 -55 -135 -56q-79 -2 -137 56t-57 136z" />
    <glyph glyph-name="Uhungarumlaut" unicode="&#x170;" horiz-adv-x="1339" 
d="M373 1366v-823q0 -55 6 -119q13 -133 133 -214q66 -44 158 -44t158 44q121 81 133 214q6 63 6 119v823h209v-879q0 -266 -191 -411q-128 -100 -315 -103q-230 0 -379 160q-130 143 -127 354v879h209zM1202 1749l-319 -260l-90 74l249 292zM793 1749l-320 -260l-90 74
l250 292z" />
    <glyph glyph-name="uhungarumlaut" unicode="&#x171;" horiz-adv-x="991" 
d="M328 862v-493q0 -108 28 -145q53 -70 139 -70t132 59q27 35 31 76q5 41 6 80v493h200v-500q0 -84 -16 -154t-76 -128q-108 -107 -277 -107t-276 107q-59 59 -76 129q-16 70 -16 153v500h201zM997 1288l-299 -295l-86 70l217 319zM629 1288l-299 -295l-86 70l217 319z" />
    <glyph glyph-name="Uogonek" unicode="&#x172;" horiz-adv-x="1339" 
d="M694 -170q0 -70 94 -70q45 0 95 19l-19 -144q-62 -30 -124 -30q-153 0 -183.5 70.5t-30.5 133.5t51.5 108.5t71.5 62.5q-221 0 -363 158q-122 136 -122 349v879h209v-823q0 -160 37 -225q37 -64 102.5 -108t157.5 -44t157.5 44t96 97t37 113.5t6.5 122.5v823h209v-879
q0 -68 -27.5 -216.5t-210 -237.5t-213.5 -128.5t-31 -74.5z" />
    <glyph glyph-name="uogonek" unicode="&#x173;" horiz-adv-x="991" 
d="M590 -240q49 0 98 19l-18 -127q-63 -39 -122 -39q-106 0 -157 52q-51 51 -51 103q0 121 119 207q-144 9 -240 105q-66 66 -79 140.5t-13 141.5v500h201v-495q0 -41 5 -81t33 -76q44 -56 130 -56t131 57q27 35 32 75t5 81v495h200v-500q0 -68 -16.5 -161.5t-96 -144
t-134.5 -83.5q-117 -70 -117 -141q0 -72 90 -72z" />
    <glyph glyph-name="Ydieresis" unicode="&#x178;" horiz-adv-x="1105" 
d="M657 0h-208v590l-449 776h238l315 -547l315 547h238l-449 -776v-590zM627 1628q0 53 37 90t90 37t90 -37t37 -90t-37 -90t-90 -37t-90 37t-37 90zM225 1628q0 53 37 90t90 37t90 -37t37 -90t-37 -90t-90 -37t-90 37t-37 90z" />
    <glyph glyph-name="Zacute" unicode="&#x179;" horiz-adv-x="1134" 
d="M1057 197v-197h-996l672 1169h-561v197h901l-672 -1169h656zM463 1571l282 284l177 -122l-361 -244z" />
    <glyph glyph-name="zacute" unicode="&#x17a;" horiz-adv-x="983" 
d="M924 184v-184h-908l559 678h-440v184h832l-555 -678h512zM831 1288l-319 -295l-111 70l246 319z" />
    <glyph glyph-name="Zdotaccent" unicode="&#x17b;" horiz-adv-x="1134" 
d="M1057 197v-197h-996l672 1169h-561v197h901l-672 -1169h656zM457 1640q0 58 39 98t98 40t98 -39t39 -99t-39 -98q-39 -39 -98 -39t-98 39t-39 98z" />
    <glyph glyph-name="zdotaccent" unicode="&#x17c;" horiz-adv-x="983" 
d="M924 184v-184h-908l559 678h-440v184h832l-555 -678h512zM399 1126q0 54 39 94t94 40q54 0 94 -39t40 -95t-39 -94q-39 -39 -95 -39t-94 39q-39 39 -39 94z" />
    <glyph glyph-name="Zcaron" unicode="&#x17d;" horiz-adv-x="1134" 
d="M1057 197v-197h-996l672 1169h-561v197h901l-672 -1169h656zM797 1884l135 -115l-338 -274l-338 274l135 115l203 -168z" />
    <glyph glyph-name="zcaron" unicode="&#x17e;" horiz-adv-x="983" 
d="M924 184v-184h-908l559 678h-440v184h832l-555 -678h512zM713 1382l135 -106l-316 -283l-315 283l135 106l180 -176z" />
    <glyph glyph-name="uni018F" unicode="&#x18f;" horiz-adv-x="1531" 
d="M765 166q93 0 241.5 73.5t199.5 299.5h-884q16 -170 109.5 -252t167 -101.5t166.5 -19.5zM723 1391q314 0 516 -209q195 -209 195 -504t-204 -500t-495 -205q-327 0 -508 254q-82 117 -105.5 229.5t-23.5 211.5v63h1125q-16 210 -159.5 338.5t-340.5 128.5
q-252 0 -418 -219l-147 135q124 162 275 219.5t290 57.5z" />
    <glyph glyph-name="florin" unicode="&#x192;" horiz-adv-x="1163" 
d="M903 1327q-57 0 -87 -34t-42 -72.5t-22 -87.5l-50 -271h230l-29 -160h-229l-105 -571q-28 -147 -57.5 -236.5t-88.5 -147.5q-60 -58 -159.5 -88t-222.5 -19l33 190h12q47 0 96 8t89 48t58.5 108.5t30.5 134.5l105 573h-174l28 160h175l53 295q25 128 78.5 222t139 115.5
t147.5 21.5t128 -19l-36 -190q-45 20 -101 20z" />
    <glyph glyph-name="uni01CF" unicode="&#x1cf;" horiz-adv-x="536" 
d="M430 1874l121 -100l-283 -269l-282 269l120 100l162 -158zM373 1366v-1366h-209v1366h209z" />
    <glyph glyph-name="uni01D0" unicode="&#x1d0;" horiz-adv-x="454" 
d="M371 1364l110 -94l-254 -256l-254 256l111 94l143 -150zM328 862v-862h-201v862h201z" />
    <glyph glyph-name="uni01DD" unicode="&#x1dd;" horiz-adv-x="999" 
d="M509 145q105 0 143 73t42 114h-399q10 -92 59 -140q50 -47 155 -47zM90 659q110 226 413 226q165 0 286 -112q52 -48 90.5 -138t38.5 -209q0 -214 -132 -344q-114 -109 -287 -109t-280 103q-59 59 -98 154.5t-39 213.5v52h627q-9 103 -72 155q-58 54 -147 54
q-88 0 -142 -33q-35 -18 -76 -74z" />
    <glyph glyph-name="Gcaron" unicode="&#x1e6;" horiz-adv-x="1531" 
d="M1223 983q-155 215 -392 215t-378 -141q-68 -68 -107 -170q-39 -101 -39 -209q0 -224 136 -368t333 -144t320 121q103 99 114 231h-340v193h564v-11q0 -352 -203 -553q-181 -174 -465 -174q-150 0 -260 44q-110 43 -208 145q-198 207 -200 514q0 160 57 292
q56 132 143 220t220 145q222 95 477 37q92 -20 175 -66q142 -78 219 -204zM969 1884l135 -115l-338 -274l-338 274l135 115l203 -168z" />
    <glyph glyph-name="gcaron" unicode="&#x1e7;" horiz-adv-x="1085" 
d="M688 643q-62 62 -158 62t-155 -58q-90 -81 -88 -219q0 -194 153 -258q39 -16 86 -16q103 0 173 74q71 74 71 206q0 131 -82 209zM758 862h200v-792q0 -152 -26 -263q-42 -175 -225 -249q-69 -29 -161 -29q-192 0 -298 106t-127 269h194q21 -123 120 -175q39 -19 101 -19
q101 -1 156 57q49 47 58 108q8 61 8 109v112q-100 -123 -269 -123t-278 117q-129 133 -129 341t123 331t289 123t264 -117v94zM723 1382l135 -106l-315 -283l-316 283l135 106l181 -176z" />
    <glyph glyph-name="AEacute" unicode="&#x1fc;" horiz-adv-x="1896" 
d="M893 522l-195 445l-211 -445h406zM1876 0h-758l-143 326h-580l-149 -326h-226l656 1366h604l86 -197h-543l144 -325h528l86 -197h-528l194 -450h543zM817 1571l283 284l176 -122l-361 -244z" />
    <glyph glyph-name="aeacute" unicode="&#x1fd;" horiz-adv-x="1548" 
d="M1262 547q-12 72 -63 118t-116 47t-107 -17t-72 -62q-31 -44 -42 -86h400zM470 383q-115 0 -154 -36t-41 -82q-2 -74 90 -107q33 -12 96 -13t119 33q55 36 55 90t-67 90q-46 24 -98 25zM203 858q125 27 238 27q113 1 172 -21t89 -48t52 -54q47 60 118 88q72 35 164 35
t168 -23t130 -78t88 -126q44 -90 44 -250v-25h-618q9 -111 69 -170t149 -59q125 0 192 88q19 25 34 49l168 -94q-100 -168 -264 -207q-68 -16 -139 -17q-206 0 -303 140q-105 -122 -245 -135q-53 -5 -101 -5q-145 0 -236 88q-90 88 -90 206q0 119 89 203q89 85 255 85
q123 0 221 -57q0 203 -220 206q-108 1 -224 -32v186zM1112 1288l-319 -295l-111 70l246 319z" />
    <glyph glyph-name="Scommaaccent" unicode="&#x218;" horiz-adv-x="1056" 
d="M352 1034q0 -106 148 -166l137 -55q263 -109 307 -288q14 -55 14 -133t-32 -158q-66 -164 -231 -229q-81 -32 -189 -32q-188 0 -309 138q-102 113 -115 266l207 45q0 -99 61 -178q61 -80 166 -79q104 1 169 63t65 160t-65 162q-35 35 -132 79l-131 55q-115 48 -169 102
t-82 110t-28 130q0 149 108 257t292 108q256 0 379 -230l-168 -98q-59 135 -209 135q-97 0 -145 -49t-48 -115zM477 -102l180 -70l-184 -381l-143 57z" />
    <glyph glyph-name="scommaaccent" unicode="&#x219;" horiz-adv-x="737" 
d="M233 264q40 -114 115 -114q76 0 104 28t27 77q-1 59 -112 110l-74 34q-89 43 -122 75q-58 58 -58 127q0 131 71 202q77 82 206 82t214 -85q27 -26 49 -67l-149 -98q-47 74 -123 74q-39 -1 -59 -21t-21 -49t19 -41t32 -18t45 -23l103 -51q81 -37 119 -76q65 -68 65 -173
t-82 -193q-82 -89 -235 -91q-112 0 -188 58t-109 155zM313 -102l181 -70l-185 -381l-143 57z" />
    <glyph glyph-name="Tcommaaccent" unicode="&#x21a;" horiz-adv-x="876" 
d="M543 1169v-1169h-209v1169h-314v197h836v-197h-313zM416 -102l180 -70l-184 -381l-144 57z" />
    <glyph glyph-name="tcommaaccent" unicode="&#x21b;" horiz-adv-x="495" 
d="M334 678v-678h-201v678h-84v184h84v316h201v-316h153v-184h-153zM211 -102l180 -70l-184 -381l-144 57z" />
    <glyph glyph-name="uni0228" unicode="&#x228;" 
d="M918 1169h-545v-346h528v-196h-528v-430h545v-197h-754v1366h754v-197zM711 -186l-230 -273l-131 66l185 284z" />
    <glyph glyph-name="uni0229" unicode="&#x229;" horiz-adv-x="987" 
d="M700 547q-18 106 -114 150q-33 15 -100 16t-124 -56q-45 -41 -61 -110h399zM219 768q117 117 289 117t277 -112q120 -128 120 -365v-25h-618q9 -110 69 -170q58 -59 148 -59q126 0 193 88q19 25 34 49l168 -94q-63 -106 -152 -164t-258 -59t-288 118t-119 326t137 350z
M680 -174l-209 -275l-131 66l172 274z" />
    <glyph glyph-name="uni0237" unicode="&#x237;" horiz-adv-x="454" 
d="M328 862v-1331h-201v1331h201z" />
    <glyph glyph-name="uni0259" unicode="&#x259;" horiz-adv-x="999" 
d="M509 145q105 0 143 73t42 114h-399q10 -92 59 -140q50 -47 155 -47zM90 659q110 226 413 226q165 0 286 -112q52 -48 90.5 -138t38.5 -209q0 -214 -132 -344q-114 -109 -287 -109t-280 103q-59 59 -98 154.5t-39 213.5v52h627q-9 103 -72 155q-58 54 -147 54
q-88 0 -142 -33q-35 -18 -76 -74z" />
    <glyph glyph-name="afii57929" unicode="&#x2bc;" 
d="M496 1413l180 -70l-213 -421l-135 57z" />
    <glyph glyph-name="circumflex" unicode="&#x2c6;" 
d="M332 993l-135 107l315 282l315 -282l-135 -107l-180 176z" />
    <glyph glyph-name="caron" unicode="&#x2c7;" 
d="M692 1382l135 -106l-315 -283l-315 283l135 106l180 -176z" />
    <glyph glyph-name="uni02C9" unicode="&#x2c9;" 
d="M174 1200h676v-160h-676v160z" />
    <glyph glyph-name="breve" unicode="&#x2d8;" 
d="M317.5 1076.5q-100.5 46.5 -137.5 230.5h162q19 -65 55 -94q35 -30 61.5 -34.5t73 -4.5t76.5 23q56 44 74 110h162q-47 -212 -152 -244.5t-190 -32.5q-84 0 -184.5 46.5z" />
    <glyph glyph-name="dotaccent" unicode="&#x2d9;" 
d="M379 1126.5q0 55.5 39 94.5t94 39t94 -39t39 -94.5t-39 -94.5t-94 -39t-94 39t-39 94.5z" />
    <glyph glyph-name="ring" unicode="&#x2da;" 
d="M424 1186q0 -37 25.5 -62.5t62.5 -25.5t62.5 25.5t25.5 62.5t-25.5 62.5t-62.5 25.5t-62.5 -25.5t-25.5 -62.5zM319 1186q0 39 15.5 73.5t42 61.5t61.5 42t74 15t74 -15t61.5 -42t42 -61.5t15.5 -73.5t-15.5 -74t-42 -61.5t-61.5 -42t-74 -15.5t-74 15.5t-61.5 42
t-42 61.5t-15.5 74z" />
    <glyph glyph-name="ogonek" unicode="&#x2db;" 
d="M512 -172q0 -64 82 -64q61 0 106 15l-18 -127q-61 -39 -135 -39t-134.5 45t-60.5 133t64.5 140.5t93.5 68.5h149q-95 -53 -121 -98t-26 -74z" />
    <glyph glyph-name="tilde" unicode="&#x2dc;" 
d="M373 1257q89 0 194 -67q52 -31 81 -31q53 0 76 35t38 80l119 -94q-78 -176 -238 -176q-39 0 -61.5 9t-57.5 27t-50 26t-45 22t-58 14q-47 0 -73.5 -32.5t-33.5 -61.5l-121 84q92 165 230 165z" />
    <glyph glyph-name="hungarumlaut" unicode="&#x2dd;" 
d="M1012 1288l-299 -295l-86 70l217 319zM643 1288l-299 -295l-86 70l217 319z" />
    <glyph glyph-name="acutecomb" unicode="&#x301;" horiz-adv-x="4" 
d="M-170 1288l-319 -295l-111 70l246 319z" />
    <glyph glyph-name="uni0394" unicode="&#x394;" horiz-adv-x="1368" 
d="M352 197h656l-328 886zM49 0l524 1366h213l533 -1366h-1270z" />
    <glyph glyph-name="uni0394" unicode="&#x2206;" horiz-adv-x="1368" 
d="M352 197h656l-328 886zM49 0l524 1366h213l533 -1366h-1270z" />
    <glyph glyph-name="uni03A9" unicode="&#x3a9;" horiz-adv-x="1363" 
d="M999 406q99 137 99 305t-49 248.5t-107 136.5q-105 102 -260.5 102t-273.5 -113q-142 -136 -142 -366q0 -180 99 -313q89 -125 233 -185v-221h-541v197h330q-163 84 -245 224q-52 89 -68.5 158.5t-16.5 157.5q0 164 54 284.5t122 188.5t125.5 100.5t114.5 50t110.5 24
t234.5 6.5t309.5 -170t154 -283t25.5 -201q1 -170 -67 -288q-68 -117 -139 -171.5t-124 -80.5h330v-197h-541v221q150 62 233 185z" />
    <glyph glyph-name="uni03A9" unicode="&#x2126;" horiz-adv-x="1363" 
d="M999 406q99 137 99 305t-49 248.5t-107 136.5q-105 102 -260.5 102t-273.5 -113q-142 -136 -142 -366q0 -180 99 -313q89 -125 233 -185v-221h-541v197h330q-163 84 -245 224q-52 89 -68.5 158.5t-16.5 157.5q0 164 54 284.5t122 188.5t125.5 100.5t114.5 50t110.5 24
t234.5 6.5t309.5 -170t154 -283t25.5 -201q1 -170 -67 -288q-68 -117 -139 -171.5t-124 -80.5h330v-197h-541v221q150 62 233 185z" />
    <glyph glyph-name="pi" unicode="&#x3c0;" horiz-adv-x="1134" 
d="M199 0v678h-154v184h1045v-184h-154v-678h-201v678h-336v-678h-200z" />
    <glyph glyph-name="afii10023" unicode="&#x401;" 
d="M918 1169h-545v-346h528v-196h-528v-430h545v-197h-754v1366h754v-197zM614 1628q0 53 37 90t90 37t90 -37t37 -90t-37 -90t-90 -37t-90 37t-37 90zM213 1628q0 53 37 90t90 37t90 -37t37 -90t-37 -90t-90 -37t-90 37t-37 90z" />
    <glyph glyph-name="afii10051" unicode="&#x402;" horiz-adv-x="1368" 
d="M1270 425q0 -437 -436 -437q-45 0 -138 12v193q102 -22 178 -10t107 36q76 59 76 196t-109 195q-59 33 -160 33q-102 0 -243 -47v-596h-209v1169h-316v197h975v-197h-450v-381q150 48 251 48q358 0 416 -160t58 -251z" />
    <glyph glyph-name="afii10052" unicode="&#x403;" horiz-adv-x="876" 
d="M164 1366h684v-197h-475v-1169h-209v1366zM381 1571l283 284l176 -122l-361 -244z" />
    <glyph glyph-name="afii10053" unicode="&#x404;" horiz-adv-x="1269" 
d="M1176 1047q-169 151 -363 151t-300 -80t-144.5 -167t-49.5 -152h672v-197h-678q16 -164 125 -285q136 -151 369 -151q157 0 248.5 64.5t120.5 93.5v-248q-176 -103 -375 -103q-282 0 -484 189q-121 113 -170 241.5t-49 248.5q0 198 60.5 332.5t162.5 230.5
q185 176 490 176q210 0 365 -99v-245z" />
    <glyph glyph-name="afii10054" unicode="&#x405;" horiz-adv-x="1056" 
d="M352 1034q0 -103 148 -166l137 -55q263 -109 292 -226t29 -195t-32.5 -158t-123 -170.5t-284.5 -90.5q-119 0 -193.5 39.5t-128.5 99.5q-101 114 -114 265l207 45q0 -96 57 -174q64 -82 169 -82t170 62.5t65 159.5t-50 147t-147 94l-131 55q-115 48 -169 102t-82 110
t-28 130q0 149 108 257t292 108q256 0 379 -230l-168 -98q-59 135 -209 135q-96 0 -144.5 -49t-48.5 -115z" />
    <glyph glyph-name="afii10055" unicode="&#x406;" horiz-adv-x="536" 
d="M373 1366v-1366h-209v1366h209z" />
    <glyph glyph-name="afii10056" unicode="&#x407;" horiz-adv-x="536" 
d="M303 1628q0 47 31 81t71.5 34t71.5 -34t31 -81t-31 -81t-71.5 -34t-71.5 34t-31 81zM29 1628q0 47 30.5 81t71.5 34t73 -34t32 -81t-32 -81t-73 -34t-71.5 34t-30.5 81zM373 1366v-1366h-209v1366h209z" />
    <glyph glyph-name="afii10057" unicode="&#x408;" horiz-adv-x="741" 
d="M66 219q61 -49 154 -49t126 92q23 53 23 219v885h209v-885q0 -203 -42 -291q-105 -216 -314 -217q-109 0 -168.5 25t-90.5 45z" />
    <glyph glyph-name="afii10058" unicode="&#x409;" horiz-adv-x="1843" 
d="M1167 197h148q98 0 186 37t88 177t-94 173.5t-176 33.5h-152v-421zM113 180q67 0 114 47q63 59 65.5 169t2.5 155v815h872v-551h156q330 0 400.5 -157.5t70.5 -252t-42 -184.5t-122 -143t-160.5 -65.5t-144.5 -12.5h-367v1169h-454v-680q0 -150 -34.5 -288t-159 -175.5
t-176.5 -37.5t-105 12v193q52 -13 84 -13z" />
    <glyph glyph-name="afii10059" unicode="&#x40a;" horiz-adv-x="1843" 
d="M1589 414q0 215 -270 215h-152v-432h148q153 0 214 59q60 59 60 158zM373 825h585v541h209v-541h156q222 0 342 -108q47 -41 88 -116t41 -185t-73.5 -263t-395.5 -153h-367v629h-585v-629h-209v1366h209v-541z" />
    <glyph glyph-name="afii10060" unicode="&#x40b;" horiz-adv-x="1413" 
d="M775 627q-87 0 -230 -15v-612h-209v1169h-316v197h975v-197h-450v-364q119 14 212 14q165 0 285 -23.5t179 -128t64 -172t5 -92.5v-403h-209v373q0 108 -23.5 148t-53.5 66t-86 33t-143 7z" />
    <glyph glyph-name="afii10061" unicode="&#x40c;" horiz-adv-x="1200" 
d="M373 0h-209v1366h209v-545l528 545h275l-617 -618l621 -748h-279l-487 606l-41 -41v-565zM469 1571l283 284l176 -122l-361 -244z" />
    <glyph glyph-name="afii10062" unicode="&#x40e;" horiz-adv-x="1167" 
d="M266 1366l352 -729l320 729h217l-616 -1366h-217l176 387l-486 979h254zM940 1704q-90 -209 -339 -209q-40 0 -87 9q-180 35 -250 200l164 74q32 -115 192 -115q61 0 117 49q27 23 39 66z" />
    <glyph glyph-name="afii10145" unicode="&#x40f;" horiz-adv-x="1310" 
d="M164 1366h209v-1169h565v1169h209v-1366h-393v-340h-197v340h-393v1366z" />
    <glyph glyph-name="afii10017" unicode="&#x410;" horiz-adv-x="1343" 
d="M883 526l-203 463l-211 -463h414zM967 330h-584l-150 -330h-225l680 1446l647 -1446h-225z" />
    <glyph glyph-name="afii10018" unicode="&#x411;" horiz-adv-x="1077" 
d="M373 197h127q98 0 186 37t88 177t-94 173.5t-176 33.5h-131v-421zM164 1366h684v-197h-475v-354h135q330 0 400.5 -157.5t70.5 -252t-42 -184.5t-122 -143t-161 -65.5t-144 -12.5h-346v1366z" />
    <glyph glyph-name="afii10019" unicode="&#x412;" horiz-adv-x="1077" 
d="M373 197h127q202 0 238 78.5t36 125.5q0 89 -49 137t-107.5 58t-113.5 10h-131v-409zM436 778q223 0 223 209q0 85 -42 125q-42 41 -85 49t-88 8h-71v-391h63zM371 1366q133 0 221 -21.5t156 -84.5q109 -102 108 -271q0 -95 -41 -162q-36 -64 -102 -94q104 -23 167 -90
q64 -67 81.5 -134t17.5 -135q0 -143 -90 -241q-127 -133 -383 -133h-342v1366h207z" />
    <glyph glyph-name="afii10020" unicode="&#x413;" horiz-adv-x="876" 
d="M164 1366h684v-197h-475v-1169h-209v1366z" />
    <glyph glyph-name="afii10021" unicode="&#x414;" horiz-adv-x="1331" 
d="M504 739q0 -250 -47 -381q-38 -95 -107 -161h588v972h-434v-430zM1147 1366v-1169h156v-504h-197v307h-881v-307h-196v504q134 -7 217 184q49 125 49 358v627h852z" />
    <glyph glyph-name="afii10022" unicode="&#x415;" 
d="M918 1169h-545v-346h528v-196h-528v-430h545v-197h-754v1366h754v-197z" />
    <glyph glyph-name="afii10024" unicode="&#x416;" horiz-adv-x="1732" 
d="M971 1366v-551l487 551h254l-563 -627l575 -739h-258l-462 602l-33 -37v-565h-209v565l-33 37l-463 -602h-258l576 739l-564 627h254l488 -551v551h209z" />
    <glyph glyph-name="afii10025" unicode="&#x417;" horiz-adv-x="1167" 
d="M567 1389q74 0 159 -19.5t159 -89.5q98 -96 98 -240q0 -102 -45 -170q-45 -76 -123 -118q113 -27 184 -121q70 -87 70 -232q0 -183 -137 -305q-138 -119 -351 -119t-354 107q-109 86 -174 221l185 94q38 -100 127 -166q90 -63 225 -63q194 0 234 94t40 148
q0 213 -327 213h-123v196h110q187 0 222.5 75t35.5 123q0 88 -65 138q-49 41 -152 41q-102 0 -161 -33q-58 -33 -85.5 -63.5t-37.5 -42.5l-138 133q149 199 424 199z" />
    <glyph glyph-name="afii10026" unicode="&#x418;" horiz-adv-x="1458" 
d="M164 1366h209v-924l921 981v-1423h-209v920l-921 -981v1427z" />
    <glyph glyph-name="afii10027" unicode="&#x419;" horiz-adv-x="1458" 
d="M164 1366h209v-924l921 981v-1423h-209v920l-921 -981v1427zM1067 1704q-90 -209 -339 -209q-40 0 -87 9q-180 35 -250 200l164 74q32 -115 192 -115q61 0 117 49q27 23 39 66z" />
    <glyph glyph-name="afii10028" unicode="&#x41a;" horiz-adv-x="1200" 
d="M373 0h-209v1366h209v-545l528 545h275l-617 -618l621 -748h-279l-487 606l-41 -41v-565z" />
    <glyph glyph-name="afii10029" unicode="&#x41b;" horiz-adv-x="1331" 
d="M113 180q67 0 114 47q63 59 65.5 169t2.5 155v815h872v-1366h-209v1169h-454v-680q0 -150 -34.5 -288t-159 -175.5t-176.5 -37.5t-105 12v193q52 -13 84 -13z" />
    <glyph glyph-name="afii10030" unicode="&#x41c;" horiz-adv-x="1744" 
d="M123 0l287 1468l475 -1060l479 1060l258 -1468h-213l-139 823l-398 -886l-393 888l-143 -825h-213z" />
    <glyph glyph-name="afii10031" unicode="&#x41d;" horiz-adv-x="1331" 
d="M373 842h585v524h209v-1366h-209v645h-585v-645h-209v1366h209v-524z" />
    <glyph glyph-name="afii10032" unicode="&#x41e;" horiz-adv-x="1617" 
d="M809 166q221 0 361.5 144.5t140.5 371.5t-140.5 371.5t-361.5 144.5t-361.5 -144.5t-140.5 -371.5t140.5 -371.5t361.5 -144.5zM809 1391q154 0 284 -54.5t225 -149.5t148.5 -226t53.5 -281t-53.5 -279t-148.5 -224t-225 -149.5t-359.5 -54.5t-432.5 203t-203 506
q0 150 53.5 280t148.5 225t225 149.5t284 54.5z" />
    <glyph glyph-name="afii10033" unicode="&#x41f;" horiz-adv-x="1331" 
d="M1167 1366v-1366h-209v1169h-585v-1169h-209v1366h1003z" />
    <glyph glyph-name="afii10034" unicode="&#x420;" horiz-adv-x="983" 
d="M373 748h94q135 0 200.5 59t65.5 150t-58 154t-210 63h-92v-426zM465 1366q187 0 286 -66q183 -121 183 -339q0 -188 -133 -299q-82 -70 -170 -88.5t-164 -18.5h-94v-555h-209v1366h301z" />
    <glyph glyph-name="afii10035" unicode="&#x421;" horiz-adv-x="1269" 
d="M1176 1047q-169 151 -381 151t-350 -146.5t-138 -369.5q0 -222 141 -369t359 -147q157 0 248.5 64.5t120.5 93.5v-248q-176 -103 -375 -103q-282 0 -484 189q-121 113 -170 241.5t-49 248.5q0 198 60.5 332.5t162.5 230.5q185 176 490 176q210 0 365 -99v-245z" />
    <glyph glyph-name="afii10036" unicode="&#x422;" horiz-adv-x="876" 
d="M543 1169v-1169h-209v1169h-314v197h836v-197h-313z" />
    <glyph glyph-name="afii10037" unicode="&#x423;" horiz-adv-x="1167" 
d="M266 1366l352 -729l320 729h217l-616 -1366h-217l176 387l-486 979h254z" />
    <glyph glyph-name="afii10038" unicode="&#x424;" horiz-adv-x="1691" 
d="M950 385h41q292 0 342.5 134t50.5 246t-98 206t-295 94h-41v-680zM741 1065h-41q-195 0 -294 -94t-99 -246t99 -246t294 -94h41v680zM741 193h-36q-306 0 -456.5 149.5t-150.5 382.5t150.5 382.5t456.5 149.5h36v164h209v-164h37q305 0 455.5 -148.5t150.5 -383.5
t-150.5 -383.5t-455.5 -148.5h-37v-193h-209v193z" />
    <glyph glyph-name="afii10039" unicode="&#x425;" horiz-adv-x="1118" 
d="M451 713l-377 653h233l266 -463l273 463h233l-393 -653l412 -713h-234l-299 522l-311 -522h-234z" />
    <glyph glyph-name="afii10040" unicode="&#x426;" horiz-adv-x="1351" 
d="M164 1366h209v-1169h565v1169h209v-1169h176v-504h-197v307h-962v1366z" />
    <glyph glyph-name="afii10041" unicode="&#x427;" horiz-adv-x="1241" 
d="M204.5 676.5q-71.5 129.5 -76.5 195.5t-5 91v403h209v-373q0 -105 22.5 -147.5t63.5 -74.5t177 -32t273 15v612h209v-1366h-209v561q-217 -14 -298 -14q-294 0 -365.5 129.5z" />
    <glyph glyph-name="afii10042" unicode="&#x428;" horiz-adv-x="1921" 
d="M164 1366h209v-1169h483v1169h209v-1169h483v1169h209v-1366h-1593v1366z" />
    <glyph glyph-name="afii10043" unicode="&#x429;" horiz-adv-x="1961" 
d="M164 1366h209v-1169h483v1169h209v-1169h483v1169h209v-1169h176v-504h-196v307h-1573v1366z" />
    <glyph glyph-name="afii10044" unicode="&#x42a;" horiz-adv-x="1212" 
d="M537 197h147q99 0 186.5 37t87.5 169q0 215 -270 215h-151v-421zM328 1169h-308v197h517v-551h155q330 0 400.5 -157.5t70.5 -252t-42 -184.5t-122 -143t-160.5 -65.5t-144.5 -12.5h-366v1169z" />
    <glyph glyph-name="afii10045" unicode="&#x42b;" horiz-adv-x="1515" 
d="M1352 1366v-1366h-209v1366h209zM373 197h147q99 0 187 37.5t88 176.5q0 140 -94.5 173.5t-176.5 33.5h-151v-421zM164 1366h209v-551h155q330 0 400.5 -157.5t70.5 -252t-42 -184.5t-122 -143t-160.5 -65.5t-144.5 -12.5h-366v1366z" />
    <glyph glyph-name="afii10046" unicode="&#x42c;" horiz-adv-x="1048" 
d="M373 197h147q99 0 187 37.5t88 176.5q0 140 -94.5 173.5t-176.5 33.5h-151v-421zM164 1366h209v-551h155q330 0 400.5 -157.5t70.5 -252t-42 -184.5t-122 -143t-160.5 -65.5t-144.5 -12.5h-366v1366z" />
    <glyph glyph-name="afii10047" unicode="&#x42d;" horiz-adv-x="1273" 
d="M449.5 1391q177.5 0 298 -38t225.5 -141q203 -203 203 -526t-195 -518t-452 -195t-431 103v248q158 -158 379 -158t342 122q122 122 139 306h-675v197h671q-30 254 -183 330.5t-282 76.5q-221 0 -391 -151v245q174 99 351.5 99z" />
    <glyph glyph-name="afii10048" unicode="&#x42e;" horiz-adv-x="2048" 
d="M1259.5 166q106.5 0 194.5 38t151.5 106.5t99.5 163.5t36 208t-36 208t-99.5 163.5t-151.5 106.5t-194.5 38t-194.5 -38t-151.5 -106.5t-99.5 -163.5t-36 -208t36 -208t99.5 -163.5t151.5 -106.5t194.5 -38zM1290 1391q120 0 246.5 -54.5t218.5 -149.5t143.5 -224
t51.5 -356t-197.5 -430.5t-492.5 -203.5q-342 0 -535 240q-140 177 -147 414h-205v-627h-209v1366h209v-543h205q39 216 182 365q143 143 276.5 173t253.5 30z" />
    <glyph glyph-name="afii10049" unicode="&#x42f;" horiz-adv-x="1093" 
d="M618 1174q-168 0 -234 -63q-65 -63 -65 -146q0 -186 120 -206t167 -20h115v435h-103zM119 999q0 122 104 238q114 119 224 124t147 5h336v-1366h-209v547h-49l-373 -547h-258l405 569q-118 13 -200 85q-82 71 -104.5 147t-22.5 198z" />
    <glyph glyph-name="afii10065" unicode="&#x430;" horiz-adv-x="1085" 
d="M287 429q0 -114 65.5 -194.5t170.5 -80.5t176 72t71 203t-71 203.5t-177 72.5q-104 0 -169.5 -81t-65.5 -195zM758 862h200v-862h-200v90q-99 -117 -258 -117q-193 0 -305.5 135.5t-112.5 331.5t122.5 320.5t289.5 124.5t264 -123v100z" />
    <glyph glyph-name="afii10066" unicode="&#x431;" horiz-adv-x="1085" 
d="M543 154q119 0 187.5 74.5t68.5 204.5t-75 201t-212 71t-181 -101.5t-44 -175.5q0 -125 68.5 -199.5t187.5 -74.5zM285 764q90 121 282 121t314 -126q123 -126 123 -325q0 -198 -131.5 -329.5t-328.5 -131.5t-322 118t-132.5 256t-7.5 183q0 195 28.5 339.5t102.5 252.5
q93 142 258 185l143 34q124 32 142 66.5t22 46.5h205q-23 -106 -94.5 -184t-175.5 -107l-135 -37q-59 -16 -118 -40t-100 -80q-72 -97 -77 -242h2z" />
    <glyph glyph-name="afii10067" unicode="&#x432;" horiz-adv-x="905" 
d="M623 289.5q0 72.5 -140 72.5h-155v-198h149q70 0 95 17q51 36 51 108.5zM430 526q61 0 80 19q39 25 39 68q1 43 -27 63t-50.5 21t-45.5 1h-98v-172h102zM741 645q0 -116 -102 -168q116 -21 150 -93t34 -140t-30.5 -115t-60.5 -69q-79 -60 -202 -60h-403v862h338
q128 0 174 -34t74 -74.5t28 -108.5z" />
    <glyph glyph-name="afii10068" unicode="&#x433;" horiz-adv-x="671" 
d="M127 862h528v-184h-327v-678h-201v862z" />
    <glyph glyph-name="afii10069" unicode="&#x434;" horiz-adv-x="995" 
d="M393 449q0 -189 -100 -265h354v494h-254v-229zM848 862v-678h131v-430h-184v246h-602v-246h-185v430q104 7 158 113q35 76 35 227v338h647z" />
    <glyph glyph-name="afii10070" unicode="&#x435;" horiz-adv-x="987" 
d="M700 547q-12 72 -64 119t-135 47t-139 -56q-45 -41 -61 -110h399zM514 154q140 0 217 137l168 -94q-101 -170 -215 -197t-192 -27q-171 0 -290.5 118t-119.5 326t137 351q117 117 287 117t285 -120q114 -120 114 -357v-25h-618q9 -108 69 -169q59 -60 158 -60z" />
    <glyph glyph-name="afii10072" unicode="&#x436;" horiz-adv-x="1277" 
d="M739 862v-319l260 319h242l-334 -393l367 -469h-250l-260 346l-25 -29v-317h-200v317l-25 29l-260 -346h-250l367 469l-334 393h242l260 -319v319h200z" />
    <glyph glyph-name="afii10073" unicode="&#x437;" horiz-adv-x="901" 
d="M639 469q180 -41 180 -221q0 -103 -74 -176q-98 -98 -303 -99q-137 0 -229 56t-131 149l160 82q55 -123 204 -123q93 0 138 43q30 35 30 77t-26 70t-66.5 31.5t-77.5 3.5h-90v164h76q64 0 87 16t35.5 33t12.5 50q0 96 -124 96t-197 -82l-129 113q113 133 334 133
q131 0 220 -62t89 -182q0 -119 -119 -172z" />
    <glyph glyph-name="afii10074" unicode="&#x438;" horiz-adv-x="1044" 
d="M328 862v-489l590 567v-940h-201v502l-590 -568v928h201z" />
    <glyph glyph-name="afii10075" unicode="&#x439;" horiz-adv-x="1044" 
d="M328 862v-489l590 567v-940h-201v502l-590 -568v928h201zM521 1149q130 0 171 133l164 -47q-35 -122 -132 -181t-198 -60q-100 -1 -200 61t-133 180l163 47q35 -133 165 -133z" />
    <glyph glyph-name="afii10076" unicode="&#x43a;" horiz-adv-x="905" 
d="M328 862v-307l286 307h267l-377 -377l397 -485h-254l-287 354l-32 -32v-322h-201v862h201z" />
    <glyph glyph-name="afii10077" unicode="&#x43b;" horiz-adv-x="962" 
d="M836 0h-201v678h-254v-342q0 -157 -82 -248q-102 -114 -283 -88v184q45 -10 101 10t63.5 68.5t7.5 73.5v526h648v-862z" />
    <glyph glyph-name="afii10078" unicode="&#x43c;" horiz-adv-x="1187" 
d="M238 940l356 -657l356 657l209 -940h-205l-86 432l-274 -498l-275 498l-86 -432h-204z" />
    <glyph glyph-name="afii10079" unicode="&#x43d;" horiz-adv-x="1011" 
d="M127 862h201v-319h356v319h201v-862h-201v358h-356v-358h-201v862z" />
    <glyph glyph-name="afii10080" unicode="&#x43e;" horiz-adv-x="1085" 
d="M543 154q119 0 187.5 74.5t68.5 204.5t-75 201t-212 71t-181 -101.5t-44 -175.5q0 -125 68.5 -199.5t187.5 -74.5zM1004 431q0 -195 -131.5 -326.5t-330.5 -131.5t-329.5 132t-130.5 326t131.5 324t329 130t329.5 -129.5t132 -324.5z" />
    <glyph glyph-name="afii10081" unicode="&#x43f;" horiz-adv-x="1003" 
d="M877 862v-862h-201v678h-348v-678h-201v862h750z" />
    <glyph glyph-name="afii10082" unicode="&#x440;" horiz-adv-x="1085" 
d="M563 705q-104 0 -176 -72t-72 -204t71.5 -203.5t175.5 -71.5t170.5 80t66.5 195q0 114 -66 195t-170 81zM328 768q98 117 264 117t289 -124.5t123 -326.5q0 -203 -127 -332t-291 -129q-94 0 -160 43t-98 84v-569h-201v1331h201v-94z" />
    <glyph glyph-name="afii10083" unicode="&#x441;" horiz-adv-x="860" 
d="M287 428q0 -127 78 -205q73 -69 182 -69q147 0 248 110v-223q-109 -68 -241 -68q-131 0 -209.5 31t-132.5 87q-130 135 -130 333q0 203 129 332t348 129q125 0 236 -62v-225q-110 107 -244 107q-171 0 -217.5 -101.5t-46.5 -175.5z" />
    <glyph glyph-name="afii10084" unicode="&#x442;" horiz-adv-x="737" 
d="M469 678v-678h-201v678h-252v184h705v-184h-252z" />
    <glyph glyph-name="afii10085" unicode="&#x443;" horiz-adv-x="987" 
d="M381 135l-369 727h242l246 -504l250 504h225l-686 -1331h-226z" />
    <glyph glyph-name="afii10086" unicode="&#x444;" horiz-adv-x="1372" 
d="M1043.5 581q-37.5 55 -68.5 70q-68 45 -189 45v-530q139 -5 217 68.5t78 182.5t-37.5 164zM586 696q-121 0 -189 -45q-31 -15 -68.5 -70t-37.5 -149q0 -144 100 -215q76 -55 195 -51v530zM129 633q43 82 111 140q67 59 164.5 81.5t181.5 22.5v489h200v-489
q225 0 357 -113q143 -129 143 -337t-145 -329q-134 -116 -355 -112v-455h-200v455q-325 -5 -412.5 158t-87.5 285t43 204z" />
    <glyph glyph-name="afii10087" unicode="&#x445;" horiz-adv-x="1015" 
d="M393 467l-307 395h238l190 -252l193 252h245l-317 -395l369 -467h-242l-248 322l-256 -322h-246z" />
    <glyph glyph-name="afii10088" unicode="&#x446;" horiz-adv-x="1028" 
d="M127 862h201v-678h340v678h200v-678h144v-430h-185v246h-700v862z" />
    <glyph glyph-name="afii10089" unicode="&#x447;" horiz-adv-x="921" 
d="M432 315q-158 0 -242 64q-59 47 -71.5 105.5t-12.5 101.5v276h201v-235q0 -125 67.5 -132.5t110.5 -7.5t109 23v352h201v-862h-201v334q-97 -19 -162 -19z" />
    <glyph glyph-name="afii10090" unicode="&#x448;" horiz-adv-x="1429" 
d="M127 862h201v-678h286v678h201v-678h287v678h201v-862h-1176v862z" />
    <glyph glyph-name="afii10091" unicode="&#x449;" horiz-adv-x="1462" 
d="M127 862h201v-678h286v678h201v-678h287v678h201v-678h143v-430h-184v246h-1135v862z" />
    <glyph glyph-name="afii10092" unicode="&#x44a;" horiz-adv-x="892" 
d="M494 172q74 0 104 18q45 36 45 90t-34 77q-34 24 -62.5 26t-50.5 2h-95v-213h93zM201 678h-185v184h385v-305h115q128 0 180 -27.5t88 -67.5q60 -68 60 -163q0 -150 -78 -225q-57 -55 -121.5 -64.5t-130.5 -9.5h-313v678z" />
    <glyph glyph-name="afii10093" unicode="&#x44b;" horiz-adv-x="1187" 
d="M860 862h201v-862h-201v862zM420 172q74 0 104 18q45 36 45 91t-37 79q-37 25 -110 25h-94v-213h92zM127 862h201v-305h114q128 0 180 -27.5t88 -67.5q60 -68 60 -163q0 -150 -78 -225q-57 -55 -121.5 -64.5t-130.5 -9.5h-313v862z" />
    <glyph glyph-name="afii10094" unicode="&#x44c;" horiz-adv-x="819" 
d="M420 172q74 0 104 18q45 36 45 91t-37 79q-37 25 -110 25h-94v-213h92zM127 862h201v-305h114q128 0 180 -27.5t88 -67.5q60 -68 60 -163q0 -150 -78 -225q-57 -55 -121.5 -64.5t-130.5 -9.5h-313v862z" />
    <glyph glyph-name="afii10095" unicode="&#x44d;" horiz-adv-x="876" 
d="M325 885q130 0 214 -40t170 -126t86 -285t-127 -332q-119 -129 -322 -129q-140 0 -264 50v190q104 -59 210 -59q107 0 152 23.5t68 45.5q51 51 63 133h-399v168h393q-37 181 -252 181q-125 0 -235 -56v191q113 45 243 45z" />
    <glyph glyph-name="afii10096" unicode="&#x44e;" horiz-adv-x="1433" 
d="M899 705q-47 0 -91 -15.5t-79 -49.5t-56.5 -86t-21.5 -126t21.5 -126t56.5 -85t79 -48t91 -15t91 15t79 48t56.5 85t21.5 126t-21.5 126t-56.5 86t-79 49.5t-91 15.5zM888 885q202 0 333 -129t131 -325t-129 -327t-330 -131t-326 138q-92 98 -106 247h-133v-358h-201v862
h201v-319h137q21 120 113 215q47 47 125.5 87t184.5 40z" />
    <glyph glyph-name="afii10097" unicode="&#x44f;" horiz-adv-x="856" 
d="M528 690h-116q-70 0 -98 -15q-56 -31 -56 -89q0 -87 57.5 -96t94.5 -9h118v209zM161 392q-83 44 -83 182t80 210q55 53 119.5 65.5t130.5 12.5h321v-862h-201v317h-41l-235 -317h-236l271 342q-43 6 -126 50z" />
    <glyph glyph-name="afii10071" unicode="&#x451;" horiz-adv-x="987" 
d="M700 547q-18 106 -114 150q-33 15 -100 16t-124 -56q-45 -41 -61 -110h399zM219 768q117 117 289 117t277 -112q120 -128 120 -365v-25h-618q9 -110 69 -170q58 -59 148 -59q126 0 193 88q19 25 34 49l168 -94q-63 -106 -152 -164t-258 -59t-288 118t-119 326t137 350z
M578 1165q0 53 36 90t90 37t91 -37t37 -90t-38 -90q-36 -37 -89 -37t-91 37q-36 37 -36 90zM209 1165q0 53 37 90t90 37t90 -37t37 -90t-37 -90t-90 -37t-90 37t-37 90z" />
    <glyph glyph-name="afii10099" unicode="&#x452;" horiz-adv-x="995" 
d="M668 -123v551q0 104 -39 150q-39 45 -102 45q-109 0 -158 -72q-41 -55 -41 -217v-334h-201v1049h-147v155h147v289h201v-289h409v-155h-409v-342q96 96 214 96t174 -33.5t97 -83.5q41 -59 48 -125.5t7 -114.5v-622q0 -29 -12.5 -162t-177.5 -133t-219 18v181
q80 -32 140.5 -12.5t64.5 73t4 88.5z" />
    <glyph glyph-name="afii10100" unicode="&#x453;" horiz-adv-x="671" 
d="M127 862h528v-184h-327v-678h-201v862zM729 1288l-319 -295l-111 70l246 319z" />
    <glyph glyph-name="afii10101" unicode="&#x454;" horiz-adv-x="876" 
d="M700 526v-164h-399q7 -90 77 -149q69 -59 192 -59t225 94v-213q-96 -62 -277 -62t-313 131q-123 127 -123 326q0 209 133 333q78 73 160 97.5t198 24.5t222 -58v-213q-98 91 -240 91q-101 -1 -162 -51t-86 -128h393z" />
    <glyph glyph-name="afii10102" unicode="&#x455;" horiz-adv-x="737" 
d="M381 709q-39 -1 -59 -21t-21 -49q0 -29 22 -42t74 -40l103 -51q81 -37 119 -76q65 -68 65 -172t-83 -194q-83 -91 -234 -91q-112 0 -188 58t-109 155l163 78q20 -58 39 -75q43 -39 96 -39t83 28q29 29 29 67t-27 65q-26 27 -86 55l-74 34q-84 41 -119 74q-61 58 -61 145
q0 166 100.5 216.5t164.5 50.5q193 0 275 -152l-149 -98q-47 74 -123 74z" />
    <glyph glyph-name="afii10103" unicode="&#x456;" horiz-adv-x="454" 
d="M98 1218.5q0 55.5 37 92.5t92.5 37t92 -37t36.5 -92.5t-36.5 -92t-92 -36.5t-92.5 36.5t-37 92zM328 862v-862h-201v862h201z" />
    <glyph glyph-name="afii10104" unicode="&#x457;" horiz-adv-x="475" 
d="M115 1348q35 0 67.5 -32t32.5 -95.5t-32.5 -95t-67.5 -31.5t-68 31.5t-33 95t33 95.5t68 32zM360.5 1348q34.5 0 67.5 -32t33 -95.5t-33 -95t-67.5 -31.5t-67.5 31.5t-33 95t33 95.5t67.5 32zM338 862v-862h-201v862h201z" />
    <glyph glyph-name="afii10105" unicode="&#x458;" horiz-adv-x="454" 
d="M98 1218.5q0 55.5 37 92.5t92.5 37t92 -37t36.5 -92.5t-36.5 -92t-92 -36.5t-92.5 36.5t-37 92zM328 862v-1331h-201v1331h201z" />
    <glyph glyph-name="afii10106" unicode="&#x459;" horiz-adv-x="1327" 
d="M928 172q74 0 104 18q45 36 45 91t-37 79q-37 25 -110 25h-94v-213h92zM61 180q56 0 97 43q30 38 30 113v526h648v-305h114q128 0 180 -27.5t88 -67.5q60 -68 60 -163q0 -150 -78 -225q-57 -55 -121.5 -64.5t-130.5 -9.5h-313v678h-254v-342q0 -157 -82 -248
q-25 -27 -81 -59.5t-150 -32.5q-26 0 -52 4v184q20 -4 45 -4z" />
    <glyph glyph-name="afii10107" unicode="&#x45a;" horiz-adv-x="1376" 
d="M977 172q74 0 104 18q45 36 45 91t-37 79q-37 25 -110 25h-94v-213h92zM127 862h201v-305h356v305h201v-305h114q128 0 180 -27.5t88 -67.5q60 -67 60 -162q0 -151 -78 -226q-57 -55 -121.5 -64.5t-130.5 -9.5h-313v385h-356v-385h-201v862z" />
    <glyph glyph-name="afii10108" unicode="&#x45b;" horiz-adv-x="995" 
d="M328 707q96 96 214 96t174 -33.5t97 -83.5q41 -59 48 -125.5t7 -114.5v-446h-200v428q0 104 -39 150q-39 45 -102 45q-109 0 -158 -72q-41 -55 -41 -217v-334h-201v1049h-147v155h147v289h201v-289h409v-155h-409v-342z" />
    <glyph glyph-name="afii10109" unicode="&#x45c;" horiz-adv-x="905" 
d="M328 862v-307l286 307h267l-377 -377l397 -485h-254l-287 354l-32 -32v-322h-201v862h201zM793 1288l-320 -295l-111 70l246 319z" />
    <glyph glyph-name="afii10110" unicode="&#x45e;" horiz-adv-x="987" 
d="M381 135l-369 727h242l246 -504l250 504h225l-686 -1331h-226zM501 1149q130 0 171 133l164 -47q-35 -121 -140 -184q-90 -56 -190 -57q-99 -1 -200 61t-134 180l164 47q35 -133 165 -133z" />
    <glyph glyph-name="afii10193" unicode="&#x45f;" horiz-adv-x="995" 
d="M127 862h201v-678h340v678h200v-862h-278v-266h-184v266h-279v862z" />
    <glyph glyph-name="afii10146" unicode="&#x462;" horiz-adv-x="1212" 
d="M958 403q0 215 -270 215h-151v-421h147q154 0 214 60t60 146zM328 1030h-308v193h308v198h209v-198h368v-193h-368v-215h155q218 0 345 -112q126 -112 126 -295q0 -96 -42 -186.5t-122 -143.5t-160.5 -65.5t-144.5 -12.5h-366v1030z" />
    <glyph glyph-name="afii10194" unicode="&#x463;" horiz-adv-x="892" 
d="M494 172q74 0 104 18q45 36 45 90t-34 77q-34 24 -62.5 26t-50.5 2h-95v-213h93zM201 862v504h200v-504h246v-172h-246v-133h115q128 0 180 -27.5t88 -67.5q60 -68 60 -163q0 -150 -78 -225q-57 -55 -121.5 -64.5t-130.5 -9.5h-313v690h-185v172h185z" />
    <glyph glyph-name="afii10147" unicode="&#x472;" horiz-adv-x="1617" 
d="M809 1198q-201 0 -335 -119.5t-161 -294.5h992q-25 173 -160 293.5t-336 120.5zM1143 286.5q135 120.5 162 301.5h-992q24 -179 160.5 -300.5t335.5 -121.5t334 120.5zM809 1391q154 0 284 -54.5t225 -149.5t148.5 -226t53.5 -281t-53.5 -279t-148.5 -224t-225 -149.5
t-359.5 -54.5t-432.5 203t-203 506q0 150 53.5 280t148.5 225t225 149.5t284 54.5z" />
    <glyph glyph-name="afii10195" unicode="&#x473;" horiz-adv-x="1085" 
d="M542.5 705q-104.5 0 -167 -53.5t-80.5 -133.5h496q-18 80 -81 133.5t-167.5 53.5zM543 154q92 0 161.5 50t86.5 150h-496q16 -100 86 -150t162 -50zM1004 431q0 -195 -131.5 -326.5t-330.5 -131.5t-329.5 132t-130.5 326t131.5 324t329 130t329.5 -129.5t132 -324.5z" />
    <glyph glyph-name="afii10148" unicode="&#x474;" horiz-adv-x="1228" 
d="M233 1366l381 -952l381 952h226l-607 -1454l-606 1454h225z" />
    <glyph glyph-name="afii10196" unicode="&#x475;" horiz-adv-x="917" 
d="M238 862l221 -491l221 491h225l-446 -923l-447 923h226z" />
    <glyph glyph-name="afii10050" unicode="&#x490;" horiz-adv-x="876" 
d="M164 1366h487v307h197v-504h-475v-1169h-209v1366z" />
    <glyph glyph-name="afii10098" unicode="&#x491;" horiz-adv-x="671" 
d="M127 862h344v246h184v-430h-327v-678h-201v862z" />
    <glyph glyph-name="uni0492" unicode="&#x492;" horiz-adv-x="876" 
d="M164 659h-184v177h184v530h684v-197h-475v-333h307v-177h-307v-659h-209v659z" />
    <glyph glyph-name="uni0493" unicode="&#x493;" horiz-adv-x="671" 
d="M127 344h-147v164h147v354h528v-184h-327v-170h204v-164h-204v-344h-201v344z" />
    <glyph glyph-name="uni0494" unicode="&#x494;" horiz-adv-x="1196" 
d="M373 0h-209v1366h659v-197h-450v-381q150 48 251 48q359 0 416.5 -162t57.5 -251q0 -435 -436 -435q-45 0 -138 12v193q102 -22 178 -10t107 36q76 59 76 196t-109 195q-59 33 -160 33q-102 0 -243 -47v-596z" />
    <glyph glyph-name="uni0495" unicode="&#x495;" horiz-adv-x="901" 
d="M127 862h528v-184h-327v-195h61q290 0 360 -149.5t70 -263.5q0 -216 -157 -363q-124 -112 -293 -133v184q98 14 159 84q86 91 86 219q0 129 -65 186q-65 56 -178 56h-43v-303h-201v862z" />
    <glyph glyph-name="uni0496" unicode="&#x496;" horiz-adv-x="1753" 
d="M971 1366v-551l487 551h254l-563 -627l422 -542h153v-504h-196v307h-62l-462 602l-33 -37v-565h-209v565l-33 37l-463 -602h-258l576 739l-564 627h254l488 -551v551h209z" />
    <glyph glyph-name="uni0497" unicode="&#x497;" horiz-adv-x="1290" 
d="M739 862v-319l260 319h242l-334 -393l223 -285h144v-430h-184v246h-66l-260 346l-25 -29v-317h-200v317l-25 29l-260 -346h-250l367 469l-334 393h242l260 -319v319h200z" />
    <glyph glyph-name="uni0498" unicode="&#x498;" horiz-adv-x="1167" 
d="M567 1389q74 0 159 -19.5t159 -89.5q98 -96 98 -240q0 -102 -45 -170q-45 -76 -123 -118q113 -27 184 -121q70 -87 70 -232q0 -183 -137 -305q-99 -86 -230 -106v-328h-196v320q-160 10 -279 102q-25 18 -78 71.5t-96 149.5l185 94q38 -100 127 -166q90 -63 225 -63
q194 0 234 94t40 148q0 213 -327 213h-123v196h110q187 0 222.5 75t35.5 123q0 88 -65 138q-49 41 -152 41q-102 0 -161 -33q-58 -33 -85.5 -63.5t-37.5 -42.5l-138 133q149 199 424 199z" />
    <glyph glyph-name="uni0499" unicode="&#x499;" horiz-adv-x="901" 
d="M639 469q180 -41 180 -221q0 -147 -95 -200.5t-159 -61.5v-252h-184v248q-154 5 -216.5 77t-82.5 119l160 82q55 -123 204 -123q93 0 138 43q30 35 30 77t-26 70t-66.5 31.5t-77.5 3.5h-90v164h76q64 0 87 16t35.5 33t12.5 50q0 96 -124 96t-197 -82l-129 113
q113 133 334 133q131 0 220 -62t89 -182q0 -119 -119 -172z" />
    <glyph glyph-name="uni049A" unicode="&#x49a;" horiz-adv-x="1208" 
d="M373 1366v-545l528 545h275l-617 -618l457 -551h164v-504h-197v307h-82l-487 606l-41 -41v-565h-209v1366h209z" />
    <glyph glyph-name="uni049B" unicode="&#x49b;" horiz-adv-x="917" 
d="M328 862v-307l286 307h267l-377 -377l248 -301h149v-430h-184v246h-70l-287 354l-32 -32v-322h-201v862h201z" />
    <glyph glyph-name="uni049C" unicode="&#x49c;" horiz-adv-x="1392" 
d="M373 1366v-541h176v287h184v-287l393 541h246l-465 -618l465 -748h-246l-393 641v-307h-184v307h-176v-641h-209v1366h209z" />
    <glyph glyph-name="uni049D" unicode="&#x49d;" horiz-adv-x="1077" 
d="M328 862v-311h123v205h163v-217l234 323h225l-282 -381l282 -481h-225l-234 399v-237h-163v225h-123v-387h-201v862h201z" />
    <glyph glyph-name="uni04A0" unicode="&#x4a0;" horiz-adv-x="1433" 
d="M397 1169h-377v197h586v-545l529 545h274l-616 -618l620 -748h-278l-488 606l-41 -41v-565h-209v1169z" />
    <glyph glyph-name="uni04A1" unicode="&#x4a1;" horiz-adv-x="1044" 
d="M266 678h-250v184h451v-307l287 307h266l-377 -377l397 -485h-254l-286 354l-33 -32v-322h-201v678z" />
    <glyph glyph-name="uni04A2" unicode="&#x4a2;" horiz-adv-x="1372" 
d="M164 1366h209v-541h585v541h209v-1169h176v-504h-196v307h-189v629h-585v-629h-209v1366z" />
    <glyph glyph-name="uni04A3" unicode="&#x4a3;" horiz-adv-x="1044" 
d="M127 862h201v-319h356v319h201v-678h143v-430h-184v246h-160v358h-356v-358h-201v862z" />
    <glyph glyph-name="uni04A4" unicode="&#x4a4;" horiz-adv-x="1671" 
d="M164 1366h209v-541h585v541h684v-197h-475v-1169h-209v629h-585v-629h-209v1366z" />
    <glyph glyph-name="uni04A5" unicode="&#x4a5;" horiz-adv-x="1228" 
d="M127 862h201v-319h356v319h528v-184h-327v-678h-201v358h-356v-358h-201v862z" />
    <glyph glyph-name="uni04AA" unicode="&#x4aa;" horiz-adv-x="1269" 
d="M907 -340h-196v326q-224 18 -394 176q-219 201 -219 521t219 529q190 179 489 179q138 0 224 -31t146 -68v-245q-59 59 -151.5 105t-190.5 46q-144 0 -233.5 -38.5t-135.5 -86.5q-76 -72 -117 -178.5t-41 -218.5t39 -204t96 -154q140 -152 355 -152t379 158v-248
q-127 -76 -269 -94v-322z" />
    <glyph glyph-name="uni04AB" unicode="&#x4ab;" horiz-adv-x="860" 
d="M287 428q0 -127 78 -205q73 -69 182 -69q147 0 248 110v-223q-78 -51 -162 -57v-250h-184v246q-140 12 -244 120q-123 123 -123 324q0 203 129 332t348 129q125 0 236 -62v-225q-110 107 -244 107q-171 0 -217.5 -101.5t-46.5 -175.5z" />
    <glyph glyph-name="uni04AE" unicode="&#x4ae;" horiz-adv-x="1105" 
d="M657 0h-208v590l-449 776h238l315 -547l315 547h238l-449 -776v-590z" />
    <glyph glyph-name="uni04AF" unicode="&#x4af;" horiz-adv-x="917" 
d="M559 -469h-201v614l-346 717h226l221 -485l221 485h225l-346 -717v-614z" />
    <glyph glyph-name="uni04B0" unicode="&#x4b0;" horiz-adv-x="1105" 
d="M449 414h-390v176h390l-449 776h238l315 -547l315 547h238l-449 -776h390v-176h-390v-414h-208v414z" />
    <glyph glyph-name="uni04B1" unicode="&#x4b1;" horiz-adv-x="917" 
d="M559 41h266v-176h-266v-334h-201v334h-266v176h266v104l-346 717h226l221 -485l221 485h225l-346 -717v-104z" />
    <glyph glyph-name="uni04B2" unicode="&#x4b2;" horiz-adv-x="1167" 
d="M1139 197v-504h-197v307h-78l-299 522l-311 -522h-234l431 713l-377 653h233l266 -463l273 463h233l-393 -653l297 -516h156z" />
    <glyph glyph-name="uni04B3" unicode="&#x4b3;" horiz-adv-x="1019" 
d="M1004 184v-430h-185v246h-57l-248 322l-256 -322h-246l381 467l-307 395h238l190 -252l193 252h245l-317 -395l223 -283h146z" />
    <glyph glyph-name="uni04B6" unicode="&#x4b6;" horiz-adv-x="1282" 
d="M204.5 676.5q-71.5 129.5 -76.5 195.5t-5 91v403h209v-373q0 -105 22.5 -147.5t63.5 -74.5t177 -32t273 15v612h209v-1169h176v-504h-196v307h-189v561q-217 -14 -298 -14q-294 0 -365.5 129.5z" />
    <glyph glyph-name="uni04B7" unicode="&#x4b7;" horiz-adv-x="954" 
d="M432 315q-158 0 -242 64q-59 47 -71.5 105.5t-12.5 101.5v276h201v-235q0 -125 67.5 -132.5t110.5 -7.5t109 23v352h201v-678h143v-430h-184v246h-160v334q-97 -19 -162 -19z" />
    <glyph glyph-name="uni04B8" unicode="&#x4b8;" horiz-adv-x="1310" 
d="M737 549v-283h-184v283q-109 0 -230.5 48.5t-160.5 158.5t-39 207v403h209v-373q0 -108 44.5 -175.5t176.5 -76.5v303h184v-303q102 0 201 13v612h209v-1366h-209v561q-98 -12 -201 -12z" />
    <glyph glyph-name="uni04B9" unicode="&#x4b9;" horiz-adv-x="1085" 
d="M618 133h-163v180q-225 0 -287 87t-62 186v276h201v-235q0 -133 148 -133v233h163v-233q70 0 140 16v352h200v-862h-200v330q-79 -14 -140 -17v-180z" />
    <glyph glyph-name="uni04BA" unicode="&#x4ba;" horiz-adv-x="1241" 
d="M976 762q142 -109 142 -338v-424h-209v393q0 107 -23.5 148t-62.5 73t-178 33q-139 0 -272 -14v-633h-209v1366h209v-541q127 15 253 15q249 0 350 -78z" />
    <glyph glyph-name="uni04BB" unicode="&#x4bb;" horiz-adv-x="995" 
d="M328 788q97 97 215 97t173.5 -33.5t96.5 -83.5q41 -59 48 -126t7 -114v-528h-200v510q0 104 -40 150q-40 45 -101 45q-108 0 -158 -72q-41 -55 -41 -217v-416h-201v1493h201v-705z" />
    <glyph glyph-name="uni04C0" unicode="&#x4c0;" horiz-adv-x="536" 
d="M373 1366v-1366h-209v1366h209z" />
    <glyph glyph-name="uni04C1" unicode="&#x4c1;" horiz-adv-x="1732" 
d="M971 1366v-551l487 551h254l-563 -627l575 -739h-258l-462 602l-33 -37v-565h-209v565l-33 37l-463 -602h-258l576 739l-564 627h254l488 -551v551h209zM727 1712q58 -49 136 -49q79 0 134 49q27 23 39 66l164 -74q-51 -120 -156 -168q-84 -41 -182 -41q-163 0 -270 104
q-41 41 -68 105l164 74q12 -43 39 -66z" />
    <glyph glyph-name="uni04C2" unicode="&#x4c2;" horiz-adv-x="1277" 
d="M739 862v-319l260 319h242l-334 -393l367 -469h-250l-260 346l-25 -29v-317h-200v317l-25 29l-260 -346h-250l367 469l-334 393h242l260 -319v319h200zM632 1149q130 0 171 133l164 -47q-35 -121 -140 -184q-90 -56 -190 -57q-99 -1 -200 61t-134 180l164 47
q35 -133 165 -133z" />
    <glyph glyph-name="uni04C3" unicode="&#x4c3;" horiz-adv-x="1261" 
d="M545 639q-78 0 -172 -23v-616h-209v1366h209v-561l528 561h275l-547 -549q98 0 206.5 -38t172.5 -101t91 -120.5t45.5 -129.5t18.5 -151q0 -155 -45.5 -362.5t-207.5 -225t-237 -17.5t-177 43l49 191q85 -41 144 -41t99.5 12t72.5 44q93 93 93 305q0 206 -109 319
q-58 60 -140 77t-160 17z" />
    <glyph glyph-name="uni04C4" unicode="&#x4c4;" horiz-adv-x="901" 
d="M328 862v-307l286 307h267l-389 -393q215 -24 271 -159.5t56 -253.5t-49 -207t-102 -136q-131 -116 -299 -139v184q98 14 159 84q86 91 86 214t-59 186q-61 61 -188 61h-39v-303h-201v862h201z" />
    <glyph glyph-name="uni04C7" unicode="&#x4c7;" horiz-adv-x="1331" 
d="M834 -283q116 0 120 66.5t4 101.5v744h-585v-629h-209v1366h209v-541h585v541h209v-1542q0 -295 -282 -295q-74 0 -135 18v189q47 -19 84 -19z" />
    <glyph glyph-name="uni04C8" unicode="&#x4c8;" horiz-adv-x="1011" 
d="M674 -471q-145 0 -199 18v181q80 -32 141 -12.5t64.5 73t3.5 88.5v481h-356v-358h-201v862h201v-319h356v319h201v-1038q0 -74 -33 -184.5t-178 -110.5z" />
    <glyph glyph-name="uni04D0" unicode="&#x4d0;" horiz-adv-x="1343" 
d="M883 526l-203 463l-211 -463h414zM967 330h-584l-150 -330h-225l680 1446l647 -1446h-225zM1018 1704q-90 -209 -339 -209q-40 0 -87 9q-180 35 -250 200l164 74q32 -115 192 -115q61 0 117 49q27 23 39 66z" />
    <glyph glyph-name="uni04D1" unicode="&#x4d1;" horiz-adv-x="1085" 
d="M523 705q-103 0 -170 -80q-66 -80 -66 -195q0 -114 66 -196t170 -81q103 1 175 73t72 204q0 133 -72 204t-175 71zM758 90q-99 -117 -258 -117q-193 0 -305 137q-113 137 -113 331q0 195 122 319q122 125 288 125q165 0 266 -123v100h200v-862h-200v90zM509 1149
q130 0 171 133l164 -47q-34 -120 -132 -180q-97 -60 -197 -61t-200 60t-135 181l164 47q35 -133 165 -133z" />
    <glyph glyph-name="uni04D2" unicode="&#x4d2;" horiz-adv-x="1343" 
d="M883 526l-203 463l-211 -463h414zM967 330h-584l-150 -330h-225l680 1446l647 -1446h-225zM754 1628q0 53 37 90t90 37t90 -37t37 -90t-37 -90t-90 -37t-90 37t-37 90zM352 1628q0 53 37 90t90 37t90 -37t37 -90t-37 -90t-90 -37t-90 37t-37 90z" />
    <glyph glyph-name="uni04D3" unicode="&#x4d3;" horiz-adv-x="1085" 
d="M523 705q-103 0 -170 -80q-66 -80 -66 -195q0 -114 66 -196t170 -81q103 1 175 73t72 204q0 133 -72 204t-175 71zM758 90q-99 -117 -258 -117q-193 0 -305 137q-113 137 -113 331q0 195 122 319q122 125 288 125q165 0 266 -123v100h200v-862h-200v90zM569 1165
q0 53 37 90t90 37t90 -37t37 -90t-37 -90t-90 -37t-90 37t-37 90zM201 1165q0 53 37 90t90 37t90 -37t37 -90t-37 -90t-90 -37t-90 37t-37 90z" />
    <glyph glyph-name="uni04D4" unicode="&#x4d4;" horiz-adv-x="1896" 
d="M893 522l-195 445l-211 -445h406zM1876 0h-758l-143 326h-580l-149 -326h-226l656 1366h604l86 -197h-543l144 -325h528l86 -197h-528l194 -450h543z" />
    <glyph glyph-name="uni04D5" unicode="&#x4d5;" horiz-adv-x="1548" 
d="M1262 547q-12 72 -65 119t-144 47q-92 0 -136.5 -61.5t-54.5 -104.5h400zM470 383q-116 1 -156 -37q-40 -37 -40 -82q0 -72 61.5 -95.5t124.5 -23.5t120 33q55 36 55 90t-68 90q-45 24 -97 25zM408 885q214 0 268.5 -47t77.5 -76q48 61 118 88q72 35 164 35
q93 0 168.5 -22.5t129.5 -78.5q87 -90 109.5 -184.5t22.5 -191.5v-25h-618q9 -109 69 -169t158 -60q140 0 217 137l168 -94q-133 -224 -403 -224q-206 0 -303 140q-105 -122 -201.5 -131t-144.5 -9q-145 0 -236 88q-90 88 -90 206q0 119 89 203q89 85 255 85q119 0 221 -57
q0 207 -233 207q-96 0 -211 -33v186q124 27 205 27z" />
    <glyph glyph-name="uni04D6" unicode="&#x4d6;" 
d="M918 1169h-545v-346h528v-196h-528v-430h545v-197h-754v1366h754v-197zM881 1704q-90 -209 -339 -209q-163 0 -270 104q-41 41 -67 105l164 74q20 -70 93 -100q38 -15 63 -15q24 0 65 3t78 36t49 76z" />
    <glyph glyph-name="uni04D7" unicode="&#x4d7;" horiz-adv-x="987" 
d="M700 547q-18 106 -114 150q-33 15 -100 16t-124 -56q-45 -41 -61 -110h399zM219 768q117 117 289 117t277 -112q120 -128 120 -365v-25h-618q9 -110 69 -170q58 -59 148 -59q126 0 193 88q19 25 34 49l168 -94q-63 -106 -152 -164t-258 -59t-288 118t-119 326t137 350z
M493 1149q130 0 171 133l163 -47q-35 -122 -132 -181t-198 -60q-100 -1 -200 61t-133 180l164 47q35 -133 165 -133z" />
    <glyph glyph-name="uni04D8" unicode="&#x4d8;" horiz-adv-x="1531" 
d="M765 166q93 0 241.5 73.5t199.5 299.5h-884q16 -170 109.5 -252t167 -101.5t166.5 -19.5zM723 1391q314 0 516 -209q195 -209 195 -504t-204 -500t-495 -205q-327 0 -508 254q-82 117 -105.5 229.5t-23.5 211.5v63h1125q-16 210 -159.5 338.5t-340.5 128.5
q-252 0 -418 -219l-147 135q124 162 275 219.5t290 57.5z" />
    <glyph glyph-name="afii10846" unicode="&#x4d9;" horiz-adv-x="999" 
d="M509 145q105 0 143 73t42 114h-399q10 -92 59 -140q50 -47 155 -47zM90 659q110 226 413 226q165 0 286 -112q52 -48 90.5 -138t38.5 -209q0 -214 -132 -344q-114 -109 -287 -109t-280 103q-59 59 -98 154.5t-39 213.5v52h627q-9 103 -72 155q-58 54 -147 54
q-88 0 -142 -33q-35 -18 -76 -74z" />
    <glyph glyph-name="uni04DA" unicode="&#x4da;" horiz-adv-x="1531" 
d="M412 311q116 -145 353 -145q93 0 184 45q206 102 257 328h-884q12 -131 90 -228zM723 1391q314 0 516 -209q105 -113 149 -237t45 -267q3 -294 -201 -498q-204 -205 -497 -207q-327 0 -508 254q-82 117 -105 230q-24 113 -24 211v63h1125q-16 210 -160 339
q-144 128 -340 128q-252 0 -418 -219l-147 135q124 161 326 239q99 38 239 38zM840 1628q0 53 37 90t90 37t90 -37t37 -90t-37 -90t-90 -37t-90 37t-37 90zM438 1628q0 53 37 90t90 37t90 -37t37 -90t-37 -90t-90 -37t-90 37t-37 90z" />
    <glyph glyph-name="uni04DB" unicode="&#x4db;" horiz-adv-x="999" 
d="M295 332q10 -94 61 -139q46 -46 117 -47q72 0 105 16q60 30 94 94q18 35 22 76h-399zM918 426q0 -214 -132 -344q-114 -109 -290 -109q-269 0 -375 257q-39 95 -39 214v52h627q-4 47 -24 89q-53 117 -208 120q-77 0 -129 -33q-35 -18 -76 -74l-182 61q52 107 150 165
t239 61q191 0 311 -112q52 -48 90 -138t38 -209zM559 1165q0 53 37 90t90 37t90 -37t37 -90t-37 -90t-90 -37t-90 37t-37 90zM190 1165q0 53 37 90t90 37t91 -37t36 -90q0 -53 -36 -90t-90 -37t-91 37t-37 90z" />
    <glyph glyph-name="uni04DC" unicode="&#x4dc;" horiz-adv-x="1732" 
d="M971 1366v-551l487 551h254l-563 -627l575 -739h-258l-462 602l-33 -37v-565h-209v565l-33 37l-463 -602h-258l576 739l-564 627h254l488 -551v551h209zM940 1628q0 53 37 90t90 37t90 -37t37 -90t-37 -90t-90 -37t-90 37t-37 90zM539 1628q0 53 36 90q37 37 91 37
t90 -37q37 -37 37 -90t-37 -90t-90 -37t-91 37q-36 37 -36 90z" />
    <glyph glyph-name="uni04DD" unicode="&#x4dd;" horiz-adv-x="1277" 
d="M739 862v-319l260 319h242l-334 -393l367 -469h-250l-260 346l-25 -29v-317h-200v317l-25 29l-260 -346h-250l367 469l-334 393h242l260 -319v319h200zM696 1165q0 53 37 90t90 37t90 -37t37 -90t-37 -90t-90 -37t-90 37t-37 90zM328 1165q0 53 37 90t90 37t90 -37
t37 -90t-37 -90t-90 -37t-90 37t-37 90z" />
    <glyph glyph-name="uni04DE" unicode="&#x4de;" horiz-adv-x="1167" 
d="M864 408q0 214 -327 215h-123v196h110q187 0 241 114q17 36 17 84q0 90 -65 138q-49 41 -158 41q-174 0 -278 -139l-138 133q76 102 176 147q98 50 210 51q112 2 197 -18t159 -90q98 -96 98 -240q0 -102 -45 -170q-45 -76 -123 -118q111 -27 182 -117q72 -91 72 -236
q0 -181 -137 -305q-138 -119 -350 -119q-211 0 -355 107q-109 86 -174 221l185 94q38 -100 127 -166q90 -63 225 -63q194 0 256 145q18 43 18 95zM647 1628q0 53 37 90t90 37t90 -37t37 -90t-37 -90t-90 -37t-90 37t-37 90zM246 1628q0 53 37 90t90 37t90 -37t37 -90
t-37 -90t-90 -37t-90 37t-37 90z" />
    <glyph glyph-name="uni04DF" unicode="&#x4df;" horiz-adv-x="901" 
d="M449 885q131 0 219 -61t90 -175q0 -72 -28 -109t-51 -50q-22 -13 -40 -21q80 -18 120 -58q60 -60 60 -163t-74 -176q-98 -98 -303 -99q-136 0 -228 56t-132 149l160 82q55 -123 204 -123q95 0 138 43q30 35 30 77t-26 70q-26 27 -67 31q-40 4 -77 4h-90v164h76
q66 0 88 16t35 33q12 16 12 50q0 96 -123 96t-198 -82l-129 113q113 133 334 133zM530 1165q0 53 37 90t90 37t91 -37t36 -90q0 -53 -36 -90t-90 -37t-91 37t-37 90zM162 1165q0 53 37 90t90 37t90 -37t37 -90t-37 -90t-90 -37t-90 37t-37 90z" />
    <glyph glyph-name="uni04E2" unicode="&#x4e2;" horiz-adv-x="1458" 
d="M164 1366h209v-924l921 981v-1423h-209v920l-921 -981v1427zM377 1665h737v-164h-737v164z" />
    <glyph glyph-name="uni04E3" unicode="&#x4e3;" horiz-adv-x="1044" 
d="M328 862v-489l590 567v-940h-201v502l-590 -568v928h201zM184 1200h676v-160h-676v160z" />
    <glyph glyph-name="uni04E4" unicode="&#x4e4;" horiz-adv-x="1458" 
d="M164 1366h209v-924l921 981v-1423h-209v920l-921 -981v1427zM819 1628q0 53 37 90t90 37t90 -37t37 -90t-37 -90t-90 -37t-90 37t-37 90zM418 1628q0 53 37 90t90 37t90 -37t37 -90t-37 -90t-90 -37t-90 37t-37 90z" />
    <glyph glyph-name="uni04E5" unicode="&#x4e5;" horiz-adv-x="1044" 
d="M328 862v-489l590 567v-940h-201v502l-590 -568v928h201zM580 1165q0 53 36 90t90 37t91 -37t37 -90t-37 -90t-90 -37t-91 37q-36 37 -36 90zM211 1165q0 53 37 90t90 37t90 -37t37 -90t-37 -90t-90 -37t-90 37t-37 90z" />
    <glyph glyph-name="uni04E6" unicode="&#x4e6;" horiz-adv-x="1617" 
d="M1311 682q0 227 -140 371q-140 145 -361 145t-363 -144q-140 -144 -140 -371t140 -372t362 -145t362 145q140 144 140 371zM809 1391q154 -1 284 -55t225 -149t148 -225q54 -130 54 -281q1 -302 -202 -504q-202 -202 -508 -203t-508 201t-204 507q0 150 54 280
q108 264 373 374q130 55 284 55zM883 1628q0 53 37 90t90 37t90 -37t37 -90t-37 -90t-90 -37t-90 37t-37 90zM481 1628q0 53 37 90t90 37t90 -37t37 -90t-37 -90t-90 -37t-90 37t-37 90z" />
    <glyph glyph-name="uni04E7" unicode="&#x4e7;" horiz-adv-x="1085" 
d="M543 154q119 0 187 74t69 204q0 129 -74 200t-182 73q-167 0 -234 -151q-23 -52 -22 -126q0 -125 68 -200q69 -74 188 -74zM543 885q98 0 182 -34q168 -68 243 -238q36 -83 36 -182q0 -195 -132 -327t-330 -131q-198 0 -329 131q-131 132 -131 326t132 324
q131 130 329 131zM600 1165q0 53 37 90t90 37t90 -37t37 -90t-37 -90t-90 -37t-90 37t-37 90zM231 1165q0 53 37 90t90 37q52 0 90 -37t38 -90t-38 -90q-36 -37 -90 -37t-90 37q-37 37 -37 90z" />
    <glyph glyph-name="uni04E8" unicode="&#x4e8;" horiz-adv-x="1617" 
d="M809 1198q-201 0 -335 -119.5t-161 -294.5h992q-25 173 -160 293.5t-336 120.5zM1143 286.5q135 120.5 162 301.5h-992q24 -179 160.5 -300.5t335.5 -121.5t334 120.5zM809 1391q154 0 284 -54.5t225 -149.5t148.5 -226t53.5 -281t-53.5 -279t-148.5 -224t-225 -149.5
t-359.5 -54.5t-432.5 203t-203 506q0 150 53.5 280t148.5 225t225 149.5t284 54.5z" />
    <glyph glyph-name="uni04E9" unicode="&#x4e9;" horiz-adv-x="1085" 
d="M542.5 705q-104.5 0 -167 -53.5t-80.5 -133.5h496q-18 80 -81 133.5t-167.5 53.5zM543 154q92 0 161.5 50t86.5 150h-496q16 -100 86 -150t162 -50zM1004 431q0 -195 -131.5 -326.5t-330.5 -131.5t-329.5 132t-130.5 326t131.5 324t329 130t329.5 -129.5t132 -324.5z" />
    <glyph glyph-name="uni04EA" unicode="&#x4ea;" horiz-adv-x="1617" 
d="M809 1198q-102 0 -188 -33q-174 -67 -255 -222q-40 -75 -53 -159h992q-25 173 -161 294q-136 120 -335 120zM1305 588h-992q24 -179 162 -301q137 -121 334 -121t333 119q136 120 163 303zM809 1391q154 -1 284 -55t225 -149t148 -225q54 -130 54 -281q1 -302 -202 -504
q-202 -202 -508 -203t-508 201t-204 507q0 150 54 280q108 264 373 374q130 55 284 55zM883 1628q0 53 37 90t90 37t90 -37t37 -90t-37 -90t-90 -37t-90 37t-37 90zM481 1628q0 53 37 90t90 37t90 -37t37 -90t-37 -90t-90 -37t-90 37t-37 90z" />
    <glyph glyph-name="uni04EB" unicode="&#x4eb;" horiz-adv-x="1085" 
d="M791 518q-19 80 -81 133t-166 53t-168 -52q-62 -54 -81 -134h496zM543 154q92 0 162 50t86 150h-496q16 -100 86 -150t162 -50zM543 885q98 0 182 -34q168 -68 243 -238q36 -83 36 -182q0 -195 -132 -327t-330 -131q-198 0 -329 131q-131 132 -131 326t132 324
q131 130 329 131zM600 1165q0 53 37 90t90 37t90 -37t37 -90t-37 -90t-90 -37t-90 37t-37 90zM231 1165q0 53 37 90t90 37q52 0 90 -37t38 -90t-38 -90q-36 -37 -90 -37t-90 37q-37 37 -37 90z" />
    <glyph glyph-name="uni04EE" unicode="&#x4ee;" horiz-adv-x="1167" 
d="M266 1366l352 -729l320 729h217l-616 -1366h-217l176 387l-486 979h254zM233 1665h738v-164h-738v164z" />
    <glyph glyph-name="uni04EF" unicode="&#x4ef;" horiz-adv-x="987" 
d="M381 135l-369 727h242l246 -504l250 504h225l-686 -1331h-226zM158 1200h676v-160h-676v160z" />
    <glyph glyph-name="uni04F0" unicode="&#x4f0;" horiz-adv-x="1167" 
d="M266 1366l352 -729l320 729h217l-616 -1366h-217l176 387l-486 979h254zM676 1628q0 53 37 90t90 37t90 -37t37 -90t-37 -90t-90 -37t-90 37t-37 90zM274 1628q0 53 37 90t90 37t91 -37t36 -90q0 -53 -36 -90t-90 -37t-91 37t-37 90z" />
    <glyph glyph-name="uni04F1" unicode="&#x4f1;" horiz-adv-x="987" 
d="M381 135l-369 727h242l246 -504l250 504h225l-686 -1331h-226zM553 1165q0 53 37 90t90 37t90 -37t37 -90t-37 -90t-90 -37t-90 37t-37 90zM184 1165q0 53 37 90t90 37t90 -37t37 -90t-37 -90t-90 -37t-90 37t-37 90z" />
    <glyph glyph-name="uni04F2" unicode="&#x4f2;" horiz-adv-x="1167" 
d="M266 1366l352 -729l320 729h217l-616 -1366h-217l176 387l-486 979h254zM1135 1749l-320 -260l-90 74l250 292zM725 1749l-319 -260l-91 74l250 292z" />
    <glyph glyph-name="uni04F3" unicode="&#x4f3;" horiz-adv-x="987" 
d="M381 135l-369 727h242l246 -504l250 504h225l-686 -1331h-226zM995 1288l-299 -295l-86 70l217 319zM627 1288l-299 -295l-86 70l217 319z" />
    <glyph glyph-name="uni04F4" unicode="&#x4f4;" horiz-adv-x="1241" 
d="M603 547q-48 0 -91 2q-300 14 -370 261q-19 67 -19 153v403h209v-373q0 -103 22 -147t52 -64q35 -29 90 -36t155 -7t217 15v612h209v-1366h-209v561q-217 -14 -265 -14zM694 1628q0 53 37 90t90 37t90 -37t37 -90t-37 -90t-90 -37t-90 37t-37 90zM293 1628q0 53 37 90
t90 37t90 -37t37 -90t-37 -90t-90 -37t-90 37t-37 90z" />
    <glyph glyph-name="uni04F5" unicode="&#x4f5;" horiz-adv-x="921" 
d="M432 315q-158 0 -242 64q-59 47 -71 105t-13 102v276h201v-235q0 -123 105 -137q31 -3 73 -3t109 23v352h201v-862h-201v334q-97 -19 -162 -19zM520 1165q0 53 37 90t90 37t90 -37t37 -90t-37 -90t-90 -37t-90 37t-37 90zM152 1165q0 53 36 90t90 37t91 -37t37 -90
t-37 -90t-90 -37t-91 37q-36 37 -36 90z" />
    <glyph glyph-name="uni04F8" unicode="&#x4f8;" horiz-adv-x="1515" 
d="M1352 1366v-1366h-209v1366h209zM373 197h147q98 0 152 22q123 51 123 191t-136 189q-53 19 -135 19h-151v-421zM164 1366h209v-551h155q328 0 437 -237q35 -78 35 -172t-43 -184q-42 -90 -122 -144q-81 -54 -161 -66t-144 -12h-366v1366zM821 1628q0 53 37 90t90 37
t90 -37t37 -90t-37 -90t-90 -37t-90 37t-37 90zM420 1628q0 53 37 90t90 37t90 -37t37 -90t-37 -90t-90 -37t-90 37t-37 90z" />
    <glyph glyph-name="uni04F9" unicode="&#x4f9;" horiz-adv-x="1187" 
d="M860 862h201v-862h-201v862zM420 172q74 0 94 13t38 33t17 68q0 49 -34 72q-35 23 -63 25t-50 2h-94v-213h92zM127 862h201v-305h114q185 0 260 -88q68 -74 68 -169q0 -145 -78 -226q-57 -54 -122 -64t-130 -10h-313v862zM662 1165q0 53 36 90q37 37 90 37q52 0 90 -37
t38 -90t-38 -90q-36 -37 -90 -37t-90 37t-36 90zM293 1165q0 53 37 90t90 37t90 -37t37 -90t-37 -90t-90 -37t-90 37t-37 90z" />
    <glyph glyph-name="uni1E9E" unicode="&#x1e9e;" horiz-adv-x="1161" 
d="M373 995v-995h-209v983q0 186 141 309q118 99 277 99q241 0 320 -132.5t83 -224.5l-237 -235q140 -34 225 -123q90 -99 90 -271t-164 -303q-84 -66 -172 -92t-180 -39v197q137 6 224 77t87 188q0 116 -94 179q-75 53 -217 64v123l217 233q-22 170 -195 170
q-84 0 -140 -56t-56 -151z" />
    <glyph glyph-name="uni2010" unicode="&#x2010;" horiz-adv-x="696" 
d="M102 541h492v-209h-492v209z" />
    <glyph glyph-name="uni2011" unicode="&#x2011;" horiz-adv-x="696" 
d="M102 541h492v-209h-492v209z" />
    <glyph glyph-name="figuredash" unicode="&#x2012;" horiz-adv-x="1269" 
d="M143 786h983v-184h-983v184z" />
    <glyph glyph-name="endash" unicode="&#x2013;" horiz-adv-x="1269" 
d="M143 528h983v-184h-983v184z" />
    <glyph glyph-name="emdash" unicode="&#x2014;" horiz-adv-x="1720" 
d="M143 528h1434v-184h-1434v184z" />
    <glyph glyph-name="afii00208" unicode="&#x2015;" horiz-adv-x="1720" 
d="M143 528h1434v-184h-1434v184z" />
    <glyph glyph-name="quoteleft" unicode="&#x2018;" horiz-adv-x="593" 
d="M283 846l-181 69l254 506l136 -55z" />
    <glyph glyph-name="quoteright" unicode="&#x2019;" horiz-adv-x="593" 
d="M311 1436l181 -70l-254 -506l-136 55z" />
    <glyph glyph-name="quotesinglbase" unicode="&#x201a;" horiz-adv-x="696" 
d="M311 256l181 -70l-254 -505l-136 55z" />
    <glyph glyph-name="quotedblleft" unicode="&#x201c;" horiz-adv-x="946" 
d="M279 846l-177 69l252 506l133 -55zM635 846l-176 69l252 506l133 -55z" />
    <glyph glyph-name="quotedblright" unicode="&#x201d;" horiz-adv-x="946" 
d="M668 1436l176 -70l-252 -506l-133 55zM311 1436l176 -70l-251 -506l-134 55z" />
    <glyph glyph-name="quotedblbase" unicode="&#x201e;" horiz-adv-x="1048" 
d="M668 256l176 -70l-252 -505l-133 55zM311 256l176 -70l-251 -505l-134 55z" />
    <glyph glyph-name="dagger" unicode="&#x2020;" horiz-adv-x="1163" 
d="M481 1493h201v-436h283v-193h-283v-1226h-201v1226h-282v193h282v436z" />
    <glyph glyph-name="daggerdbl" unicode="&#x2021;" horiz-adv-x="1163" 
d="M481 1493h201v-436h283v-193h-283v-514h283v-192h-283v-520h-201v520h-282v192h282v514h-282v193h282v436z" />
    <glyph glyph-name="bullet" unicode="&#x2022;" horiz-adv-x="2048" 
d="M737 696.5q0 59.5 22.5 111.5t61.5 91t91.5 61.5t111.5 22.5t111.5 -22.5t91.5 -61.5t61.5 -91t22.5 -111.5t-22.5 -112t-61.5 -91t-91.5 -61t-111.5 -22.5t-111.5 22.5t-91.5 61t-61.5 91t-22.5 112z" />
    <glyph glyph-name="ellipsis" unicode="&#x2026;" horiz-adv-x="1638" 
d="M1229 98.5q0 51.5 35.5 87t87 35.5t87.5 -35.5t36 -87t-36 -87.5t-87.5 -36t-87 36t-35.5 87.5zM696 98.5q0 51.5 36 87t87 35.5t87 -35.5t36 -87t-36 -87.5t-87 -36t-87 36t-36 87.5zM164 98.5q0 51.5 36 87t87 35.5t87 -35.5t36 -87t-36 -87.5t-87 -36t-87 36t-36 87.5
z" />
    <glyph glyph-name="perthousand" unicode="&#x2030;" horiz-adv-x="2457" 
d="M2060 133q43 0 75 16.5t53.5 41t31.5 55t10 61.5t-10 61.5t-31.5 55.5t-53.5 41t-75 16t-74.5 -16t-53 -41t-32 -55.5t-10.5 -61.5t10.5 -61.5t32 -55t53 -41t74.5 -16.5zM2060.5 629q67.5 0 128 -25.5t104.5 -70t70.5 -102.5t26.5 -123.5t-25.5 -124t-70.5 -102.5
t-105.5 -69.5t-128 -25.5t-128 25.5t-105.5 69.5t-70.5 102.5t-25.5 124t26.5 123.5t70.5 102.5t104.5 70t128 25.5zM1262 133q43 0 74.5 16.5t53 41t32 55t10.5 61.5t-10.5 61.5t-32 55.5t-53 41t-74.5 16t-75 -16t-53.5 -41t-31.5 -55.5t-10 -61.5t10 -61.5t31.5 -55
t53.5 -41t75 -16.5zM1261.5 629q67.5 0 128 -25.5t104.5 -70t70.5 -102.5t26.5 -123.5t-25.5 -124t-70.5 -102.5t-105.5 -69.5t-128 -25.5t-128 25.5t-105.5 69.5t-70.5 102.5t-25.5 124t26.5 123.5t70.5 102.5t104.5 70t128 25.5zM1171 1389l97 -56l-781 -1356l-96 60z
M397 883q43 0 75 16t53.5 41t31.5 55.5t10 61t-10 61.5t-31.5 55.5t-53.5 41t-75 16.5t-74.5 -16.5t-53 -41t-32 -55.5t-10.5 -61.5t10.5 -61t32 -55.5t53 -41t74.5 -16zM397.5 1378q67.5 0 128 -25.5t104.5 -69.5t70.5 -102.5t26.5 -124t-25.5 -124t-70.5 -102.5
t-105.5 -69.5t-128 -25.5t-128 25.5t-105.5 69.5t-70.5 102.5t-25.5 124t26.5 124t70.5 102.5t104.5 69.5t128 25.5z" />
    <glyph glyph-name="guilsinglleft" unicode="&#x2039;" horiz-adv-x="657" 
d="M547 111l-133 -97l-332 435l332 434l133 -97l-260 -337z" />
    <glyph glyph-name="guilsinglright" unicode="&#x203a;" horiz-adv-x="657" 
d="M111 786l133 97l331 -434l-331 -435l-133 97l260 338z" />
    <glyph glyph-name="fraction" unicode="&#x2044;" horiz-adv-x="471" 
d="M578 1389l98 -58l-782 -1354l-99 58z" />
    <glyph glyph-name="uni2070" unicode="&#x2070;" horiz-adv-x="757" 
d="M379 1245q-63 0 -103 -54q-62 -83 -63 -234q0 -151 51 -220q50 -69 114 -69t104 54q63 85 63 236q1 151 -51 219t-115 68zM379 532q-192 0 -281 225q-32 83 -32 199q1 212 112 334q83 90 201 90q194 0 280 -224q33 -83 33 -200q0 -209 -112 -333q-84 -91 -201 -91z" />
    <glyph glyph-name="uni2074" unicode="&#x2074;" horiz-adv-x="757" 
d="M457 829v211l-160 -211h160zM604 838h88v-136h-88v-155h-147v155h-428l575 725v-589z" />
    <glyph glyph-name="uni2075" unicode="&#x2075;" horiz-adv-x="757" 
d="M323 985q-91 0 -149 -70h-55l135 451h358v-135h-258l-35 -125q9 2 19 2h20q180 0 263 -140q31 -52 31 -127q-1 -142 -92 -225q-91 -84 -232 -84q-188 0 -287 175l115 79q47 -118 174 -118q86 0 130 47t44 115t-45 111q-45 44 -136 44z" />
    <glyph glyph-name="uni2076" unicode="&#x2076;" horiz-adv-x="757" 
d="M380 936q-64 0 -108 -37t-43 -97q0 -60 42 -100t108 -38q65 0 107 38t42 98t-42 98t-106 38zM395 1067h19q173 0 238 -136q24 -49 24 -113q0 -127 -83 -206q-83 -80 -219 -80t-214 80t-78 171q0 92 26 145t42 78l284 409l125 -88l-182 -262q10 2 18 2z" />
    <glyph glyph-name="uni2077" unicode="&#x2077;" horiz-adv-x="757" 
d="M74 1231v135h651l-516 -848l-139 62l397 651h-393z" />
    <glyph glyph-name="uni2078" unicode="&#x2078;" horiz-adv-x="757" 
d="M379 905q-65 0 -99 -37t-34 -82t32 -84q32 -38 102 -38t100 38q32 38 32 84q0 45 -34 82t-99 37zM379 1249q-59 0 -89 -34q-30 -35 -30 -73t29 -72t89 -34t90 33t30 73t-30 74t-89 33zM98 780q0 140 113 193q-90 63 -90 166t69 172q68 69 188 69t190 -70t69 -172
q0 -102 -90 -165q112 -54 112 -193q0 -111 -80 -179q-80 -67 -199 -68q-120 -1 -201 67q-81 69 -81 180z" />
    <glyph glyph-name="uni2079" unicode="&#x2079;" horiz-adv-x="757" 
d="M378 977q64 0 107 37t43 97t-42 99t-108 39t-107 -39q-42 -39 -42 -98t43 -97q42 -38 106 -38zM364 846h-18q-104 0 -185 66t-80 186q1 121 85 203q84 81 219 80q136 -1 212 -79t78 -188q1 -110 -67 -207l-284 -409l-125 88l182 262q-10 -2 -17 -2z" />
    <glyph glyph-name="uni2080" unicode="&#x2080;" horiz-adv-x="757" 
d="M378.5 698q-63.5 0 -103.5 -54q-62 -84 -62 -233.5t51 -219.5t114.5 -70t103.5 54q63 85 63.5 234.5t-51.5 219.5q-52 69 -115.5 69zM66 457q0 164 112 286q84 91 201 91t201 -91q112 -122 112 -333.5t-112 -333.5q-83 -90 -238.5 -90t-215.5 153.5t-60 317.5z" />
    <glyph glyph-name="uni2081" unicode="&#x2081;" horiz-adv-x="757" 
d="M332 684h-160l86 135h225v-819h-151v684z" />
    <glyph glyph-name="uni2082" unicode="&#x2082;" horiz-adv-x="757" 
d="M643 0h-594l299 332q74 86 110 138t36 107t-37 88t-83 33q-78 0 -116.5 -45.5t-42.5 -103.5h-143q9 118 75 196q80 89 212 89t207 -75t75 -164q0 -147 -174 -333l-113 -127h289v-135z" />
    <glyph glyph-name="uni2083" unicode="&#x2083;" horiz-adv-x="757" 
d="M209 244q10 -123 158 -123q57 0 91 39t34 99t-46.5 84t-95.5 24h-49v135h49q85 0 107 30.5t22 65.5q0 100 -119 100q-59 0 -89.5 -31.5t-34.5 -80.5h-144q10 89 40 133q78 115 219 115q142 0 208 -66t66 -152q0 -137 -107 -184q8 -4 28.5 -13t41 -30.5t36 -56.5
t15.5 -116t-75.5 -155.5t-213.5 -74.5q-192 0 -262 159q-18 41 -22 99h143z" />
    <glyph glyph-name="uni2084" unicode="&#x2084;" horiz-adv-x="757" 
d="M457 283v211l-160 -211h160zM604 291h88v-135h-88v-156h-147v156h-428l575 725v-590z" />
    <glyph glyph-name="uni2085" unicode="&#x2085;" horiz-adv-x="757" 
d="M325 438q-89 0 -151 -69h-55l135 450h358v-135h-258l-35 -125q10 2 13 2h26q114 0 195 -59q98 -77 98 -214q0 -138 -91.5 -220t-231.5 -82q-189 0 -287 174l115 80q48 -119 174 -119q86 0 130 47t44 115t-45 111.5t-134 43.5z" />
    <glyph glyph-name="uni2086" unicode="&#x2086;" horiz-adv-x="757" 
d="M380 389q-64 0 -107.5 -37t-43.5 -97t42 -99t107.5 -39t107.5 39t42 98t-42 97t-106 38zM389 520h25q172 0 217 -92t45 -156q0 -129 -83.5 -207.5t-219.5 -78.5t-213.5 79t-77.5 171t25.5 145t42.5 78l284 409l125 -88l-182 -262q10 2 12 2z" />
    <glyph glyph-name="uni2087" unicode="&#x2087;" horiz-adv-x="757" 
d="M74 684v135h651l-516 -848l-139 62l397 651h-393z" />
    <glyph glyph-name="uni2088" unicode="&#x2088;" horiz-adv-x="757" 
d="M378.5 358q-65.5 0 -99 -36.5t-33.5 -81.5t31.5 -84t101.5 -39t101.5 39t31.5 84t-34 81.5t-99.5 36.5zM378.5 702q-59.5 0 -89 -33.5t-29.5 -72.5t29 -73t89 -34t90 33t30 73t-30 73.5t-89.5 33.5zM98 215q0 159 113 211q-90 63 -90 165t69 172.5t189 70.5t189 -70.5
t69 -172.5t-90 -165q112 -54 112 -193q0 -111 -79.5 -179t-232.5 -68t-201 94t-48 135z" />
    <glyph glyph-name="uni2089" unicode="&#x2089;" horiz-adv-x="757" 
d="M378 430q64 0 107 37t43 97t-42 99t-107.5 39t-107.5 -38.5t-42 -98t42.5 -97.5t106.5 -38zM370 299h-24q-102 0 -183 65t-81 187t82.5 202.5t218.5 80.5t214.5 -79t78.5 -187t-68 -208l-284 -409l-125 88l182 262q-10 -2 -11 -2z" />
    <glyph glyph-name="Euro" unicode="&#x20ac;" horiz-adv-x="1163" 
d="M773 1198q-153 0 -268.5 -73.5t-162.5 -211.5h596l-61 -143h-564q-9 -79 -2 -152h506l-61 -143h-424q35 -143 152 -226t285 -83t321 117v-224q-168 -86 -316 -86q-316 0 -487 168q-84 73 -121 169t-47 165h-139l61 143h61q-7 73 2 152h-124l61 143h84q48 180 197 329
t464 149q191 0 324 -78l-88 -183q-96 68 -249 68z" />
    <glyph glyph-name="uni20B4" unicode="&#x20b4;" horiz-adv-x="1163" 
d="M606 1391q157 0 246 -73q90 -73 90 -187t-96 -216h227v-143h-336l-147 -151h483v-144h-608q-84 -73 -84 -152t46 -119t119 -40q72 0 117.5 13.5t104.5 59.5t84 117l174 -82q-45 -113 -135 -184t-167.5 -94t-155.5 -23q-179 0 -269 64q-127 90 -127 237q0 113 80 203h-170
v144h283l147 151h-430v143h551q100 71 100 164q0 53 -35 86t-96 33q-94 0 -162.5 -40t-107.5 -95l-168 98q175 230 442 230z" />
    <glyph glyph-name="uni20B6" unicode="&#x20b6;" horiz-adv-x="1163" 
d="M483 748h95q144 0 205 61t61 153.5t-52 141.5t-105.5 59.5t-111.5 10.5h-92v-426zM575 1366q189 0 299 -74q88 -57 129 -146t41 -170t-28.5 -157t-76.5 -124q-128 -128 -361 -128h-95v-151h324v-144h-324v-272h-209v272h-149v144h149v151h-149v181h149v618h301z" />
    <glyph glyph-name="uni20B6" unicode="&#x20cf;" horiz-adv-x="1163" 
d="M483 748h95q144 0 205 61t61 153.5t-52 141.5t-105.5 59.5t-111.5 10.5h-92v-426zM575 1366q189 0 299 -74q88 -57 129 -146t41 -170t-28.5 -157t-76.5 -124q-128 -128 -361 -128h-95v-151h324v-144h-324v-272h-209v272h-149v144h149v151h-149v181h149v618h301z" />
    <glyph glyph-name="uni20B6" unicode="&#x20ce;" horiz-adv-x="1163" 
d="M483 748h95q144 0 205 61t61 153.5t-52 141.5t-105.5 59.5t-111.5 10.5h-92v-426zM575 1366q189 0 299 -74q88 -57 129 -146t41 -170t-28.5 -157t-76.5 -124q-128 -128 -361 -128h-95v-151h324v-144h-324v-272h-209v272h-149v144h149v151h-149v181h149v618h301z" />
    <glyph glyph-name="uni20B6" unicode="&#x20cd;" horiz-adv-x="1163" 
d="M483 748h95q144 0 205 61t61 153.5t-52 141.5t-105.5 59.5t-111.5 10.5h-92v-426zM575 1366q189 0 299 -74q88 -57 129 -146t41 -170t-28.5 -157t-76.5 -124q-128 -128 -361 -128h-95v-151h324v-144h-324v-272h-209v272h-149v144h149v151h-149v181h149v618h301z" />
    <glyph glyph-name="uni20B6" unicode="&#x20cc;" horiz-adv-x="1163" 
d="M483 748h95q144 0 205 61t61 153.5t-52 141.5t-105.5 59.5t-111.5 10.5h-92v-426zM575 1366q189 0 299 -74q88 -57 129 -146t41 -170t-28.5 -157t-76.5 -124q-128 -128 -361 -128h-95v-151h324v-144h-324v-272h-209v272h-149v144h149v151h-149v181h149v618h301z" />
    <glyph glyph-name="uni20B6" unicode="&#x20cb;" horiz-adv-x="1163" 
d="M483 748h95q144 0 205 61t61 153.5t-52 141.5t-105.5 59.5t-111.5 10.5h-92v-426zM575 1366q189 0 299 -74q88 -57 129 -146t41 -170t-28.5 -157t-76.5 -124q-128 -128 -361 -128h-95v-151h324v-144h-324v-272h-209v272h-149v144h149v151h-149v181h149v618h301z" />
    <glyph glyph-name="uni20B6" unicode="&#x20ca;" horiz-adv-x="1163" 
d="M483 748h95q144 0 205 61t61 153.5t-52 141.5t-105.5 59.5t-111.5 10.5h-92v-426zM575 1366q189 0 299 -74q88 -57 129 -146t41 -170t-28.5 -157t-76.5 -124q-128 -128 -361 -128h-95v-151h324v-144h-324v-272h-209v272h-149v144h149v151h-149v181h149v618h301z" />
    <glyph glyph-name="uni20B6" unicode="&#x20c9;" horiz-adv-x="1163" 
d="M483 748h95q144 0 205 61t61 153.5t-52 141.5t-105.5 59.5t-111.5 10.5h-92v-426zM575 1366q189 0 299 -74q88 -57 129 -146t41 -170t-28.5 -157t-76.5 -124q-128 -128 -361 -128h-95v-151h324v-144h-324v-272h-209v272h-149v144h149v151h-149v181h149v618h301z" />
    <glyph glyph-name="uni20B6" unicode="&#x20c8;" horiz-adv-x="1163" 
d="M483 748h95q144 0 205 61t61 153.5t-52 141.5t-105.5 59.5t-111.5 10.5h-92v-426zM575 1366q189 0 299 -74q88 -57 129 -146t41 -170t-28.5 -157t-76.5 -124q-128 -128 -361 -128h-95v-151h324v-144h-324v-272h-209v272h-149v144h149v151h-149v181h149v618h301z" />
    <glyph glyph-name="uni20B6" unicode="&#x20c7;" horiz-adv-x="1163" 
d="M483 748h95q144 0 205 61t61 153.5t-52 141.5t-105.5 59.5t-111.5 10.5h-92v-426zM575 1366q189 0 299 -74q88 -57 129 -146t41 -170t-28.5 -157t-76.5 -124q-128 -128 -361 -128h-95v-151h324v-144h-324v-272h-209v272h-149v144h149v151h-149v181h149v618h301z" />
    <glyph glyph-name="uni20B6" unicode="&#x20c6;" horiz-adv-x="1163" 
d="M483 748h95q144 0 205 61t61 153.5t-52 141.5t-105.5 59.5t-111.5 10.5h-92v-426zM575 1366q189 0 299 -74q88 -57 129 -146t41 -170t-28.5 -157t-76.5 -124q-128 -128 -361 -128h-95v-151h324v-144h-324v-272h-209v272h-149v144h149v151h-149v181h149v618h301z" />
    <glyph glyph-name="uni20B6" unicode="&#x20c5;" horiz-adv-x="1163" 
d="M483 748h95q144 0 205 61t61 153.5t-52 141.5t-105.5 59.5t-111.5 10.5h-92v-426zM575 1366q189 0 299 -74q88 -57 129 -146t41 -170t-28.5 -157t-76.5 -124q-128 -128 -361 -128h-95v-151h324v-144h-324v-272h-209v272h-149v144h149v151h-149v181h149v618h301z" />
    <glyph glyph-name="uni20B6" unicode="&#x20c4;" horiz-adv-x="1163" 
d="M483 748h95q144 0 205 61t61 153.5t-52 141.5t-105.5 59.5t-111.5 10.5h-92v-426zM575 1366q189 0 299 -74q88 -57 129 -146t41 -170t-28.5 -157t-76.5 -124q-128 -128 -361 -128h-95v-151h324v-144h-324v-272h-209v272h-149v144h149v151h-149v181h149v618h301z" />
    <glyph glyph-name="uni20B6" unicode="&#x20c3;" horiz-adv-x="1163" 
d="M483 748h95q144 0 205 61t61 153.5t-52 141.5t-105.5 59.5t-111.5 10.5h-92v-426zM575 1366q189 0 299 -74q88 -57 129 -146t41 -170t-28.5 -157t-76.5 -124q-128 -128 -361 -128h-95v-151h324v-144h-324v-272h-209v272h-149v144h149v151h-149v181h149v618h301z" />
    <glyph glyph-name="uni20B6" unicode="&#x20c2;" horiz-adv-x="1163" 
d="M483 748h95q144 0 205 61t61 153.5t-52 141.5t-105.5 59.5t-111.5 10.5h-92v-426zM575 1366q189 0 299 -74q88 -57 129 -146t41 -170t-28.5 -157t-76.5 -124q-128 -128 -361 -128h-95v-151h324v-144h-324v-272h-209v272h-149v144h149v151h-149v181h149v618h301z" />
    <glyph glyph-name="uni20B6" unicode="&#x20c1;" horiz-adv-x="1163" 
d="M483 748h95q144 0 205 61t61 153.5t-52 141.5t-105.5 59.5t-111.5 10.5h-92v-426zM575 1366q189 0 299 -74q88 -57 129 -146t41 -170t-28.5 -157t-76.5 -124q-128 -128 -361 -128h-95v-151h324v-144h-324v-272h-209v272h-149v144h149v151h-149v181h149v618h301z" />
    <glyph glyph-name="uni20B6" unicode="&#x20c0;" horiz-adv-x="1163" 
d="M483 748h95q144 0 205 61t61 153.5t-52 141.5t-105.5 59.5t-111.5 10.5h-92v-426zM575 1366q189 0 299 -74q88 -57 129 -146t41 -170t-28.5 -157t-76.5 -124q-128 -128 -361 -128h-95v-151h324v-144h-324v-272h-209v272h-149v144h149v151h-149v181h149v618h301z" />
    <glyph glyph-name="uni20B6" unicode="&#x20bf;" horiz-adv-x="1163" 
d="M483 748h95q144 0 205 61t61 153.5t-52 141.5t-105.5 59.5t-111.5 10.5h-92v-426zM575 1366q189 0 299 -74q88 -57 129 -146t41 -170t-28.5 -157t-76.5 -124q-128 -128 -361 -128h-95v-151h324v-144h-324v-272h-209v272h-149v144h149v151h-149v181h149v618h301z" />
    <glyph glyph-name="uni20B6" unicode="&#x20be;" horiz-adv-x="1163" 
d="M483 748h95q144 0 205 61t61 153.5t-52 141.5t-105.5 59.5t-111.5 10.5h-92v-426zM575 1366q189 0 299 -74q88 -57 129 -146t41 -170t-28.5 -157t-76.5 -124q-128 -128 -361 -128h-95v-151h324v-144h-324v-272h-209v272h-149v144h149v151h-149v181h149v618h301z" />
    <glyph glyph-name="uni20B6" unicode="&#x20bd;" horiz-adv-x="1163" 
d="M483 748h95q144 0 205 61t61 153.5t-52 141.5t-105.5 59.5t-111.5 10.5h-92v-426zM575 1366q189 0 299 -74q88 -57 129 -146t41 -170t-28.5 -157t-76.5 -124q-128 -128 -361 -128h-95v-151h324v-144h-324v-272h-209v272h-149v144h149v151h-149v181h149v618h301z" />
    <glyph glyph-name="uni20B6" unicode="&#x20bc;" horiz-adv-x="1163" 
d="M483 748h95q144 0 205 61t61 153.5t-52 141.5t-105.5 59.5t-111.5 10.5h-92v-426zM575 1366q189 0 299 -74q88 -57 129 -146t41 -170t-28.5 -157t-76.5 -124q-128 -128 -361 -128h-95v-151h324v-144h-324v-272h-209v272h-149v144h149v151h-149v181h149v618h301z" />
    <glyph glyph-name="uni20B6" unicode="&#x20bb;" horiz-adv-x="1163" 
d="M483 748h95q144 0 205 61t61 153.5t-52 141.5t-105.5 59.5t-111.5 10.5h-92v-426zM575 1366q189 0 299 -74q88 -57 129 -146t41 -170t-28.5 -157t-76.5 -124q-128 -128 -361 -128h-95v-151h324v-144h-324v-272h-209v272h-149v144h149v151h-149v181h149v618h301z" />
    <glyph glyph-name="uni20B6" unicode="&#x20ba;" horiz-adv-x="1163" 
d="M483 748h95q144 0 205 61t61 153.5t-52 141.5t-105.5 59.5t-111.5 10.5h-92v-426zM575 1366q189 0 299 -74q88 -57 129 -146t41 -170t-28.5 -157t-76.5 -124q-128 -128 -361 -128h-95v-151h324v-144h-324v-272h-209v272h-149v144h149v151h-149v181h149v618h301z" />
    <glyph glyph-name="uni20B6" unicode="&#x20b9;" horiz-adv-x="1163" 
d="M483 748h95q144 0 205 61t61 153.5t-52 141.5t-105.5 59.5t-111.5 10.5h-92v-426zM575 1366q189 0 299 -74q88 -57 129 -146t41 -170t-28.5 -157t-76.5 -124q-128 -128 -361 -128h-95v-151h324v-144h-324v-272h-209v272h-149v144h149v151h-149v181h149v618h301z" />
    <glyph glyph-name="uni20B6" unicode="&#x20b7;" horiz-adv-x="1163" 
d="M483 748h95q144 0 205 61t61 153.5t-52 141.5t-105.5 59.5t-111.5 10.5h-92v-426zM575 1366q189 0 299 -74q88 -57 129 -146t41 -170t-28.5 -157t-76.5 -124q-128 -128 -361 -128h-95v-151h324v-144h-324v-272h-209v272h-149v144h149v151h-149v181h149v618h301z" />
    <glyph glyph-name="uni20B8" unicode="&#x20b8;" horiz-adv-x="1163" 
d="M164 1190v176h835v-176h-835zM686 903v-903h-209v903h-313v197h835v-197h-313z" />
    <glyph glyph-name="afii61352" unicode="&#x2116;" horiz-adv-x="2170" 
d="M1466 580h578v-164h-578v164zM1755 870q43 0 75 16.5t53.5 41t31.5 55.5t10 61.5t-10 61.5t-31.5 55.5t-53.5 41t-75 16.5t-74.5 -16.5t-53 -41t-32 -55.5t-10.5 -61.5t10.5 -61.5t32 -55.5t53 -41t74.5 -16.5zM1755.5 1366q67.5 0 128 -25.5t104.5 -69.5t70.5 -102.5
t26.5 -124t-25.5 -124t-70.5 -102.5t-105.5 -69.5t-128 -25.5t-128 25.5t-105.5 69.5t-71 102.5t-26 124t27 124t71 102.5t104.5 69.5t128 25.5zM164 0v1458l909 -989v897h209v-1450l-909 989v-905h-209z" />
    <glyph glyph-name="uni2117" unicode="&#x2117;" horiz-adv-x="1552" 
d="M1485 682q0 -160 -55.5 -290t-143.5 -218t-216 -145.5t-294 -57.5t-294 57.5t-216 145.5t-143 218t-55 290t55 290t143 218t216 145.5t294 57.5t294 -57.5t216 -145.5t143.5 -218t55.5 -290zM776.5 1290q-145.5 0 -251 -53t-178.5 -126q-165 -165 -165 -488t224.5 -436
t370 -113t251.5 53t178 126q164 166 164 488.5t-224 435.5t-369.5 113zM735 737q160 0 160 115q0 49 -39 80q-25 18 -100 18h-49v-213h28zM784 1079q188 0 221 -87t33 -135q0 -108 -51 -162t-111.5 -66.5t-123.5 -12.5h-45v-303h-146v766h223z" />
    <glyph glyph-name="trademark" unicode="&#x2122;" horiz-adv-x="1454" 
d="M532 588l168 848l258 -574l261 574l165 -848h-145l-72 422l-209 -437l-208 437l-72 -422h-146zM315 1231v-643h-143v643h-172v135h487v-135h-172z" />
    <glyph glyph-name="partialdiff" unicode="&#x2202;" horiz-adv-x="1085" 
d="M719 215q80 80 80 212t-82 214q-69 64 -177 64q-109 0 -171 -64q-82 -82 -82 -213q0 -80 45 -177t208 -97q115 0 179 61zM1004 498q0 -264 -136 -404q-121 -121 -323 -121t-333 131q-130 131 -130 331t125 325t292 125t273 -97q-46 167 -126.5 227t-126.5 89t-133 58.5
t-189 37.5l36 178q251 -29 437 -155q334 -229 334 -725z" />
    <glyph glyph-name="product" unicode="&#x220f;" horiz-adv-x="1462" 
d="M78 1536h1306v-197h-163v-1654h163v-197h-538v197h166v1654h-559v-1654h163v-197h-538v197h166v1654h-166v197z" />
    <glyph glyph-name="summation" unicode="&#x2211;" horiz-adv-x="1433" 
d="M1290 1536v-502h-192v305h-746l451 -782l-451 -872h762v301h193v-498h-1241v94l516 975l-516 885v94h1224z" />
    <glyph glyph-name="minus" unicode="&#x2212;" 
d="M68 780h888v-184h-888v184z" />
    <glyph glyph-name="uni2215" unicode="&#x2215;" horiz-adv-x="1400" 
d="M1077 1567l164 -74l-1077 -1929l-164 74z" />
    <glyph glyph-name="uni2219" unicode="&#x2219;" horiz-adv-x="409" 
d="M45 696.5q0 67.5 46 113.5t113.5 46t114 -46t46.5 -113.5t-46.5 -113.5t-114 -46t-113.5 46t-46 113.5z" />
    <glyph glyph-name="radical" unicode="&#x221a;" horiz-adv-x="1368" 
d="M1368 1694v-181h-389l-395 -1513h-258l-146 586h-180v180h344l102 -514h17l344 1442h561z" />
    <glyph glyph-name="infinity" unicode="&#x221e;" horiz-adv-x="1372" 
d="M586 696q-85 144 -215 144q-45 0 -88 -42t-43 -102t41 -101.5t102 -41.5t114.5 42t88.5 101zM1001 840q-124 0 -215 -144q35 -59 88.5 -101t114.5 -42t102.5 41t41.5 101t-43.5 102.5t-88.5 42.5zM1018 373q-195 0 -332 190q-87 -121 -176.5 -155.5t-157.5 -34.5
t-126 23.5t-100 66.5t-65.5 101.5t-23.5 166.5t88.5 198.5t214.5 90.5q127 0 211 -57.5t135 -133.5q51 76 135.5 133.5t174.5 57.5t149 -23.5t101 -66.5t65.5 -103.5t23.5 -166.5t-88.5 -196.5t-228.5 -90.5z" />
    <glyph glyph-name="integral" unicode="&#x222b;" 
d="M279 -340q36 0 59.5 5t44.5 27t24 66.5t3 110.5v1266q0 164 21 220t53 94t93.5 62.5t144.5 24.5t148 -23l-36 -176q-52 27 -89 27q-36 0 -59.5 -5t-44.5 -27t-24 -66.5t-3 -110.5v-1266q0 -82 -12 -200.5t-114.5 -159.5t-185.5 -41t-148 23l36 176q53 -27 89 -27z" />
    <glyph glyph-name="approxequal" unicode="&#x2248;" 
d="M862 395q-62 -49 -150 -49t-194 46t-148 59.5t-90 13.5t-88 -41t-61 -96l-115 73q47 106 87 151q39 46 86 75.5t94 29.5t98 -10.5t123 -40.5t119 -49.5t105 -19.5t95 36q41 35 68 89l117 -68q-47 -121 -146 -199zM717 909q110 0 174 125l117 -67q-47 -121 -146 -199
q-62 -49 -149 -49t-194 46t-149 59.5t-90 13.5t-87 -41q-40 -41 -62 -97l-115 74q47 106 87 151q39 46 86 75.5t94 29.5t98 -10t123 -40t119 -50.5t94 -20.5z" />
    <glyph glyph-name="notequal" unicode="&#x2260;" 
d="M68 950h487l107 226h159l-106 -226h241v-172h-323l-76 -160h399v-172h-481l-113 -237h-159l112 237h-247v172h329l76 160h-405v172z" />
    <glyph glyph-name="lessequal" unicode="&#x2264;" 
d="M68 66v184h888v-184h-888zM956 496v-189l-888 410v168l888 409v-188l-675 -305z" />
    <glyph glyph-name="greaterequal" unicode="&#x2265;" 
d="M68 66v184h888v-184h-888zM68 1106v188l888 -409v-168l-888 -410v189l675 305z" />
    <glyph glyph-name="dotmath" unicode="&#x22c5;" horiz-adv-x="409" 
d="M45 696.5q0 67.5 46 113.5t113.5 46t114 -46t46.5 -113.5t-46.5 -113.5t-114 -46t-113.5 46t-46 113.5z" />
    <glyph glyph-name="lozenge" unicode="&#x25ca;" horiz-adv-x="1433" 
d="M717 1098l-299 -414l299 -414l299 414zM717 1421l532 -737l-532 -737l-533 737z" />
    <glyph glyph-name="openbullet" unicode="&#x25e6;" 
d="M340 1069q0 -78 50 -128t122 -50t122 50t50 128t-50 128t-122 50t-122 -50t-50 -128zM213 1069q0 61 22.5 115.5t62.5 94.5t95.5 63.5t118.5 23.5t118.5 -23.5t95.5 -63.5t62.5 -94.5t22.5 -115.5t-22.5 -115.5t-62.5 -94.5t-95.5 -63.5t-118.5 -23.5t-118.5 23.5
t-95.5 63.5t-62.5 94.5t-22.5 115.5z" />
    <glyph glyph-name="uniF400" unicode="&#xf400;" horiz-adv-x="4" 
d="M-170 1288l-319 -295l-111 70l246 319z" />
    <glyph glyph-name="uniF401" unicode="&#xf401;" horiz-adv-x="4" 
d="M-741 1571l282 284l176 -122l-360 -244z" />
    <glyph glyph-name="uniF406" unicode="&#xf406;" 
d="M536.5 1495q-114.5 0 -185.5 36.5t-105 82.5q-60 72 -82 176h168q18 -68 66 -100t93.5 -31.5t74 5.5t57.5 26q51 33 69 100h168q-28 -134 -118.5 -214.5t-205 -80.5z" />
    <glyph glyph-name="uniF407" unicode="&#xf407;" 
d="M770 -186l-229 -273l-131 66l184 284z" />
    <glyph glyph-name="uniF408" unicode="&#xf408;" 
d="M309 1495l-135 115l338 274l338 -274l-135 -115l-203 168z" />
    <glyph glyph-name="uniF409" unicode="&#xf409;" 
d="M496 -102l180 -70l-184 -381l-144 57z" />
    <glyph glyph-name="uniF40A" unicode="&#xf40a;" 
d="M475 1393l180 -70l-213 -422l-135 57z" />
    <glyph glyph-name="uniF40B" unicode="&#xf40b;" 
d="M375 1640.5q0 59.5 39 98.5t98 39t98 -39t39 -98.5t-39 -98.5t-98 -39t-98 39t-39 98.5z" />
    <glyph glyph-name="uniF40C" unicode="&#xf40c;" 
d="M424 1685.5q0 -36.5 25.5 -62.5t62.5 -26t62.5 26t25.5 62.5t-25.5 62.5t-62.5 26t-62.5 -26t-25.5 -62.5zM371.5 1826q58.5 58 141.5 58t140.5 -58t57.5 -140t-58.5 -140.5t-140.5 -58.5t-140.5 58.5t-58.5 140.5t58.5 140z" />
    <glyph glyph-name="uniF40D" unicode="&#xf40d;" 
d="M651 1661q77 0 111 106l119 -94q-35 -72 -90.5 -122t-127.5 -50q-72 1 -114 19q-65 29 -80 38t-49 19t-54 10t-49.5 -13t-52.5 -73l-121 84q93 166 199.5 166t192.5 -45t116 -45z" />
    <glyph glyph-name="uniF40E" unicode="&#xf40e;" 
d="M516 -172q0 -64 82 -64q58 0 107 15l-19 -144q-62 -30 -119 -30q-100 0 -159.5 49t-59.5 125t53 137q37 48 103 84h160q-148 -83 -148 -172z" />
    <glyph glyph-name="uniF4C6" unicode="&#xf4c6;" horiz-adv-x="1241" 
d="M204.5 676.5q-71.5 129.5 -76.5 195.5t-5 91v403h209v-373q0 -105 22.5 -147.5t63.5 -74.5t177 -32t273 15v612h209v-1542q0 -295 -282 -295q-74 0 -136 18v189q48 -19 85 -19q116 0 120 66.5t4 101.5v676q-217 -14 -298 -14q-294 0 -365.5 129.5z" />
    <glyph glyph-name="uniF4C7" unicode="&#xf4c7;" horiz-adv-x="921" 
d="M307 627q0 -89 53 -121q32 -20 100 -19q67 0 134 23v352h201v-1038q0 -235 -111 -265t-178 -30t-121 18v181q80 -32 140.5 -12.5t64.5 73t4 88.5v457q-97 -19 -162 -19q-158 0 -242 64q-59 47 -71.5 105.5t-12.5 101.5v276h201v-235z" />
    <glyph glyph-name="uniF4CC" unicode="&#xf4cc;" horiz-adv-x="1167" 
d="M266 1366l352 -729l320 729h217l-616 -1366h-217l176 387l-486 979h254zM459 1571l282 284l177 -122l-361 -244z" />
    <glyph glyph-name="uniF4CD" unicode="&#xf4cd;" horiz-adv-x="987" 
d="M381 135l-369 727h242l246 -504l250 504h225l-686 -1331h-226zM834 1288l-320 -295l-111 70l246 319z" />
    <glyph glyph-name="dollar.fitted" unicode="&#xf5f5;" horiz-adv-x="931" 
d="M297 1052q0 -50 12 -76q29 -66 170 -122l103 -41q154 -62 217 -132t83 -136q20 -67 21 -143q0 -173 -119 -302q-96 -100 -225 -118v-207h-151v200q-160 13 -267 136q-103 115 -114 266l206 45q1 -97 47 -158q46 -62 91 -80t96 -18q103 0 165 64t62 158t-59 157
q-35 35 -67 51t-70 33l-131 55q-118 50 -179 112t-80 114q-20 52 -20 122t29 136t70 108q92 92 221 108v183h151v-181q102 -10 161 -54q99 -74 146 -171l-168 -98q-59 135 -209 135q-98 0 -145 -48t-47 -98z" />
    <glyph glyph-name="Euro.fitted" unicode="&#xf5f6;" horiz-adv-x="1224" 
d="M827 1198q-153 0 -269 -74t-163 -211h596l-61 -143h-563q-10 -87 -2 -152h505l-61 -143h-424q35 -144 152 -226q117 -83 285 -83q169 0 321 117v-224q-163 -83 -313 -85q-317 -3 -490 167q-84 74 -136 209q-22 55 -32 125h-139l61 143h62q-7 73 2 152h-125l61 143h84
q48 179 168 299q149 149 383 172q171 17 268 -7q97 -23 166 -64l-88 -183q-95 68 -248 68z" />
    <glyph glyph-name="cent.fitted" unicode="&#xf5f7;" horiz-adv-x="772" 
d="M545 27h-152v211q-141 22 -246 122q-122 122 -122 327t139 337q101 94 229 111v206h152v-202q98 -7 192 -60v-223q-96 105 -250 105q-105 0 -180 -72t-77 -200q-1 -128 77 -208q76 -71 204 -71t226 110v-223q-78 -55 -192 -66v-204z" />
    <glyph glyph-name="sterling.fitted" unicode="&#xf5f8;" horiz-adv-x="1146" 
d="M164 953q0 188 117 307q135 129 333 129q199 0 319 -120t120 -349v-11h-201v9q0 143 -68 211t-173 68q-104 -1 -171 -64q-67 -67 -67 -163t104 -294h266v-148h-206q24 -60 24 -133t-29 -133l109 -39q33 -10 75 -25q87 -31 135 -2q59 32 87 115l168 -98q-42 -91 -96 -145
t-102 -70t-112 -16t-123 18q-58 18 -156 54t-141 36q-110 0 -149 -121l-178 90q52 116 144 179q54 37 129 45q30 61 30 130t-30 115h-234v148h160q-84 179 -84 277z" />
    <glyph glyph-name="yen.fitted" unicode="&#xf5f9;" horiz-adv-x="1110" 
d="M1044 621v-144h-393v-477h-192v477h-393v144h376l-84 151h-292v143h213l-248 451h225l299 -547l299 547h225l-248 -451h213v-143h-292l-84 -151h376z" />
    <glyph glyph-name="florin.fitted" unicode="&#xf5fa;" 
d="M876 1327q-56 0 -86 -34q-30 -35 -42 -73t-23 -87l-49 -271h229l-28 -160h-230l-104 -571q-40 -214 -89 -305q-64 -121 -217 -167q-99 -30 -223 -19l33 190h12q47 0 97 8t89 48q40 40 58 109t31 134l104 573h-174l29 160h174l53 295q37 191 121 273q84 83 233 86
q74 0 140 -19l-37 -190q-46 20 -101 20z" />
    <glyph glyph-name="uni20B4.fitted" unicode="&#xf5fb;" horiz-adv-x="1071" 
d="M565 1391q157 0 246 -73q90 -73 90 -187t-96 -216h227v-143h-336l-147 -151h483v-144h-608q-84 -73 -84 -152t46 -119t119 -40q72 0 117.5 13.5t104.5 59.5t84 117l174 -82q-45 -113 -135 -184t-167 -94t-155 -23q-179 0 -270 64q-127 90 -127 237q0 113 80 203h-170v144
h283l147 151h-430v143h551q100 71 100 164q0 53 -35 86t-96 33q-94 0 -162.5 -40t-107.5 -95l-168 98q175 230 442 230z" />
    <glyph glyph-name="uni20B6.fitted" unicode="&#xf5fc;" horiz-adv-x="983" 
d="M399 748h95q144 0 205 61t61 153.5t-52 141.5t-105.5 59.5t-110.5 10.5h-93v-426zM492 1366q187 0 287 -66t141 -154.5t41 -169.5t-29 -157t-77 -124q-128 -128 -361 -128h-95v-151h324v-144h-324v-272h-209v272h-149v144h149v151h-149v181h149v618h302z" />
    <glyph glyph-name="uni20B8.fitted" unicode="&#xf5fd;" horiz-adv-x="884" 
d="M27 1190v176h835v-176h-835zM549 903v-903h-209v903h-313v197h835v-197h-313z" />
    <glyph glyph-name="uniF639" unicode="&#xf639;" horiz-adv-x="1069" 
d="M352 1092q-94 -139 -94 -407t94 -411q76 -115 185 -113q109 1 184 113q94 139 94 407t-94 411q-74 112 -184 112t-185 -112zM537 -23q-180 0 -310 148q-174 200 -174 558t174 558q129 147 309 147t310 -147q174 -200 174 -558t-174 -558q-129 -148 -309 -148z" />
    <glyph glyph-name="uniF63A" unicode="&#xf63a;" horiz-adv-x="1015" 
d="M961 0h-918l473 573q174 213 205 282t31 120t-14.5 91t-43 70.5t-70.5 49t-125.5 18.5t-147.5 -73.5t-68 -174.5h-201q4 100 39 177t65 109q133 146 329 147q208 0 324.5 -119.5t116.5 -275.5t-98 -304q-56 -83 -194 -246l-213 -251h510v-193z" />
    <glyph glyph-name="uniF63B" unicode="&#xf63b;" horiz-adv-x="966" 
d="M891 1016q0 -198 -170 -295q91 -34 135 -109q57 -85 57 -199q1 -201 -117 -319t-325 -117q-207 0 -313 115q-47 49 -78 125t-39 154h201q16 -95 73 -148q70 -61 165 -61t161 57q72 72 72 184q1 112 -53 162q-54 51 -103 61t-82 9h-41v176h29q115 0 171 56t56 146t-52 141
q-52 50 -146 50q-156 0 -199 -136q-10 -32 -10 -50h-201q7 156 117 266q71 68 151 86q290 66 443 -94q98 -102 98 -260z" />
    <glyph glyph-name="uniF63C" unicode="&#xf63c;" horiz-adv-x="1069" 
d="M680 446v441l-311 -441h311zM881 451h147v-193h-147v-258h-201v258h-676l877 1208v-1015z" />
    <glyph glyph-name="uniF63D" unicode="&#xf63d;" 
d="M554 950q58 0 141 -30t139 -84q140 -136 141 -358q0 -222 -141 -362t-377 -139q-159 0 -262 62q-16 10 -66 47q-49 37 -96 111l157 131q83 -166 283 -166q127 0 209 76q88 88 88 230t-82 222q-82 76 -223 76q-90 0 -164 -29t-117 -61l203 690h565v-192h-422l-67 -228
q33 4 91 4z" />
    <glyph glyph-name="uniF63E" unicode="&#xf63e;" horiz-adv-x="1028" 
d="M786 440q0 124 -78 202t-193 77q-116 0 -198 -76q-81 -76 -79 -203q0 -187 168 -256q98 -41 208 -4t152 152q20 55 20 108zM555 897q197 0 323 -135q48 -51 80 -134q33 -83 33 -176q0 -94 -33 -186t-89 -148q-138 -136 -359 -139q-229 -4 -353 127q-124 132 -124 314
q0 136 65 262q39 78 79 131t87 113l379 487l152 -113l-326 -411q41 8 86 8z" />
    <glyph glyph-name="uniF63F" unicode="&#xf63f;" horiz-adv-x="1083" 
d="M66 1174v192h1015l-860 -1413l-164 102l680 1119h-671z" />
    <glyph glyph-name="uniF640" unicode="&#xf640;" horiz-adv-x="962" 
d="M913 367q1 -76 -33 -148t-78 -119t-123 -85t-196 -38q-204 0 -321 127q-109 114 -109 291q0 124 62 205q50 71 143 111q-76 32 -123 104t-47 169q0 189 113 297t282 108q113 0 181 -37t112 -80t74 -117q29 -75 29 -139q0 -171 -98 -259q-29 -28 -72 -46q96 -41 143 -111
q39 -51 50 -104t11 -129zM483 1204q-144 0 -191 -121q-35 -91 1 -170q32 -74 108 -104q41 -16 82 -16q91 0 149 58q58 57 58 149t-57 149q-59 55 -150 55zM258 391q0 -138 123 -207q39 -22 102 -22q101 1 162 68q61 68 63 166q1 97 -63 161t-163 64t-161 -64
q-63 -64 -63 -166z" />
    <glyph glyph-name="uniF641" unicode="&#xf641;" horiz-adv-x="1026" 
d="M326 723q81 -76 194 -76t193 82t81 201q1 120 -80 197t-193 77t-195 -78q-82 -82 -81 -203q1 -122 81 -200zM559 477q-35 -8 -109 -8t-164 43q-137 62 -209 213q-36 76 -36 181q0 204 135 343q140 140 339 140t312 -90q31 -23 64 -57t71 -108t38 -170q0 -94 -17 -155
q-16 -61 -52 -132t-76 -124t-87 -113l-379 -487l-151 113z" />
    <glyph glyph-name="uniF6BA" unicode="&#xf6ba;" horiz-adv-x="696" 
d="M102 799h492v-209h-492v209z" />
    <glyph glyph-name="uniF6BB" unicode="&#xf6bb;" horiz-adv-x="1269" 
d="M143 786h983v-184h-983v184z" />
    <glyph glyph-name="uniF6BC" unicode="&#xf6bc;" horiz-adv-x="1720" 
d="M143 786h1434v-184h-1434v184z" />
    <glyph glyph-name="uniF6C3" unicode="&#xf6c3;" 
d="M496 -102l180 -70l-184 -381l-144 57z" />
    <glyph glyph-name="uniF6C9" unicode="&#xf6c9;" 
d="M381 1571l283 284l176 -122l-361 -244z" />
    <glyph glyph-name="uniF6CA" unicode="&#xf6ca;" 
d="M715 1884l135 -115l-338 -274l-338 274l135 115l203 -168z" />
    <glyph glyph-name="uniF6CB" unicode="&#xf6cb;" 
d="M586 1628q0 53 36.5 90t90 37t90.5 -37t37 -90t-37 -90t-90.5 -37t-90 37t-36.5 90zM184 1628q0 53 37 90t90.5 37t90 -37t36.5 -90t-36.5 -90t-90 -37t-90.5 37t-37 90z" />
    <glyph glyph-name="uniF6CE" unicode="&#xf6ce;" 
d="M184 1733l176 122l283 -284l-98 -82z" />
    <glyph glyph-name="uniF6CF" unicode="&#xf6cf;" 
d="M1044 1749l-319 -260l-90 74l250 292zM635 1749l-320 -260l-90 74l250 292z" />
    <glyph glyph-name="uniF6D0" unicode="&#xf6d0;" 
d="M143 1665h738v-164h-738v164z" />
    <glyph glyph-name="uniF6D1" unicode="&#xf6d1;" 
d="M850 1704q-90 -209 -339 -209q-97 0 -192.5 46.5t-144.5 162.5l164 74q19 -69 75 -92t148.5 -23t124.5 115z" />
    <glyph glyph-name="uniF6D4" unicode="&#xf6d4;" 
d="M509 1149q130 0 171 133l164 -47q-50 -174 -169.5 -208t-189.5 -34t-169.5 59.5t-135.5 182.5l164 47q35 -133 165 -133z" />
    <glyph glyph-name="uniF6DC" unicode="&#xf6dc;" horiz-adv-x="530" 
d="M250 1174h-238l115 192h332v-1366h-209v1174z" />
    <glyph glyph-name="uniF6DE" unicode="&#xf6de;" horiz-adv-x="1290" 
d="M106 528h1076v-184h-1076v184z" />
    <glyph glyph-name="nonbreakingspace" horiz-adv-x="477" 
 />
    <glyph glyph-name="hyphenminus" horiz-adv-x="696" 
d="M102 541h492v-209h-492v209z" />
    <glyph glyph-name="dotlessi1" horiz-adv-x="454" 
d="M328 862v-862h-201v862h201z" />
    </font>
</defs>
</svg>
