<?xml version="1.0" standalone="no"?>
<!DOCTYPE svg PUBLIC "-//W3C//DTD SVG 1.1//EN" "http://www.w3.org/Graphics/SVG/1.1/DTD/svg11.dtd" >
<svg xmlns="http://www.w3.org/2000/svg" xmlns:xlink="http://www.w3.org/1999/xlink" version="1.1">
<metadata>
Created by FontForge 20170731 at Fri Mar 29 22:15:39 2013
 By Aleksey,,,
Copyright (c) 1995 ParaGraph Intl., (c) 1998 ParaType Inc., ParaType Ltd. All rights reserved.
</metadata>
<defs>
<font id="FuturaPT-LightObl" horiz-adv-x="500" >
  <font-face 
    font-family="Futura PT Light Italic"
    font-weight="400"
    font-style="italic"
    font-stretch="normal"
    units-per-em="1000"
    panose-1="2 11 4 2 2 2 4 9 3 3"
    ascent="763"
    descent="-237"
    x-height="408"
    cap-height="667"
    bbox="-276 -250 1103 900"
    underline-thickness="50"
    underline-position="-200"
    slope="-7"
    unicode-range="U+0020-FB02"
  />
<missing-glyph horiz-adv-x="233" 
 />
    <glyph glyph-name="afii10017.var.accented" unicode="&#x410;`" horiz-adv-x="586" 
d="M526 0l-62 219h-284l-116 -219h-50l365 687l193 -687h-46zM201 259h252l-86 316zM464 854l47 -25l-150 -126l-29 18z" />
    <glyph glyph-name="afii10022.var.accented" unicode="&#x415;`" horiz-adv-x="464" 
d="M492 667l-5 -40h-276l-30 -242h270l-5 -40h-270l-37 -305h276l-5 -40h-278h-42l82 667h320zM403 854l47 -25l-150 -126l-29 18z" />
    <glyph glyph-name="afii10026.var.accented" unicode="&#x418;`" horiz-adv-x="700" 
d="M566 0l68 556l-546 -573l84 684h44l-70 -566l547 573l-83 -674h-44zM521 854l47 -25l-150 -126l-29 18z" />
    <glyph glyph-name="afii10032.var.accented" unicode="&#x41e;`" horiz-adv-x="805" 
d="M479 676q141 0 231 -92q82 -85 82 -215q0 -168 -112 -277q-106 -103 -267 -103q-141 0 -227 85q-91 89 -91 222q0 71 29 142.5t85 128.5q108 109 270 109zM407 29q146 0 240 92q48 48 74 114.5t26 131.5q0 116 -76 192q-77 77 -196 77q-137 0 -232 -93
q-102 -101 -102 -243q0 -113 73 -191q76 -80 193 -80zM573 854l47 -25l-150 -126l-29 18z" />
    <glyph glyph-name="afii10037.var.accented" unicode="&#x423;`" horiz-adv-x="550" 
d="M96 667h48l178 -432l248 432h48l-387 -667h-46l108 186zM446 854l47 -25l-150 -126l-29 18z" />
    <glyph glyph-name="afii10045.var.accented" unicode="&#x42b;`" horiz-adv-x="690" 
d="M638 667h44l-82 -667h-44zM90 0l82 667h44l-35 -287h114q106 0 159 -45q52 -44 52 -126q0 -91 -51 -146q-59 -63 -210 -63h-155zM176 340l-37 -300h114q121 0 168 52q39 42 39 116q0 68 -49 103q-40 29 -136 29h-99zM516 854l47 -25l-150 -126l-29 18z" />
    <glyph glyph-name="afii10047.var.accented" unicode="&#x42d;`" horiz-adv-x="680" 
d="M63 72l7 58q37 -46 90 -73q56 -28 129 -28q147 0 233 84q84 83 96 211h-444l5 40h442q4 122 -83 204q-74 68 -183 68q-67 0 -126 -27q-57 -27 -110 -78l7 58q46 36 92 57q66 30 142 30q132 0 215 -79q92 -86 92 -226q0 -169 -103 -277q-55 -57 -120 -81t-151 -24
q-89 0 -149 28q-40 19 -81 55zM465 854l47 -25l-150 -126l-29 18z" />
    <glyph glyph-name="afii10048.var.accented" unicode="&#x42e;`" horiz-adv-x="964" 
d="M180 372h101q22 117 99 198q102 106 256 106q141 0 229 -88q86 -84 86 -221q0 -167 -112 -275q-106 -103 -255 -103q-134 0 -220 85q-101 101 -89 258h-100l-41 -332h-44l82 667h44zM589 29q127 0 217 90q49 49 74.5 114t25.5 129q0 120 -75 197t-195 77q-129 0 -217 -88
q-49 -49 -74.5 -113.5t-25.5 -125.5q0 -55 22 -111.5t58 -93.5q73 -75 190 -75zM653 854l47 -25l-150 -126l-29 18z" />
    <glyph glyph-name="afii10049.var.accented" unicode="&#x42f;`" horiz-adv-x="470" 
d="M34 0l239 299q-73 3 -119 49q-43 43 -43 116q0 90 59 147q57 56 178 56h114l-82 -667h-44l37 299h-48l-237 -299h-54zM413 627h-52q-37 0 -59 -2t-51 -13t-50 -33q-43 -43 -43 -111q0 -60 37 -95q37 -34 108 -34h75zM406 854l47 -25l-150 -126l-29 18z" />
    <glyph glyph-name="afii10023.var.accented" unicode="&#x401;`" horiz-adv-x="464" 
d="M492 667l-5 -40h-276l-30 -242h270l-5 -40h-270l-37 -305h276l-5 -40h-320l82 667h320zM412 775q0 18 13 31q12 12 28 12t26 -10q9 -11 9 -24q0 -17 -13 -30q-12 -12 -31 -12q-14 0 -23 9q-9 8 -9 24zM189 775q0 18 13 31q12 12 28 12t26 -10q9 -11 9 -24q0 -17 -13 -30
q-12 -12 -31 -12q-14 0 -23 9q-9 8 -9 24zM379 854l47 -25l-150 -126l-29 18z" />
    <glyph glyph-name="afii10065.var.accented" unicode="&#x430;`" horiz-adv-x="518" 
d="M446 328l10 80h40l-50 -408h-40l8 63q-26 -36 -60 -53q-42 -21 -94 -21q-80 0 -130 47q-59 54 -59 148q0 111 69 177q58 56 151 56q59 0 99 -27q36 -24 56 -62zM283 379q-70 0 -115 -45q-55 -55 -55 -147q0 -77 47 -122q40 -38 104 -38q56 0 97 30q40 30 57 76t17 88
q0 75 -42 117q-39 41 -110 41zM390 620l40 -25l-121 -128l-28 16z" />
    <glyph glyph-name="afii10070.var.accented" unicode="&#x435;`" horiz-adv-x="487" 
d="M463 199h-348q-6 -38 6 -73.5t35 -58.5q40 -40 103 -40q56 0 97 29q34 25 53 64l31 -20q-30 -53 -73 -81q-45 -30 -109 -30q-86 0 -136 54q-51 54 -51 139q0 108 68 176q59 59 146 59q79 0 128 -47q59 -57 50 -171zM121 237h302q-1 63 -41 104q-36 38 -97 38
q-70 0 -117 -49q-36 -38 -47 -93zM374 620l40 -25l-121 -128l-28 16z" />
    <glyph glyph-name="afii10074.var.accented" unicode="&#x438;`" horiz-adv-x="474" 
d="M122 408h40l-40 -329l333 352l-53 -431h-40l40 327l-333 -352zM368 620l40 -25l-121 -128l-28 16z" />
    <glyph glyph-name="afii10080.var.accented" unicode="&#x43e;`" horiz-adv-x="524" 
d="M300 417q95 0 152 -57q51 -51 51 -141q0 -107 -67 -170q-64 -60 -167 -60q-91 0 -144 56q-54 56 -54 142q0 47 18.5 92.5t49.5 76.5q64 61 161 61zM275 27q76 0 126 46q60 56 60 142q0 69 -43 116q-46 48 -122 48q-73 0 -124 -46q-59 -53 -59 -140q0 -73 46 -121
q43 -45 116 -45zM393 620l40 -25l-121 -128l-28 16z" />
    <glyph glyph-name="afii10085.var.accented" unicode="&#x443;`" horiz-adv-x="428" 
d="M78 -230l123 223l-143 415h44l127 -363l193 363h48l-346 -638h-46zM345 620l40 -25l-121 -128l-28 16z" />
    <glyph glyph-name="afii10093.var.accented" unicode="&#x44b;`" 
d="M438 408h40l-50 -408h-40zM121 408h41l-21 -170h86q67 0 101 -32q30 -29 30 -79q0 -56 -31 -87q-40 -40 -133 -40h-122zM117 38h92q53 0 80 22q27 23 27 64q0 38 -23 57t-71 19h-85zM381 620l40 -25l-121 -128l-28 16z" />
    <glyph glyph-name="afii10095.var.accented" unicode="&#x44d;`" horiz-adv-x="409" 
d="M39 15l5 42q44 -30 108 -30q74 0 121 35q61 46 71 128h-241l5 38h239q-2 65 -40 105q-44 46 -127 46q-55 0 -100 -24l5 40q47 22 104 22q90 0 144 -51q55 -53 55 -140q0 -110 -69 -178q-59 -59 -163 -59q-67 0 -117 26zM295 620l40 -25l-121 -128l-28 16z" />
    <glyph glyph-name="afii10096.var.accented" unicode="&#x44e;`" horiz-adv-x="642" 
d="M140 228h68q10 76 64 130q60 59 153 59q91 0 145 -54q51 -52 51 -143q0 -107 -67 -172q-61 -59 -154 -59q-87 0 -141 54q-55 57 -55 147h-69l-23 -190h-40l50 408h40zM406 27q68 0 117 48q56 54 56 140q0 71 -43 118q-42 46 -112 46q-72 0 -120 -46q-58 -55 -58 -140
q0 -73 46 -121q43 -45 114 -45zM452 620l40 -25l-121 -128l-28 16z" />
    <glyph glyph-name="afii10097.var.accented" unicode="&#x44f;`" horiz-adv-x="386" 
d="M28 0l152 178q-46 6 -74 32t-28 72q0 56 34 90q36 36 118 36h134l-50 -408h-40l22 176h-68l-150 -176h-50zM300 214l19 156h-96q-53 0 -78 -24q-23 -20 -23 -62q0 -37 25 -54q22 -16 74 -16h79zM324 620l40 -25l-121 -128l-28 16z" />
    <glyph glyph-name="afii10071.var.accented" unicode="&#x451;`" horiz-adv-x="487" 
d="M463 199h-348q-6 -38 6 -73.5t35 -58.5q40 -40 103 -40q56 0 97 29q34 25 53 64l31 -20q-30 -53 -73 -81q-45 -30 -109 -30q-86 0 -136 54q-51 55 -51 138q0 111 68 177q59 59 148 59q77 0 126 -47q59 -58 50 -171zM121 237h302q-1 63 -41 104q-36 38 -97 38
q-70 0 -117 -49q-36 -38 -47 -93zM348 523q0 15 12 27t29 12q16 0 24 -10t8 -22q0 -16 -11 -27q-12 -13 -30 -13q-13 0 -22 9q-10 10 -10 24zM164 523q0 15 12 27t29 12q16 0 24 -10t8 -22q0 -16 -11 -27q-12 -13 -30 -13q-13 0 -22 9q-10 10 -10 24zM342 620l34 -25
l-121 -128l-22 16z" />
    <glyph glyph-name="fi" unicode="fi" horiz-adv-x="442" 
d="M259 370h-102l-45 -370h-40l45 370h-46l5 38h46l20 163q11 89 50 128q42 42 111 42t108 -36q33 -31 33 -87q0 -28 -6 -64h-40q5 32 5 57q0 43 -25 67q-27 25 -76 25q-53 0 -84 -31q-28 -29 -36 -101l-20 -163h102zM380 408h40l-50 -408h-40z" />
    <glyph glyph-name="fl" unicode="fl" horiz-adv-x="442" 
d="M259 370h-102l-45 -370h-40l45 370h-46l5 38h46l20 163q11 89 50 128q42 42 111 42t108 -36q33 -31 33 -87q0 -19 -4 -47l-70 -571h-40l70 571q3 36 3 40q0 43 -25 67q-27 25 -76 25q-53 0 -84 -31q-28 -29 -36 -101l-20 -163h102z" />
    <glyph glyph-name=".notdef" horiz-adv-x="233" 
 />
    <glyph glyph-name=".null" horiz-adv-x="0" 
 />
    <glyph glyph-name="nonmarkingreturn" horiz-adv-x="333" 
 />
    <glyph glyph-name="space" unicode=" " horiz-adv-x="233" 
 />
    <glyph glyph-name="exclam" unicode="!" horiz-adv-x="260" 
d="M167 119h-44l67 548h44zM97 25q0 20 13 31t28 11q13 0 23 -8q10 -9 10 -24q0 -18 -12 -30t-30 -12q-11 0 -22 8q-10 8 -10 24z" />
    <glyph glyph-name="quotedbl" unicode="&#x22;" horiz-adv-x="280" 
d="M186 667l-40 -269h-30l26 269h44zM302 667l-40 -269h-30l26 269h44z" />
    <glyph glyph-name="numbersign" unicode="#" horiz-adv-x="600" 
d="M375 0h-40l60 221h-164l-60 -221h-40l60 221h-118l11 38h118l44 161h-118l10 38h118l58 209h40l-58 -209h164l58 209h40l-58 -209h118l-10 -38h-118l-44 -161h118l-11 -38h-118zM406 259l44 161h-164l-44 -161h164z" />
    <glyph glyph-name="dollar" unicode="$" horiz-adv-x="548" 
d="M514 590l-35 -27q-13 31 -37 49q-23 18 -57 23l-33 -269l30 -16q51 -27 77 -55q42 -44 42 -102q0 -42 -16.5 -83t-44.5 -67q-53 -51 -134 -51l-12 -99h-40l12 96q-83 2 -127 49q-36 38 -52 94l40 18q12 -52 44 -83q40 -38 100 -38l38 310l-24 13q-54 29 -78 55
q-35 38 -35 96q0 75 44 122q50 53 134 51l11 89h40l-11 -90q43 -6 76 -29q28 -20 48 -56zM346 319l-35 -287q59 3 98 40q20 20 32.5 52.5t12.5 60.5q0 48 -35 86q-21 22 -59 41zM314 386l31 250q-58 4 -95 -38q-31 -36 -31 -90q0 -48 31 -79q22 -22 64 -43z" />
    <glyph glyph-name="percent" unicode="%" horiz-adv-x="608" 
d="M92 1l478 681l28 -16l-478 -681zM461 256q59 0 97 -38q33 -33 33 -82q0 -64 -39 -103q-38 -39 -107 -39q-59 0 -92 32q-35 35 -35 86q0 60 39 101q41 43 104 43zM448 30q44 0 72 27q30 30 30 78q0 37 -21 59q-24 26 -67 26q-45 0 -74 -29t-29 -74q0 -37 23 -62
q24 -25 66 -25zM243 673q59 0 97 -38q33 -33 33 -82q0 -64 -39 -103q-38 -39 -107 -39q-59 0 -92 32q-35 35 -35 86q0 60 39 101q41 43 104 43zM230 447q44 0 72 27q30 30 30 78q0 37 -21 59q-24 26 -67 26q-45 0 -74 -29t-29 -74q0 -37 23 -62q24 -25 66 -25z" />
    <glyph glyph-name="ampersand" unicode="&#x26;" horiz-adv-x="617" 
d="M599 266l26 -31q-35 -41 -94 -97l85 -138h-56l-64 105l-27 -28q-32 -33 -80 -59q-61 -31 -130 -31q-82 0 -127 46q-46 48 -46 122q0 78 59 135q26 25 113 77l58 35l-21 42q-29 60 -29 100q0 58 39 97q37 38 96 38q60 0 92 -34q28 -30 28 -78q0 -58 -46 -104
q-22 -22 -55 -44l-44 -29l134 -217q44 40 89 93zM475 140l-139 228l-64 -37q-62 -37 -91 -65q-49 -49 -49 -113q0 -55 35 -90q36 -36 102 -36q56 0 103 27q50 31 73 55zM333 466l22 -42l46 29q34 21 53 46q23 28 23 68q0 33 -23 52q-22 18 -55 18q-37 0 -61 -23
q-27 -27 -27 -71q0 -35 22 -77z" />
    <glyph glyph-name="quotesingle" unicode="'" horiz-adv-x="164" 
d="M186 667l-40 -269h-30l26 269h44z" />
    <glyph glyph-name="parenleft" unicode="(" horiz-adv-x="282" 
d="M265 740l35 -23q-46 -118 -70 -213q-59 -224 -59 -404q0 -124 22 -237l-42 -23q-27 128 -27 269q0 197 64 418q32 109 77 213z" />
    <glyph glyph-name="parenright" unicode=")" horiz-adv-x="282" 
d="M158 717l41 23q28 -140 28 -270q0 -197 -54 -398q-34 -125 -84 -232l-38 23q39 92 70 202q60 215 60 403q0 129 -23 249z" />
    <glyph glyph-name="asterisk" unicode="*" horiz-adv-x="548" 
d="M209 640l119 -44l14 133h44l-20 -133l131 44l9 -41l-133 -38l68 -106l-38 -25l-63 110l-89 -110l-32 25l94 106l-123 38z" />
    <glyph glyph-name="plus" unicode="+" 
d="M71 310v38h197v182h40v-182h197v-38h-197v-182h-40v182h-197z" />
    <glyph glyph-name="comma" unicode="," horiz-adv-x="228" 
d="M21 -137l85 202l39 -12l-99 -200z" />
    <glyph glyph-name="hyphen" unicode="-" horiz-adv-x="300" 
d="M73 184l5 46h200l-5 -46h-200z" />
    <glyph glyph-name="period" unicode="." horiz-adv-x="202" 
d="M68 25q0 20 13 31t28 11q13 0 23 -8q10 -9 10 -24q0 -18 -12 -30t-30 -12q-11 0 -22 8q-10 8 -10 24z" />
    <glyph glyph-name="slash" unicode="/" horiz-adv-x="576" 
d="M1 -158l614 901l30 -16l-614 -901z" />
    <glyph glyph-name="zero" unicode="0" horiz-adv-x="548" 
d="M351 676q79 0 131 -54q75 -78 75 -229q0 -83 -27.5 -177.5t-92.5 -157.5q-69 -69 -166 -69q-76 0 -126 50q-37 37 -58 98.5t-21 133.5q0 91 29.5 180t87.5 149q73 76 168 76zM272 29q74 0 129 53q57 56 83.5 145.5t26.5 169.5q0 128 -62 196q-40 43 -102 43
q-73 0 -128 -57q-51 -52 -79.5 -136.5t-28.5 -170.5q0 -139 65 -204q39 -39 96 -39z" />
    <glyph glyph-name="one" unicode="1" horiz-adv-x="548" 
d="M272 0l77 627h-104l25 40h128l-82 -667h-44z" />
    <glyph glyph-name="two" unicode="2" horiz-adv-x="548" 
d="M471 0h-411l291 282q73 73 97 106q41 57 41 118q0 54 -36 90q-40 40 -108 40q-73 0 -115 -44q-43 -45 -48 -114h-44q8 87 60 140q56 58 149 58q85 0 137 -47q51 -46 51 -118q0 -73 -48 -139q-22 -34 -109 -118l-220 -214h318z" />
    <glyph glyph-name="three" unicode="3" horiz-adv-x="548" 
d="M94 162h44q5 -60 40 -97q35 -36 96 -36q70 0 113 47q45 50 45 125q0 63 -38 96q-36 32 -94 29l5 40q70 0 115 43q42 40 42 108q0 55 -34 87t-89 32q-61 0 -97 -39q-31 -34 -39 -89h-42q8 73 54 119q49 49 129 49q76 0 122 -46q43 -43 43 -110q0 -66 -35 -110
q-33 -42 -91 -62q45 -14 71 -54q25 -38 25 -88q0 -94 -57 -156q-57 -61 -151 -61q-78 0 -124 47t-53 126z" />
    <glyph glyph-name="four" unicode="4" horiz-adv-x="548" 
d="M500 689l-64 -522h93l-5 -40h-93l-16 -127h-44l16 127h-359zM113 167h279l48 390z" />
    <glyph glyph-name="five" unicode="5" horiz-adv-x="548" 
d="M552 667l-5 -40h-224l-78 -180q25 6 51 6q91 0 144 -51q57 -54 57 -148q0 -122 -74 -196q-68 -69 -188 -69q-71 0 -122 33q-44 29 -71 77l41 16q23 -41 59 -62q38 -24 104 -24q88 0 145 58q59 62 59 158q0 77 -44 121q-45 47 -120 47q-59 0 -110 -29l121 283h255z" />
    <glyph glyph-name="six" unicode="6" horiz-adv-x="548" 
d="M382 676l31 -26l-174 -210q33 16 77 16q99 0 161 -60q61 -59 61 -152q0 -52 -20 -103t-53 -85q-66 -67 -179 -67q-103 0 -164 61q-63 63 -63 159q0 67 30 121q20 36 98 125zM288 29q87 0 141 53q62 62 62 158q0 78 -52 128q-52 48 -135 48q-82 0 -136 -51
q-62 -58 -62 -153q0 -82 51 -133q50 -50 131 -50z" />
    <glyph glyph-name="seven" unicode="7" horiz-adv-x="548" 
d="M56 14l473 613h-403l5 40h483l-526 -678z" />
    <glyph glyph-name="eight" unicode="8" horiz-adv-x="548" 
d="M399 344q39 -15 63 -48q28 -39 28 -98q0 -93 -57 -152q-55 -57 -151 -57q-85 0 -134 50q-48 50 -48 119q0 71 39 124q36 49 92 64q-34 22 -54 55q-22 35 -22 77q0 86 51 140q55 58 142 58q71 0 118 -43q46 -44 46 -116q0 -64 -33 -111q-29 -41 -80 -62zM322 365
q61 0 100 39q44 42 44 112q0 58 -37 90q-33 30 -87 30q-60 0 -96 -36q-44 -42 -44 -117q0 -52 33 -85q35 -33 87 -33zM280 29q78 0 121 47q43 46 43 121q0 59 -38 95q-37 35 -99 35q-70 0 -112 -41q-48 -46 -48 -122q0 -56 35 -95q36 -40 98 -40z" />
    <glyph glyph-name="nine" unicode="9" horiz-adv-x="548" 
d="M243 -11l-31 26l171 207q-45 -14 -81 -14q-94 0 -155 62q-60 60 -60 151q0 111 74 185q71 70 178 70q99 0 160 -55q67 -60 67 -154q0 -54 -21 -102q-20 -46 -66 -99zM338 636q-84 0 -142 -55q-63 -61 -63 -155q0 -75 47 -126q48 -52 133 -52q86 0 143 56q63 63 63 158
q0 77 -49 124q-50 50 -132 50z" />
    <glyph glyph-name="colon" unicode=":" horiz-adv-x="202" 
d="M68 21q0 20 13 31t28 11q13 0 23 -8q10 -9 10 -24q0 -18 -12 -30t-30 -12q-11 0 -22 8q-10 8 -10 24zM111 375q0 20 13 31t28 11q13 0 23 -8q10 -9 10 -24q0 -18 -12 -30t-30 -12q-11 0 -22 8q-10 8 -10 24z" />
    <glyph glyph-name="semicolon" unicode=";" horiz-adv-x="228" 
d="M21 -137l85 202l39 -12l-99 -200zM113 375q0 20 13 31t28 11q13 0 23 -8q10 -9 10 -23q0 -19 -12 -31t-30 -12q-11 0 -22 8q-10 8 -10 24z" />
    <glyph glyph-name="less" unicode="&#x3c;" 
d="M85 347l434 192v-41l-390 -170l390 -170v-41l-434 192v38z" />
    <glyph glyph-name="equal" unicode="=" 
d="M71 381v38h434v-38h-434zM71 239v38h434v-38h-434z" />
    <glyph glyph-name="greater" unicode="&#x3e;" 
d="M496 309l-434 -192v41l390 170l-390 170v41l434 -192v-38z" />
    <glyph glyph-name="question" unicode="?" horiz-adv-x="470" 
d="M364 267h40q-6 -87 -52 -119q-37 -27 -95 -27q-62 0 -99 37q-34 36 -34 85q0 60 42 102q20 19 45 29t76 24q66 18 91 43q34 36 34 96q0 50 -29 79q-27 27 -79 27q-59 0 -89 -34q-33 -35 -33 -99q0 -16 3 -31h-44q-3 17 -3 34q0 76 46 124q44 46 124 46q69 0 109 -37
q42 -40 42 -107q0 -77 -49 -124q-37 -35 -98 -51l-30 -8q-64 -18 -86 -40q-27 -27 -27 -72q0 -36 23 -61q24 -24 69 -24q39 0 64 19q37 28 39 89zM203 21q0 20 13 31t28 11q13 0 23 -8q10 -9 10 -24q0 -18 -12 -30t-30 -12q-11 0 -22 8q-10 8 -10 24z" />
    <glyph glyph-name="at" unicode="@" horiz-adv-x="738" 
d="M543 413l24 78h32l-70 -222q-13 -42 -13 -61t11 -30t32 -11q43 0 78 31q35 32 55.5 91t20.5 114q0 99 -61 163q-75 78 -208 78q-149 0 -241 -97q-44 -45 -70 -114t-26 -143q0 -115 71 -191q77 -82 220 -82q65 0 135 18q49 13 94 38l8 -29q-53 -29 -107 -41
q-66 -16 -135 -16q-157 0 -244 94q-76 82 -76 211q0 83 30 156.5t80 123.5q102 102 266 102q141 0 223 -82q72 -74 72 -187q0 -57 -19.5 -119.5t-63.5 -104.5q-43 -42 -103 -42q-35 0 -52 17q-21 21 -16 56q-20 -32 -49 -52q-33 -23 -79 -23q-55 0 -90 35q-38 36 -38 105
q0 51 21.5 99.5t53.5 79.5q49 48 123 48q48 0 77 -25q30 -26 34 -66zM364 169q52 0 92 42q32 34 47 80.5t15 82.5q0 45 -25 72q-23 26 -68 26q-54 0 -94 -40q-30 -30 -46 -73.5t-16 -78.5q0 -53 26 -82q24 -29 69 -29z" />
    <glyph glyph-name="A" unicode="A" horiz-adv-x="586" 
d="M526 0l-62 219h-284l-116 -219h-50l365 687l193 -687h-46zM201 259h252l-86 316z" />
    <glyph glyph-name="B" unicode="B" horiz-adv-x="536" 
d="M90 0l82 667h128q97 0 143 -45q40 -38 40 -105q0 -83 -51 -132q-20 -20 -47 -31q48 -13 80 -45q40 -41 40 -109q0 -88 -56 -144q-35 -34 -85 -45t-118 -11h-116h-40zM211 627l-32 -262h96q83 0 123 40q39 39 39 107q0 56 -35 86q-35 29 -109 29h-82zM174 325l-35 -285
h112q61 0 100 9.5t67 38.5q40 42 40 110q0 53 -34 86q-43 41 -146 41h-104z" />
    <glyph glyph-name="C" unicode="C" horiz-adv-x="682" 
d="M700 589l-7 -58q-38 49 -89 76q-56 29 -124 29q-139 0 -237 -98q-48 -48 -74 -112.5t-26 -127.5q0 -113 77 -192q75 -77 190 -77q68 0 129 28q58 26 105 73l-7 -58q-47 -40 -96 -60q-55 -23 -132 -23q-135 0 -222 87q-92 92 -92 224q0 158 118 270q111 106 268 106
q73 0 136 -27q47 -23 83 -60z" />
    <glyph glyph-name="D" unicode="D" horiz-adv-x="620" 
d="M222 0h-90h-42l82 667h123q161 0 243 -93q69 -78 69 -208q0 -173 -104 -272q-99 -94 -281 -94zM211 627l-72 -587h87q156 0 243 87q93 92 93 244q0 109 -65 178q-74 78 -209 78h-77z" />
    <glyph glyph-name="E" unicode="E" horiz-adv-x="464" 
d="M492 667l-5 -40h-276l-30 -242h270l-5 -40h-270l-37 -305h276l-5 -40h-278h-42l82 667h320z" />
    <glyph glyph-name="F" unicode="F" horiz-adv-x="406" 
d="M442 667l-5 -40h-226l-30 -242h220l-5 -40h-220l-42 -345h-44l82 667h270z" />
    <glyph glyph-name="G" unicode="G" horiz-adv-x="773" 
d="M473 280l5 40h280q-14 -147 -104 -236q-96 -95 -239 -95q-141 0 -230 89q-90 89 -90 220q0 164 111 271q109 107 273 107q99 0 176 -49q63 -41 101 -107l-39 -28q-36 63 -84 97q-67 47 -156 47q-68 0 -131 -25.5t-107 -68.5q-47 -46 -73 -110t-26 -129q0 -113 76 -193
q78 -81 192 -81q133 0 220 90q64 66 80 161h-235z" />
    <glyph glyph-name="H" unicode="H" horiz-adv-x="672" 
d="M216 667l-35 -283h404l35 283h44l-82 -667h-44l42 344h-404l-42 -344h-44l82 667h44z" />
    <glyph glyph-name="I" unicode="I" horiz-adv-x="224" 
d="M172 667h44l-82 -667h-44z" />
    <glyph glyph-name="J" unicode="J" horiz-adv-x="268" 
d="M216 667h44l-65 -528q-11 -88 -42 -119q-32 -31 -88 -31q-43 0 -71 23q-23 18 -36 49l34 24q9 -26 26 -40q18 -16 50 -16q34 0 53 20q23 23 29 81z" />
    <glyph glyph-name="K" unicode="K" horiz-adv-x="540" 
d="M216 667l-39 -314l354 314h58l-364 -320l299 -347h-58l-275 318l-20 -17l-37 -301h-44l82 667h44z" />
    <glyph glyph-name="L" unicode="L" horiz-adv-x="334" 
d="M172 667h44l-77 -627h186l-5 -40h-230z" />
    <glyph glyph-name="M" unicode="M" horiz-adv-x="896" 
d="M127 0h-44l161 690l213 -617l365 617l-9 -690h-44l7 536l-331 -560l-193 560z" />
    <glyph glyph-name="N" unicode="N" horiz-adv-x="784" 
d="M134 0h-44l83 674l488 -588l71 581h44l-84 -684l-488 588z" />
    <glyph glyph-name="O" unicode="O" horiz-adv-x="805" 
d="M479 676q141 0 231 -92q82 -85 82 -215q0 -168 -112 -277q-106 -103 -267 -103q-141 0 -227 85q-91 89 -91 222q0 71 29 142.5t85 128.5q108 109 270 109zM407 29q146 0 240 92q48 48 74 114.5t26 131.5q0 116 -76 192q-77 77 -196 77q-137 0 -232 -93
q-102 -101 -102 -243q0 -113 73 -191q76 -80 193 -80z" />
    <glyph glyph-name="P" unicode="P" horiz-adv-x="448" 
d="M259 317h-86l-39 -317h-44l82 667h129q89 0 135 -47q41 -41 41 -112q0 -84 -49 -135q-54 -56 -169 -56zM211 627l-33 -270h88q82 0 123 39q40 38 40 110q0 51 -29 82q-17 18 -39.5 27t-37.5 10.5t-41 1.5h-71z" />
    <glyph glyph-name="Q" unicode="Q" horiz-adv-x="805" 
d="M735 0h-54l-49 61q-90 -72 -218 -72q-140 0 -230 92q-89 91 -89 223q0 77 30 146t81 118q51 50 123 79t151 29q135 0 225 -88q87 -85 87 -217q0 -87 -39 -169q-33 -70 -90 -115zM515 273l123 -151q50 49 75 98q34 65 34 145q0 117 -76 193q-79 79 -202 79
q-134 0 -229 -93q-44 -43 -71.5 -105.5t-27.5 -125.5q0 -58 23.5 -114.5t62.5 -94.5q77 -75 189 -75q101 0 189 65l-144 179h54z" />
    <glyph glyph-name="R" unicode="R" horiz-adv-x="470" 
d="M420 0h-50l-177 315h-20l-39 -315h-44l82 667h104q93 0 141 -46q41 -40 41 -111q0 -89 -53 -140q-57 -55 -164 -55zM211 627l-33 -272h64q88 0 130 40q40 38 40 109q0 58 -36 90q-36 33 -110 33h-55z" />
    <glyph glyph-name="S" unicode="S" horiz-adv-x="514" 
d="M497 581l-35 -27q-10 28 -28 46.5t-38 25t-31.5 8.5t-21.5 2q-63 0 -103 -40q-39 -39 -39 -94q0 -40 28 -70q8 -8 18.5 -16t18 -12.5t22 -12t21.5 -11.5l33 -18q9 -5 28.5 -15.5t29 -16t22.5 -14.5t22 -19q40 -40 40 -101q0 -90 -62 -149q-60 -58 -166 -58q-85 0 -134 49
q-36 36 -52 94l40 18q14 -50 44 -80q41 -41 104 -41q85 0 132 44q46 44 46 116q0 49 -32 81q-9 9 -22 18t-21 13.5t-25.5 13.5t-21.5 11l-46 25q-47 26 -75 55q-38 40 -38 94q0 71 51 122q56 54 139 54q51 0 92 -24t60 -71z" />
    <glyph glyph-name="T" unicode="T" horiz-adv-x="418" 
d="M481 627h-173l-77 -627h-44l77 627h-173l5 40h390z" />
    <glyph glyph-name="U" unicode="U" horiz-adv-x="633" 
d="M171 667h44l-51 -417q-4 -33 -5 -46.5t0 -42t11 -50t29 -39.5q44 -43 124 -43q93 0 145 52q22 22 35 52.5t17.5 53t9.5 63.5l51 417h44l-51 -417q-5 -43 -9.5 -67t-22 -63.5t-46.5 -68.5q-63 -62 -174 -62q-104 0 -159 55q-36 37 -45 93t2 113z" />
    <glyph glyph-name="V" unicode="V" horiz-adv-x="510" 
d="M96 667h48l126 -568l260 568h48l-323 -694z" />
    <glyph glyph-name="W" unicode="W" horiz-adv-x="984" 
d="M96 667h46l114 -566l315 602l152 -602l279 566h50l-342 -692l-152 606l-322 -606z" />
    <glyph glyph-name="X" unicode="X" horiz-adv-x="470" 
d="M23 0l225 340l-135 327h46l116 -285l187 285h50l-214 -327l141 -340h-46l-124 300l-196 -300h-50z" />
    <glyph glyph-name="Y" unicode="Y" horiz-adv-x="516" 
d="M233 0l35 285l-172 382h48l151 -337l237 337h52l-272 -382l-35 -285h-44z" />
    <glyph glyph-name="Z" unicode="Z" horiz-adv-x="554" 
d="M599 667l-483 -627h395l-5 -40h-469l483 627h-367l5 40h441z" />
    <glyph glyph-name="bracketleft" unicode="[" horiz-adv-x="278" 
d="M323 689h-106l-100 -809h106l-5 -40h-103h-47l110 889h150z" />
    <glyph glyph-name="backslash" unicode="\" horiz-adv-x="576" 
d="M537 -158l-34 -16l-394 901l34 16z" />
    <glyph glyph-name="bracketright" unicode="]" horiz-adv-x="278" 
d="M25 -120h106l100 809h-106l5 40h150l-110 -889h-45h-105z" />
    <glyph glyph-name="asciicircum" unicode="^" 
d="M297 636l-167 -254h-46l186 285h54l186 -285h-46z" />
    <glyph glyph-name="underscore" unicode="_" 
d="M0 -116v38h500v-38h-500z" />
    <glyph glyph-name="grave" unicode="`" 
d="M305 467l-89 128l46 25l75 -137z" />
    <glyph glyph-name="a" unicode="a" horiz-adv-x="518" 
d="M446 328l10 80h40l-50 -408h-40l8 63q-26 -36 -60 -53q-42 -21 -94 -21q-80 0 -130 47q-59 54 -59 148q0 111 69 177q58 56 151 56q59 0 99 -27q36 -24 56 -62zM283 379q-70 0 -115 -45q-55 -55 -55 -147q0 -77 47 -122q40 -38 104 -38q56 0 97 30q40 30 57 76t17 88
q0 75 -42 117q-39 41 -110 41z" />
    <glyph glyph-name="b" unicode="b" horiz-adv-x="518" 
d="M162 729h40l-48 -388q24 33 57 52q42 24 95 24q86 0 138 -52q53 -53 53 -138q0 -111 -69 -180q-60 -58 -146 -58q-59 0 -100 29q-37 25 -59 68l-11 -86h-40zM288 27q67 0 110 43q26 25 41.5 68.5t15.5 88.5q0 65 -42 109q-43 43 -106 43q-68 0 -117 -47q-56 -54 -56 -142
q0 -76 46 -122q41 -41 108 -41z" />
    <glyph glyph-name="c" unicode="c" horiz-adv-x="444" 
d="M446 365l-7 -53q-26 30 -56 46q-39 21 -81 21q-85 0 -135 -53q-54 -54 -54 -140q0 -67 42 -114q41 -45 115 -45q47 0 84 19q38 20 64 54l-7 -58q-30 -24 -58 -37q-38 -16 -85 -16q-90 0 -144 54q-53 55 -53 143q0 104 68 170q63 61 162 61q44 0 89 -18q26 -11 56 -34z
" />
    <glyph glyph-name="d" unicode="d" horiz-adv-x="519" 
d="M447 326l50 403h40l-90 -729h-40l7 58q-28 -33 -64 -51q-37 -18 -85 -18q-92 0 -142 54q-52 56 -52 148q0 101 67 168q59 58 150 58q59 0 102 -28q37 -24 57 -63zM285 379q-65 0 -112 -45q-58 -56 -58 -144q0 -75 45 -121q39 -42 105 -42q69 0 116 45q55 54 55 152
q0 72 -44 114q-41 41 -107 41z" />
    <glyph glyph-name="e" unicode="e" horiz-adv-x="487" 
d="M463 199h-348q-6 -38 6 -73.5t35 -58.5q40 -40 103 -40q56 0 97 29q34 25 53 64l31 -20q-30 -53 -73 -81q-45 -30 -109 -30q-86 0 -136 54q-51 54 -51 139q0 108 68 176q59 59 146 59q79 0 128 -47q59 -57 50 -171zM121 237h302q-1 63 -41 104q-36 38 -97 38
q-70 0 -117 -49q-36 -38 -47 -93z" />
    <glyph glyph-name="f" unicode="f" horiz-adv-x="214" 
d="M259 370h-102l-45 -370h-40l45 370h-46l5 38h46l24 194q9 80 40 111q28 28 75 28q21 0 43 -6l-4 -37q-17 5 -35 5q-32 0 -51 -19q-21 -21 -29 -90l-23 -186h102z" />
    <glyph glyph-name="g" unicode="g" horiz-adv-x="520" 
d="M458 408h40l-48 -396q-16 -128 -67 -181q-58 -61 -160 -61q-87 0 -135 48q-50 48 -51 127h42q2 -60 36 -96q39 -41 113 -41q78 0 123 45q44 44 59 159l7 58q-26 -38 -66 -58q-45 -23 -95 -23q-88 0 -137 52q-52 56 -52 143q0 105 66 172q58 61 154 61q67 0 111 -28
q31 -22 51 -52zM288 379q-71 0 -119 -45q-58 -55 -58 -150q0 -67 43 -114q40 -43 112 -43q71 0 117 47q54 57 54 150q0 74 -43 115q-40 40 -106 40z" />
    <glyph glyph-name="h" unicode="h" horiz-adv-x="442" 
d="M72 0l90 729h40l-48 -385q18 31 45 49q34 24 82 24q57 0 90 -31q41 -38 31 -129l-32 -257h-40l32 257q8 69 -21 98q-24 24 -65 24q-51 0 -86 -35q-41 -41 -52 -132l-26 -212h-40z" />
    <glyph glyph-name="i" unicode="i" horiz-adv-x="184" 
d="M122 408h40l-50 -408h-40zM154 507q-14 0 -23 9q-8 8 -8 22q0 21 13 32q11 11 27 11q14 0 23 -9t9 -23q0 -18 -12 -30t-29 -12z" />
    <glyph glyph-name="j" unicode="j" horiz-adv-x="184" 
d="M122 408h40l-79 -638h-40zM154 507q-14 0 -23 9q-8 8 -8 22q0 21 13 32q11 11 27 11q14 0 23 -9t9 -23q0 -18 -12 -30t-29 -12z" />
    <glyph glyph-name="k" unicode="k" horiz-adv-x="393" 
d="M162 729h40l-61 -496l189 175h52l-195 -179l198 -229h-51l-176 202l-24 -21l-22 -181h-40z" />
    <glyph glyph-name="l" unicode="l" horiz-adv-x="184" 
d="M162 729h40l-90 -729h-40z" />
    <glyph glyph-name="m" unicode="m" horiz-adv-x="653" 
d="M72 0l50 408h40l-6 -51q15 27 40 42q29 18 67 18q47 0 75 -21q26 -19 36 -53q14 33 43 52q32 22 78 22q58 0 91 -33q28 -29 28 -76q0 -26 -5 -68l-29 -240h-40l29 237q5 40 5 57q0 38 -22 62q-22 23 -63 23q-44 0 -71 -26q-32 -31 -43 -117l-29 -236h-40l29 235
q5 40 5 58q0 42 -21 63q-23 23 -63 23q-45 0 -72 -29q-34 -36 -44 -121l-28 -229h-40z" />
    <glyph glyph-name="n" unicode="n" horiz-adv-x="442" 
d="M72 0l50 408h40l-8 -64q17 32 47 51q33 22 81 22q60 0 92 -32q31 -31 31 -81q0 -6 -6 -72l-29 -232h-40l29 238q5 47 5 54q0 39 -22 62q-23 25 -69 25q-51 0 -84 -32q-38 -37 -51 -135l-26 -212h-40z" />
    <glyph glyph-name="o" unicode="o" horiz-adv-x="524" 
d="M300 417q95 0 152 -57q51 -51 51 -141q0 -107 -67 -170q-64 -60 -167 -60q-91 0 -144 56q-54 56 -54 142q0 47 18.5 92.5t49.5 76.5q64 61 161 61zM275 27q76 0 126 46q60 56 60 142q0 69 -43 116q-46 48 -122 48q-73 0 -124 -46q-59 -53 -59 -140q0 -73 46 -121
q43 -45 116 -45z" />
    <glyph glyph-name="p" unicode="p" horiz-adv-x="518" 
d="M121 73l-36 -303h-40l77 638h40l-9 -71q22 33 61 55q44 25 102 25q82 0 132 -50q49 -51 49 -136q0 -116 -69 -183q-59 -59 -148 -59q-59 0 -105 29q-34 22 -54 55zM279 27q73 0 117 40q59 54 59 157q0 74 -45 117q-38 38 -98 38q-73 0 -122 -49q-56 -56 -56 -149
q0 -71 45 -116q39 -38 100 -38z" />
    <glyph glyph-name="q" unicode="q" horiz-adv-x="518" 
d="M418 -230h-40l37 303q-29 -44 -71 -64t-95 -20q-82 0 -129 51q-49 51 -49 136q0 111 71 182q60 59 156 59q56 0 95 -25q31 -19 54 -55l9 71h40zM292 379q-75 0 -125 -52q-54 -57 -54 -148q0 -73 45 -116q37 -36 99 -36q68 0 116 42q62 57 62 158q0 71 -42 113
q-38 39 -101 39z" />
    <glyph glyph-name="r" unicode="r" horiz-adv-x="260" 
d="M72 0l50 408h40l-6 -53q15 29 39 44q26 18 60 18q21 0 40 -10l-24 -36q-11 8 -29 8q-32 0 -56 -26q-35 -37 -48 -148l-26 -205h-40z" />
    <glyph glyph-name="s" unicode="s" horiz-adv-x="342" 
d="M331 351l-36 -18q-7 21 -23 33q-20 13 -45 13q-35 0 -57 -22q-18 -18 -18 -45q0 -22 16 -39q13 -13 42 -25l31 -13q41 -17 60 -36q27 -28 27 -72q0 -56 -36 -95q-41 -43 -112 -43q-59 0 -94 35q-28 28 -36 73l40 12q6 -36 27 -57q25 -25 64 -25q47 0 75 26q29 29 29 69
q0 30 -19 49q-14 14 -49 29l-24 10q-39 16 -59 37q-24 24 -24 59q0 45 30 75q35 36 90 36q40 0 66 -18t35 -48z" />
    <glyph glyph-name="t" unicode="t" horiz-adv-x="194" 
d="M231 370h-71l-45 -370h-40l45 370h-45l5 38h45l18 146h40l-18 -146h71z" />
    <glyph glyph-name="u" unicode="u" horiz-adv-x="437" 
d="M121 408h40l-30 -246q-10 -79 25 -111q27 -24 70 -24q53 0 83 32q28 30 36 103l30 246h40l-34 -257q-12 -86 -41 -119q-39 -43 -116 -43q-66 0 -102 37q-42 44 -31 134z" />
    <glyph glyph-name="v" unicode="v" horiz-adv-x="390" 
d="M58 408h42l102 -339l184 339h46l-239 -433z" />
    <glyph glyph-name="w" unicode="w" horiz-adv-x="672" 
d="M58 408h42l100 -337l185 362l97 -362l186 337h46l-242 -433l-97 362l-185 -362z" />
    <glyph glyph-name="x" unicode="x" horiz-adv-x="398" 
d="M8 0l191 214l-127 194h47l108 -168l148 168h49l-172 -194l138 -214h-47l-120 188l-166 -188h-49z" />
    <glyph glyph-name="y" unicode="y" horiz-adv-x="428" 
d="M78 -230l123 223l-143 415h44l127 -363l193 363h48l-346 -638h-46z" />
    <glyph glyph-name="z" unicode="z" horiz-adv-x="452" 
d="M484 408l-375 -370h328l-5 -38h-414l379 370h-282l5 38h364z" />
    <glyph glyph-name="braceleft" unicode="{" horiz-adv-x="278" 
d="M73 270l4 29q27 7 43 23q22 22 29 78l23 193q9 69 37 99q34 37 114 37h7l-5 -40h-2q-59 0 -82 -23q-18 -18 -26 -76l-24 -192q-8 -63 -30 -87q-18 -20 -47 -27q23 -9 36 -30q21 -32 14 -86l-22 -169q-3 -21 -3 -47q0 -40 16 -56t61 -16h9l-5 -40h-9q-65 0 -91 27
q-25 25 -25 83q0 2 4 50l21 170q7 60 -14 82q-14 14 -33 18z" />
    <glyph glyph-name="bar" unicode="|" 
d="M230 -250v1000h40v-1000h-40z" />
    <glyph glyph-name="braceright" unicode="}" horiz-adv-x="278" 
d="M275 299l-4 -29q-24 -6 -41 -23q-24 -25 -30 -77l-22 -176q-10 -88 -44 -121t-107 -33h-9l5 40h7q51 0 74 23q21 21 30 90l22 175q9 62 36 90q16 16 42 26q-20 8 -33 21q-20 20 -20 56q0 11 5 51l18 152q5 44 5 58q0 36 -19 52q-17 15 -64 15h-3l5 40h6q69 0 98 -30
q23 -23 23 -66q0 -8 -7 -71l-17 -137q-5 -38 -5 -56q0 -35 17 -53q13 -13 32 -17z" />
    <glyph glyph-name="asciitilde" unicode="~" 
d="M112 195l-25 16q29 44 54 67q40 35 88 35q38 0 109 -39q4 -2 14 -8t14 -8l12 -6t11.5 -5.5l10.5 -4.5t12 -3.5t11.5 -1.5t12.5 -1q44 0 76 32q16 16 36 46l26 -16q-21 -35 -44 -58q-41 -42 -97 -42q-27 0 -49.5 7.5t-69.5 34.5q-60 35 -91 35q-38 0 -68 -27
q-20 -19 -43 -53z" />
    <glyph glyph-name="uni00A0" unicode="&#xa0;" horiz-adv-x="233" 
 />
    <glyph glyph-name="exclamdown" unicode="&#xa1;" horiz-adv-x="260" 
d="M156 318h44l-68 -548h-44zM152 402q0 20 13 31t28 11q13 0 23 -8q10 -9 10 -24q0 -18 -12 -30t-30 -12q-11 0 -22 8q-10 8 -10 24z" />
    <glyph glyph-name="cent" unicode="&#xa2;" horiz-adv-x="548" 
d="M400 655l-12 -102q40 -3 71 -17q29 -14 52 -34l-7 -53q-22 32 -52 48q-31 16 -69 18l-43 -352q40 -2 78 15q37 16 64 51l-7 -54q-25 -24 -62 -37q-39 -13 -77 -12l-14 -113h-38l14 114q-67 10 -109 54q-53 53 -53 141q0 105 65 170q60 60 149 60l12 103h38zM302 165
l43 349q-66 -1 -112 -47q-25 -25 -39.5 -65.5t-14.5 -81.5q0 -69 40 -112q34 -36 83 -43z" />
    <glyph glyph-name="sterling" unicode="&#xa3;" horiz-adv-x="548" 
d="M130 273l4 40h98l-16 35q-1 2 -10.5 22t-11 24.5t-8.5 21.5t-8.5 25.5t-4 22t-2.5 25.5q0 78 55 133q52 52 133 52q80 0 125 -47q37 -38 37 -102q0 -21 -3 -36h-44q3 15 3 28q0 49 -29 81q-32 36 -88 36q-59 0 -98 -39q-44 -42 -44 -106q0 -35 16 -71q5 -13 16.5 -35.5
t16.5 -33.5l17 -36h121l-4 -40h-107q11 -33 11 -71q0 -69 -61 -132l62 -22q49 -17 71 -17q59 0 101 69l34 -22q-21 -39 -57 -65t-80 -26q-13 0 -28 3t-24.5 6t-30 10.5t-28.5 10.5q-54 19 -77 19q-41 0 -96 -46l-20 32q59 57 126 57q63 60 63 125q0 35 -15 69h-115z" />
    <glyph glyph-name="currency" unicode="&#xa4;" horiz-adv-x="548" 
d="M84 90l-24 25l90 89q-56 61 -56 146q0 84 53 143l-90 90l24 24l90 -89q60 56 147 56q83 0 147 -56l90 89l24 -24l-90 -90q54 -59 54 -144q0 -83 -55 -143l91 -91l-24 -24l-91 91q-57 -55 -144 -55t-146 53zM505 349q0 38 -15.5 74.5t-38.5 59.5q-53 55 -133 55
q-76 0 -130 -54q-56 -56 -56 -134q0 -76 54 -132q53 -55 132 -55q78 0 132 55q55 55 55 131z" />
    <glyph glyph-name="yen" unicode="&#xa5;" horiz-adv-x="548" 
d="M548 391h-145l-74 -103h206l-5 -40h-207l-30 -248h-44l30 248h-200l5 40h198l-46 103h-139l5 40h116l-105 236h49l149 -335l235 335h53l-168 -236h122z" />
    <glyph glyph-name="brokenbar" unicode="&#xa6;" 
d="M230 390v360h40v-360h-40zM230 -250v360h40v-360h-40z" />
    <glyph glyph-name="section" unicode="&#xa7;" horiz-adv-x="544" 
d="M114 13h44q-1 -5 -1 -21q0 -56 27 -83q28 -29 82 -29q61 0 91 34q30 33 30 87q0 45 -37 78q-9 8 -21.5 15t-20 10t-25 9.5t-21.5 7.5q-59 21 -89 52q-42 45 -42 112t35 110q33 43 92 57q-30 16 -51 47q-23 35 -23 76q0 73 46 119t124 46q76 0 116 -40q18 -18 27 -43
t10.5 -41t1.5 -43v-5h-44v7q0 68 -29 97q-28 28 -85 28q-55 0 -87 -32q-33 -33 -33 -85q0 -41 30 -70q24 -23 88 -48q70 -29 96 -56q38 -39 38 -106q0 -63 -31 -104q-35 -47 -98 -65q35 -17 56 -46q24 -34 24 -83q0 -72 -41 -116q-45 -49 -127 -49q-77 0 -115 38
q-38 36 -38 109q0 17 1 26zM311 421q-56 0 -95 -37q-39 -39 -39 -101q0 -54 34 -86q34 -34 92 -34q60 0 96 38q37 39 37 101q0 55 -37 88q-36 31 -88 31z" />
    <glyph glyph-name="dieresis" unicode="&#xa8;" 
d="M361 523q0 15 12 27t29 12q16 0 24 -10t8 -22q0 -16 -11 -27q-12 -13 -30 -13q-13 0 -22 9q-10 10 -10 24zM195 523q0 15 12 27t29 12q16 0 24 -10t8 -22q0 -16 -11 -27q-12 -13 -30 -13q-13 0 -22 9q-10 10 -10 24z" />
    <glyph glyph-name="copyright" unicode="&#xa9;" horiz-adv-x="740" 
d="M554 474v-53q-52 68 -129 68q-69 0 -113 -45q-46 -48 -46 -116q0 -66 46 -113q44 -45 113 -45q78 0 129 65v-52q-60 -49 -129 -49q-86 0 -141 55q-56 54 -56 137q0 90 58 146q54 53 138 53q75 0 130 -51zM754 334q0 -65 -27 -132t-77 -116q-98 -96 -239 -96t-239 96
q-50 49 -77 116t-27 132t27 131.5t77 115.5q98 96 239 96t239 -96q50 -49 77 -115.5t27 -131.5zM411 647q-121 0 -210 -84q-45 -43 -72 -104.5t-27 -124.5q0 -64 27 -125.5t72 -104.5q89 -84 210 -84t210 84q45 43 72 104.5t27 125.5q0 63 -27 124.5t-72 104.5
q-89 84 -210 84z" />
    <glyph glyph-name="ordfeminine" unicode="&#xaa;" horiz-adv-x="340" 
d="M344 612l5 49h26l-33 -268h-26l5 43q-16 -21 -41 -35t-62 -14q-54 0 -87 32q-36 35 -36 95q0 68 41 111q40 42 105 42q35 0 65 -17q25 -15 38 -38zM238 643q-51 0 -81 -33q-33 -36 -33 -94q0 -49 29 -78q27 -27 71 -27q50 0 79 33q33 35 33 95q0 47 -27 76q-26 28 -71 28
zM78 325h255l-5 -34h-255z" />
    <glyph glyph-name="guillemotleft" unicode="&#xab;" horiz-adv-x="348" 
d="M105 207l93 -126l-29 -24l-112 150l149 150l23 -24zM211 207l93 -126l-29 -24l-112 150l149 150l23 -24z" />
    <glyph glyph-name="logicalnot" unicode="&#xac;" 
d="M480 0h-40v229h-394v38h434v-267z" />
    <glyph glyph-name="uni00AD" unicode="&#xad;" horiz-adv-x="300" 
d="M73 184l5 46h200l-5 -46h-200z" />
    <glyph glyph-name="registered" unicode="&#xae;" horiz-adv-x="740" 
d="M536 135h-40l-117 171h-7v-171h-34v370h71q54 0 82 -26q27 -27 27 -71q0 -47 -27 -73q-29 -29 -73 -30zM372 474v-137h36q40 0 58 19q17 17 17 50q0 35 -17 51q-17 17 -56 17h-38zM754 334q0 -65 -27 -132t-77 -116q-98 -96 -239 -96t-239 96q-50 49 -77 116t-27 132
t27 131.5t77 115.5q98 96 239 96t239 -96q50 -49 77 -115.5t27 -131.5zM411 647q-121 0 -210 -84q-45 -43 -72 -104.5t-27 -124.5q0 -64 27 -125.5t72 -104.5q89 -84 210 -84t210 84q45 43 72 104.5t27 125.5q0 63 -27 124.5t-72 104.5q-89 84 -210 84z" />
    <glyph glyph-name="macron" unicode="&#xaf;" 
d="M176 493l4 39h270l-4 -39h-270z" />
    <glyph glyph-name="degree" unicode="&#xb0;" horiz-adv-x="502" 
d="M326 667q59 0 97 -38q31 -32 31 -80q0 -63 -39 -102q-42 -42 -106 -42q-59 0 -95 38q-32 34 -32 83q0 58 39 99q42 42 105 42zM313 441q44 0 71 25q30 27 30 78q0 40 -24 64q-25 23 -67 23q-44 0 -70 -26q-31 -29 -31 -79q0 -36 24 -60q25 -25 67 -25z" />
    <glyph glyph-name="plusminus" unicode="&#xb1;" 
d="M60 339v38h197v181h40v-181h197v-38h-197v-181h-40v181h-197zM60 76v38h434v-38h-434z" />
    <glyph glyph-name="twosuperior" unicode="&#xb2;" horiz-adv-x="331" 
d="M316 266h-246l167 169q37 37 55 64q22 31 22 66q0 31 -18 49q-21 21 -59 21q-39 0 -59 -20q-24 -24 -28 -62h-36q7 52 38 84q33 34 88 34q56 0 88 -32q27 -27 27 -71q0 -40 -23 -75q-12 -19 -52 -61l-126 -130h166z" />
    <glyph glyph-name="threesuperior" unicode="&#xb3;" horiz-adv-x="331" 
d="M93 365h36q0 -30 18 -48q19 -19 53 -19t58 20q26 24 26 68q0 35 -22 53t-61 18h-5l5 36q55 0 81 26q20 22 20 55q0 28 -16 44q-18 18 -48 18q-32 0 -50 -22q-14 -17 -19 -42h-36q7 44 35 72t71 28q45 0 75 -28q28 -28 28 -70q0 -43 -28 -71q-20 -20 -48 -27q24 -8 39 -27
q18 -23 18 -59q0 -59 -35 -94q-33 -34 -89 -34q-51 0 -80 31q-26 28 -26 72z" />
    <glyph glyph-name="acute" unicode="&#xb4;" 
d="M381 620l40 -25l-121 -128l-28 16z" />
    <glyph glyph-name="mu" unicode="&#xb5;" horiz-adv-x="499" 
d="M83 -230h-40l78 638h40l-22 -186q-6 -48 -6 -70q0 -58 33 -91q34 -34 90 -34q61 0 99 38q44 43 58 153l24 190h40l-50 -408h-40l9 74q-22 -39 -54 -61q-36 -24 -89 -24q-56 0 -90 27q-28 22 -42 62z" />
    <glyph glyph-name="mu" unicode="&#x3bc;" horiz-adv-x="499" 
d="M83 -230h-40l78 638h40l-22 -186q-6 -48 -6 -70q0 -58 33 -91q34 -34 90 -34q61 0 99 38q44 43 58 153l24 190h40l-50 -408h-40l9 74q-22 -39 -54 -61q-36 -24 -89 -24q-56 0 -90 27q-28 22 -42 62z" />
    <glyph glyph-name="paragraph" unicode="&#xb6;" horiz-adv-x="533" 
d="M247 -95h-36l50 406h-3q-81 0 -130 42q-50 43 -50 117q0 88 53 141q56 56 185 56h231l-4 -33h-53l-91 -729h-36l91 729h-117z" />
    <glyph glyph-name="periodcentered" unicode="&#xb7;" horiz-adv-x="200" 
d="M94 332q0 23 15 40q16 16 39 16q19 0 31 -12q11 -11 11 -28q0 -22 -15 -39q-16 -17 -39 -17q-19 0 -31 12q-11 11 -11 28z" />
    <glyph glyph-name="cedilla" unicode="&#xb8;" 
d="M263 -50l44 -20l-119 -124l-26 16z" />
    <glyph glyph-name="onesuperior" unicode="&#xb9;" horiz-adv-x="330" 
d="M185 267l44 364h-62l17 36h88l-49 -400h-38z" />
    <glyph glyph-name="ordmasculine" unicode="&#xba;" horiz-adv-x="343" 
d="M245 667q60 0 96 -33q37 -33 37 -94q0 -68 -42 -110q-43 -43 -112 -43q-56 0 -93 35t-37 94q0 68 45 111q43 40 106 40zM78 325h267l-5 -34h-267zM243 643q-51 0 -85 -33q-36 -34 -36 -94q0 -45 28 -75t77 -30q54 0 88 34q35 33 35 93q0 47 -28 75q-30 30 -79 30z" />
    <glyph glyph-name="guillemotright" unicode="&#xbb;" horiz-adv-x="348" 
d="M187 207l-92 126l29 24l111 -150l-148 -150l-23 24zM293 207l-92 126l29 24l111 -150l-148 -150l-23 24z" />
    <glyph glyph-name="onequarter" unicode="&#xbc;" horiz-adv-x="760" 
d="M185 267l44 364h-62l17 36h88l-49 -400h-38zM188 1l478 681l28 -16l-478 -681zM731 413l-37 -301h56l-5 -36h-56l-9 -76h-38l9 76h-204zM522 112h134l23 190z" />
    <glyph glyph-name="onehalf" unicode="&#xbd;" horiz-adv-x="761" 
d="M185 267l44 364h-62l17 36h88l-49 -400h-38zM158 1l478 681l28 -16l-478 -681zM713 0h-246l167 169q37 37 55 64q22 31 22 66q0 31 -18 49q-21 21 -59 21q-39 0 -59 -20q-24 -24 -28 -62h-36q7 52 38 84q33 34 88 34q56 0 88 -32q27 -27 27 -71q0 -40 -23 -75
q-12 -19 -52 -61l-126 -130h166z" />
    <glyph glyph-name="threequarters" unicode="&#xbe;" horiz-adv-x="760" 
d="M93 365h36q0 -30 18 -48q19 -19 53 -19t58 20q26 24 26 68q0 35 -22 53t-61 18h-5l5 36q55 0 81 26q20 22 20 55q0 28 -16 44q-18 18 -48 18q-32 0 -50 -22q-14 -17 -19 -42h-36q7 44 35 72t71 28q45 0 75 -28q28 -28 28 -70q0 -43 -28 -71q-20 -20 -48 -27q24 -8 39 -27
q18 -23 18 -59q0 -59 -35 -94q-33 -34 -89 -34q-51 0 -80 31q-26 28 -26 72zM208 1l478 681l28 -16l-478 -681zM731 413l-37 -301h56l-5 -36h-56l-9 -76h-38l9 76h-204zM522 112h134l23 190z" />
    <glyph glyph-name="questiondown" unicode="&#xbf;" horiz-adv-x="469" 
d="M169 174h-40q0 64 37 104q40 42 109 42q63 0 99 -37q33 -34 33 -88q0 -62 -40 -99q-28 -26 -97 -46l-38 -11q-58 -18 -85 -50q-27 -33 -27 -85q0 -49 30 -79q28 -27 77 -27q58 0 91 33q33 34 33 95q0 18 -3 36h44q2 -18 2 -33q0 -83 -45 -128q-43 -43 -120 -43
q-74 0 -115 41q-40 40 -40 104q0 62 38 109q37 45 108 65l43 12q55 16 71 32q29 26 29 75q0 39 -23 62q-26 24 -68 24q-50 0 -76 -29q-27 -30 -27 -79zM256 402q0 20 13 31t28 11q13 0 23 -8q10 -9 10 -24q0 -18 -12 -30t-30 -12q-11 0 -22 8q-10 8 -10 24z" />
    <glyph glyph-name="Agrave" unicode="&#xc0;" horiz-adv-x="586" 
d="M526 0l-62 219h-284l-116 -219h-50l365 687l193 -687h-46zM201 259h252l-86 316zM397 703l-118 126l53 25l100 -133z" />
    <glyph glyph-name="Aacute" unicode="&#xc1;" horiz-adv-x="586" 
d="M526 0l-62 219h-284l-116 -219h-50l365 687l193 -687h-46zM201 259h252l-86 316zM464 854l47 -25l-150 -126l-29 18z" />
    <glyph glyph-name="Acircumflex" unicode="&#xc2;" horiz-adv-x="586" 
d="M526 0l-62 219h-284l-116 -219h-50l365 687l193 -687h-46zM201 259h252l-86 316zM390 786l-104 -64l-31 27l141 90l119 -90l-37 -27z" />
    <glyph glyph-name="Atilde" unicode="&#xc3;" horiz-adv-x="586" 
d="M526 0l-62 219h-284l-116 -219h-50l365 687l193 -687h-46zM201 259h252l-86 316zM280 717l-26 22q13 24 27 38q22 22 53 22q19 0 49 -13l24 -11q24 -11 41 -11q14 0 25 11q9 7 19 27l27 -22q-13 -25 -30 -40q-23 -20 -48 -20q-19 0 -52 14l-21 9q-30 12 -41 12
q-16 0 -29 -12q-10 -9 -18 -26z" />
    <glyph glyph-name="Adieresis" unicode="&#xc4;" horiz-adv-x="586" 
d="M526 0l-62 219h-284l-116 -219h-50l365 687l193 -687h-46zM201 259h252l-86 316zM444 775q0 18 13 31q12 12 28 12t26 -10q9 -11 9 -24q0 -17 -13 -30q-12 -12 -31 -12q-14 0 -23 9q-9 8 -9 24zM258 775q0 18 13 31q12 12 28 12t26 -10q9 -11 9 -24q0 -17 -13 -30
q-12 -12 -31 -12q-14 0 -23 9q-9 8 -9 24z" />
    <glyph glyph-name="Aring" unicode="&#xc5;" horiz-adv-x="586" 
d="M526 0l-62 219h-284l-116 -219h-50l365 687l193 -687h-46zM201 259h252l-86 316zM309 779q0 37 25 62q26 26 62 26q34 0 55 -23q20 -22 20 -52q0 -35 -25 -60t-62 -25q-34 0 -54 20q-21 21 -21 52zM349 783q0 -16 10 -26q11 -11 29 -11q21 0 32 13q11 11 11 30
q0 18 -11 29q-12 10 -28 10q-18 0 -30 -12q-13 -13 -13 -33z" />
    <glyph glyph-name="AE" unicode="&#xc6;" horiz-adv-x="852" 
d="M523 0l-62 219h-285l-114 -219h-48l351 667h289l12 -40h-275l69 -242h268l12 -40h-268l87 -305h273l13 -40h-322zM197 259h252l-89 314z" />
    <glyph glyph-name="Ccedilla" unicode="&#xc7;" horiz-adv-x="682" 
d="M700 589l-7 -58q-38 49 -89 76q-56 29 -124 29q-139 0 -237 -98q-48 -48 -74 -112.5t-26 -127.5q0 -113 77 -192q75 -77 190 -77q68 0 129 28q58 26 105 73l-7 -58q-47 -40 -96 -60q-55 -23 -132 -23q-135 0 -222 87q-92 92 -92 224q0 158 118 270q111 106 268 106
q73 0 136 -27q47 -23 83 -60zM389 -50l44 -28l-129 -124l-28 20z" />
    <glyph glyph-name="Egrave" unicode="&#xc8;" horiz-adv-x="464" 
d="M492 667l-5 -40h-276l-30 -242h270l-5 -40h-270l-37 -305h276l-5 -40h-278h-42l82 667h320zM364 703l-118 126l53 25l100 -133z" />
    <glyph glyph-name="Eacute" unicode="&#xc9;" horiz-adv-x="464" 
d="M492 667l-5 -40h-276l-30 -242h270l-5 -40h-270l-37 -305h276l-5 -40h-278h-42l82 667h320zM421 854l47 -25l-150 -126l-29 18z" />
    <glyph glyph-name="Ecircumflex" unicode="&#xca;" horiz-adv-x="464" 
d="M492 667l-5 -40h-276l-30 -242h270l-5 -40h-270l-37 -305h276l-5 -40h-278h-42l82 667h320zM347 786l-104 -64l-31 27l141 90l119 -90l-37 -27z" />
    <glyph glyph-name="Edieresis" unicode="&#xcb;" horiz-adv-x="464" 
d="M492 667l-5 -40h-276l-30 -242h270l-5 -40h-270l-37 -305h276l-5 -40h-278h-42l82 667h320zM401 775q0 18 13 31q12 12 28 12t26 -10q9 -11 9 -24q0 -17 -13 -30q-12 -12 -31 -12q-14 0 -23 9q-9 8 -9 24zM215 775q0 18 13 31q12 12 28 12t26 -10q9 -11 9 -24
q0 -17 -13 -30q-12 -12 -31 -12q-14 0 -23 9q-9 8 -9 24z" />
    <glyph glyph-name="Igrave" unicode="&#xcc;" horiz-adv-x="224" 
d="M172 667h44l-82 -667h-44zM196 703l-88 134l58 17l73 -136z" />
    <glyph glyph-name="Iacute" unicode="&#xcd;" horiz-adv-x="224" 
d="M172 667h44l-82 -667h-44zM267 854l55 -17l-123 -134l-38 15z" />
    <glyph glyph-name="Icircumflex" unicode="&#xce;" horiz-adv-x="224" 
d="M172 667h44l-82 -667h-44zM208 782l-87 -60l-32 28l126 89l104 -89l-38 -27z" />
    <glyph glyph-name="Idieresis" unicode="&#xcf;" horiz-adv-x="224" 
d="M172 667h44l-82 -667h-44zM234 775q0 18 13 31q12 12 28 12t26 -10q9 -11 9 -24q0 -17 -13 -30q-12 -12 -31 -12q-14 0 -23 9q-9 8 -9 24zM106 775q0 18 13 31q12 12 28 12t26 -10q9 -11 9 -24q0 -17 -13 -30q-12 -12 -31 -12q-14 0 -23 9q-9 8 -9 24z" />
    <glyph glyph-name="Eth" unicode="&#xd0;" horiz-adv-x="620" 
d="M221 0h-87h-45l43 345h-90l5 40h90l34 282h123q161 0 243 -93q69 -78 69 -208q0 -167 -98 -266q-100 -100 -287 -100zM210 627l-29 -242h136l-5 -40h-136l-38 -305h87q154 0 243 87q93 91 93 244q0 109 -65 178q-74 78 -209 78h-77z" />
    <glyph glyph-name="Ntilde" unicode="&#xd1;" horiz-adv-x="784" 
d="M134 0h-44l83 674l488 -588l71 581h44l-84 -684l-488 588zM379 717l-26 22q13 24 27 38q22 22 53 22q19 0 49 -13l24 -11q24 -11 41 -11q14 0 25 11q9 7 19 27l27 -22q-13 -25 -30 -40q-23 -20 -48 -20q-19 0 -52 14l-21 9q-30 12 -41 12q-16 0 -29 -12q-10 -9 -18 -26z
" />
    <glyph glyph-name="Ograve" unicode="&#xd2;" horiz-adv-x="805" 
d="M479 676q141 0 231 -92q82 -85 82 -215q0 -168 -112 -277q-106 -103 -267 -103q-141 0 -227 85q-91 89 -91 222q0 71 29 142.5t85 128.5q108 109 270 109zM407 29q146 0 240 92q48 48 74 114.5t26 131.5q0 116 -76 192q-77 77 -196 77q-137 0 -232 -93
q-102 -101 -102 -243q0 -113 73 -191q76 -80 193 -80zM504 703l-118 126l53 25l100 -133z" />
    <glyph glyph-name="Oacute" unicode="&#xd3;" horiz-adv-x="805" 
d="M479 676q141 0 231 -92q82 -85 82 -215q0 -168 -112 -277q-106 -103 -267 -103q-141 0 -227 85q-91 89 -91 222q0 71 29 142.5t85 128.5q108 109 270 109zM407 29q146 0 240 92q48 48 74 114.5t26 131.5q0 116 -76 192q-77 77 -196 77q-137 0 -232 -93
q-102 -101 -102 -243q0 -113 73 -191q76 -80 193 -80zM571 854l47 -25l-150 -126l-29 18z" />
    <glyph glyph-name="Ocircumflex" unicode="&#xd4;" horiz-adv-x="805" 
d="M479 676q141 0 231 -92q82 -85 82 -215q0 -168 -112 -277q-106 -103 -267 -103q-141 0 -227 85q-91 89 -91 222q0 71 29 142.5t85 128.5q108 109 270 109zM407 29q146 0 240 92q48 48 74 114.5t26 131.5q0 116 -76 192q-77 77 -196 77q-137 0 -232 -93
q-102 -101 -102 -243q0 -113 73 -191q76 -80 193 -80zM497 786l-104 -64l-31 27l141 90l119 -90l-37 -27z" />
    <glyph glyph-name="Otilde" unicode="&#xd5;" horiz-adv-x="805" 
d="M479 676q141 0 231 -92q82 -85 82 -215q0 -168 -112 -277q-106 -103 -267 -103q-141 0 -227 85q-91 89 -91 222q0 71 29 142.5t85 128.5q108 109 270 109zM407 29q146 0 240 92q48 48 74 114.5t26 131.5q0 116 -76 192q-77 77 -196 77q-137 0 -232 -93
q-102 -101 -102 -243q0 -113 73 -191q76 -80 193 -80zM387 717l-26 22q13 24 27 38q22 22 53 22q19 0 49 -13l24 -11q24 -11 41 -11q14 0 25 11q9 7 19 27l27 -22q-13 -25 -30 -40q-23 -20 -48 -20q-19 0 -52 14l-21 9q-30 12 -41 12q-16 0 -29 -12q-10 -9 -18 -26z" />
    <glyph glyph-name="Odieresis" unicode="&#xd6;" horiz-adv-x="805" 
d="M479 676q141 0 231 -92q82 -85 82 -215q0 -168 -112 -277q-106 -103 -267 -103q-141 0 -227 85q-91 89 -91 222q0 71 29 142.5t85 128.5q108 109 270 109zM407 29q146 0 240 92q48 48 74 114.5t26 131.5q0 116 -76 192q-77 77 -196 77q-137 0 -232 -93
q-102 -101 -102 -243q0 -113 73 -191q76 -80 193 -80zM551 775q0 18 13 31q12 12 28 12t26 -10q9 -11 9 -24q0 -17 -13 -30q-12 -12 -31 -12q-14 0 -23 9q-9 8 -9 24zM365 775q0 18 13 31q12 12 28 12t26 -10q9 -11 9 -24q0 -17 -13 -30q-12 -12 -31 -12q-14 0 -23 9
q-9 8 -9 24z" />
    <glyph glyph-name="multiply" unicode="&#xd7;" 
d="M108 173l156 156l-156 156l27 27l156 -156l156 156l27 -27l-156 -156l156 -156l-27 -27l-156 156l-156 -156z" />
    <glyph glyph-name="Oslash" unicode="&#xd8;" horiz-adv-x="805" 
d="M473 676q135 0 227 -85l91 82l25 -31l-89 -80q63 -83 63 -193q0 -168 -112 -277q-106 -103 -267 -103q-73 0 -127 20t-102 67l-91 -81l-24 30l90 80q-64 86 -64 191q0 70 29 142t85 129q107 109 266 109zM407 29q146 0 238 92q48 48 74 114.5t26 131.5q0 90 -53 164
l-477 -425q77 -77 192 -77zM191 136l475 425q-80 75 -193 75q-137 0 -232 -93q-102 -101 -102 -243q0 -92 52 -164z" />
    <glyph glyph-name="Ugrave" unicode="&#xd9;" horiz-adv-x="633" 
d="M171 667h44l-51 -417q-4 -33 -5 -46.5t0 -42t11 -50t29 -39.5q44 -43 124 -43q93 0 145 52q22 22 35 52.5t17.5 53t9.5 63.5l51 417h44l-51 -417q-5 -43 -9.5 -67t-22 -63.5t-46.5 -68.5q-63 -62 -174 -62q-104 0 -159 55q-36 37 -45 93t2 113zM421 703l-118 126l53 25
l100 -133z" />
    <glyph glyph-name="Uacute" unicode="&#xda;" horiz-adv-x="633" 
d="M171 667h44l-51 -417q-4 -33 -5 -46.5t0 -42t11 -50t29 -39.5q44 -43 124 -43q93 0 145 52q22 22 35 52.5t17.5 53t9.5 63.5l51 417h44l-51 -417q-5 -43 -9.5 -67t-22 -63.5t-46.5 -68.5q-63 -62 -174 -62q-104 0 -159 55q-36 37 -45 93t2 113zM488 854l47 -25l-150 -126
l-29 18z" />
    <glyph glyph-name="Ucircumflex" unicode="&#xdb;" horiz-adv-x="633" 
d="M171 667h44l-51 -417q-4 -33 -5 -46.5t0 -42t11 -50t29 -39.5q44 -43 124 -43q93 0 145 52q22 22 35 52.5t17.5 53t9.5 63.5l51 417h44l-51 -417q-5 -43 -9.5 -67t-22 -63.5t-46.5 -68.5q-63 -62 -174 -62q-104 0 -159 55q-36 37 -45 93t2 113zM414 786l-104 -64l-31 27
l141 90l119 -90l-37 -27z" />
    <glyph glyph-name="Udieresis" unicode="&#xdc;" horiz-adv-x="633" 
d="M171 667h44l-51 -417q-4 -33 -5 -46.5t0 -42t11 -50t29 -39.5q44 -43 124 -43q93 0 145 52q22 22 35 52.5t17.5 53t9.5 63.5l51 417h44l-51 -417q-5 -43 -9.5 -67t-22 -63.5t-46.5 -68.5q-63 -62 -174 -62q-104 0 -159 55q-36 37 -45 93t2 113zM468 775q0 18 13 31
q12 12 28 12t26 -10q9 -11 9 -24q0 -17 -13 -30q-12 -12 -31 -12q-14 0 -23 9q-9 8 -9 24zM282 775q0 18 13 31q12 12 28 12t26 -10q9 -11 9 -24q0 -17 -13 -30q-12 -12 -31 -12q-14 0 -23 9q-9 8 -9 24z" />
    <glyph glyph-name="Yacute" unicode="&#xdd;" horiz-adv-x="516" 
d="M233 0l35 285l-172 382h48l151 -337l237 337h52l-272 -382l-35 -285h-44zM429 854l47 -25l-150 -126l-29 18z" />
    <glyph glyph-name="Thorn" unicode="&#xde;" horiz-adv-x="448" 
d="M90 0l82 667h44l-15 -120h85q89 0 135 -47q41 -41 41 -112q0 -84 -49 -135q-54 -56 -169 -56h-86l-24 -197h-44zM196 507l-33 -270h88q82 0 123 39q40 38 40 110q0 51 -29 82q-17 18 -39.5 27t-37.5 10.5t-41 1.5h-71z" />
    <glyph glyph-name="germandbls" unicode="&#xdf;" horiz-adv-x="492" 
d="M114 0h-40l45 370h-69l5 38h69l20 164q12 93 57 133q41 36 102 36q63 0 99 -38q35 -36 35 -103q0 -57 -25 -96q-26 -41 -72 -58q52 -16 88 -55q48 -53 48 -135q0 -107 -73 -180q-72 -72 -193 -81l5 40q44 3 88.5 22t73.5 49q55 58 55 144q0 81 -48 127q-44 42 -121 48
l4 35q55 2 91 34q36 34 36 99q0 55 -25 82q-24 28 -68 28q-45 0 -74 -27q-33 -31 -42 -98z" />
    <glyph glyph-name="agrave" unicode="&#xe0;" horiz-adv-x="518" 
d="M446 328l10 80h40l-50 -408h-40l8 63q-26 -36 -60 -53q-42 -21 -94 -21q-80 0 -130 47q-59 54 -59 148q0 111 69 177q58 56 151 56q59 0 99 -27q36 -24 56 -62zM283 379q-70 0 -115 -45q-55 -55 -55 -147q0 -77 47 -122q40 -38 104 -38q56 0 97 30q40 30 57 76t17 88
q0 75 -42 117q-39 41 -110 41zM325 467l-89 128l46 25l75 -137z" />
    <glyph glyph-name="aacute" unicode="&#xe1;" horiz-adv-x="518" 
d="M446 328l10 80h40l-50 -408h-40l8 63q-26 -36 -60 -53q-42 -21 -94 -21q-80 0 -130 47q-59 54 -59 148q0 111 69 177q58 56 151 56q59 0 99 -27q36 -24 56 -62zM283 379q-70 0 -115 -45q-55 -55 -55 -147q0 -77 47 -122q40 -38 104 -38q56 0 97 30q40 30 57 76t17 88
q0 75 -42 117q-39 41 -110 41zM389 620l40 -25l-121 -128l-28 16z" />
    <glyph glyph-name="acircumflex" unicode="&#xe2;" horiz-adv-x="518" 
d="M446 328l10 80h40l-50 -408h-40l8 63q-26 -36 -60 -53q-42 -21 -94 -21q-80 0 -130 47q-59 54 -59 148q0 111 69 177q58 56 151 56q59 0 99 -27q36 -24 56 -62zM283 379q-70 0 -115 -45q-55 -55 -55 -147q0 -77 47 -122q40 -38 104 -38q56 0 97 30q40 30 57 76t17 88
q0 75 -42 117q-39 41 -110 41zM306 535l-99 -68l-29 25l134 94l110 -94l-35 -25z" />
    <glyph glyph-name="atilde" unicode="&#xe3;" horiz-adv-x="518" 
d="M446 328l10 80h40l-50 -408h-40l8 63q-26 -36 -60 -53q-42 -21 -94 -21q-80 0 -130 47q-59 54 -59 148q0 111 69 177q58 56 151 56q59 0 99 -27q36 -24 56 -62zM283 379q-70 0 -115 -45q-55 -55 -55 -147q0 -77 47 -122q40 -38 104 -38q56 0 97 30q40 30 57 76t17 88
q0 75 -42 117q-39 41 -110 41zM209 487l-24 19q10 20 27 37q22 20 50 20q19 0 49 -13l24 -11q22 -11 39 -11q18 0 30 12q5 5 17 25l23 -20q-11 -23 -32 -41q-19 -16 -45 -16q-20 0 -46 12l-24 11q-26 12 -43 12q-16 0 -28 -11q-11 -11 -17 -25z" />
    <glyph glyph-name="adieresis" unicode="&#xe4;" horiz-adv-x="518" 
d="M446 328l10 80h40l-50 -408h-40l8 63q-26 -36 -60 -53q-42 -21 -94 -21q-80 0 -130 47q-59 54 -59 148q0 111 69 177q58 56 151 56q59 0 99 -27q36 -24 56 -62zM283 379q-70 0 -115 -45q-55 -55 -55 -147q0 -77 47 -122q40 -38 104 -38q56 0 97 30q40 30 57 76t17 88
q0 75 -42 117q-39 41 -110 41zM361 523q0 15 12 27t29 12q16 0 24 -10t8 -22q0 -16 -11 -27q-12 -13 -30 -13q-13 0 -22 9q-10 10 -10 24zM195 523q0 15 12 27t29 12q16 0 24 -10t8 -22q0 -16 -11 -27q-12 -13 -30 -13q-13 0 -22 9q-10 10 -10 24z" />
    <glyph glyph-name="aring" unicode="&#xe5;" horiz-adv-x="518" 
d="M446 328l10 80h40l-50 -408h-40l8 63q-26 -36 -60 -53q-42 -21 -94 -21q-80 0 -130 47q-59 54 -59 148q0 111 69 177q58 56 151 56q59 0 99 -27q36 -24 56 -62zM283 379q-70 0 -115 -45q-55 -55 -55 -147q0 -77 47 -122q40 -38 104 -38q56 0 97 30q40 30 57 76t17 88
q0 75 -42 117q-39 41 -110 41zM239 541q0 34 25 59q26 26 62 26q29 0 50 -19q19 -18 19 -49q0 -36 -24 -62q-24 -24 -62 -24q-30 0 -50 19q-20 20 -20 50zM276 543q0 -15 9 -24q9 -11 28 -11q20 0 33 13q12 12 12 32q0 17 -9 26q-9 11 -28 11q-18 0 -31 -12q-14 -14 -14 -35
z" />
    <glyph glyph-name="ae" unicode="&#xe6;" horiz-adv-x="795" 
d="M116 340l5 43q63 34 130 34q78 0 121 -40q34 -34 41 -79q25 51 68 82q51 37 116 37q80 0 127 -45q32 -30 44 -77.5t6 -96.5h-349q-5 -35 5 -71.5t33 -60.5q37 -39 102 -39q56 0 97 30q37 27 56 64l30 -20q-36 -56 -80 -84q-43 -28 -101 -28q-62 0 -106 27q-41 26 -60 69
q-24 -53 -72 -76q-40 -20 -102 -20q-73 0 -116 28q-52 34 -52 93q0 64 52 101q47 34 126 34q91 0 143 -44q11 105 -32 146q-35 32 -102 32q-62 0 -130 -39zM236 206q-74 0 -108 -32q-27 -26 -27 -58q0 -45 40 -70q30 -19 86 -19q66 0 103 27t37 74q0 39 -41 61
q-33 17 -90 17zM432 236h302q-2 72 -44 111q-35 32 -91 32q-67 0 -113 -46q-40 -41 -54 -97z" />
    <glyph glyph-name="ccedilla" unicode="&#xe7;" horiz-adv-x="444" 
d="M446 365l-7 -53q-26 30 -56 46q-39 21 -81 21q-85 0 -135 -53q-54 -54 -54 -140q0 -67 42 -114q41 -45 115 -45q47 0 84 19q38 20 64 54l-7 -58q-30 -24 -58 -37q-38 -16 -85 -16q-90 0 -144 54q-53 55 -53 143q0 104 68 170q63 61 162 61q44 0 89 -18q26 -11 56 -34z
M263 -50l44 -20l-119 -124l-26 16z" />
    <glyph glyph-name="egrave" unicode="&#xe8;" horiz-adv-x="487" 
d="M463 199h-348q-6 -38 6 -73.5t35 -58.5q40 -40 103 -40q56 0 97 29q34 25 53 64l31 -20q-30 -53 -73 -81q-45 -30 -109 -30q-86 0 -136 54q-51 54 -51 139q0 108 68 176q59 59 146 59q79 0 128 -47q59 -57 50 -171zM121 237h302q-1 63 -41 104q-36 38 -97 38
q-70 0 -117 -49q-36 -38 -47 -93zM305 467l-89 128l46 25l75 -137z" />
    <glyph glyph-name="eacute" unicode="&#xe9;" horiz-adv-x="487" 
d="M463 199h-348q-6 -38 6 -73.5t35 -58.5q40 -40 103 -40q56 0 97 29q34 25 53 64l31 -20q-30 -53 -73 -81q-45 -30 -109 -30q-86 0 -136 54q-51 54 -51 139q0 108 68 176q59 59 146 59q79 0 128 -47q59 -57 50 -171zM121 237h302q-1 63 -41 104q-36 38 -97 38
q-70 0 -117 -49q-36 -38 -47 -93zM374 620l40 -25l-121 -128l-28 16z" />
    <glyph glyph-name="ecircumflex" unicode="&#xea;" horiz-adv-x="487" 
d="M463 199h-348q-6 -38 6 -73.5t35 -58.5q40 -40 103 -40q56 0 97 29q34 25 53 64l31 -20q-30 -53 -73 -81q-45 -30 -109 -30q-86 0 -136 54q-51 54 -51 139q0 108 68 176q59 59 146 59q79 0 128 -47q59 -57 50 -171zM121 237h302q-1 63 -41 104q-36 38 -97 38
q-70 0 -117 -49q-36 -38 -47 -93zM296 535l-99 -68l-29 25l134 94l110 -94l-35 -25z" />
    <glyph glyph-name="edieresis" unicode="&#xeb;" horiz-adv-x="487" 
d="M463 199h-348q-6 -38 6 -73.5t35 -58.5q40 -40 103 -40q56 0 97 29q34 25 53 64l31 -20q-30 -53 -73 -81q-45 -30 -109 -30q-86 0 -136 54q-51 54 -51 139q0 108 68 176q59 59 146 59q79 0 128 -47q59 -57 50 -171zM121 237h302q-1 63 -41 104q-36 38 -97 38
q-70 0 -117 -49q-36 -38 -47 -93zM346 523q0 15 12 27t29 12q16 0 24 -10t8 -22q0 -16 -11 -27q-12 -13 -30 -13q-13 0 -22 9q-10 10 -10 24zM180 523q0 15 12 27t29 12q16 0 24 -10t8 -22q0 -16 -11 -27q-12 -13 -30 -13q-13 0 -22 9q-10 10 -10 24z" />
    <glyph glyph-name="igrave" unicode="&#xec;" horiz-adv-x="184" 
d="M122 408h40l-50 -408h-40zM146 467l-89 128l46 25l75 -137z" />
    <glyph glyph-name="iacute" unicode="&#xed;" horiz-adv-x="184" 
d="M122 408h40l-50 -408h-40zM215 620l40 -25l-121 -128l-28 16z" />
    <glyph glyph-name="icircumflex" unicode="&#xee;" horiz-adv-x="184" 
d="M122 408h40l-50 -408h-40zM157 531l-77 -60l-27 26l111 86l89 -86l-33 -26z" />
    <glyph glyph-name="idieresis" unicode="&#xef;" horiz-adv-x="184" 
d="M122 408h40l-50 -408h-40zM197 523q0 15 12 27t29 12q16 0 24 -10t8 -22q0 -16 -11 -27q-12 -13 -30 -13q-13 0 -22 9q-10 10 -10 24zM31 523q0 15 12 27t29 12q16 0 24 -10t8 -22q0 -16 -11 -27q-12 -13 -30 -13q-13 0 -22 9q-10 10 -10 24z" />
    <glyph glyph-name="eth" unicode="&#xf0;" horiz-adv-x="523" 
d="M185 636l10 37q60 -7 109 -29q48 -21 83 -52l148 47l11 -33l-132 -42q43 -44 64 -102q27 -72 27 -162q0 -176 -84 -254q-60 -57 -153 -57q-88 0 -140 52q-56 54 -56 147q0 114 73 187q62 62 155 62q53 0 97 -24q35 -19 58 -54h2q-5 57 -29 108q-22 48 -60 82l-181 -57
l-8 37l159 47q-30 25 -73 41q-38 15 -80 19zM460 238q0 76 -49 121q-42 40 -113 40q-74 0 -124 -50q-60 -58 -60 -156q0 -76 46 -122q43 -44 114 -44q72 0 121 48q29 29 47 74.5t18 88.5z" />
    <glyph glyph-name="ntilde" unicode="&#xf1;" horiz-adv-x="442" 
d="M72 0l50 408h40l-8 -64q17 32 47 51q33 22 81 22q60 0 92 -32q31 -31 31 -81q0 -6 -6 -72l-29 -232h-40l29 238q5 47 5 54q0 39 -22 62q-23 25 -69 25q-51 0 -84 -32q-38 -37 -51 -135l-26 -212h-40zM180 487l-24 19q10 20 27 37q22 20 50 20q19 0 49 -13l24 -11
q22 -11 39 -11q18 0 30 12q5 5 17 25l23 -20q-11 -23 -32 -41q-19 -16 -45 -16q-20 0 -46 12l-24 11q-26 12 -43 12q-16 0 -28 -11q-11 -11 -17 -25z" />
    <glyph glyph-name="ograve" unicode="&#xf2;" horiz-adv-x="524" 
d="M300 417q95 0 152 -57q51 -51 51 -141q0 -107 -67 -170q-64 -60 -167 -60q-91 0 -144 56q-54 56 -54 142q0 47 18.5 92.5t49.5 76.5q64 61 161 61zM275 27q76 0 126 46q60 56 60 142q0 69 -43 116q-46 48 -122 48q-73 0 -124 -46q-59 -53 -59 -140q0 -73 46 -121
q43 -45 116 -45zM335 467l-89 128l46 25l75 -137z" />
    <glyph glyph-name="oacute" unicode="&#xf3;" horiz-adv-x="524" 
d="M300 417q95 0 152 -57q51 -51 51 -141q0 -107 -67 -170q-64 -60 -167 -60q-91 0 -144 56q-54 56 -54 142q0 47 18.5 92.5t49.5 76.5q64 61 161 61zM275 27q76 0 126 46q60 56 60 142q0 69 -43 116q-46 48 -122 48q-73 0 -124 -46q-59 -53 -59 -140q0 -73 46 -121
q43 -45 116 -45zM381 620l40 -25l-121 -128l-28 16z" />
    <glyph glyph-name="ocircumflex" unicode="&#xf4;" horiz-adv-x="524" 
d="M300 417q95 0 152 -57q51 -51 51 -141q0 -107 -67 -170q-64 -60 -167 -60q-91 0 -144 56q-54 56 -54 142q0 47 18.5 92.5t49.5 76.5q64 61 161 61zM275 27q76 0 126 46q60 56 60 142q0 69 -43 116q-46 48 -122 48q-73 0 -124 -46q-59 -53 -59 -140q0 -73 46 -121
q43 -45 116 -45zM316 535l-99 -68l-29 25l134 94l110 -94l-35 -25z" />
    <glyph glyph-name="otilde" unicode="&#xf5;" horiz-adv-x="524" 
d="M300 417q95 0 152 -57q51 -51 51 -141q0 -107 -67 -170q-64 -60 -167 -60q-91 0 -144 56q-54 56 -54 142q0 47 18.5 92.5t49.5 76.5q64 61 161 61zM275 27q76 0 126 46q60 56 60 142q0 69 -43 116q-46 48 -122 48q-73 0 -124 -46q-59 -53 -59 -140q0 -73 46 -121
q43 -45 116 -45zM209 487l-24 19q10 20 27 37q22 20 50 20q19 0 49 -13l24 -11q22 -11 39 -11q18 0 30 12q5 5 17 25l23 -20q-11 -23 -32 -41q-19 -16 -45 -16q-20 0 -46 12l-24 11q-26 12 -43 12q-16 0 -28 -11q-11 -11 -17 -25z" />
    <glyph glyph-name="odieresis" unicode="&#xf6;" horiz-adv-x="524" 
d="M300 417q95 0 152 -57q51 -51 51 -141q0 -107 -67 -170q-64 -60 -167 -60q-91 0 -144 56q-54 56 -54 142q0 47 18.5 92.5t49.5 76.5q64 61 161 61zM275 27q76 0 126 46q60 56 60 142q0 69 -43 116q-46 48 -122 48q-73 0 -124 -46q-59 -53 -59 -140q0 -73 46 -121
q43 -45 116 -45zM361 523q0 15 12 27t29 12q16 0 24 -10t8 -22q0 -16 -11 -27q-12 -13 -30 -13q-13 0 -22 9q-10 10 -10 24zM195 523q0 15 12 27t29 12q16 0 24 -10t8 -22q0 -16 -11 -27q-12 -13 -30 -13q-13 0 -22 9q-10 10 -10 24z" />
    <glyph glyph-name="divide" unicode="&#xf7;" 
d="M253 518q0 14 10.5 24.5t24.5 10.5t24.5 -10.5t10.5 -24.5t-10.5 -24.5t-24.5 -10.5t-24.5 10.5t-10.5 24.5zM253 140q0 14 10.5 24.5t24.5 10.5t24.5 -10.5t10.5 -24.5t-10.5 -24.5t-24.5 -10.5t-24.5 10.5t-10.5 24.5zM71 310v38h434v-38h-434z" />
    <glyph glyph-name="oslash" unicode="&#xf8;" horiz-adv-x="524" 
d="M296 417q80 0 144 -50l62 56l22 -25l-62 -55q37 -54 37 -124q0 -105 -67 -170q-62 -60 -167 -60q-84 0 -141 53l-60 -53l-22 24l61 54q-36 58 -36 120q0 104 68 169q65 61 161 61zM271 27q76 0 126 46q60 56 60 142q0 52 -29 98l-272 -242q47 -44 115 -44zM136 97
l271 241q-48 41 -115 41q-73 0 -124 -46q-59 -54 -59 -140q0 -50 27 -96z" />
    <glyph glyph-name="ugrave" unicode="&#xf9;" horiz-adv-x="437" 
d="M121 408h40l-30 -246q-10 -79 25 -111q27 -24 70 -24q53 0 83 32q28 30 36 103l30 246h40l-34 -257q-12 -86 -41 -119q-39 -43 -116 -43q-66 0 -102 37q-42 44 -31 134zM285 467l-89 128l46 25l75 -137z" />
    <glyph glyph-name="uacute" unicode="&#xfa;" horiz-adv-x="437" 
d="M121 408h40l-30 -246q-10 -79 25 -111q27 -24 70 -24q53 0 83 32q28 30 36 103l30 246h40l-34 -257q-12 -86 -41 -119q-39 -43 -116 -43q-66 0 -102 37q-42 44 -31 134zM350 620l40 -25l-121 -128l-28 16z" />
    <glyph glyph-name="ucircumflex" unicode="&#xfb;" horiz-adv-x="437" 
d="M121 408h40l-30 -246q-10 -79 25 -111q27 -24 70 -24q53 0 83 32q28 30 36 103l30 246h40l-34 -257q-12 -86 -41 -119q-39 -43 -116 -43q-66 0 -102 37q-42 44 -31 134zM285 535l-99 -68l-29 25l134 94l110 -94l-35 -25z" />
    <glyph glyph-name="udieresis" unicode="&#xfc;" horiz-adv-x="437" 
d="M121 408h40l-30 -246q-10 -79 25 -111q27 -24 70 -24q53 0 83 32q28 30 36 103l30 246h40l-34 -257q-12 -86 -41 -119q-39 -43 -116 -43q-66 0 -102 37q-42 44 -31 134zM330 523q0 15 12 27t29 12q16 0 24 -10t8 -22q0 -16 -11 -27q-12 -13 -30 -13q-13 0 -22 9
q-10 10 -10 24zM164 523q0 15 12 27t29 12q16 0 24 -10t8 -22q0 -16 -11 -27q-12 -13 -30 -13q-13 0 -22 9q-10 10 -10 24z" />
    <glyph glyph-name="yacute" unicode="&#xfd;" horiz-adv-x="428" 
d="M78 -230l123 223l-143 415h44l127 -363l193 363h48l-346 -638h-46zM345 620l40 -25l-121 -128l-28 16z" />
    <glyph glyph-name="thorn" unicode="&#xfe;" horiz-adv-x="518" 
d="M121 73l-37 -303h-40l119 959h40l-50 -392q22 33 61 55q44 25 102 25q82 0 132 -50q49 -51 49 -136q0 -116 -69 -183q-59 -59 -148 -59q-59 0 -105 29q-34 22 -54 55zM279 27q73 0 117 40q59 54 59 157q0 74 -45 117q-38 38 -98 38q-73 0 -122 -49q-56 -56 -56 -149
q0 -71 45 -116q39 -38 100 -38z" />
    <glyph glyph-name="ydieresis" unicode="&#xff;" horiz-adv-x="428" 
d="M78 -230l123 223l-143 415h44l127 -363l193 363h48l-346 -638h-46zM325 523q0 15 12 27t29 12q16 0 24 -10t8 -22q0 -16 -11 -27q-12 -13 -30 -13q-13 0 -22 9q-10 10 -10 24zM159 523q0 15 12 27t29 12q16 0 24 -10t8 -22q0 -16 -11 -27q-12 -13 -30 -13q-13 0 -22 9
q-10 10 -10 24z" />
    <glyph glyph-name="Amacron" unicode="&#x100;" horiz-adv-x="586" 
d="M526 0l-62 219h-284l-116 -219h-50l365 687l193 -687h-46zM201 259h252l-86 316zM250 750l5 44h270l-5 -44h-270z" />
    <glyph glyph-name="amacron" unicode="&#x101;" horiz-adv-x="518" 
d="M446 328l10 80h40l-50 -408h-40l8 63q-26 -36 -60 -53q-42 -21 -94 -21q-80 0 -130 47q-59 54 -59 148q0 111 69 177q58 56 151 56q59 0 99 -27q36 -24 56 -62zM283 379q-70 0 -115 -45q-55 -55 -55 -147q0 -77 47 -122q40 -38 104 -38q56 0 97 30q40 30 57 76t17 88
q0 75 -42 117q-39 41 -110 41zM182 493l4 39h270l-4 -39h-270z" />
    <glyph glyph-name="Abreve" unicode="&#x102;" horiz-adv-x="586" 
d="M526 0l-62 219h-284l-116 -219h-50l365 687l193 -687h-46zM201 259h252l-86 316zM259 826h40q5 -22 23 -36q21 -16 58 -16q38 0 63 16q21 14 30 36h40q-13 -44 -48 -69q-37 -25 -89 -25q-50 0 -82 26q-30 26 -35 68z" />
    <glyph glyph-name="abreve" unicode="&#x103;" horiz-adv-x="518" 
d="M446 328l10 80h40l-50 -408h-40l8 63q-26 -36 -60 -53q-42 -21 -94 -21q-80 0 -130 47q-59 54 -59 148q0 111 69 177q58 56 151 56q59 0 99 -27q36 -24 56 -62zM283 379q-70 0 -115 -45q-55 -55 -55 -147q0 -77 47 -122q40 -38 104 -38q56 0 97 30q40 30 57 76t17 88
q0 75 -42 117q-39 41 -110 41zM195 573h38q5 -26 24 -40q22 -16 59 -16t61 16q22 15 30 40h38q-9 -34 -34 -58q-38 -36 -97 -36q-54 0 -86 28q-30 27 -33 66z" />
    <glyph glyph-name="Aogonek" unicode="&#x104;" horiz-adv-x="586" 
d="M524 0l-62 219h-284l-116 -219h-48l365 687l193 -687q-34 -27 -50 -47q-23 -27 -23 -56q0 -23 17 -34q15 -9 39 -9q30 0 51 11l-13 -39q-24 -8 -48 -8q-39 0 -63 18q-26 20 -26 52q0 37 26 69q19 22 46 43h-4zM199 259h252l-86 316z" />
    <glyph glyph-name="aogonek" unicode="&#x105;" horiz-adv-x="518" 
d="M446 328l10 80h40l-50 -408q-27 -22 -44 -42q-29 -32 -29 -60q0 -24 20 -35q17 -9 39 -9q21 0 43 9l-13 -37q-20 -7 -41 -7q-37 0 -61 18q-25 19 -25 51q0 33 23 66q19 27 48 46l8 63q-26 -36 -60 -53q-42 -21 -94 -21q-80 0 -130 47q-59 54 -59 148q0 111 69 177
q58 56 151 56q59 0 99 -27q36 -24 56 -62zM283 379q-70 0 -115 -45q-55 -55 -55 -147q0 -77 47 -122q40 -38 104 -38q56 0 97 30q40 30 57 76t17 88q0 75 -42 117q-39 41 -110 41z" />
    <glyph glyph-name="Cacute" unicode="&#x106;" horiz-adv-x="682" 
d="M700 589l-7 -58q-38 49 -89 76q-56 29 -124 29q-139 0 -237 -98q-48 -48 -74 -112.5t-26 -127.5q0 -113 77 -192q75 -77 190 -77q68 0 129 28q58 26 105 73l-7 -58q-47 -40 -96 -60q-55 -23 -132 -23q-135 0 -222 87q-92 92 -92 224q0 158 118 270q111 106 268 106
q73 0 136 -27q47 -23 83 -60zM591 854l47 -25l-150 -126l-29 18z" />
    <glyph glyph-name="cacute" unicode="&#x107;" horiz-adv-x="444" 
d="M446 365l-7 -53q-26 30 -56 46q-39 21 -81 21q-85 0 -135 -53q-54 -54 -54 -140q0 -67 42 -114q41 -45 115 -45q47 0 84 19q38 20 64 54l-7 -58q-30 -24 -58 -37q-38 -16 -85 -16q-90 0 -144 54q-53 55 -53 143q0 104 68 170q63 61 162 61q44 0 89 -18q26 -11 56 -34z
M381 620l40 -25l-121 -128l-28 16z" />
    <glyph glyph-name="Ccircumflex" unicode="&#x108;" horiz-adv-x="682" 
d="M700 589l-7 -58q-38 49 -89 76q-56 29 -124 29q-139 0 -237 -98q-48 -48 -74 -112.5t-26 -127.5q0 -113 77 -192q75 -77 190 -77q68 0 129 28q58 26 105 73l-7 -58q-47 -40 -96 -60q-55 -23 -132 -23q-135 0 -222 87q-92 92 -92 224q0 158 118 270q111 106 268 106
q73 0 136 -27q47 -23 83 -60zM507 786l-104 -64l-31 27l141 90l119 -90l-37 -27z" />
    <glyph glyph-name="ccircumflex" unicode="&#x109;" horiz-adv-x="444" 
d="M446 365l-7 -53q-26 30 -56 46q-39 21 -81 21q-85 0 -135 -53q-54 -54 -54 -140q0 -67 42 -114q41 -45 115 -45q47 0 84 19q38 20 64 54l-7 -58q-30 -24 -58 -37q-38 -16 -85 -16q-90 0 -144 54q-53 55 -53 143q0 104 68 170q63 61 162 61q44 0 89 -18q26 -11 56 -34z
M316 535l-99 -68l-29 25l134 94l110 -94l-35 -25z" />
    <glyph glyph-name="Cdotaccent" unicode="&#x10a;" horiz-adv-x="682" 
d="M700 589l-7 -58q-38 49 -89 76q-56 29 -124 29q-139 0 -237 -98q-48 -48 -74 -112.5t-26 -127.5q0 -113 77 -192q75 -77 190 -77q68 0 129 28q58 26 105 73l-7 -58q-47 -40 -96 -60q-55 -23 -132 -23q-135 0 -222 87q-92 92 -92 224q0 158 118 270q111 106 268 106
q73 0 136 -27q47 -23 83 -60zM466 775q0 21 12 33q11 14 34 14q16 0 26 -10t10 -25q0 -21 -12 -33q-12 -14 -33 -14q-17 0 -27 10t-10 25z" />
    <glyph glyph-name="cdotaccent" unicode="&#x10b;" horiz-adv-x="444" 
d="M446 365l-7 -53q-26 30 -56 46q-39 21 -81 21q-85 0 -135 -53q-54 -54 -54 -140q0 -67 42 -114q41 -45 115 -45q47 0 84 19q38 20 64 54l-7 -58q-30 -24 -58 -37q-38 -16 -85 -16q-90 0 -144 54q-53 55 -53 143q0 104 68 170q63 61 162 61q44 0 89 -18q26 -11 56 -34z
M284 522q0 18 13 31t31 13q14 0 25 -9q10 -8 10 -25q0 -19 -14 -32q-12 -12 -30 -12q-14 0 -25 9q-10 10 -10 25z" />
    <glyph glyph-name="Ccaron" unicode="&#x10c;" horiz-adv-x="682" 
d="M700 589l-7 -58q-38 49 -89 76q-56 29 -124 29q-139 0 -237 -98q-48 -48 -74 -112.5t-26 -127.5q0 -113 77 -192q75 -77 190 -77q68 0 129 28q58 26 105 73l-7 -58q-47 -40 -96 -60q-55 -23 -132 -23q-135 0 -222 87q-92 92 -92 224q0 158 118 270q111 106 268 106
q73 0 136 -27q47 -23 83 -60zM495 775l104 64l31 -27l-141 -90l-119 90l37 27z" />
    <glyph glyph-name="ccaron" unicode="&#x10d;" horiz-adv-x="444" 
d="M446 365l-7 -53q-26 30 -56 46q-39 21 -81 21q-85 0 -135 -53q-54 -54 -54 -140q0 -67 42 -114q41 -45 115 -45q47 0 84 19q38 20 64 54l-7 -58q-30 -24 -58 -37q-38 -16 -85 -16q-90 0 -144 54q-53 55 -53 143q0 104 68 170q63 61 162 61q44 0 89 -18q26 -11 56 -34z
M313 517l99 68l29 -26l-134 -94l-110 94l35 26z" />
    <glyph glyph-name="Dcaron" unicode="&#x10e;" horiz-adv-x="620" 
d="M222 0h-90h-42l82 667h123q161 0 243 -93q69 -78 69 -208q0 -173 -104 -272q-99 -94 -281 -94zM211 627l-72 -587h87q156 0 243 87q93 92 93 244q0 109 -65 178q-74 78 -209 78h-77zM335 775l104 64l31 -27l-141 -90l-119 90l37 27z" />
    <glyph glyph-name="dcaron" unicode="&#x10f;" horiz-adv-x="555" 
d="M447 326l50 403h40l-90 -729h-40l7 58q-28 -33 -64 -51q-37 -18 -85 -18q-92 0 -142 54q-52 56 -52 148q0 101 67 168q59 58 150 58q59 0 102 -28q37 -24 57 -63zM285 379q-65 0 -112 -45q-58 -56 -58 -144q0 -75 45 -121q39 -42 105 -42q69 0 116 45q55 54 55 152
q0 72 -44 114q-41 41 -107 41zM545 522l68 158l42 -16l-84 -154z" />
    <glyph glyph-name="Dcroat" unicode="&#x110;" horiz-adv-x="620" 
d="M221 0h-87h-45l43 345h-90l5 40h90l34 282h123q161 0 243 -93q69 -78 69 -208q0 -167 -98 -266q-100 -100 -287 -100zM210 627l-29 -242h136l-5 -40h-136l-38 -305h87q154 0 243 87q93 91 93 244q0 109 -65 178q-74 78 -209 78h-77z" />
    <glyph glyph-name="dcroat" unicode="&#x111;" horiz-adv-x="519" 
d="M447 326l29 236h-180l5 38h180l16 129h40l-16 -129h99l-5 -38h-99l-69 -562h-40l7 58q-28 -33 -64 -51q-37 -18 -85 -18q-92 0 -142 54q-52 56 -52 147q0 104 67 169q59 58 148 58q59 0 104 -28q37 -23 57 -63zM284 379q-64 0 -111 -45q-58 -56 -58 -144q0 -75 45 -121
q39 -42 105 -42q71 0 116 45q55 55 55 147q0 76 -45 119q-41 41 -107 41z" />
    <glyph glyph-name="Emacron" unicode="&#x112;" horiz-adv-x="464" 
d="M492 667l-5 -40h-276l-30 -242h270l-5 -40h-270l-37 -305h276l-5 -40h-278h-42l82 667h320zM207 750l5 44h270l-5 -44h-270z" />
    <glyph glyph-name="emacron" unicode="&#x113;" horiz-adv-x="487" 
d="M463 199h-348q-6 -38 6 -73.5t35 -58.5q40 -40 103 -40q56 0 97 29q34 25 53 64l31 -20q-30 -53 -73 -81q-45 -30 -109 -30q-86 0 -136 54q-51 54 -51 139q0 108 68 176q59 59 146 59q79 0 128 -47q59 -57 50 -171zM121 237h302q-1 63 -41 104q-36 38 -97 38
q-70 0 -117 -49q-36 -38 -47 -93zM161 493l4 39h270l-4 -39h-270z" />
    <glyph glyph-name="Edotaccent" unicode="&#x116;" horiz-adv-x="464" 
d="M492 667l-5 -40h-276l-30 -242h270l-5 -40h-270l-37 -305h276l-5 -40h-278h-42l82 667h320zM305 775q0 21 12 33q11 14 34 14q16 0 26 -10t10 -25q0 -21 -12 -33q-12 -14 -33 -14q-17 0 -27 10t-10 25z" />
    <glyph glyph-name="edotaccent" unicode="&#x117;" horiz-adv-x="487" 
d="M463 199h-348q-6 -38 6 -73.5t35 -58.5q40 -40 103 -40q56 0 97 29q34 25 53 64l31 -20q-30 -53 -73 -81q-45 -30 -109 -30q-86 0 -136 54q-51 54 -51 139q0 108 68 176q59 59 146 59q79 0 128 -47q59 -57 50 -171zM121 237h302q-1 63 -41 104q-36 38 -97 38
q-70 0 -117 -49q-36 -38 -47 -93zM260 522q0 18 13 31t31 13q14 0 25 -9q10 -8 10 -25q0 -19 -14 -32q-12 -12 -30 -12q-14 0 -25 9q-10 10 -10 25z" />
    <glyph glyph-name="Eogonek" unicode="&#x118;" horiz-adv-x="464" 
d="M492 667l-5 -40h-276l-30 -242h270l-5 -40h-270l-37 -305h276l-5 -40h-50q-34 -27 -50 -47q-23 -29 -23 -55q0 -24 17 -35q14 -9 39 -9q27 0 51 11l-13 -39q-23 -8 -48 -8q-39 0 -63 18q-26 20 -26 54q0 33 26 67q19 22 46 43h-182h-44l82 667h320z" />
    <glyph glyph-name="eogonek" unicode="&#x119;" horiz-adv-x="487" 
d="M463 199h-348q-2 -16 -2 -24q0 -65 43 -108q40 -40 103 -40q56 0 97 29q34 25 53 64l31 -20q-33 -56 -102 -100q-38 -23 -59 -47q-23 -27 -23 -54q0 -21 17 -34q15 -11 40 -11q18 0 45 9l-13 -37q-20 -7 -41 -7q-39 0 -61 18q-25 19 -25 55q0 26 16 51q15 23 42 46
q-53 0 -88.5 11t-65.5 43q-51 55 -51 139q0 108 68 176q59 59 146 59q79 0 126 -45q54 -50 54 -140q0 -13 -2 -33zM122 237h301q0 64 -40 104q-36 38 -96 38q-70 0 -117 -49q-35 -36 -48 -93z" />
    <glyph glyph-name="Ecaron" unicode="&#x11a;" horiz-adv-x="464" 
d="M492 667l-5 -40h-276l-30 -242h270l-5 -40h-270l-37 -305h276l-5 -40h-278h-42l82 667h320zM345 775l104 64l31 -27l-141 -90l-119 90l37 27z" />
    <glyph glyph-name="ecaron" unicode="&#x11b;" horiz-adv-x="487" 
d="M463 199h-348q-6 -38 6 -73.5t35 -58.5q40 -40 103 -40q56 0 97 29q34 25 53 64l31 -20q-30 -53 -73 -81q-45 -30 -109 -30q-86 0 -136 54q-51 54 -51 139q0 108 68 176q59 59 146 59q79 0 128 -47q59 -57 50 -171zM121 237h302q-1 63 -41 104q-36 38 -97 38
q-70 0 -117 -49q-36 -38 -47 -93zM298 517l99 68l29 -26l-134 -94l-110 94l35 26z" />
    <glyph glyph-name="Gcircumflex" unicode="&#x11c;" horiz-adv-x="773" 
d="M473 280l5 40h280q-14 -147 -104 -236q-96 -95 -239 -95q-141 0 -230 89q-90 89 -90 220q0 164 111 271q109 107 273 107q99 0 176 -49q63 -41 101 -107l-39 -28q-36 63 -84 97q-67 47 -156 47q-68 0 -131 -25.5t-107 -68.5q-47 -46 -73 -110t-26 -129q0 -113 76 -193
q78 -81 192 -81q133 0 220 90q64 66 80 161h-235zM493 786l-104 -64l-31 27l141 90l119 -90l-37 -27z" />
    <glyph glyph-name="gcircumflex" unicode="&#x11d;" horiz-adv-x="520" 
d="M458 408h40l-48 -396q-16 -128 -67 -181q-58 -61 -160 -61q-87 0 -135 48q-50 48 -51 127h42q2 -60 36 -96q39 -41 113 -41q78 0 123 45q44 44 59 159l7 58q-26 -38 -66 -58q-45 -23 -95 -23q-88 0 -137 52q-52 56 -52 143q0 105 66 172q58 61 154 61q67 0 111 -28
q31 -22 51 -52zM288 379q-71 0 -119 -45q-58 -55 -58 -150q0 -67 43 -114q40 -43 112 -43q71 0 117 47q54 57 54 150q0 74 -43 115q-40 40 -106 40zM326 535l-99 -68l-29 25l134 94l110 -94l-35 -25z" />
    <glyph glyph-name="Gbreve" unicode="&#x11e;" horiz-adv-x="773" 
d="M473 280l5 40h280q-14 -147 -104 -236q-96 -95 -239 -95q-141 0 -230 89q-90 89 -90 220q0 164 111 271q109 107 273 107q99 0 176 -49q63 -41 101 -107l-39 -28q-36 63 -84 97q-67 47 -156 47q-68 0 -131 -25.5t-107 -68.5q-47 -46 -73 -110t-26 -129q0 -113 76 -193
q78 -81 192 -81q133 0 220 90q64 66 80 161h-235zM370 826h40q5 -22 23 -36q21 -16 58 -16q38 0 63 16q21 14 30 36h40q-13 -44 -48 -69q-37 -25 -89 -25q-50 0 -82 26q-30 26 -35 68z" />
    <glyph glyph-name="gbreve" unicode="&#x11f;" horiz-adv-x="520" 
d="M458 408h40l-48 -396q-16 -128 -67 -181q-58 -61 -160 -61q-87 0 -135 48q-50 48 -51 127h42q2 -60 36 -96q39 -41 113 -41q78 0 123 45q44 44 59 159l7 58q-26 -38 -66 -58q-45 -23 -95 -23q-88 0 -137 52q-52 56 -52 143q0 105 66 172q58 61 154 61q67 0 111 -28
q31 -22 51 -52zM288 379q-71 0 -119 -45q-58 -55 -58 -150q0 -67 43 -114q40 -43 112 -43q71 0 117 47q54 57 54 150q0 74 -43 115q-40 40 -106 40zM189 573h38q5 -26 24 -40q22 -16 59 -16t61 16q22 15 30 40h38q-9 -34 -34 -58q-38 -36 -97 -36q-54 0 -86 28
q-30 27 -33 66z" />
    <glyph glyph-name="Gdotaccent" unicode="&#x120;" horiz-adv-x="773" 
d="M473 280l5 40h280q-14 -147 -104 -236q-96 -95 -239 -95q-141 0 -230 89q-90 89 -90 220q0 164 111 271q109 107 273 107q99 0 176 -49q63 -41 101 -107l-39 -28q-36 63 -84 97q-67 47 -156 47q-68 0 -131 -25.5t-107 -68.5q-47 -46 -73 -110t-26 -129q0 -113 76 -193
q78 -81 192 -81q133 0 220 90q64 66 80 161h-235zM442 775q0 21 12 33q11 14 34 14q16 0 26 -10t10 -25q0 -21 -12 -33q-12 -14 -33 -14q-17 0 -27 10t-10 25z" />
    <glyph glyph-name="gdotaccent" unicode="&#x121;" horiz-adv-x="520" 
d="M458 408h40l-48 -396q-16 -128 -67 -181q-58 -61 -160 -61q-87 0 -135 48q-50 48 -51 127h42q2 -60 36 -96q39 -41 113 -41q78 0 123 45q44 44 59 159l7 58q-26 -38 -66 -58q-45 -23 -95 -23q-88 0 -137 52q-52 56 -52 143q0 105 66 172q58 61 154 61q67 0 111 -28
q31 -22 51 -52zM288 379q-71 0 -119 -45q-58 -55 -58 -150q0 -67 43 -114q40 -43 112 -43q71 0 117 47q54 57 54 150q0 74 -43 115q-40 40 -106 40zM260 522q0 18 13 31t31 13q14 0 25 -9q10 -8 10 -25q0 -19 -14 -32q-12 -12 -30 -12q-14 0 -25 9q-10 10 -10 25z" />
    <glyph glyph-name="Gcommaaccent" unicode="&#x122;" horiz-adv-x="773" 
d="M473 280l5 40h280q-14 -147 -104 -236q-96 -95 -239 -95q-141 0 -230 89q-90 89 -90 220q0 164 111 271q109 107 273 107q99 0 176 -49q63 -41 101 -107l-39 -28q-36 63 -84 97q-67 47 -156 47q-68 0 -131 -25.5t-107 -68.5q-47 -46 -73 -110t-26 -129q0 -113 76 -193
q78 -81 192 -81q133 0 220 90q64 66 80 161h-235zM302 -188l64 138l42 -16l-80 -134z" />
    <glyph glyph-name="gcommaaccent" unicode="&#x123;" horiz-adv-x="520" 
d="M458 408h40l-48 -396q-16 -128 -67 -181q-58 -61 -160 -61q-87 0 -135 48q-50 48 -51 127h42q2 -60 36 -96q39 -41 113 -41q78 0 123 45q44 44 59 159l7 58q-26 -38 -66 -58q-45 -23 -95 -23q-88 0 -137 52q-52 56 -52 143q0 105 66 172q58 61 154 61q67 0 111 -28
q31 -22 51 -52zM288 379q-71 0 -119 -45q-58 -55 -58 -150q0 -67 43 -114q40 -43 112 -43q71 0 117 47q54 57 54 150q0 74 -43 115q-40 40 -106 40zM401 631l-58 -138l-42 16l74 134z" />
    <glyph glyph-name="Hcircumflex" unicode="&#x124;" horiz-adv-x="672" 
d="M216 667l-35 -283h404l35 283h44l-82 -667h-44l42 344h-404l-42 -344h-44l82 667h44zM433 786l-104 -64l-31 27l141 90l119 -90l-37 -27z" />
    <glyph glyph-name="hcircumflex" unicode="&#x125;" horiz-adv-x="442" 
d="M72 0l90 729h40l-48 -385q18 31 45 49q34 24 82 24q57 0 90 -31q41 -38 31 -129l-32 -257h-40l32 257q8 69 -21 98q-24 24 -65 24q-51 0 -86 -35q-41 -41 -52 -132l-26 -212h-40zM188 795l-99 -68l-29 25l134 94l110 -94l-35 -25z" />
    <glyph glyph-name="Hbar" unicode="&#x126;" horiz-adv-x="672" 
d="M216 667l-7 -54h404l7 54h44l-7 -54h54l-4 -34h-54l-71 -579h-44l42 344h-404l-42 -344h-44l71 579h-54l4 34h54l7 54h44zM609 579h-404l-24 -195h404z" />
    <glyph glyph-name="hbar" unicode="&#x127;" horiz-adv-x="442" 
d="M72 0l69 562h-100l5 38h100l16 129h40l-16 -129h180l-5 -38h-180l-27 -218q52 73 134 73q78 0 106 -57q17 -36 8 -103l-32 -257h-40l32 257q7 56 -6 82q-20 40 -75 40q-69 0 -107 -57q-28 -42 -36 -110l-26 -212h-40z" />
    <glyph glyph-name="Imacron" unicode="&#x12a;" horiz-adv-x="224" 
d="M172 667h44l-82 -667h-44zM102 750l5 44h204l-5 -44h-204z" />
    <glyph glyph-name="imacron" unicode="&#x12b;" horiz-adv-x="184" 
d="M122 408h40l-50 -408h-40zM73 493l4 39h160l-4 -39h-160z" />
    <glyph glyph-name="Iogonek" unicode="&#x12e;" horiz-adv-x="224" 
d="M172 667h44l-82 -667q-34 -27 -50 -47q-23 -27 -23 -56q0 -23 17 -34q15 -9 39 -9q30 0 51 11l-13 -39q-24 -8 -48 -8q-39 0 -63 18q-26 20 -26 52q0 37 26 69q19 22 46 43z" />
    <glyph glyph-name="iogonek" unicode="&#x12f;" horiz-adv-x="184" 
d="M122 408h40l-50 -408q-27 -22 -44 -42q-29 -32 -29 -60q0 -24 20 -35q17 -9 39 -9q21 0 43 9l-13 -37q-20 -7 -41 -7q-37 0 -61 18q-25 19 -25 51q0 33 23 66q19 27 48 46zM154 507q-14 0 -23 9q-8 8 -8 22q0 21 13 32q11 11 27 11q14 0 23 -9t9 -23q0 -18 -12 -30
t-29 -12z" />
    <glyph glyph-name="Idotaccent" unicode="&#x130;" horiz-adv-x="224" 
d="M172 667h44l-82 -667h-44zM157 775q0 21 12 33q11 14 34 14q16 0 26 -10t10 -25q0 -21 -12 -33q-12 -14 -33 -14q-17 0 -27 10t-10 25z" />
    <glyph glyph-name="dotlessi" unicode="&#x131;" horiz-adv-x="184" 
d="M122 408h40l-50 -408h-40z" />
    <glyph glyph-name="Jcircumflex" unicode="&#x134;" horiz-adv-x="268" 
d="M216 667h44l-65 -528q-11 -88 -42 -119q-32 -31 -88 -31q-43 0 -71 23q-23 18 -36 49l34 24q9 -26 26 -40q18 -16 50 -16q34 0 53 20q23 23 29 81zM267 786l-104 -64l-31 27l141 90l119 -90l-37 -27z" />
    <glyph glyph-name="jcircumflex" unicode="&#x135;" horiz-adv-x="184" 
d="M122 408h40l-78 -638h-40zM157 531l-77 -60l-27 26l111 86l89 -86l-33 -26z" />
    <glyph glyph-name="Kcommaaccent" unicode="&#x136;" horiz-adv-x="540" 
d="M216 667l-39 -314l354 314h58l-364 -320l299 -347h-58l-275 318l-20 -17l-37 -301h-44l82 667h44zM190 -188l64 138l42 -16l-80 -134z" />
    <glyph glyph-name="kcommaaccent" unicode="&#x137;" horiz-adv-x="393" 
d="M162 729h40l-61 -496l189 175h52l-195 -179l198 -229h-51l-176 202l-24 -21l-22 -181h-40zM125 -188l58 138l42 -16l-74 -134z" />
    <glyph glyph-name="Lacute" unicode="&#x139;" horiz-adv-x="334" 
d="M172 667h44l-77 -627h186l-5 -40h-230zM338 854l47 -25l-150 -126l-29 18z" />
    <glyph glyph-name="lacute" unicode="&#x13a;" horiz-adv-x="184" 
d="M162 729h40l-90 -729h-40zM223 900l40 -25l-121 -128l-28 16z" />
    <glyph glyph-name="Lcommaaccent" unicode="&#x13b;" horiz-adv-x="334" 
d="M172 667h44l-77 -627h186l-5 -40h-230zM130 -188l64 138l42 -16l-80 -134z" />
    <glyph glyph-name="lcommaaccent" unicode="&#x13c;" horiz-adv-x="184" 
d="M162 729h40l-90 -729h-40zM12 -188l58 138l42 -16l-74 -134z" />
    <glyph glyph-name="Lcaron" unicode="&#x13d;" horiz-adv-x="334" 
d="M172 667h44l-77 -627h186l-5 -40h-230zM296 522l68 158l42 -16l-84 -154z" />
    <glyph glyph-name="lcaron" unicode="&#x13e;" horiz-adv-x="224" 
d="M162 729h40l-90 -729h-40zM214 522l68 158l42 -16l-84 -154z" />
    <glyph glyph-name="Ldot" unicode="&#x13f;" horiz-adv-x="350" 
d="M172 667h44l-77 -627h186l-5 -40h-230zM280 326q0 21 12 33q11 14 34 14q16 0 26 -10t10 -25q0 -21 -12 -33q-12 -14 -33 -14q-17 0 -27 10t-10 25z" />
    <glyph glyph-name="ldot" unicode="&#x140;" horiz-adv-x="366" 
d="M162 729h40l-90 -729h-40zM283 359q0 18 13 31t31 13q14 0 25 -9q10 -8 10 -25q0 -19 -14 -32q-12 -12 -30 -12q-14 0 -25 9q-10 10 -10 25z" />
    <glyph glyph-name="Lslash" unicode="&#x141;" horiz-adv-x="331" 
d="M172 667h44l-35 -281l108 64l-5 -44l-108 -64l-37 -302h186l-5 -40h-188h-42l39 318l-97 -58l5 44l97 58z" />
    <glyph glyph-name="lslash" unicode="&#x142;" horiz-adv-x="184" 
d="M162 729h40l-31 -249l79 56l-6 -44l-78 -56l-54 -436h-40l51 412l-79 -56l5 44l79 56z" />
    <glyph glyph-name="Nacute" unicode="&#x143;" horiz-adv-x="784" 
d="M134 0h-44l83 674l488 -588l71 581h44l-84 -684l-488 588zM563 854l47 -25l-150 -126l-29 18z" />
    <glyph glyph-name="nacute" unicode="&#x144;" horiz-adv-x="442" 
d="M72 0l50 408h40l-8 -64q17 32 47 51q33 22 81 22q60 0 92 -32q31 -31 31 -81q0 -6 -6 -72l-29 -232h-40l29 238q5 47 5 54q0 39 -22 62q-23 25 -69 25q-51 0 -84 -32q-38 -37 -51 -135l-26 -212h-40zM352 620l40 -25l-121 -128l-28 16z" />
    <glyph glyph-name="Ncommaaccent" unicode="&#x145;" horiz-adv-x="784" 
d="M134 0h-44l83 674l488 -588l71 581h44l-84 -684l-488 588zM312 -188l64 138l42 -16l-80 -134z" />
    <glyph glyph-name="ncommaaccent" unicode="&#x146;" horiz-adv-x="442" 
d="M72 0l50 408h40l-8 -64q17 32 47 51q33 22 81 22q60 0 92 -32q31 -31 31 -81q0 -6 -6 -72l-29 -232h-40l29 238q5 47 5 54q0 39 -22 62q-23 25 -69 25q-51 0 -84 -32q-38 -37 -51 -135l-26 -212h-40zM141 -188l58 138l42 -16l-74 -134z" />
    <glyph glyph-name="Ncaron" unicode="&#x147;" horiz-adv-x="784" 
d="M134 0h-44l83 674l488 -588l71 581h44l-84 -684l-488 588zM487 775l104 64l31 -27l-141 -90l-119 90l37 27z" />
    <glyph glyph-name="ncaron" unicode="&#x148;" horiz-adv-x="442" 
d="M72 0l50 408h40l-8 -64q17 32 47 51q33 22 81 22q60 0 92 -32q31 -31 31 -81q0 -6 -6 -72l-29 -232h-40l29 238q5 47 5 54q0 39 -22 62q-23 25 -69 25q-51 0 -84 -32q-38 -37 -51 -135l-26 -212h-40zM293 517l99 68l29 -26l-134 -94l-110 94l35 26z" />
    <glyph glyph-name="Omacron" unicode="&#x14c;" horiz-adv-x="805" 
d="M479 676q141 0 231 -92q82 -85 82 -215q0 -168 -112 -277q-106 -103 -267 -103q-141 0 -227 85q-91 89 -91 222q0 71 29 142.5t85 128.5q108 109 270 109zM407 29q146 0 240 92q48 48 74 114.5t26 131.5q0 116 -76 192q-77 77 -196 77q-137 0 -232 -93
q-102 -101 -102 -243q0 -113 73 -191q76 -80 193 -80zM357 750l5 44h270l-5 -44h-270z" />
    <glyph glyph-name="omacron" unicode="&#x14d;" horiz-adv-x="524" 
d="M300 417q95 0 152 -57q51 -51 51 -141q0 -107 -67 -170q-64 -60 -167 -60q-91 0 -144 56q-54 56 -54 142q0 47 18.5 92.5t49.5 76.5q64 61 161 61zM275 27q76 0 126 46q60 56 60 142q0 69 -43 116q-46 48 -122 48q-73 0 -124 -46q-59 -53 -59 -140q0 -73 46 -121
q43 -45 116 -45zM177 493l4 39h270l-4 -39h-270z" />
    <glyph glyph-name="Obreve" unicode="&#x14e;" horiz-adv-x="805" 
d="M479 676q141 0 231 -92q82 -85 82 -215q0 -168 -112 -277q-106 -103 -267 -103q-141 0 -227 85q-91 89 -91 222q0 71 29 142.5t85 128.5q108 109 270 109zM407 29q146 0 240 92q48 48 74 114.5t26 131.5q0 116 -76 192q-77 77 -196 77q-137 0 -232 -93
q-102 -101 -102 -243q0 -113 73 -191q76 -80 193 -80zM374 826h40q6 -22 23 -36q21 -16 58 -16q38 0 63 16q21 14 30 36h40q-13 -44 -48 -69q-37 -25 -89 -25q-50 0 -82 26q-30 26 -35 68z" />
    <glyph glyph-name="obreve" unicode="&#x14f;" horiz-adv-x="524" 
d="M300 417q95 0 152 -57q51 -51 51 -141q0 -107 -67 -170q-64 -60 -167 -60q-91 0 -144 56q-54 56 -54 142q0 47 18.5 92.5t49.5 76.5q64 61 161 61zM275 27q76 0 126 46q60 56 60 142q0 69 -43 116q-46 48 -122 48q-73 0 -124 -46q-59 -53 -59 -140q0 -73 46 -121
q43 -45 116 -45zM196 573h38q5 -26 24 -40q22 -16 59 -16t61 16q22 15 30 40h38q-9 -34 -34 -58q-38 -36 -97 -36q-54 0 -86 28q-30 27 -33 66z" />
    <glyph glyph-name="Ohungarumlaut" unicode="&#x150;" horiz-adv-x="805" 
d="M479 676q141 0 231 -92q82 -85 82 -215q0 -168 -112 -277q-106 -103 -267 -103q-141 0 -227 85q-91 89 -91 222q0 71 29 142.5t85 128.5q108 109 270 109zM407 29q146 0 240 92q48 48 74 114.5t26 131.5q0 116 -76 192q-77 77 -196 77q-137 0 -232 -93
q-102 -101 -102 -243q0 -113 73 -191q76 -80 193 -80zM495 854l49 -26l-116 -125l-34 15zM616 854l49 -26l-116 -125l-34 15z" />
    <glyph glyph-name="ohungarumlaut" unicode="&#x151;" horiz-adv-x="524" 
d="M300 417q95 0 152 -57q51 -51 51 -141q0 -107 -67 -170q-64 -60 -167 -60q-91 0 -144 56q-54 56 -54 142q0 47 18.5 92.5t49.5 76.5q64 61 161 61zM275 27q76 0 126 46q60 56 60 142q0 69 -43 116q-46 48 -122 48q-73 0 -124 -46q-59 -53 -59 -140q0 -73 46 -121
q43 -45 116 -45zM325 620l39 -25l-115 -128l-25 16zM436 620l39 -25l-115 -128l-25 16z" />
    <glyph glyph-name="OE" unicode="&#x152;" horiz-adv-x="1075" 
d="M1103 667l-5 -40h-275l-30 -242h268l-5 -40h-268l-37 -305h275l-5 -40h-319l19 155q-55 -80 -128 -123t-173 -43q-146 0 -234 88q-92 92 -92 231q0 72 28 143t81 124q101 101 264 101q112 0 190 -52q73 -49 106 -131l21 174h319zM462 636q-140 0 -229 -89
q-93 -95 -93 -233q0 -56 20 -111.5t58 -94.5q77 -79 203 -79q132 0 221 86q49 46 76.5 112.5t27.5 137.5q0 60 -22.5 112.5t-58.5 86.5q-76 72 -203 72z" />
    <glyph glyph-name="oe" unicode="&#x153;" horiz-adv-x="873" 
d="M850 201h-349q-5 -37 5 -74.5t33 -60.5q37 -39 102 -39q56 0 97 30q37 27 56 64l30 -20q-37 -57 -80 -84q-44 -28 -107 -28q-74 0 -120 44q-29 22 -48 77q-32 -56 -85 -88q-55 -33 -122 -33q-83 0 -134 52q-57 59 -57 140q0 105 71 173q64 63 164 63q73 0 124 -39
q41 -31 59 -81q23 50 68 83q51 37 115 37q81 0 128 -45q29 -28 43 -73.5t7 -97.5zM509 239h301q-2 69 -44 108q-35 32 -91 32q-67 0 -113 -46q-38 -40 -53 -94zM303 379q-81 0 -132 -51q-57 -57 -57 -141q0 -72 46 -118q42 -42 107 -42q79 0 134 54q60 59 60 146
q0 68 -45 111q-41 41 -113 41z" />
    <glyph glyph-name="Racute" unicode="&#x154;" horiz-adv-x="470" 
d="M420 0h-50l-177 315h-20l-39 -315h-44l82 667h104q93 0 141 -46q41 -40 41 -111q0 -89 -53 -140q-57 -55 -164 -55zM211 627l-33 -272h64q88 0 130 40q40 38 40 109q0 58 -36 90q-36 33 -110 33h-55zM405 854l47 -25l-150 -126l-29 18z" />
    <glyph glyph-name="racute" unicode="&#x155;" horiz-adv-x="260" 
d="M72 0l50 408h40l-6 -53q15 29 39 44q26 18 60 18q21 0 40 -10l-24 -36q-11 8 -29 8q-32 0 -56 -26q-35 -37 -48 -148l-26 -205h-40zM281 620l40 -25l-121 -128l-28 16z" />
    <glyph glyph-name="Rcommaaccent" unicode="&#x156;" horiz-adv-x="470" 
d="M420 0h-50l-177 315h-20l-39 -315h-44l82 667h104q93 0 141 -46q41 -40 41 -111q0 -89 -53 -140q-57 -55 -164 -55zM211 627l-33 -272h64q88 0 130 40q40 38 40 109q0 58 -36 90q-36 33 -110 33h-55zM154 -188l64 138l42 -16l-80 -134z" />
    <glyph glyph-name="rcommaaccent" unicode="&#x157;" horiz-adv-x="260" 
d="M72 0l50 408h40l-6 -53q15 29 39 44q26 18 60 18q21 0 40 -10l-24 -36q-11 8 -29 8q-32 0 -56 -26q-35 -37 -48 -148l-26 -205h-40zM38 -188l58 138l42 -16l-74 -134z" />
    <glyph glyph-name="Rcaron" unicode="&#x158;" horiz-adv-x="470" 
d="M420 0h-50l-177 315h-20l-39 -315h-44l82 667h104q93 0 141 -46q41 -40 41 -111q0 -89 -53 -140q-57 -55 -164 -55zM211 627l-33 -272h64q88 0 130 40q40 38 40 109q0 58 -36 90q-36 33 -110 33h-55zM305 775l104 64l31 -27l-141 -90l-119 90l37 27z" />
    <glyph glyph-name="rcaron" unicode="&#x159;" horiz-adv-x="260" 
d="M72 0l50 408h40l-6 -53q15 29 39 44q26 18 60 18q21 0 40 -10l-24 -36q-11 8 -29 8q-32 0 -56 -26q-35 -37 -48 -148l-26 -205h-40zM202 517l99 68l29 -26l-134 -94l-110 94l35 26z" />
    <glyph glyph-name="Sacute" unicode="&#x15a;" horiz-adv-x="514" 
d="M497 581l-35 -27q-10 28 -28 46.5t-38 25t-31.5 8.5t-21.5 2q-63 0 -103 -40q-39 -39 -39 -94q0 -40 28 -70q8 -8 18.5 -16t18 -12.5t22 -12t21.5 -11.5l33 -18q9 -5 28.5 -15.5t29 -16t22.5 -14.5t22 -19q40 -40 40 -101q0 -90 -62 -149q-60 -58 -166 -58q-85 0 -134 49
q-36 36 -52 94l40 18q14 -50 44 -80q41 -41 104 -41q85 0 132 44q46 44 46 116q0 49 -32 81q-9 9 -22 18t-21 13.5t-25.5 13.5t-21.5 11l-46 25q-47 26 -75 55q-38 40 -38 94q0 71 51 122q56 54 139 54q51 0 92 -24t60 -71zM441 854l47 -25l-150 -126l-29 18z" />
    <glyph glyph-name="sacute" unicode="&#x15b;" horiz-adv-x="342" 
d="M331 351l-36 -18q-7 21 -23 33q-20 13 -45 13q-35 0 -57 -22q-18 -18 -18 -45q0 -22 16 -39q13 -13 42 -25l31 -13q41 -17 60 -36q27 -28 27 -72q0 -56 -36 -95q-41 -43 -112 -43q-59 0 -94 35q-28 28 -36 73l40 12q6 -36 27 -57q25 -25 64 -25q47 0 75 26q29 29 29 69
q0 30 -19 49q-14 14 -49 29l-24 10q-39 16 -59 37q-24 24 -24 59q0 45 30 75q35 36 90 36q40 0 66 -18t35 -48zM301 620l40 -25l-121 -128l-28 16z" />
    <glyph glyph-name="Scircumflex" unicode="&#x15c;" horiz-adv-x="514" 
d="M497 581l-35 -27q-10 28 -28 46.5t-38 25t-31.5 8.5t-21.5 2q-63 0 -103 -40q-39 -39 -39 -94q0 -40 28 -70q8 -8 18.5 -16t18 -12.5t22 -12t21.5 -11.5l33 -18q9 -5 28.5 -15.5t29 -16t22.5 -14.5t22 -19q40 -40 40 -101q0 -90 -62 -149q-60 -58 -166 -58q-85 0 -134 49
q-36 36 -52 94l40 18q14 -50 44 -80q41 -41 104 -41q85 0 132 44q46 44 46 116q0 49 -32 81q-9 9 -22 18t-21 13.5t-25.5 13.5t-21.5 11l-46 25q-47 26 -75 55q-38 40 -38 94q0 71 51 122q56 54 139 54q51 0 92 -24t60 -71zM367 786l-104 -64l-31 27l141 90l119 -90l-37 -27
z" />
    <glyph glyph-name="scircumflex" unicode="&#x15d;" horiz-adv-x="342" 
d="M331 351l-36 -18q-7 21 -23 33q-20 13 -45 13q-35 0 -57 -22q-18 -18 -18 -45q0 -22 16 -39q13 -13 42 -25l31 -13q41 -17 60 -36q27 -28 27 -72q0 -56 -36 -95q-41 -43 -112 -43q-59 0 -94 35q-28 28 -36 73l40 12q6 -36 27 -57q25 -25 64 -25q47 0 75 26q29 29 29 69
q0 30 -19 49q-14 14 -49 29l-24 10q-39 16 -59 37q-24 24 -24 59q0 45 30 75q35 36 90 36q40 0 66 -18t35 -48zM250 535l-99 -68l-29 25l134 94l110 -94l-35 -25z" />
    <glyph glyph-name="Scedilla" unicode="&#x15e;" horiz-adv-x="514" 
d="M497 581l-35 -27q-10 28 -28 46.5t-38 25t-31.5 8.5t-21.5 2q-63 0 -103 -40q-39 -39 -39 -94q0 -40 28 -70q8 -8 18.5 -16t18 -12.5t22 -12t21.5 -11.5l33 -18q9 -5 28.5 -15.5t29 -16t22.5 -14.5t22 -19q40 -40 40 -101q0 -90 -62 -149q-60 -58 -166 -58q-85 0 -134 49
q-36 36 -52 94l40 18q14 -50 44 -80q41 -41 104 -41q85 0 132 44q46 44 46 116q0 49 -32 81q-9 9 -22 18t-21 13.5t-25.5 13.5t-21.5 11l-46 25q-47 26 -75 55q-38 40 -38 94q0 71 51 122q56 54 139 54q51 0 92 -24t60 -71zM249 -50l44 -28l-129 -124l-28 20z" />
    <glyph glyph-name="scedilla" unicode="&#x15f;" horiz-adv-x="342" 
d="M331 351l-36 -18q-7 21 -23 33q-20 13 -45 13q-35 0 -57 -22q-18 -18 -18 -45q0 -22 16 -39q13 -13 42 -25l31 -13q41 -17 60 -36q27 -28 27 -72q0 -56 -36 -95q-41 -43 -112 -43q-59 0 -94 35q-28 28 -36 73l40 12q6 -36 27 -57q25 -25 64 -25q47 0 75 26q29 29 29 69
q0 30 -19 49q-14 14 -49 29l-24 10q-39 16 -59 37q-24 24 -24 59q0 45 30 75q35 36 90 36q40 0 66 -18t35 -48zM173 -50l44 -20l-119 -124l-26 16z" />
    <glyph glyph-name="Scaron" unicode="&#x160;" horiz-adv-x="514" 
d="M497 581l-35 -27q-10 28 -28 46.5t-38 25t-31.5 8.5t-21.5 2q-63 0 -103 -40q-39 -39 -39 -94q0 -40 28 -70q8 -8 18.5 -16t18 -12.5t22 -12t21.5 -11.5l33 -18q9 -5 28.5 -15.5t29 -16t22.5 -14.5t22 -19q40 -40 40 -101q0 -90 -62 -149q-60 -58 -166 -58q-85 0 -134 49
q-36 36 -52 94l40 18q14 -50 44 -80q41 -41 104 -41q85 0 132 44q46 44 46 116q0 49 -32 81q-9 9 -22 18t-21 13.5t-25.5 13.5t-21.5 11l-46 25q-47 26 -75 55q-38 40 -38 94q0 71 51 122q56 54 139 54q51 0 92 -24t60 -71zM357 775l104 64l31 -27l-141 -90l-119 90l37 27z
" />
    <glyph glyph-name="scaron" unicode="&#x161;" horiz-adv-x="342" 
d="M331 351l-36 -18q-7 21 -23 33q-20 13 -45 13q-35 0 -57 -22q-18 -18 -18 -45q0 -22 16 -39q13 -13 42 -25l31 -13q41 -17 60 -36q27 -28 27 -72q0 -56 -36 -95q-41 -43 -112 -43q-59 0 -94 35q-28 28 -36 73l40 12q6 -36 27 -57q25 -25 64 -25q47 0 75 26q29 29 29 69
q0 30 -19 49q-14 14 -49 29l-24 10q-39 16 -59 37q-24 24 -24 59q0 45 30 75q35 36 90 36q40 0 66 -18t35 -48zM245 517l99 68l29 -26l-134 -94l-110 94l35 26z" />
    <glyph glyph-name="Tcedilla" unicode="&#x162;" horiz-adv-x="418" 
d="M481 627h-173l-77 -627h-44l77 627h-173l5 40h390zM209 -50l44 -28l-129 -124l-28 20z" />
    <glyph glyph-name="tcedilla" unicode="&#x163;" horiz-adv-x="194" 
d="M231 370h-71l-45 -370h-40l45 370h-45l5 38h45l18 146h40l-18 -146h71zM83 -50l44 -20l-119 -124l-26 16z" />
    <glyph glyph-name="Tcaron" unicode="&#x164;" horiz-adv-x="418" 
d="M481 627h-173l-77 -627h-44l77 627h-173l5 40h390zM304 775l104 64l31 -27l-141 -90l-119 90l37 27z" />
    <glyph glyph-name="tcaron" unicode="&#x165;" horiz-adv-x="220" 
d="M231 370h-71l-45 -370h-40l45 370h-45l5 38h45l18 146h40l-18 -146h71zM210 522l68 158l42 -16l-84 -154z" />
    <glyph glyph-name="Utilde" unicode="&#x168;" horiz-adv-x="633" 
d="M171 667h44l-51 -417q-4 -33 -5 -46.5t0 -42t11 -50t29 -39.5q44 -43 124 -43q93 0 145 52q22 22 35 52.5t17.5 53t9.5 63.5l51 417h44l-51 -417q-5 -43 -9.5 -67t-22 -63.5t-46.5 -68.5q-63 -62 -174 -62q-104 0 -159 55q-36 37 -45 93t2 113zM303 717l-26 22
q13 24 27 38q22 22 53 22q19 0 49 -13l24 -11q24 -11 41 -11q14 0 25 11q9 7 19 27l27 -22q-13 -25 -30 -40q-23 -20 -48 -20q-19 0 -52 14l-21 9q-30 12 -41 12q-16 0 -29 -12q-10 -9 -18 -26z" />
    <glyph glyph-name="utilde" unicode="&#x169;" horiz-adv-x="437" 
d="M121 408h40l-30 -246q-10 -79 25 -111q27 -24 70 -24q53 0 83 32q28 30 36 103l30 246h40l-34 -257q-12 -86 -41 -119q-39 -43 -116 -43q-66 0 -102 37q-42 44 -31 134zM177 487l-24 19q10 20 27 37q22 20 50 20q19 0 49 -13l24 -11q22 -11 39 -11q18 0 30 12q5 5 17 25
l23 -20q-11 -23 -32 -41q-19 -16 -45 -16q-20 0 -46 12l-24 11q-26 12 -43 12q-16 0 -28 -11q-11 -11 -17 -25z" />
    <glyph glyph-name="Umacron" unicode="&#x16a;" horiz-adv-x="633" 
d="M171 667h44l-51 -417q-4 -33 -5 -46.5t0 -42t11 -50t29 -39.5q44 -43 124 -43q93 0 145 52q22 22 35 52.5t17.5 53t9.5 63.5l51 417h44l-51 -417q-5 -43 -9.5 -67t-22 -63.5t-46.5 -68.5q-63 -62 -174 -62q-104 0 -159 55q-36 37 -45 93t2 113zM274 750l5 44h270l-5 -44
h-270z" />
    <glyph glyph-name="umacron" unicode="&#x16b;" horiz-adv-x="437" 
d="M121 408h40l-30 -246q-10 -79 25 -111q27 -24 70 -24q53 0 83 32q28 30 36 103l30 246h40l-34 -257q-12 -86 -41 -119q-39 -43 -116 -43q-66 0 -102 37q-42 44 -31 134zM145 493l4 39h270l-4 -39h-270z" />
    <glyph glyph-name="Ubreve" unicode="&#x16c;" horiz-adv-x="633" 
d="M171 667h44l-51 -417q-4 -33 -5 -46.5t0 -42t11 -50t29 -39.5q44 -43 124 -43q93 0 145 52q22 22 35 52.5t17.5 53t9.5 63.5l51 417h44l-51 -417q-5 -43 -9.5 -67t-22 -63.5t-46.5 -68.5q-63 -62 -174 -62q-104 0 -159 55q-36 37 -45 93t2 113zM291 826h40q5 -22 23 -36
q21 -16 58 -16q38 0 63 16q21 14 30 36h40q-13 -44 -48 -69q-37 -25 -89 -25q-50 0 -82 26q-30 26 -35 68z" />
    <glyph glyph-name="ubreve" unicode="&#x16d;" horiz-adv-x="437" 
d="M121 408h40l-30 -246q-10 -79 25 -111q27 -24 70 -24q53 0 83 32q28 30 36 103l30 246h40l-34 -257q-12 -86 -41 -119q-39 -43 -116 -43q-66 0 -102 37q-42 44 -31 134zM164 573h38q5 -26 24 -40q22 -16 59 -16t61 16q22 15 30 40h38q-9 -34 -34 -58q-38 -36 -97 -36
q-54 0 -86 28q-30 27 -33 66z" />
    <glyph glyph-name="Uring" unicode="&#x16e;" horiz-adv-x="633" 
d="M171 667h44l-51 -417q-4 -33 -5 -46.5t0 -42t11 -50t29 -39.5q44 -43 124 -43q93 0 145 52q22 22 35 52.5t17.5 53t9.5 63.5l51 417h44l-51 -417q-5 -43 -9.5 -67t-22 -63.5t-46.5 -68.5q-63 -62 -174 -62q-104 0 -159 55q-36 37 -45 93t2 113zM333 779q0 37 25 62
q26 26 62 26q34 0 55 -23q20 -22 20 -52q0 -35 -25 -60t-62 -25q-34 0 -54 20q-21 21 -21 52zM373 783q0 -16 10 -26q11 -11 29 -11q21 0 32 13q11 11 11 30q0 18 -11 29q-12 10 -28 10q-18 0 -30 -12q-13 -13 -13 -33z" />
    <glyph glyph-name="uring" unicode="&#x16f;" horiz-adv-x="437" 
d="M121 408h40l-30 -246q-10 -79 25 -111q27 -24 70 -24q53 0 83 32q28 30 36 103l30 246h40l-34 -257q-12 -86 -41 -119q-39 -43 -116 -43q-66 0 -102 37q-42 44 -31 134zM208 541q0 34 25 59q26 26 62 26q29 0 50 -19q19 -18 19 -49q0 -36 -24 -62q-24 -24 -62 -24
q-30 0 -50 19q-20 20 -20 50zM245 543q0 -15 9 -24q9 -11 28 -11q20 0 33 13q12 12 12 32q0 17 -9 26q-9 11 -28 11q-18 0 -31 -12q-14 -14 -14 -35z" />
    <glyph glyph-name="Uhungarumlaut" unicode="&#x170;" horiz-adv-x="633" 
d="M171 667h44l-51 -417q-4 -33 -5 -46.5t0 -42t11 -50t29 -39.5q44 -43 124 -43q93 0 145 52q22 22 35 52.5t17.5 53t9.5 63.5l51 417h44l-51 -417q-5 -43 -9.5 -67t-22 -63.5t-46.5 -68.5q-63 -62 -174 -62q-104 0 -159 55q-36 37 -45 93t2 113zM412 854l49 -26l-116 -125
l-34 15zM533 854l49 -26l-116 -125l-34 15z" />
    <glyph glyph-name="uhungarumlaut" unicode="&#x171;" horiz-adv-x="437" 
d="M121 408h40l-30 -246q-10 -79 25 -111q27 -24 70 -24q53 0 83 32q28 30 36 103l30 246h40l-34 -257q-12 -86 -41 -119q-39 -43 -116 -43q-66 0 -102 37q-42 44 -31 134zM294 620l39 -25l-115 -128l-25 16zM405 620l39 -25l-115 -128l-25 16z" />
    <glyph glyph-name="Uogonek" unicode="&#x172;" horiz-adv-x="633" 
d="M171 667h44l-51 -417q-6 -44 -6 -70q0 -68 41 -108q44 -43 124 -43q93 0 145 52q22 22 35.5 54t17.5 53.5t8 56.5l1 6q12 93 51 416h44l-53 -435q-8 -65 -21.5 -104t-49.5 -72q-29 -27 -94 -57q-52 -25 -73 -46q-26 -26 -26 -56q0 -23 17 -34q15 -9 39 -9q26 0 51 11
l-13 -39q-22 -8 -48 -8q-39 0 -63 18q-26 20 -26 52q0 31 20 61q16 23 41 41q-6 -1 -18 -1q-41 0 -80.5 15.5t-64.5 39.5q-48 47 -48 134q0 32 5 72z" />
    <glyph glyph-name="uogonek" unicode="&#x173;" horiz-adv-x="437" 
d="M121 408h40l-28 -229q-4 -28 -4 -50q0 -53 27 -78q27 -24 70 -24q53 0 83 32q27 29 36 103l30 246h40l-34 -257q-8 -59 -21 -85q-17 -35 -54 -64q-43 -37 -49 -44q-29 -31 -29 -60q0 -24 20 -35q16 -9 39 -9q21 0 43 9l-13 -37q-20 -7 -41 -7q-38 0 -61 18q-25 18 -25 54
q0 30 20 59q16 22 37 39q-87 -2 -125 37q-34 34 -34 94q0 17 6 65z" />
    <glyph glyph-name="Ydieresis" unicode="&#x178;" horiz-adv-x="516" 
d="M233 0l35 285l-172 382h48l151 -337l237 337h52l-272 -382l-35 -285h-44zM409 775q0 18 13 31q12 12 28 12t26 -10q9 -11 9 -24q0 -17 -13 -30q-12 -12 -31 -12q-14 0 -23 9q-9 8 -9 24zM223 775q0 18 13 31q12 12 28 12t26 -10q9 -11 9 -24q0 -17 -13 -30
q-12 -12 -31 -12q-14 0 -23 9q-9 8 -9 24z" />
    <glyph glyph-name="Zacute" unicode="&#x179;" horiz-adv-x="554" 
d="M599 667l-483 -627h395l-5 -40h-469l483 627h-367l5 40h441zM461 854l47 -25l-150 -126l-29 18z" />
    <glyph glyph-name="zacute" unicode="&#x17a;" horiz-adv-x="452" 
d="M484 408l-375 -370h328l-5 -38h-414l379 370h-282l5 38h364zM371 620l40 -25l-121 -128l-28 16z" />
    <glyph glyph-name="Zdotaccent" unicode="&#x17b;" horiz-adv-x="554" 
d="M599 667l-483 -627h395l-5 -40h-469l483 627h-367l5 40h441zM345 775q0 21 12 33q11 14 34 14q16 0 26 -10t10 -25q0 -21 -12 -33q-12 -14 -33 -14q-17 0 -27 10t-10 25z" />
    <glyph glyph-name="zdotaccent" unicode="&#x17c;" horiz-adv-x="452" 
d="M484 408l-375 -370h328l-5 -38h-414l379 370h-282l5 38h364zM265 522q0 18 13 31t31 13q14 0 25 -9q10 -8 10 -25q0 -19 -14 -32q-12 -12 -30 -12q-14 0 -25 9q-10 10 -10 25z" />
    <glyph glyph-name="Zcaron" unicode="&#x17d;" horiz-adv-x="554" 
d="M599 667l-483 -627h395l-5 -40h-469l483 627h-367l5 40h441zM385 775l104 64l31 -27l-141 -90l-119 90l37 27z" />
    <glyph glyph-name="zcaron" unicode="&#x17e;" horiz-adv-x="452" 
d="M484 408l-375 -370h328l-5 -38h-414l379 370h-282l5 38h364zM303 517l99 68l29 -26l-134 -94l-110 94l35 26z" />
    <glyph glyph-name="uni018F" unicode="&#x18f;" horiz-adv-x="774" 
d="M92 320h619q12 70 -8 134.5t-64 106.5q-37 36 -89.5 55.5t-105.5 19.5q-92 0 -171 -49q-57 -36 -98 -95l-35 28q49 67 115 106q88 50 196 50q134 0 221 -84q89 -86 89 -225q0 -85 -30 -158.5t-79 -122.5q-96 -97 -257 -97q-133 0 -211 75q-46 44 -72 113t-20 143z
M702 280h-567q-1 -46 18.5 -97t54.5 -85q72 -69 190 -69q114 0 192 60q92 71 112 191z" />
    <glyph glyph-name="florin" unicode="&#x192;" horiz-adv-x="548" 
d="M190 370l10 38h62l62 235q12 49 38 72q28 25 71 25q31 0 57 -14l-11 -36q-23 12 -45 12q-31 0 -50 -18q-13 -12 -21 -41l-61 -235h101l-10 -38h-101l-103 -397q-20 -80 -51 -106q-31 -27 -77 -27q-34 0 -66 14l11 37q30 -13 55 -13q31 0 50 17t37 84l104 391h-62z" />
    <glyph glyph-name="uni01CF" unicode="&#x1cf;" horiz-adv-x="224" 
d="M172 667h44l-82 -667h-44zM208 779l87 60l32 -28l-126 -89l-104 89l38 28z" />
    <glyph glyph-name="uni01D0" unicode="&#x1d0;" horiz-adv-x="184" 
d="M122 408h40l-50 -408h-40zM153 523l78 60l28 -26l-110 -86l-90 86l32 26z" />
    <glyph glyph-name="uni01DD" unicode="&#x1dd;" horiz-adv-x="485" 
d="M72 207h349q8 82 -42 132q-40 40 -110 40q-56 0 -96 -30q-30 -22 -51 -63l-35 20q27 47 62 73q51 38 121 38q90 0 143 -53q51 -51 51 -139q0 -117 -69 -184q-53 -52 -134 -52q-84 0 -133 49q-29 29 -44.5 76t-11.5 93zM414 169h-304q3 -64 44 -105q38 -37 104 -37
q67 0 107 39q41 40 49 103z" />
    <glyph glyph-name="Gcaron" unicode="&#x1e6;" horiz-adv-x="773" 
d="M473 280l5 40h280q-14 -147 -104 -236q-96 -95 -239 -95q-141 0 -230 89q-90 89 -90 220q0 164 111 271q109 107 273 107q99 0 176 -49q63 -41 101 -107l-39 -28q-36 63 -84 97q-67 47 -156 47q-68 0 -131 -25.5t-107 -68.5q-47 -46 -73 -110t-26 -129q0 -113 76 -193
q78 -81 192 -81q133 0 220 90q64 66 80 161h-235zM481 775l104 64l31 -27l-141 -90l-119 90l37 27z" />
    <glyph glyph-name="gcaron" unicode="&#x1e7;" horiz-adv-x="520" 
d="M458 408h40l-48 -396q-16 -128 -67 -181q-58 -61 -160 -61q-87 0 -135 48q-50 48 -51 127h42q2 -60 36 -96q39 -41 113 -41q78 0 123 45q44 44 59 159l7 58q-26 -38 -66 -58q-45 -23 -95 -23q-88 0 -137 52q-52 56 -52 143q0 105 66 172q58 61 154 61q67 0 111 -28
q31 -22 51 -52zM288 379q-71 0 -119 -45q-58 -55 -58 -150q0 -67 43 -114q40 -43 112 -43q71 0 117 47q54 57 54 150q0 74 -43 115q-40 40 -106 40zM313 517l99 68l29 -26l-134 -94l-110 94l35 26z" />
    <glyph glyph-name="AEacute" unicode="&#x1fc;" horiz-adv-x="852" 
d="M523 0l-62 219h-285l-114 -219h-48l351 667h289l12 -40h-275l69 -242h268l12 -40h-268l87 -305h273l13 -40h-322zM197 259h252l-89 314zM597 854l47 -25l-150 -126l-29 18z" />
    <glyph glyph-name="aeacute" unicode="&#x1fd;" horiz-adv-x="795" 
d="M116 340l5 43q63 34 130 34q78 0 121 -40q34 -34 41 -79q25 51 68 82q51 37 116 37q80 0 127 -45q32 -30 44 -77.5t6 -96.5h-349q-5 -35 5 -71.5t33 -60.5q37 -39 102 -39q56 0 97 30q37 27 56 64l30 -20q-36 -56 -80 -84q-43 -28 -101 -28q-62 0 -106 27q-41 26 -60 69
q-24 -53 -72 -76q-40 -20 -102 -20q-73 0 -116 28q-52 34 -52 93q0 64 52 101q47 34 126 34q91 0 143 -44q11 105 -32 146q-35 32 -102 32q-62 0 -130 -39zM236 206q-74 0 -108 -32q-27 -26 -27 -58q0 -45 40 -70q30 -19 86 -19q66 0 103 27t37 74q0 39 -41 61
q-33 17 -90 17zM432 236h302q-2 72 -44 111q-35 32 -91 32q-67 0 -113 -46q-40 -41 -54 -97zM528 620l40 -25l-121 -128l-28 16z" />
    <glyph glyph-name="Scommaaccent" unicode="&#x218;" horiz-adv-x="514" 
d="M497 581l-35 -27q-10 28 -28 46.5t-38 25t-31.5 8.5t-21.5 2q-63 0 -103 -40q-39 -39 -39 -94q0 -40 28 -70q8 -8 18.5 -16t18 -12.5t22 -12t21.5 -11.5l33 -18q9 -5 28.5 -15.5t29 -16t22.5 -14.5t22 -19q40 -40 40 -101q0 -90 -62 -149q-60 -58 -166 -58q-85 0 -134 49
q-36 36 -52 94l40 18q14 -50 44 -80q41 -41 104 -41q85 0 132 44q46 44 46 116q0 49 -32 81q-9 9 -22 18t-21 13.5t-25.5 13.5t-21.5 11l-46 25q-47 26 -75 55q-38 40 -38 94q0 71 51 122q56 54 139 54q51 0 92 -24t60 -71zM170 -188l64 138l42 -16l-80 -134z" />
    <glyph glyph-name="scommaaccent" unicode="&#x219;" horiz-adv-x="342" 
d="M331 351l-36 -18q-7 21 -23 33q-20 13 -45 13q-35 0 -57 -22q-18 -18 -18 -45q0 -22 16 -39q13 -13 42 -25l31 -13q41 -17 60 -36q27 -28 27 -72q0 -56 -36 -95q-41 -43 -112 -43q-59 0 -94 35q-28 28 -36 73l40 12q6 -36 27 -57q25 -25 64 -25q47 0 75 26q29 29 29 69
q0 30 -19 49q-14 14 -49 29l-24 10q-39 16 -59 37q-24 24 -24 59q0 45 30 75q35 36 90 36q40 0 66 -18t35 -48zM90 -188l58 138l42 -16l-74 -134z" />
    <glyph glyph-name="Tcommaaccent" unicode="&#x21a;" horiz-adv-x="418" 
d="M481 627h-173l-77 -627h-44l77 627h-173l5 40h390zM130 -188l64 138l42 -16l-80 -134z" />
    <glyph glyph-name="tcommaaccent" unicode="&#x21b;" horiz-adv-x="194" 
d="M231 370h-71l-45 -370h-40l45 370h-45l5 38h45l18 146h40l-18 -146h71zM20 -188l58 138l42 -16l-74 -134z" />
    <glyph glyph-name="uni0228" unicode="&#x228;" horiz-adv-x="464" 
d="M492 667l-5 -40h-276l-30 -242h270l-5 -40h-270l-37 -305h276l-5 -40h-278h-42l82 667h320zM250 -50l44 -28l-129 -124l-28 20z" />
    <glyph glyph-name="uni0229" unicode="&#x229;" horiz-adv-x="487" 
d="M463 199h-348q-6 -38 6 -73.5t35 -58.5q40 -40 103 -40q56 0 97 29q34 25 53 64l31 -20q-30 -53 -73 -81q-45 -30 -109 -30q-86 0 -136 54q-51 54 -51 139q0 108 68 176q59 59 146 59q79 0 128 -47q59 -57 50 -171zM121 237h302q-1 63 -41 104q-36 38 -97 38
q-70 0 -117 -49q-36 -38 -47 -93zM257 -50l44 -20l-119 -124l-26 16z" />
    <glyph glyph-name="uni0237" unicode="&#x237;" horiz-adv-x="184" 
d="M122 408h40l-78 -638h-40z" />
    <glyph glyph-name="uni0259" unicode="&#x259;" horiz-adv-x="485" 
d="M72 207h349q8 82 -42 132q-40 40 -110 40q-56 0 -96 -30q-30 -22 -51 -63l-35 20q27 47 62 73q51 38 121 38q90 0 143 -53q51 -51 51 -139q0 -117 -69 -184q-53 -52 -134 -52q-84 0 -133 49q-29 29 -44.5 76t-11.5 93zM414 169h-304q3 -64 44 -105q38 -37 104 -37
q67 0 107 39q41 40 49 103z" />
    <glyph glyph-name="afii57929" unicode="&#x2bc;" 
d="M256 522l68 158l42 -16l-84 -154z" />
    <glyph glyph-name="circumflex" unicode="&#x2c6;" 
d="M316 535l-99 -68l-29 25l134 94l110 -94l-35 -25z" />
    <glyph glyph-name="caron" unicode="&#x2c7;" 
d="M313 517l99 68l29 -26l-134 -94l-110 94l35 26z" />
    <glyph glyph-name="uni02C9" unicode="&#x2c9;" 
d="M176 493l4 39h270l-4 -39h-270z" />
    <glyph glyph-name="breve" unicode="&#x2d8;" 
d="M195 573h38q5 -26 24 -40q22 -16 59 -16t61 16q22 15 30 40h38q-9 -34 -34 -58q-38 -36 -97 -36q-54 0 -86 28q-30 27 -33 66z" />
    <glyph glyph-name="dotaccent" unicode="&#x2d9;" 
d="M275 522q0 18 13 31t31 13q14 0 25 -9q10 -8 10 -25q0 -19 -14 -32q-12 -12 -30 -12q-14 0 -25 9q-10 10 -10 25z" />
    <glyph glyph-name="ring" unicode="&#x2da;" 
d="M239 541q0 34 25 59q26 26 62 26q29 0 50 -19q19 -18 19 -49q0 -36 -24 -62q-24 -24 -62 -24q-30 0 -50 19q-20 20 -20 50zM276 543q0 -15 9 -24q9 -11 28 -11q20 0 33 13q12 12 12 32q0 17 -9 26q-9 11 -28 11q-18 0 -31 -12q-14 -14 -14 -35z" />
    <glyph glyph-name="ogonek" unicode="&#x2db;" 
d="M341 -137l-13 -36q-23 -8 -46 -8q-37 0 -62 20t-25 52q0 41 37 78q17 17 42 31h40q-30 -20 -45 -36q-35 -35 -35 -69q0 -17 11 -28q13 -13 43 -13q24 0 53 9z" />
    <glyph glyph-name="tilde" unicode="&#x2dc;" 
d="M209 487l-24 19q10 20 27 37q22 20 50 20q19 0 49 -13l24 -11q22 -11 39 -11q18 0 30 12q5 5 17 25l23 -20q-11 -23 -32 -41q-19 -16 -45 -16q-20 0 -46 12l-24 11q-26 12 -43 12q-16 0 -28 -11q-11 -11 -17 -25z" />
    <glyph glyph-name="hungarumlaut" unicode="&#x2dd;" 
d="M325 620l39 -25l-115 -128l-25 16zM436 620l39 -25l-115 -128l-25 16z" />
    <glyph glyph-name="acutecomb" unicode="&#x301;" horiz-adv-x="2" 
d="M-121 620l40 -25l-121 -128l-28 16z" />
    <glyph glyph-name="uni0394" unicode="&#x394;" horiz-adv-x="628" 
d="M614 0h-600l280 667h40zM314 603l-234 -563h468z" />
    <glyph glyph-name="uni0394" unicode="&#x2206;" horiz-adv-x="628" 
d="M614 0h-600l280 667h40zM314 603l-234 -563h468z" />
    <glyph glyph-name="uni03A9" unicode="&#x3a9;" horiz-adv-x="622" 
d="M28 40h204q-65 33 -116 92q-88 102 -88 221q0 140 91 234q85 89 214 89t214 -89q91 -94 91 -234q0 -119 -88 -221q-51 -59 -116 -92h204v-40h-256v44q86 46 138 109q72 87 72 197q0 127 -79 209q-74 77 -180 77t-180 -77q-79 -82 -79 -209q0 -110 72 -197
q52 -63 138 -109v-44h-256v40z" />
    <glyph glyph-name="uni03A9" unicode="&#x2126;" horiz-adv-x="622" 
d="M28 40h204q-65 33 -116 92q-88 102 -88 221q0 140 91 234q85 89 214 89t214 -89q91 -94 91 -234q0 -119 -88 -221q-51 -59 -116 -92h204v-40h-256v44q86 46 138 109q72 87 72 197q0 127 -79 209q-74 77 -180 77t-180 -77q-79 -82 -79 -209q0 -110 72 -197
q52 -63 138 -109v-44h-256v40z" />
    <glyph glyph-name="pi" unicode="&#x3c0;" horiz-adv-x="487" 
d="M179 0h-40v370h-72v38h448v-38h-72v-370h-40v370h-224v-370z" />
    <glyph glyph-name="afii10023" unicode="&#x401;" horiz-adv-x="464" 
d="M492 667l-5 -40h-276l-30 -242h270l-5 -40h-270l-37 -305h276l-5 -40h-278h-42l82 667h320zM403 775q0 18 13 31q12 12 28 12t26 -10q9 -11 9 -24q0 -17 -13 -30q-12 -12 -31 -12q-14 0 -23 9q-9 8 -9 24zM217 775q0 18 13 31q12 12 28 12t26 -10q9 -11 9 -24
q0 -17 -13 -30q-12 -12 -31 -12q-14 0 -23 9q-9 8 -9 24z" />
    <glyph glyph-name="afii10051" unicode="&#x402;" horiz-adv-x="620" 
d="M501 627h-200l-32 -262q74 23 140 23q78 0 129 -46q56 -53 56 -149q0 -92 -57 -151q-48 -49 -135 -49q-39 0 -84 8l5 40q36 -7 73 -7q68 0 107 37q44 42 44 122q0 74 -36 113q-38 42 -114 42q-58 0 -133 -23l-40 -325h-44l77 627h-166l5 40h410z" />
    <glyph glyph-name="afii10052" unicode="&#x403;" horiz-adv-x="400" 
d="M90 0l82 667h296l-5 -40h-252l-77 -627h-44zM421 854l47 -25l-150 -126l-29 18z" />
    <glyph glyph-name="afii10053" unicode="&#x404;" horiz-adv-x="682" 
d="M700 589l-7 -58q-37 48 -89 76q-58 29 -128 29q-65 0 -127 -27t-106 -71q-68 -68 -91 -174h442l-5 -40h-444q-5 -64 15 -121t60 -97q77 -77 190 -77q68 0 129 28q58 26 105 73l-7 -58q-47 -40 -96 -60q-55 -23 -132 -23q-135 0 -222 87q-92 92 -92 224q0 158 118 270
q111 106 268 106q73 0 136 -27q47 -23 83 -60z" />
    <glyph glyph-name="afii10054" unicode="&#x405;" horiz-adv-x="514" 
d="M497 581l-35 -27q-10 28 -28 46.5t-38 25t-31.5 8.5t-21.5 2q-63 0 -103 -40q-39 -39 -39 -94q0 -40 28 -70q8 -8 18.5 -16t18 -12.5t22 -12t21.5 -11.5l33 -18q9 -5 28.5 -15.5t29 -16t22.5 -14.5t22 -19q40 -40 40 -101q0 -90 -62 -149q-60 -58 -166 -58q-85 0 -134 49
q-36 36 -52 94l40 18q14 -50 44 -80q41 -41 104 -41q85 0 132 44q46 44 46 116q0 49 -32 81q-9 9 -22 18t-21 13.5t-25.5 13.5t-21.5 11l-46 25q-47 26 -75 55q-38 40 -38 94q0 71 51 122q56 54 139 54q51 0 92 -24t60 -71z" />
    <glyph glyph-name="afii10055" unicode="&#x406;" horiz-adv-x="224" 
d="M172 667h44l-82 -667h-44z" />
    <glyph glyph-name="afii10056" unicode="&#x407;" horiz-adv-x="224" 
d="M172 667h44l-82 -667h-44zM234 775q0 18 13 31q12 12 28 12t26 -10q9 -11 9 -24q0 -17 -13 -30q-12 -12 -31 -12q-14 0 -23 9q-9 8 -9 24zM106 775q0 18 13 31q12 12 28 12t26 -10q9 -11 9 -24q0 -17 -13 -30q-12 -12 -31 -12q-14 0 -23 9q-9 8 -9 24z" />
    <glyph glyph-name="afii10057" unicode="&#x408;" horiz-adv-x="268" 
d="M216 667h44l-65 -528q-11 -88 -42 -119q-32 -31 -88 -31q-43 0 -71 23q-23 18 -36 49l34 24q9 -26 26 -40q18 -16 50 -16q34 0 53 20q23 23 29 81z" />
    <glyph glyph-name="afii10058" unicode="&#x409;" horiz-adv-x="924" 
d="M486 0l77 627h-288l-48 -388q-10 -79 -25.5 -126.5t-46.5 -78.5q-40 -40 -100 -40q-23 0 -41 6l5 40q15 -6 33 -6q47 0 76 31q38 40 55 174l53 428h376l-35 -287h114q106 0 159 -45q52 -44 52 -126q0 -91 -51 -146q-59 -63 -210 -63h-110h-45zM572 340l-37 -300h114
q121 0 168 52q39 42 39 116q0 68 -49 103q-40 29 -136 29h-99z" />
    <glyph glyph-name="afii10059" unicode="&#x40a;" horiz-adv-x="976" 
d="M664 667l-35 -287h114q106 0 159 -45q52 -44 52 -126q0 -91 -51 -146q-59 -63 -210 -63h-155l42 340h-404l-42 -340h-44l82 667h44l-35 -287h404l35 287h44zM624 340l-37 -300h114q121 0 168 52q39 42 39 116q0 68 -49 103q-40 29 -136 29h-99z" />
    <glyph glyph-name="afii10060" unicode="&#x40b;" horiz-adv-x="670" 
d="M501 627h-200l-30 -243h178q110 0 151 -42q30 -30 30 -80q0 -16 -5 -58l-25 -204h-44l24 194q5 43 5 59q0 39 -23 62q-15 14 -41 21t-42 7.5t-57 0.5h-156l-42 -344h-44l77 627h-166l5 40h410z" />
    <glyph glyph-name="afii10061" unicode="&#x40c;" horiz-adv-x="540" 
d="M216 667l-39 -314l354 314h58l-364 -320l299 -347h-58l-275 318l-20 -17l-37 -301h-44l82 667h44zM441 854l47 -25l-150 -126l-29 18z" />
    <glyph glyph-name="afii10062" unicode="&#x40e;" horiz-adv-x="550" 
d="M96 667h48l178 -432l248 432h48l-387 -667h-46l108 186zM471 822l33 -19q-22 -41 -56 -62q-38 -23 -90 -23q-55 0 -90 28q-31 24 -44 57l37 19q10 -31 34 -47q23 -17 68 -17q43 0 70 19q24 17 38 45z" />
    <glyph glyph-name="afii10145" unicode="&#x40f;" horiz-adv-x="666" 
d="M90 0l82 667h44l-77 -627h398l77 627h44l-82 -667h-221l-18 -150h-44l18 150h-221z" />
    <glyph glyph-name="afii10017" unicode="&#x410;" horiz-adv-x="586" 
d="M526 0l-62 219h-284l-116 -219h-50l365 687l193 -687h-46zM201 259h252l-86 316z" />
    <glyph glyph-name="afii10018" unicode="&#x411;" horiz-adv-x="536" 
d="M90 0l82 667h321l-5 -40h-277l-30 -247h116q101 0 154 -41q55 -44 55 -127q0 -96 -53 -151q-60 -61 -188 -61h-131h-44zM176 340l-37 -300h115q103 0 151 40q55 46 55 127q0 63 -41 98t-139 35h-104z" />
    <glyph glyph-name="afii10019" unicode="&#x412;" horiz-adv-x="536" 
d="M90 0l82 667h128q97 0 143 -45q40 -38 40 -105q0 -83 -51 -132q-20 -20 -47 -31q48 -13 80 -45q40 -41 40 -109q0 -88 -56 -144q-35 -34 -85 -45t-118 -11h-116h-40zM211 627l-32 -262h96q83 0 123 40q39 39 39 107q0 56 -35 86q-35 29 -109 29h-82zM174 325l-35 -285
h112q61 0 100 9.5t67 38.5q40 42 40 110q0 53 -34 86q-43 41 -146 41h-104z" />
    <glyph glyph-name="afii10020" unicode="&#x413;" horiz-adv-x="400" 
d="M90 0l82 667h296l-5 -40h-252l-77 -627h-44z" />
    <glyph glyph-name="afii10021" unicode="&#x414;" horiz-adv-x="610" 
d="M226 667h376l-77 -627h76l-21 -174h-42l16 134h-498l-16 -134h-42l21 174q48 9 81 42q37 35 58 104q14 47 23 119zM265 627l-40 -322q-16 -128 -48 -189q-23 -45 -59 -76h363l72 587h-288z" />
    <glyph glyph-name="afii10022" unicode="&#x415;" horiz-adv-x="464" 
d="M492 667l-5 -40h-276l-30 -242h270l-5 -40h-270l-37 -305h276l-5 -40h-278h-42l82 667h320z" />
    <glyph glyph-name="afii10024" unicode="&#x416;" horiz-adv-x="796" 
d="M458 667h44l-39 -314l321 314h58l-337 -323l276 -344h-57l-252 314l-15 -13l-37 -301h-44l37 301l-11 13l-330 -314h-58l360 344l-256 323h57l244 -314z" />
    <glyph glyph-name="afii10025" unicode="&#x417;" horiz-adv-x="555" 
d="M202 554l-29 27q33 47 79 71q43 24 101 24q78 0 121 -41q42 -41 42 -104q0 -64 -32 -107q-28 -36 -75 -57q45 -12 72 -39q43 -42 43 -112q0 -103 -65 -166q-62 -60 -174 -60q-92 0 -147 45q-44 35 -68 95l42 20q17 -46 51 -77q48 -44 122 -44q84 0 136 48q55 50 55 136
q0 55 -35 87q-41 39 -125 39h-60l5 40h43q78 0 123 40q43 40 43 105q0 57 -37 86q-33 26 -88 26q-47 0 -85 -25q-31 -21 -58 -57z" />
    <glyph glyph-name="afii10026" unicode="&#x418;" horiz-adv-x="700" 
d="M566 0l68 556l-546 -573l84 684h44l-70 -566l547 573l-83 -674h-44z" />
    <glyph glyph-name="afii10027" unicode="&#x419;" horiz-adv-x="700" 
d="M566 0l68 556l-546 -573l84 684h44l-70 -566l547 573l-83 -674h-44zM557 822l33 -19q-22 -41 -56 -62q-38 -23 -90 -23q-55 0 -90 28q-31 24 -44 57l37 19q10 -31 34 -47q23 -17 68 -17q43 0 70 19q24 17 38 45z" />
    <glyph glyph-name="afii10028" unicode="&#x41a;" horiz-adv-x="540" 
d="M216 667l-39 -314l354 314h58l-364 -320l299 -347h-58l-275 318l-20 -17l-37 -301h-44l82 667h44z" />
    <glyph glyph-name="afii10029" unicode="&#x41b;" horiz-adv-x="620" 
d="M236 667h376l-82 -667h-44l77 627h-288l-48 -388q-10 -75 -25 -124t-47 -81q-40 -40 -100 -40q-23 0 -41 6l5 40q16 -6 36 -6q44 0 73 31q38 39 55 174z" />
    <glyph glyph-name="afii10030" unicode="&#x41c;" horiz-adv-x="896" 
d="M127 0h-44l161 690l213 -617l365 617l-9 -690h-44l7 536l-331 -560l-193 560z" />
    <glyph glyph-name="afii10031" unicode="&#x41d;" horiz-adv-x="672" 
d="M216 667l-35 -283h404l35 283h44l-82 -667h-44l42 344h-404l-42 -344h-44l82 667h44z" />
    <glyph glyph-name="afii10032" unicode="&#x41e;" horiz-adv-x="805" 
d="M479 676q141 0 231 -92q82 -85 82 -215q0 -168 -112 -277q-106 -103 -267 -103q-141 0 -227 85q-91 89 -91 222q0 71 29 142.5t85 128.5q108 109 270 109zM407 29q146 0 240 92q48 48 74 114.5t26 131.5q0 116 -76 192q-77 77 -196 77q-137 0 -232 -93
q-102 -101 -102 -243q0 -113 73 -191q76 -80 193 -80z" />
    <glyph glyph-name="afii10033" unicode="&#x41f;" horiz-adv-x="672" 
d="M172 667h492l-82 -667h-44l77 627h-404l-77 -627h-44z" />
    <glyph glyph-name="afii10034" unicode="&#x420;" horiz-adv-x="448" 
d="M259 317h-86l-39 -317h-44l82 667h129q89 0 135 -47q41 -41 41 -112q0 -84 -49 -135q-54 -56 -169 -56zM211 627l-33 -270h88q82 0 123 39q40 38 40 110q0 51 -29 82q-17 18 -39.5 27t-37.5 10.5t-41 1.5h-71z" />
    <glyph glyph-name="afii10035" unicode="&#x421;" horiz-adv-x="682" 
d="M700 589l-7 -58q-38 49 -89 76q-56 29 -124 29q-139 0 -237 -98q-48 -48 -74 -112.5t-26 -127.5q0 -113 77 -192q75 -77 190 -77q68 0 129 28q58 26 105 73l-7 -58q-47 -40 -96 -60q-55 -23 -132 -23q-135 0 -222 87q-92 92 -92 224q0 158 118 270q111 106 268 106
q73 0 136 -27q47 -23 83 -60z" />
    <glyph glyph-name="afii10036" unicode="&#x422;" horiz-adv-x="418" 
d="M481 627h-173l-77 -627h-44l77 627h-173l5 40h390z" />
    <glyph glyph-name="afii10037" unicode="&#x423;" horiz-adv-x="550" 
d="M96 667h48l178 -432l248 432h48l-387 -667h-46l108 186z" />
    <glyph glyph-name="afii10038" unicode="&#x424;" horiz-adv-x="824" 
d="M389 0l12 94h-9q-138 0 -215 60q-80 63 -80 174q0 59 21.5 113.5t59.5 91.5q84 81 258 81h28l10 80h44l-10 -80h19q134 0 208 -59q78 -63 78 -182q0 -126 -73 -197q-85 -82 -269 -82h-26l-12 -94h-44zM405 134l54 440h-30q-139 0 -211 -64q-34 -31 -55 -78.5t-21 -100.5
q0 -93 71 -147q66 -50 180 -50h12zM503 574l-54 -440h27q164 0 234 75q56 60 56 162q0 108 -77 161q-61 42 -167 42h-19z" />
    <glyph glyph-name="afii10039" unicode="&#x425;" horiz-adv-x="470" 
d="M23 0l225 340l-135 327h46l116 -285l187 285h50l-214 -327l141 -340h-46l-124 300l-196 -300h-50z" />
    <glyph glyph-name="afii10040" unicode="&#x426;" horiz-adv-x="666" 
d="M90 0l82 667h44l-77 -627h398l77 627h44l-77 -627h76l-21 -174h-42l16 134h-520z" />
    <glyph glyph-name="afii10041" unicode="&#x427;" horiz-adv-x="579" 
d="M445 0l37 303q-66 -10 -140 -10q-108 0 -158 25q-61 31 -61 101q0 15 7 75l21 173h44l-22 -180q-6 -50 -6 -58q0 -55 51 -78q39 -18 130 -18q57 0 139 10l40 324h44l-82 -667h-44z" />
    <glyph glyph-name="afii10042" unicode="&#x428;" horiz-adv-x="920" 
d="M90 0l82 667h44l-77 -627h304l77 627h44l-77 -627h304l77 627h44l-82 -667h-740z" />
    <glyph glyph-name="afii10043" unicode="&#x429;" horiz-adv-x="920" 
d="M90 0l82 667h44l-77 -627h304l77 627h44l-77 -627h304l77 627h44l-77 -627h76l-21 -174h-42l16 134h-774z" />
    <glyph glyph-name="afii10044" unicode="&#x42a;" horiz-adv-x="612" 
d="M174 0l77 627h-160l5 40h204l-35 -287h114q106 0 159 -45q52 -44 52 -126q0 -91 -51 -146q-59 -63 -210 -63h-113h-42zM260 340l-37 -300h114q121 0 168 52q39 42 39 116q0 68 -49 103q-40 29 -136 29h-99z" />
    <glyph glyph-name="afii10045" unicode="&#x42b;" horiz-adv-x="690" 
d="M638 667h44l-82 -667h-44zM90 0l82 667h44l-35 -287h114q106 0 159 -45q52 -44 52 -126q0 -91 -51 -146q-59 -63 -210 -63h-155zM176 340l-37 -300h114q121 0 168 52q39 42 39 116q0 68 -49 103q-40 29 -136 29h-99z" />
    <glyph glyph-name="afii10046" unicode="&#x42c;" horiz-adv-x="528" 
d="M90 0l82 667h44l-35 -287h114q106 0 159 -45q52 -44 52 -126q0 -91 -51 -146q-59 -63 -210 -63h-155zM176 340l-37 -300h114q121 0 168 52q39 42 39 116q0 68 -49 103q-40 29 -136 29h-99z" />
    <glyph glyph-name="afii10047" unicode="&#x42d;" horiz-adv-x="680" 
d="M63 72l7 58q37 -46 90 -73q56 -28 129 -28q147 0 233 84q84 83 96 211h-444l5 40h442q4 122 -83 204q-74 68 -183 68q-67 0 -126 -27q-57 -27 -110 -78l7 58q46 36 92 57q66 30 142 30q132 0 215 -79q92 -86 92 -226q0 -169 -103 -277q-55 -57 -120 -81t-151 -24
q-89 0 -149 28q-40 19 -81 55z" />
    <glyph glyph-name="afii10048" unicode="&#x42e;" horiz-adv-x="964" 
d="M180 372h101q22 117 99 198q102 106 256 106q141 0 229 -88q86 -84 86 -221q0 -167 -112 -275q-106 -103 -255 -103q-134 0 -220 85q-101 101 -89 258h-100l-41 -332h-44l82 667h44zM589 29q127 0 217 90q49 49 74.5 114t25.5 129q0 120 -75 197t-195 77q-129 0 -217 -88
q-49 -49 -74.5 -113.5t-25.5 -125.5q0 -55 22 -111.5t58 -93.5q73 -75 190 -75z" />
    <glyph glyph-name="afii10049" unicode="&#x42f;" horiz-adv-x="470" 
d="M34 0l239 299q-73 3 -119 49q-43 43 -43 116q0 90 59 147q57 56 178 56h114l-82 -667h-44l37 299h-48l-237 -299h-54zM413 627h-52q-37 0 -59 -2t-51 -13t-50 -33q-43 -43 -43 -111q0 -60 37 -95q37 -34 108 -34h75z" />
    <glyph glyph-name="afii10065" unicode="&#x430;" horiz-adv-x="518" 
d="M446 328l10 80h40l-50 -408h-40l8 63q-26 -36 -60 -53q-42 -21 -94 -21q-80 0 -130 47q-59 54 -59 148q0 111 69 177q58 56 151 56q59 0 99 -27q36 -24 56 -62zM283 379q-70 0 -115 -45q-55 -55 -55 -147q0 -77 47 -122q40 -38 104 -38q56 0 97 30q40 30 57 76t17 88
q0 75 -42 117q-39 41 -110 41z" />
    <glyph glyph-name="afii10066" unicode="&#x431;" horiz-adv-x="526" 
d="M128 311h2q29 48 68 73q50 33 118 33q92 0 142 -50t50 -133q0 -116 -74 -185q-64 -60 -167 -60q-89 0 -138 51q-52 55 -52 154q0 85 32 195q28 99 88 160q36 37 80 54t119 31q61 11 84 21t33 35h50q-10 -28 -28.5 -45.5t-52.5 -30.5q-25 -10 -69.5 -18.5t-69.5 -15.5
q-83 -21 -128 -69q-31 -33 -54 -89t-33 -111zM273 27q80 0 132 50q59 57 59 150q0 73 -46 116q-39 36 -101 36q-87 0 -140 -57q-55 -58 -55 -142q0 -68 42 -112q39 -41 109 -41z" />
    <glyph glyph-name="afii10067" unicode="&#x432;" horiz-adv-x="415" 
d="M122 408h116q73 0 104 -29q25 -23 25 -64q0 -37 -14 -59q-15 -25 -43 -35q32 -9 50 -27q23 -24 23 -63q0 -57 -32 -91q-38 -40 -137 -40h-102h-40zM140 230h86q52 0 75 19q25 20 25 56q0 32 -22 50q-23 15 -70 15h-77zM117 38h115q58 0 84 24q25 23 25 65q0 29 -21 46
q-23 19 -69 19h-115z" />
    <glyph glyph-name="afii10068" unicode="&#x433;" horiz-adv-x="300" 
d="M72 0l50 408h220l-5 -38h-180l-45 -370h-40z" />
    <glyph glyph-name="afii10069" unicode="&#x434;" horiz-adv-x="440" 
d="M150 408h268l-45 -370h60l-19 -148h-38l14 110h-344l-14 -110h-38l19 148q53 11 80 52q23 35 32 112zM333 38l40 332h-188l-22 -180q-8 -63 -24 -95t-46 -57h240z" />
    <glyph glyph-name="afii10070" unicode="&#x435;" horiz-adv-x="487" 
d="M463 199h-348q-6 -38 6 -73.5t35 -58.5q40 -40 103 -40q56 0 97 29q34 25 53 64l31 -20q-30 -53 -73 -81q-45 -30 -109 -30q-86 0 -136 54q-51 54 -51 139q0 108 68 176q59 59 146 59q79 0 128 -47q59 -57 50 -171zM121 237h302q-1 63 -41 104q-36 38 -97 38
q-70 0 -117 -49q-36 -38 -47 -93z" />
    <glyph glyph-name="afii10072" unicode="&#x436;" horiz-adv-x="560" 
d="M310 408h40l-24 -194l208 194h52l-214 -196l180 -212h-52l-155 187l-25 -21l-20 -166h-40l20 166l-17 20l-201 -186h-54l232 212l-166 196h50l163 -194z" />
    <glyph glyph-name="afii10073" unicode="&#x437;" horiz-adv-x="399" 
d="M143 322l-31 23q23 33 54 51q34 21 80 21q55 0 88 -31q27 -27 27 -71q0 -29 -14 -54q-14 -26 -44 -39q26 -10 44 -31q21 -26 21 -63q0 -61 -40 -99q-42 -40 -120 -40q-60 0 -98 26q-32 22 -54 64l37 23q13 -31 38 -51q30 -24 80 -24q56 0 85 26q30 27 30 73q0 32 -23 51
q-24 21 -81 21h-33l5 38h17q56 0 81 19q28 21 28 60q0 28 -21 46q-22 18 -57 18q-38 0 -64 -19q-20 -15 -35 -38z" />
    <glyph glyph-name="afii10074" unicode="&#x438;" horiz-adv-x="474" 
d="M122 408h40l-40 -329l333 352l-53 -431h-40l40 327l-333 -352z" />
    <glyph glyph-name="afii10075" unicode="&#x439;" horiz-adv-x="474" 
d="M122 408h40l-40 -329l333 352l-53 -431h-40l40 327l-333 -352zM182 573l35 17q7 -33 28 -52q23 -21 63 -21q46 0 71 23q22 20 30 50l33 -17q-14 -43 -46 -67q-35 -27 -89 -27q-57 0 -91 33q-24 24 -34 61z" />
    <glyph glyph-name="afii10076" unicode="&#x43a;" horiz-adv-x="396" 
d="M122 408h40l-24 -194l230 194h54l-234 -194l198 -214h-56l-173 187l-25 -21l-20 -166h-40z" />
    <glyph glyph-name="afii10077" unicode="&#x43b;" horiz-adv-x="430" 
d="M408 408l-50 -408h-40l45 370h-188l-28 -230q-4 -28 -7 -44t-12 -35.5t-24 -33.5q-40 -38 -96 -27l5 38q8 -2 18 -2q28 0 47 19q20 20 28 83l34 270h268z" />
    <glyph glyph-name="afii10078" unicode="&#x43c;" horiz-adv-x="566" 
d="M24 0l149 433l118 -368l208 368l43 -433h-42l-27 319l-193 -344l-109 344l-105 -319h-42z" />
    <glyph glyph-name="afii10079" unicode="&#x43d;" horiz-adv-x="454" 
d="M72 0l50 408h40l-22 -180h230l22 180h40l-50 -408h-40l23 190h-230l-23 -190h-40z" />
    <glyph glyph-name="afii10080" unicode="&#x43e;" horiz-adv-x="524" 
d="M300 417q95 0 152 -57q51 -51 51 -141q0 -107 -67 -170q-64 -60 -167 -60q-91 0 -144 56q-54 56 -54 142q0 47 18.5 92.5t49.5 76.5q64 61 161 61zM275 27q76 0 126 46q60 56 60 142q0 69 -43 116q-46 48 -122 48q-73 0 -124 -46q-59 -53 -59 -140q0 -73 46 -121
q43 -45 116 -45z" />
    <glyph glyph-name="afii10081" unicode="&#x43f;" horiz-adv-x="448" 
d="M72 0l50 408h304l-50 -408h-40l45 370h-224l-45 -370h-40z" />
    <glyph glyph-name="afii10082" unicode="&#x440;" horiz-adv-x="518" 
d="M121 73l-36 -303h-40l77 638h40l-9 -71q22 33 61 55q44 25 102 25q82 0 132 -50q49 -51 49 -136q0 -116 -69 -183q-59 -59 -148 -59q-59 0 -105 29q-34 22 -54 55zM279 27q73 0 117 40q59 54 59 157q0 74 -45 117q-38 38 -98 38q-73 0 -122 -49q-56 -56 -56 -149
q0 -71 45 -116q39 -38 100 -38z" />
    <glyph glyph-name="afii10083" unicode="&#x441;" horiz-adv-x="444" 
d="M446 365l-7 -53q-26 30 -56 46q-39 21 -81 21q-85 0 -135 -53q-54 -54 -54 -140q0 -67 42 -114q41 -45 115 -45q47 0 84 19q38 20 64 54l-7 -58q-30 -24 -58 -37q-38 -16 -85 -16q-90 0 -144 54q-53 55 -53 143q0 104 68 170q63 61 162 61q44 0 89 -18q26 -11 56 -34z
" />
    <glyph glyph-name="afii10084" unicode="&#x442;" horiz-adv-x="340" 
d="M150 0l45 370h-142l5 38h324l-5 -38h-142l-45 -370h-40z" />
    <glyph glyph-name="afii10085" unicode="&#x443;" horiz-adv-x="428" 
d="M78 -230l123 223l-143 415h44l127 -363l193 363h48l-346 -638h-46z" />
    <glyph glyph-name="afii10086" unicode="&#x444;" horiz-adv-x="605" 
d="M255 -230l27 223q-106 4 -164 65q-47 51 -47 123q0 104 62 166q67 67 201 67l31 253h40l-31 -253q107 -4 165 -67q45 -50 45 -125q0 -106 -63 -167q-65 -62 -199 -62l-27 -223h-40zM287 31l42 345q-108 0 -163 -53q-53 -48 -53 -133q0 -58 33 -100q44 -54 141 -59z
M369 376l-42 -345q114 2 165 53q50 50 50 134q0 68 -41 109q-49 49 -132 49z" />
    <glyph glyph-name="afii10087" unicode="&#x445;" horiz-adv-x="398" 
d="M8 0l191 214l-127 194h47l108 -168l148 168h49l-172 -194l138 -214h-47l-120 188l-166 -188h-49z" />
    <glyph glyph-name="afii10088" unicode="&#x446;" horiz-adv-x="444" 
d="M72 0l50 408h40l-45 -370h220l45 370h40l-45 -370h60l-19 -148h-38l14 110h-322z" />
    <glyph glyph-name="afii10089" unicode="&#x447;" horiz-adv-x="412" 
d="M300 0l21 169q-43 -10 -90 -10q-86 0 -119 34q-16 17 -19 40.5t2 51.5l15 123h40l-15 -123q-5 -22 -1 -43t24 -32q24 -13 71 -13q63 0 96 10l25 201h40l-50 -408h-40z" />
    <glyph glyph-name="afii10090" unicode="&#x448;" horiz-adv-x="644" 
d="M72 0l50 408h40l-45 -370h190l45 370h40l-45 -370h190l45 370h40l-50 -408h-500z" />
    <glyph glyph-name="afii10091" unicode="&#x449;" horiz-adv-x="644" 
d="M72 0l50 408h40l-45 -370h190l45 370h40l-45 -370h190l45 370h40l-45 -370h60l-19 -148h-38l14 110h-522z" />
    <glyph glyph-name="afii10092" unicode="&#x44a;" horiz-adv-x="417" 
d="M58 408h140l-21 -170h86q67 0 101 -32q30 -29 30 -79q0 -56 -31 -87q-40 -40 -133 -40h-82h-40l45 370h-100zM153 38h92q53 0 80 22q27 23 27 64q0 38 -23 57t-71 19h-85z" />
    <glyph glyph-name="afii10093" unicode="&#x44b;" 
d="M438 408h40l-50 -408h-40zM121 408h41l-21 -170h86q67 0 101 -32q30 -29 30 -79q0 -56 -31 -87q-40 -40 -133 -40h-122zM117 38h92q53 0 80 22q27 23 27 64q0 38 -23 57t-71 19h-85z" />
    <glyph glyph-name="afii10094" unicode="&#x44c;" horiz-adv-x="381" 
d="M121 408h41l-21 -170h86q67 0 101 -32q30 -29 30 -79q0 -56 -31 -87q-40 -40 -133 -40h-122zM117 38h92q53 0 80 22q27 23 27 64q0 38 -23 57t-71 19h-85z" />
    <glyph glyph-name="afii10095" unicode="&#x44d;" horiz-adv-x="409" 
d="M39 15l5 42q44 -30 108 -30q74 0 121 35q61 46 71 128h-241l5 38h239q-2 65 -40 105q-44 46 -127 46q-55 0 -100 -24l5 40q47 22 104 22q90 0 144 -51q55 -53 55 -140q0 -110 -69 -178q-59 -59 -163 -59q-67 0 -117 26z" />
    <glyph glyph-name="afii10096" unicode="&#x44e;" horiz-adv-x="642" 
d="M140 228h68q10 76 64 130q60 59 153 59q91 0 145 -54q51 -52 51 -143q0 -107 -67 -172q-61 -59 -154 -59q-87 0 -141 54q-55 57 -55 147h-69l-23 -190h-40l50 408h40zM406 27q68 0 117 48q56 54 56 140q0 71 -43 118q-42 46 -112 46q-72 0 -120 -46q-58 -55 -58 -140
q0 -73 46 -121q43 -45 114 -45z" />
    <glyph glyph-name="afii10097" unicode="&#x44f;" horiz-adv-x="386" 
d="M28 0l152 178q-46 6 -74 32t-28 72q0 56 34 90q36 36 118 36h134l-50 -408h-40l22 176h-68l-150 -176h-50zM300 214l19 156h-96q-53 0 -78 -24q-23 -20 -23 -62q0 -37 25 -54q22 -16 74 -16h79z" />
    <glyph glyph-name="afii10071" unicode="&#x451;" horiz-adv-x="487" 
d="M463 199h-348q-6 -38 6 -73.5t35 -58.5q40 -40 103 -40q56 0 97 29q34 25 53 64l31 -20q-30 -53 -73 -81q-45 -30 -109 -30q-86 0 -136 54q-51 54 -51 139q0 108 68 176q59 59 146 59q79 0 128 -47q59 -57 50 -171zM121 237h302q-1 63 -41 104q-36 38 -97 38
q-70 0 -117 -49q-36 -38 -47 -93zM356 523q0 15 12 27t29 12q16 0 24 -10t8 -22q0 -16 -11 -27q-12 -13 -30 -13q-13 0 -22 9q-10 10 -10 24zM190 523q0 15 12 27t29 12q16 0 24 -10t8 -22q0 -16 -11 -27q-12 -13 -30 -13q-13 0 -22 9q-10 10 -10 24z" />
    <glyph glyph-name="afii10099" unicode="&#x452;" horiz-adv-x="442" 
d="M72 0l64 522h-100l5 38h100l21 169h40l-21 -169h180l-5 -38h-180l-27 -218q52 73 134 73q77 0 106 -57q11 -23 11 -60q0 -20 -3 -43l-38 -308q-4 -31 -7 -46.5t-13.5 -37t-28.5 -34.5q-29 -21 -71 -21q-23 0 -39 6l5 37q13 -5 32 -5q36 0 54 18q21 21 29 91l37 300
q2 14 2 35q0 30 -8 47q-19 40 -75 40q-68 0 -107 -57q-27 -40 -36 -110l-21 -172h-40z" />
    <glyph glyph-name="afii10100" unicode="&#x453;" horiz-adv-x="300" 
d="M72 0l50 408h220l-5 -38h-180l-45 -370h-40zM311 620l40 -25l-121 -128l-28 16z" />
    <glyph glyph-name="afii10101" unicode="&#x454;" horiz-adv-x="444" 
d="M446 365l-7 -53q-26 30 -61 48q-37 19 -79 19q-79 0 -132 -53q-40 -42 -48 -98h238l-5 -38h-238q-3 -71 41 -118q42 -45 114 -45q48 0 85 19q35 19 64 54l-7 -58q-30 -24 -58 -37q-38 -16 -85 -16q-90 0 -144 54q-53 55 -53 143q0 102 68 170q63 61 161 61q47 0 90 -18
q26 -11 56 -34z" />
    <glyph glyph-name="afii10102" unicode="&#x455;" horiz-adv-x="342" 
d="M331 351l-36 -18q-7 21 -23 33q-20 13 -45 13q-35 0 -57 -22q-18 -18 -18 -45q0 -22 16 -39q13 -13 42 -25l31 -13q41 -17 60 -36q27 -28 27 -72q0 -56 -36 -95q-41 -43 -112 -43q-59 0 -94 35q-28 28 -36 73l40 12q6 -36 27 -57q25 -25 64 -25q47 0 75 26q29 29 29 69
q0 30 -19 49q-14 14 -49 29l-24 10q-39 16 -59 37q-24 24 -24 59q0 45 30 75q35 36 90 36q40 0 66 -18t35 -48z" />
    <glyph glyph-name="afii10103" unicode="&#x456;" horiz-adv-x="184" 
d="M122 408h40l-50 -408h-40zM154 507q-14 0 -23 9q-8 8 -8 22q0 21 13 32q11 11 27 11q14 0 23 -9t9 -23q0 -18 -12 -30t-29 -12z" />
    <glyph glyph-name="afii10104" unicode="&#x457;" horiz-adv-x="184" 
d="M121 408h40l-50 -408h-40zM169 541q0 17 12 29q11 11 28 11q15 0 24 -10q8 -9 8 -22q0 -18 -12 -30q-10 -10 -26 -10q-14 0 -25 9q-9 9 -9 23zM73 541q0 17 12 29q11 11 28 11q15 0 24 -10q8 -9 8 -22q0 -18 -12 -30q-10 -10 -26 -10q-14 0 -25 9q-9 9 -9 23z" />
    <glyph glyph-name="afii10105" unicode="&#x458;" horiz-adv-x="184" 
d="M122 408h40l-79 -638h-40zM154 507q-14 0 -23 9q-8 8 -8 22q0 21 13 32q11 11 27 11q14 0 23 -9t9 -23q0 -18 -12 -30t-29 -12z" />
    <glyph glyph-name="afii10106" unicode="&#x459;" horiz-adv-x="627" 
d="M387 238h86q67 0 101 -32q30 -29 30 -79q0 -56 -31 -87q-40 -40 -133 -40h-82h-40l44 370h-187l-31 -249q-9 -71 -45 -100q-29 -23 -68 -23q-13 0 -23 2l5 38q35 -8 60 12q12 9 19 25t9 27t5 32l34 274h40h228zM363 38h92q53 0 80 22q27 23 27 64q0 38 -23 57t-71 19h-85
z" />
    <glyph glyph-name="afii10107" unicode="&#x45a;" horiz-adv-x="651" 
d="M371 238l20 170h41l-21 -170h86q67 0 101 -32q30 -29 30 -79q0 -56 -31 -87q-40 -40 -133 -40h-122l24 200h-229l-25 -200h-40l50 408h40l-21 -170h230zM387 38h92q53 0 80 22q27 23 27 65q0 35 -23 56q-23 19 -71 19h-85z" />
    <glyph glyph-name="afii10108" unicode="&#x45b;" horiz-adv-x="442" 
d="M72 0l64 522h-100l5 38h100l21 169h40l-21 -169h180l-5 -38h-180l-27 -218q52 73 134 73q77 0 106 -57q11 -23 11 -60q0 -20 -3 -43l-27 -217h-40l27 217q2 14 2 35q0 30 -8 47q-19 40 -75 40q-68 0 -107 -57q-27 -40 -36 -110l-21 -172h-40z" />
    <glyph glyph-name="afii10109" unicode="&#x45c;" horiz-adv-x="396" 
d="M122 408h40l-24 -194l230 194h54l-234 -194l198 -214h-56l-173 187l-25 -21l-20 -166h-40zM329 620l40 -25l-121 -128l-28 16z" />
    <glyph glyph-name="afii10110" unicode="&#x45e;" horiz-adv-x="428" 
d="M78 -230l123 223l-143 415h44l127 -363l193 363h48l-346 -638h-46zM150 573l35 17q7 -33 28 -52q23 -21 63 -21q46 0 71 23q22 20 30 50l33 -17q-14 -43 -46 -67q-35 -27 -89 -27q-57 0 -91 33q-24 24 -34 61z" />
    <glyph glyph-name="afii10193" unicode="&#x45f;" horiz-adv-x="444" 
d="M72 0l50 408h40l-45 -370h220l45 370h40l-50 -408h-130l-15 -120h-40l15 120h-130z" />
    <glyph glyph-name="afii10146" unicode="&#x462;" horiz-adv-x="612" 
d="M174 0l65 527h-160l5 40h160l15 127h44l-15 -127h200l-5 -40h-200l-18 -147h114q106 0 159 -45q52 -44 52 -126q0 -91 -51 -146q-59 -63 -210 -63h-155zM260 340l-37 -300h114q121 0 168 52q39 42 39 116q0 68 -49 103q-40 29 -136 29h-99z" />
    <glyph glyph-name="afii10194" unicode="&#x463;" horiz-adv-x="417" 
d="M177 238h86q67 0 101 -32q30 -29 30 -79q0 -56 -31 -87q-40 -40 -133 -40h-122l45 370h-100l5 38h100l32 259h40l-32 -259h120l-5 -38h-120zM153 38h92q53 0 80 22q27 23 27 64q0 38 -23 57t-71 19h-85z" />
    <glyph glyph-name="afii10147" unicode="&#x472;" horiz-adv-x="805" 
d="M479 676q141 0 231 -92q82 -83 82 -219q0 -165 -112 -273q-106 -103 -267 -103q-142 0 -227 85q-91 91 -91 223q0 71 29 144t85 128q109 107 270 107zM741 319h-598q-9 -125 70 -210q73 -80 196 -80q146 0 238 92q81 81 94 198zM150 360h594q5 119 -73 199
q-77 77 -196 77q-137 0 -232 -93q-77 -76 -93 -183z" />
    <glyph glyph-name="afii10195" unicode="&#x473;" horiz-adv-x="524" 
d="M298 417q97 0 154 -57q51 -51 51 -141q0 -107 -67 -170q-63 -60 -163 -60q-95 0 -148 56q-54 56 -54 144q0 98 64 162q64 66 163 66zM276 27q76 0 125 47q50 48 58 116h-346q1 -70 46 -117q44 -46 117 -46zM116 228h344q-5 63 -42 103q-44 48 -120 48t-125 -46
q-44 -41 -57 -105z" />
    <glyph glyph-name="afii10148" unicode="&#x474;" horiz-adv-x="510" 
d="M96 667h48l126 -568l260 568h48l-323 -694z" />
    <glyph glyph-name="afii10196" unicode="&#x475;" horiz-adv-x="390" 
d="M58 408h42l102 -339l184 339h46l-239 -433z" />
    <glyph glyph-name="afii10050" unicode="&#x490;" horiz-adv-x="400" 
d="M90 0l82 667h254l16 133h42l-21 -173h-252l-77 -627h-44z" />
    <glyph glyph-name="afii10098" unicode="&#x491;" horiz-adv-x="300" 
d="M72 0l50 408h182l14 110h38l-19 -148h-180l-45 -370h-40z" />
    <glyph glyph-name="uni0492" unicode="&#x492;" horiz-adv-x="400" 
d="M90 0l42 345h-90l5 40h90l35 282h296l-5 -40h-252l-30 -242h136l-5 -40h-136l-42 -345h-44z" />
    <glyph glyph-name="uni0493" unicode="&#x493;" horiz-adv-x="300" 
d="M72 0l25 200h-72l4 38h72l21 170h220l-5 -38h-180l-16 -132h100l-4 -38h-100l-25 -200h-40z" />
    <glyph glyph-name="uni0494" unicode="&#x494;" horiz-adv-x="530" 
d="M463 627h-252l-32 -262q74 23 140 23q78 0 129 -46q56 -53 56 -149q0 -92 -57 -151q-48 -49 -135 -49q-39 0 -84 8l5 40q36 -7 73 -7q68 0 107 37q44 42 44 122q0 74 -36 113q-38 42 -114 42q-58 0 -133 -23l-40 -325h-44l82 667h296z" />
    <glyph glyph-name="uni0495" unicode="&#x495;" horiz-adv-x="380" 
d="M72 0l50 408h220l-5 -38h-180l-16 -134h16q83 0 128 -35q54 -41 54 -123q0 -57 -20 -113.5t-62 -97.5q-61 -57 -151 -75l5 40q67 13 113 59q73 73 73 185q0 62 -38 93q-35 29 -108 29h-15l-24 -198h-40z" />
    <glyph glyph-name="uni0496" unicode="&#x496;" horiz-adv-x="796" 
d="M458 667h44l-39 -314l321 314h58l-336 -323l244 -304h37l-21 -174h-42l16 134h-16l-252 314l-15 -13l-37 -301h-44l37 301l-11 13l-330 -314h-58l360 344l-256 323h58l243 -314z" />
    <glyph glyph-name="uni0497" unicode="&#x497;" horiz-adv-x="560" 
d="M310 408h40l-24 -194l208 194h52l-214 -196l148 -174h37l-19 -148h-38l14 110h-16l-155 186l-23 -20l-20 -166h-40l20 166l-17 20l-201 -186h-54l232 212l-166 196h52l160 -194z" />
    <glyph glyph-name="uni0498" unicode="&#x498;" horiz-adv-x="555" 
d="M202 554l-29 27q33 47 79 71q43 24 101 24q78 0 121 -41q42 -41 42 -104q0 -64 -32 -107q-28 -36 -75 -57q45 -12 72 -39q43 -42 43 -112q0 -103 -65 -166q-59 -58 -147 -58l-18 -142h-44l18 141q-75 0 -130 44q-45 37 -68 95l42 20q17 -46 51 -77q48 -44 123 -44
q81 0 135 48q55 50 55 135q0 56 -35 88q-41 39 -125 39h-60l5 40h43q78 0 123 40q43 40 43 105q0 57 -37 86q-33 26 -88 26q-47 0 -85 -25q-31 -21 -58 -57z" />
    <glyph glyph-name="uni0499" unicode="&#x499;" horiz-adv-x="399" 
d="M143 322l-31 23q23 33 54 51q34 21 80 21q55 0 88 -31q27 -27 27 -71q0 -29 -14 -54q-14 -26 -44 -39q23 -9 37 -23q28 -28 28 -73q0 -58 -40 -98q-40 -38 -97 -39l-13 -109h-40l14 109q-48 3 -82 26q-33 23 -54 64l37 23q14 -29 39 -51q30 -24 78 -24q57 0 86 26
q30 27 30 72q0 33 -23 52q-25 21 -81 21h-33l5 38h17q56 0 81 19q28 21 28 60q0 28 -21 46q-22 18 -58 18q-39 0 -63 -19q-20 -15 -35 -38z" />
    <glyph glyph-name="uni049A" unicode="&#x49a;" horiz-adv-x="540" 
d="M172 667h44l-39 -314l354 314h58l-362 -319l265 -308h39l-21 -174h-42l16 134h-18l-275 318l-20 -17l-37 -301h-44z" />
    <glyph glyph-name="uni049B" unicode="&#x49b;" horiz-adv-x="396" 
d="M122 408h40l-24 -194l230 194h54l-232 -194l163 -176h40l-19 -148h-38l14 110h-20l-173 187l-25 -21l-20 -166h-40z" />
    <glyph glyph-name="uni049C" unicode="&#x49c;" horiz-adv-x="600" 
d="M172 667h44l-37 -303h72l17 140h40l-17 -140l306 303h52l-326 -319l263 -348h-54l-246 324l-20 -160h-40l20 160h-72l-40 -324h-44z" />
    <glyph glyph-name="uni049D" unicode="&#x49d;" horiz-adv-x="402" 
d="M122 408h40l-22 -178h43l13 100h38l-13 -100l171 178h48l-188 -194l138 -214h-48l-125 192l-15 -120h-38l15 120h-43l-24 -192h-40z" />
    <glyph glyph-name="uni04A0" unicode="&#x4a0;" horiz-adv-x="624" 
d="M174 0l77 627h-160l5 40h204l-39 -314l354 314h58l-362 -319l299 -348h-60l-275 318l-20 -17l-37 -301h-44z" />
    <glyph glyph-name="uni04A1" unicode="&#x4a1;" horiz-adv-x="432" 
d="M108 0l45 370h-100l5 38h140l-24 -194l230 194h54l-232 -194l198 -214h-58l-173 187l-25 -21l-20 -166h-40z" />
    <glyph glyph-name="uni04A2" unicode="&#x4a2;" horiz-adv-x="672" 
d="M90 0l82 667h44l-35 -283h404l35 283h44l-77 -627h76l-21 -174h-42l16 134h-78l42 344h-404l-42 -344h-44z" />
    <glyph glyph-name="uni04A3" unicode="&#x4a3;" horiz-adv-x="454" 
d="M72 0l50 408h40l-22 -180h230l22 180h40l-45 -370h60l-19 -148h-38l14 110h-62l23 190h-230l-23 -190h-40z" />
    <glyph glyph-name="uni04A4" unicode="&#x4a4;" horiz-adv-x="848" 
d="M90 0l82 667h44l-35 -283h404l35 283h296l-5 -40h-252l-77 -627h-44l42 344h-404l-42 -344h-44z" />
    <glyph glyph-name="uni04A5" unicode="&#x4a5;" horiz-adv-x="570" 
d="M72 0l50 408h40l-22 -180h230l22 180h220l-5 -38h-180l-45 -370h-40l23 190h-230l-23 -190h-40z" />
    <glyph glyph-name="uni04AA" unicode="&#x4aa;" horiz-adv-x="682" 
d="M700 589l-7 -58q-37 48 -89 76q-58 29 -128 29q-65 0 -126.5 -26.5t-106.5 -71.5q-48 -48 -74 -112.5t-26 -127.5q0 -113 77 -192q75 -77 190 -77q68 0 129 28q58 27 105 73l-7 -58q-42 -36 -96 -60q-52 -22 -114 -22l-18 -140h-44l18 141q-114 4 -196 85q-92 92 -92 224
q0 158 118 270q111 106 268 106q73 0 136 -27q47 -23 83 -60z" />
    <glyph glyph-name="uni04AB" unicode="&#x4ab;" horiz-adv-x="444" 
d="M446 365l-7 -53q-26 30 -56 46q-39 21 -81 21q-85 0 -135 -53q-54 -54 -54 -140q0 -67 42 -114q41 -45 115 -45q47 0 84 19q38 20 64 54l-7 -58q-28 -24 -58 -37q-34 -15 -63 -16l-12 -109h-40l13 109q-77 4 -127 54q-53 53 -53 143q0 104 68 170q63 61 162 61
q44 0 89 -18q26 -11 56 -34z" />
    <glyph glyph-name="uni04AE" unicode="&#x4ae;" horiz-adv-x="516" 
d="M233 0l35 285l-172 382h48l151 -337l237 337h52l-272 -382l-35 -285h-44z" />
    <glyph glyph-name="uni04AF" unicode="&#x4af;" horiz-adv-x="390" 
d="M58 408h43l102 -339l185 339h44l-214 -387l-32 -251h-40l32 251z" />
    <glyph glyph-name="uni04B0" unicode="&#x4b0;" horiz-adv-x="516" 
d="M233 0l30 245h-200l5 40h200l-172 382h48l151 -337l237 337h52l-272 -382h200l-5 -40h-200l-30 -245h-44z" />
    <glyph glyph-name="uni04B1" unicode="&#x4b1;" horiz-adv-x="390" 
d="M58 408h43l102 -339l185 339h44l-214 -387l-3 -21h120l-5 -38h-120l-24 -192h-40l24 192h-120l5 38h120l3 21z" />
    <glyph glyph-name="uni04B2" unicode="&#x4b2;" horiz-adv-x="468" 
d="M23 0l225 340l-135 327h46l116 -285l187 285h48l-214 -327l126 -300h22l-21 -174h-42l16 134h-6l-124 300l-196 -300h-48z" />
    <glyph glyph-name="uni04B3" unicode="&#x4b3;" horiz-adv-x="400" 
d="M8 0l191 214l-127 194h49l108 -168l148 168h49l-172 -194l114 -176h29l-19 -148h-38l14 110h-11l-120 188l-166 -188h-49z" />
    <glyph glyph-name="uni04B6" unicode="&#x4b6;" horiz-adv-x="578" 
d="M526 667h44l-77 -627h76l-21 -174h-42l16 134h-78l37 303q-67 -10 -136 -10q-116 0 -161 25q-61 33 -61 109q0 17 8 80l19 160h44l-20 -164q-7 -55 -7 -69q0 -63 56 -85q40 -16 125 -16q70 0 138 10z" />
    <glyph glyph-name="uni04B7" unicode="&#x4b7;" horiz-adv-x="412" 
d="M390 408l-45 -370h60l-19 -148h-38l14 110h-62l21 169q-44 -10 -89 -10q-73 0 -108 24q-32 22 -32 62q0 15 5 52l13 111h40l-12 -97q-5 -45 -5 -51q0 -36 27 -50q25 -13 79 -13q49 0 86 10l25 201h40z" />
    <glyph glyph-name="uni04B8" unicode="&#x4b8;" horiz-adv-x="580" 
d="M446 0l37 303q-53 -11 -138 -11h-3l-16 -128h-40l16 129q-74 0 -120 25q-59 32 -59 101q0 20 7 73l22 175h44l-22 -176q-6 -44 -6 -65q0 -53 42 -75q38 -20 97 -18l21 171h40l-21 -174h4q83 0 137 12l40 325h44l-82 -667h-44z" />
    <glyph glyph-name="uni04B9" unicode="&#x4b9;" horiz-adv-x="420" 
d="M308 0l20 165q-40 -5 -84 -6l-10 -80h-38l10 81q-54 0 -84 21q-30 20 -30 64q0 18 5 58l13 105h40l-11 -99q-5 -42 -5 -57q0 -29 21 -43q19 -12 55 -12l15 120h38l-15 -122q47 1 84 6l26 207h40l-50 -408h-40z" />
    <glyph glyph-name="uni04BA" unicode="&#x4ba;" horiz-adv-x="580" 
d="M216 667l-35 -283h178q110 0 151 -42q30 -30 30 -80q0 -16 -5 -58l-25 -204h-44l24 194q5 43 5 59q0 39 -23 62q-15 14 -41 21t-42 7.5t-57 0.5h-156l-42 -344h-44l82 667h44z" />
    <glyph glyph-name="uni04BB" unicode="&#x4bb;" horiz-adv-x="442" 
d="M72 0l90 729h40l-48 -385q18 31 45 49q34 24 82 24q57 0 90 -31q41 -38 31 -129l-32 -257h-40l32 257q8 69 -21 98q-24 24 -65 24q-51 0 -86 -35q-41 -41 -52 -132l-26 -212h-40z" />
    <glyph glyph-name="uni04C0" unicode="&#x4c0;" horiz-adv-x="224" 
d="M172 667h44l-82 -667h-44z" />
    <glyph glyph-name="uni04C1" unicode="&#x4c1;" horiz-adv-x="796" 
d="M458 667h44l-39 -314l321 314h58l-337 -323l276 -344h-57l-252 314l-15 -13l-37 -301h-44l37 301l-11 13l-330 -314h-58l360 344l-256 323h57l244 -314zM604 822l33 -19q-22 -41 -56 -62q-38 -23 -90 -23q-55 0 -90 28q-31 24 -44 57l37 19q10 -31 34 -47q23 -17 68 -17
q43 0 70 19q24 17 38 45z" />
    <glyph glyph-name="uni04C2" unicode="&#x4c2;" horiz-adv-x="560" 
d="M310 408h40l-24 -194l208 194h52l-214 -196l180 -212h-52l-155 187l-25 -21l-20 -166h-40l20 166l-17 20l-201 -186h-54l232 212l-166 196h50l163 -194zM220 573l35 17q7 -33 28 -52q23 -21 63 -21q46 0 71 23q22 20 30 50l33 -17q-14 -43 -46 -67q-35 -27 -89 -27
q-57 0 -91 33q-24 24 -34 61z" />
    <glyph glyph-name="uni04C3" unicode="&#x4c3;" horiz-adv-x="536" 
d="M172 667h44l-39 -314l344 314h58l-323 -298q84 0 124.5 -12.5t72.5 -44.5q59 -59 59 -173q0 -68 -20.5 -131t-60.5 -103q-65 -65 -167 -65q-33 0 -60 6l5 40q22 -6 51 -6q81 0 127 42q40 36 58 96.5t18 121.5q0 95 -49 142q-51 48 -143 48q-47 0 -98 -11l-39 -319h-44z
" />
    <glyph glyph-name="uni04C4" unicode="&#x4c4;" horiz-adv-x="388" 
d="M122 408h40l-24 -194l222 194h54l-206 -186q58 -3 96 -39q44 -41 44 -118q0 -120 -82 -198q-62 -58 -151 -75l5 40q63 12 113 59q73 70 73 175q0 61 -35 92q-33 32 -96 32q-23 0 -40 -4l-23 -186h-40z" />
    <glyph glyph-name="uni04C7" unicode="&#x4c7;" horiz-adv-x="672" 
d="M90 0l82 667h44l-35 -283h404l35 283h44l-92 -751q-11 -93 -54 -124q-30 -22 -73 -22q-16 0 -44 7l5 41q15 -6 33 -6q34 0 54 18q28 24 35 91l52 423h-404l-42 -344h-44z" />
    <glyph glyph-name="uni04C8" unicode="&#x4c8;" horiz-adv-x="454" 
d="M72 0l50 408h40l-22 -180h230l22 180h40l-60 -487q-4 -33 -7 -49t-11.5 -37.5t-22.5 -35.5q-30 -29 -81 -29q-22 0 -39 6l5 37q12 -5 32 -5q35 0 53 18q22 22 31 100l33 264h-230l-23 -190h-40z" />
    <glyph glyph-name="uni04D0" unicode="&#x4d0;" horiz-adv-x="586" 
d="M526 0l-62 219h-284l-116 -219h-50l365 687l193 -687h-46zM201 259h252l-86 316zM489 822l33 -19q-22 -41 -56 -62q-38 -23 -90 -23q-55 0 -90 28q-31 24 -44 57l37 19q10 -31 34 -47q23 -17 68 -17q43 0 70 19q24 17 38 45z" />
    <glyph glyph-name="uni04D1" unicode="&#x4d1;" horiz-adv-x="518" 
d="M446 328l10 80h40l-50 -408h-40l8 63q-26 -36 -60 -53q-42 -21 -94 -21q-80 0 -130 47q-59 54 -59 148q0 111 69 177q58 56 151 56q59 0 99 -27q36 -24 56 -62zM283 379q-70 0 -115 -45q-55 -55 -55 -147q0 -77 47 -122q40 -38 104 -38q56 0 97 30q40 30 57 76t17 88
q0 75 -42 117q-39 41 -110 41zM186 573l35 17q7 -33 28 -52q23 -21 63 -21q46 0 71 23q22 20 30 50l33 -17q-14 -43 -46 -67q-35 -27 -89 -27q-57 0 -91 33q-24 24 -34 61z" />
    <glyph glyph-name="uni04D2" unicode="&#x4d2;" horiz-adv-x="586" 
d="M526 0l-62 219h-284l-116 -219h-50l365 687l193 -687h-46zM201 259h252l-86 316zM444 775q0 18 13 31q12 12 28 12t26 -10q9 -11 9 -24q0 -17 -13 -30q-12 -12 -31 -12q-14 0 -23 9q-9 8 -9 24zM258 775q0 18 13 31q12 12 28 12t26 -10q9 -11 9 -24q0 -17 -13 -30
q-12 -12 -31 -12q-14 0 -23 9q-9 8 -9 24z" />
    <glyph glyph-name="uni04D3" unicode="&#x4d3;" horiz-adv-x="518" 
d="M446 328l10 80h40l-50 -408h-40l8 63q-26 -36 -60 -53q-42 -21 -94 -21q-80 0 -130 47q-59 54 -59 148q0 111 69 177q58 56 151 56q59 0 99 -27q36 -24 56 -62zM283 379q-70 0 -115 -45q-55 -55 -55 -147q0 -77 47 -122q40 -38 104 -38q56 0 97 30q40 30 57 76t17 88
q0 75 -42 117q-39 41 -110 41zM361 523q0 15 12 27t29 12q16 0 24 -10t8 -22q0 -16 -11 -27q-12 -13 -30 -13q-13 0 -22 9q-10 10 -10 24zM195 523q0 15 12 27t29 12q16 0 24 -10t8 -22q0 -16 -11 -27q-12 -13 -30 -13q-13 0 -22 9q-10 10 -10 24z" />
    <glyph glyph-name="uni04D4" unicode="&#x4d4;" horiz-adv-x="852" 
d="M523 0l-62 219h-285l-114 -219h-48l351 667h289l12 -40h-275l69 -242h268l12 -40h-268l87 -305h273l13 -40h-322zM197 259h252l-89 314z" />
    <glyph glyph-name="uni04D5" unicode="&#x4d5;" horiz-adv-x="795" 
d="M116 340l5 43q63 34 130 34q78 0 121 -40q34 -34 41 -79q25 51 68 82q51 37 116 37q80 0 127 -45q32 -30 44 -77.5t6 -96.5h-349q-5 -35 5 -71.5t33 -60.5q37 -39 102 -39q56 0 97 30q37 27 56 64l30 -20q-36 -56 -80 -84q-43 -28 -101 -28q-62 0 -106 27q-41 26 -60 69
q-24 -53 -72 -76q-40 -20 -102 -20q-73 0 -116 28q-52 34 -52 93q0 64 52 101q47 34 126 34q91 0 143 -44q11 105 -32 146q-35 32 -102 32q-62 0 -130 -39zM236 206q-74 0 -108 -32q-27 -26 -27 -58q0 -45 40 -70q30 -19 86 -19q66 0 103 27t37 74q0 39 -41 61
q-33 17 -90 17zM432 236h302q-2 72 -44 111q-35 32 -91 32q-67 0 -113 -46q-40 -41 -54 -97z" />
    <glyph glyph-name="uni04D6" unicode="&#x4d6;" horiz-adv-x="464" 
d="M492 667l-5 -40h-276l-30 -242h270l-5 -40h-270l-37 -305h276l-5 -40h-278h-42l82 667h320zM456 822l33 -19q-22 -41 -56 -62q-38 -23 -90 -23q-55 0 -90 28q-31 24 -44 57l37 19q10 -31 34 -47q23 -17 68 -17q43 0 70 19q24 17 38 45z" />
    <glyph glyph-name="uni04D7" unicode="&#x4d7;" horiz-adv-x="487" 
d="M463 199h-348q-6 -38 6 -73.5t35 -58.5q40 -40 103 -40q56 0 97 29q34 25 53 64l31 -20q-30 -53 -73 -81q-45 -30 -109 -30q-86 0 -136 54q-51 54 -51 139q0 108 68 176q59 59 146 59q79 0 128 -47q59 -57 50 -171zM121 237h302q-1 63 -41 104q-36 38 -97 38
q-70 0 -117 -49q-36 -38 -47 -93zM180 573l35 17q7 -33 28 -52q23 -21 63 -21q46 0 71 23q22 20 30 50l33 -17q-14 -43 -46 -67q-35 -27 -89 -27q-57 0 -91 33q-24 24 -34 61z" />
    <glyph glyph-name="uni04D8" unicode="&#x4d8;" horiz-adv-x="774" 
d="M92 320h619q12 70 -8 134.5t-64 106.5q-37 36 -89.5 55.5t-105.5 19.5q-92 0 -171 -49q-57 -36 -98 -95l-35 28q49 67 115 106q88 50 196 50q134 0 221 -84q89 -86 89 -225q0 -85 -30 -158.5t-79 -122.5q-96 -97 -257 -97q-133 0 -211 75q-46 44 -72 113t-20 143z
M702 280h-567q-1 -46 18.5 -97t54.5 -85q72 -69 190 -69q114 0 192 60q92 71 112 191z" />
    <glyph glyph-name="afii10846" unicode="&#x4d9;" horiz-adv-x="485" 
d="M72 207h349q8 82 -42 132q-40 40 -110 40q-56 0 -96 -30q-30 -22 -51 -63l-35 20q27 47 62 73q51 38 121 38q90 0 143 -53q51 -51 51 -139q0 -117 -69 -184q-53 -52 -134 -52q-84 0 -133 49q-29 29 -44.5 76t-11.5 93zM414 169h-304q3 -64 44 -105q38 -37 104 -37
q67 0 107 39q41 40 49 103z" />
    <glyph glyph-name="uni04DA" unicode="&#x4da;" horiz-adv-x="774" 
d="M92 320h619q12 70 -8 134.5t-64 106.5q-37 36 -89.5 55.5t-105.5 19.5q-92 0 -171 -49q-57 -36 -98 -95l-35 28q49 67 115 106q88 50 196 50q134 0 221 -84q89 -86 89 -225q0 -85 -30 -158.5t-79 -122.5q-96 -97 -257 -97q-133 0 -211 75q-46 44 -72 113t-20 143z
M702 280h-567q-1 -46 18.5 -97t54.5 -85q72 -69 190 -69q114 0 192 60q92 71 112 191zM520 775q0 18 13 31q12 12 28 12t26 -10q9 -11 9 -24q0 -17 -13 -30q-12 -12 -31 -12q-14 0 -23 9q-9 8 -9 24zM334 775q0 18 13 31q12 12 28 12t26 -10q9 -11 9 -24q0 -17 -13 -30
q-12 -12 -31 -12q-14 0 -23 9q-9 8 -9 24z" />
    <glyph glyph-name="uni04DB" unicode="&#x4db;" horiz-adv-x="485" 
d="M72 207h349q8 82 -42 132q-40 40 -110 40q-56 0 -96 -30q-30 -22 -51 -63l-35 20q27 47 62 73q51 38 121 38q90 0 143 -53q51 -51 51 -139q0 -117 -69 -184q-53 -52 -134 -52q-84 0 -133 49q-29 29 -44.5 76t-11.5 93zM414 169h-304q3 -64 44 -105q38 -37 104 -37
q67 0 107 39q41 40 49 103zM331 523q0 15 12 27t29 12q16 0 24 -10t8 -22q0 -16 -11 -27q-12 -13 -30 -13q-13 0 -22 9q-10 10 -10 24zM165 523q0 15 12 27t29 12q16 0 24 -10t8 -22q0 -16 -11 -27q-12 -13 -30 -13q-13 0 -22 9q-10 10 -10 24z" />
    <glyph glyph-name="uni04DC" unicode="&#x4dc;" horiz-adv-x="796" 
d="M458 667h44l-39 -314l321 314h58l-337 -323l276 -344h-57l-252 314l-15 -13l-37 -301h-44l37 301l-11 13l-330 -314h-58l360 344l-256 323h57l244 -314zM549 775q0 18 13 31q12 12 28 12t26 -10q9 -11 9 -24q0 -17 -13 -30q-12 -12 -31 -12q-14 0 -23 9q-9 8 -9 24z
M363 775q0 18 13 31q12 12 28 12t26 -10q9 -11 9 -24q0 -17 -13 -30q-12 -12 -31 -12q-14 0 -23 9q-9 8 -9 24z" />
    <glyph glyph-name="uni04DD" unicode="&#x4dd;" horiz-adv-x="560" 
d="M310 408h40l-24 -194l208 194h52l-214 -196l180 -212h-52l-155 187l-25 -21l-20 -166h-40l20 166l-17 20l-201 -186h-54l232 212l-166 196h50l163 -194zM386 523q0 15 12 27t29 12q16 0 24 -10t8 -22q0 -16 -11 -27q-12 -13 -30 -13q-13 0 -22 9q-10 10 -10 24zM220 523
q0 15 12 27t29 12q16 0 24 -10t8 -22q0 -16 -11 -27q-12 -13 -30 -13q-13 0 -22 9q-10 10 -10 24z" />
    <glyph glyph-name="uni04DE" unicode="&#x4de;" horiz-adv-x="555" 
d="M202 554l-29 27q33 47 79 71q43 24 101 24q78 0 121 -41q42 -41 42 -104q0 -64 -32 -107q-28 -36 -75 -57q45 -12 72 -39q43 -42 43 -112q0 -103 -65 -166q-62 -60 -174 -60q-92 0 -147 45q-44 35 -68 95l42 20q17 -46 51 -77q48 -44 122 -44q84 0 136 48q55 50 55 136
q0 55 -35 87q-41 39 -125 39h-60l5 40h43q78 0 123 40q43 40 43 105q0 57 -37 86q-33 26 -88 26q-47 0 -85 -25q-31 -21 -58 -57zM421 775q0 18 13 31q12 12 28 12t26 -10q9 -11 9 -24q0 -17 -13 -30q-12 -12 -31 -12q-14 0 -23 9q-9 8 -9 24zM235 775q0 18 13 31
q12 12 28 12t26 -10q9 -11 9 -24q0 -17 -13 -30q-12 -12 -31 -12q-14 0 -23 9q-9 8 -9 24z" />
    <glyph glyph-name="uni04DF" unicode="&#x4df;" horiz-adv-x="399" 
d="M143 322l-31 23q23 33 54 51q34 21 80 21q55 0 88 -31q27 -27 27 -71q0 -29 -14 -54q-14 -26 -44 -39q26 -10 44 -31q21 -26 21 -63q0 -61 -40 -99q-42 -40 -120 -40q-60 0 -98 26q-32 22 -54 64l37 23q13 -31 38 -51q30 -24 80 -24q56 0 85 26q30 27 30 73q0 32 -23 51
q-24 21 -81 21h-33l5 38h17q56 0 81 19q28 21 28 60q0 28 -21 46q-22 18 -57 18q-38 0 -64 -19q-20 -15 -35 -38zM301 523q0 15 12 27t29 12q16 0 24 -10t8 -22q0 -16 -11 -27q-12 -13 -30 -13q-13 0 -22 9q-10 10 -10 24zM135 523q0 15 12 27t29 12q16 0 24 -10t8 -22
q0 -16 -11 -27q-12 -13 -30 -13q-13 0 -22 9q-10 10 -10 24z" />
    <glyph glyph-name="uni04E2" unicode="&#x4e2;" horiz-adv-x="700" 
d="M566 0l68 556l-546 -573l84 684h44l-70 -566l547 573l-83 -674h-44zM307 750l5 44h270l-5 -44h-270z" />
    <glyph glyph-name="uni04E3" unicode="&#x4e3;" horiz-adv-x="474" 
d="M122 408h40l-40 -329l333 352l-53 -431h-40l40 327l-333 -352zM163 493l4 39h270l-4 -39h-270z" />
    <glyph glyph-name="uni04E4" unicode="&#x4e4;" horiz-adv-x="700" 
d="M566 0l68 556l-546 -573l84 684h44l-70 -566l547 573l-83 -674h-44zM501 775q0 18 13 31q12 12 28 12t26 -10q9 -11 9 -24q0 -17 -13 -30q-12 -12 -31 -12q-14 0 -23 9q-9 8 -9 24zM315 775q0 18 13 31q12 12 28 12t26 -10q9 -11 9 -24q0 -17 -13 -30q-12 -12 -31 -12
q-14 0 -23 9q-9 8 -9 24z" />
    <glyph glyph-name="uni04E5" unicode="&#x4e5;" horiz-adv-x="474" 
d="M122 408h40l-40 -329l333 352l-53 -431h-40l40 327l-333 -352zM348 523q0 15 12 27t29 12q16 0 24 -10t8 -22q0 -16 -11 -27q-12 -13 -30 -13q-13 0 -22 9q-10 10 -10 24zM182 523q0 15 12 27t29 12q16 0 24 -10t8 -22q0 -16 -11 -27q-12 -13 -30 -13q-13 0 -22 9
q-10 10 -10 24z" />
    <glyph glyph-name="uni04E6" unicode="&#x4e6;" horiz-adv-x="805" 
d="M479 676q141 0 231 -92q82 -85 82 -215q0 -168 -112 -277q-106 -103 -267 -103q-141 0 -227 85q-91 89 -91 222q0 71 29 142.5t85 128.5q108 109 270 109zM407 29q146 0 240 92q48 48 74 114.5t26 131.5q0 116 -76 192q-77 77 -196 77q-137 0 -232 -93
q-102 -101 -102 -243q0 -113 73 -191q76 -80 193 -80zM541 775q0 18 13 31q12 12 28 12t26 -10q9 -11 9 -24q0 -17 -13 -30q-12 -12 -31 -12q-14 0 -23 9q-9 8 -9 24zM355 775q0 18 13 31q12 12 28 12t26 -10q9 -11 9 -24q0 -17 -13 -30q-12 -12 -31 -12q-14 0 -23 9
q-9 8 -9 24z" />
    <glyph glyph-name="uni04E7" unicode="&#x4e7;" horiz-adv-x="524" 
d="M300 417q95 0 152 -57q51 -51 51 -141q0 -107 -67 -170q-64 -60 -167 -60q-91 0 -144 56q-54 56 -54 142q0 47 18.5 92.5t49.5 76.5q64 61 161 61zM275 27q76 0 126 46q60 56 60 142q0 69 -43 116q-46 48 -122 48q-73 0 -124 -46q-59 -53 -59 -140q0 -73 46 -121
q43 -45 116 -45zM371 523q0 15 12 27t29 12q16 0 24 -10t8 -22q0 -16 -11 -27q-12 -13 -30 -13q-13 0 -22 9q-10 10 -10 24zM205 523q0 15 12 27t29 12q16 0 24 -10t8 -22q0 -16 -11 -27q-12 -13 -30 -13q-13 0 -22 9q-10 10 -10 24z" />
    <glyph glyph-name="uni04E8" unicode="&#x4e8;" horiz-adv-x="805" 
d="M479 676q141 0 231 -92q82 -83 82 -219q0 -165 -112 -273q-106 -103 -267 -103q-142 0 -227 85q-91 91 -91 223q0 71 29 144t85 128q109 107 270 107zM741 319h-598q-9 -125 70 -210q73 -80 196 -80q146 0 238 92q81 81 94 198zM150 360h594q5 119 -73 199
q-77 77 -196 77q-137 0 -232 -93q-77 -76 -93 -183z" />
    <glyph glyph-name="uni04E9" unicode="&#x4e9;" horiz-adv-x="524" 
d="M298 417q97 0 154 -57q51 -51 51 -141q0 -107 -67 -170q-63 -60 -163 -60q-95 0 -148 56q-54 56 -54 144q0 98 64 162q64 66 163 66zM276 27q76 0 125 47q50 48 58 116h-346q1 -70 46 -117q44 -46 117 -46zM116 228h344q-5 63 -42 103q-44 48 -120 48t-125 -46
q-44 -41 -57 -105z" />
    <glyph glyph-name="uni04EA" unicode="&#x4ea;" horiz-adv-x="805" 
d="M479 676q141 0 231 -92q82 -83 82 -219q0 -165 -112 -273q-106 -103 -267 -103q-142 0 -227 85q-91 91 -91 223q0 71 29 144t85 128q109 107 270 107zM741 319h-598q-9 -125 70 -210q73 -80 196 -80q146 0 238 92q81 81 94 198zM150 360h594q5 119 -73 199
q-77 77 -196 77q-137 0 -232 -93q-77 -76 -93 -183zM541 775q0 18 13 31q12 12 28 12t26 -10q9 -11 9 -24q0 -17 -13 -30q-12 -12 -31 -12q-14 0 -23 9q-9 8 -9 24zM355 775q0 18 13 31q12 12 28 12t26 -10q9 -11 9 -24q0 -17 -13 -30q-12 -12 -31 -12q-14 0 -23 9
q-9 8 -9 24z" />
    <glyph glyph-name="uni04EB" unicode="&#x4eb;" horiz-adv-x="524" 
d="M298 417q97 0 154 -57q51 -51 51 -141q0 -107 -67 -170q-63 -60 -163 -60q-95 0 -148 56q-54 56 -54 144q0 98 64 162q64 66 163 66zM276 27q76 0 125 47q50 48 58 116h-346q1 -70 46 -117q44 -46 117 -46zM116 228h344q-5 63 -42 103q-44 48 -120 48t-125 -46
q-44 -41 -57 -105zM371 523q0 15 12 27t29 12q16 0 24 -10t8 -22q0 -16 -11 -27q-12 -13 -30 -13q-13 0 -22 9q-10 10 -10 24zM205 523q0 15 12 27t29 12q16 0 24 -10t8 -22q0 -16 -11 -27q-12 -13 -30 -13q-13 0 -22 9q-10 10 -10 24z" />
    <glyph glyph-name="uni04EE" unicode="&#x4ee;" horiz-adv-x="550" 
d="M96 667h48l178 -432l248 432h48l-387 -667h-46l108 186zM222 750l5 44h270l-5 -44h-270z" />
    <glyph glyph-name="uni04EF" unicode="&#x4ef;" horiz-adv-x="428" 
d="M78 -230l123 223l-143 415h44l127 -363l193 363h48l-346 -638h-46zM136 493l4 39h270l-4 -39h-270z" />
    <glyph glyph-name="uni04F0" unicode="&#x4f0;" horiz-adv-x="550" 
d="M96 667h48l178 -432l248 432h48l-387 -667h-46l108 186zM441 775q0 18 13 31q12 12 28 12t26 -10q9 -11 9 -24q0 -17 -13 -30q-12 -12 -31 -12q-14 0 -23 9q-9 8 -9 24zM255 775q0 18 13 31q12 12 28 12t26 -10q9 -11 9 -24q0 -17 -13 -30q-12 -12 -31 -12q-14 0 -23 9
q-9 8 -9 24z" />
    <glyph glyph-name="uni04F1" unicode="&#x4f1;" horiz-adv-x="428" 
d="M78 -230l123 223l-143 415h44l127 -363l193 363h48l-346 -638h-46zM326 523q0 15 12 27t29 12q16 0 24 -10t8 -22q0 -16 -11 -27q-12 -13 -30 -13q-13 0 -22 9q-10 10 -10 24zM160 523q0 15 12 27t29 12q16 0 24 -10t8 -22q0 -16 -11 -27q-12 -13 -30 -13q-13 0 -22 9
q-10 10 -10 24z" />
    <glyph glyph-name="uni04F2" unicode="&#x4f2;" horiz-adv-x="550" 
d="M96 667h48l178 -432l248 432h48l-387 -667h-46l108 186zM370 854l49 -26l-116 -125l-34 15zM491 854l49 -26l-116 -125l-34 15z" />
    <glyph glyph-name="uni04F3" unicode="&#x4f3;" horiz-adv-x="428" 
d="M78 -230l123 223l-143 415h44l127 -363l193 363h48l-346 -638h-46zM285 620l39 -25l-115 -128l-25 16zM396 620l39 -25l-115 -128l-25 16z" />
    <glyph glyph-name="uni04F4" unicode="&#x4f4;" horiz-adv-x="579" 
d="M445 0l37 303q-66 -10 -140 -10q-108 0 -158 25q-61 31 -61 101q0 15 7 75l21 173h44l-22 -180q-6 -50 -6 -58q0 -55 51 -78q39 -18 130 -18q57 0 139 10l40 324h44l-82 -667h-44zM429 775q0 18 13 31q12 12 28 12t26 -10q9 -11 9 -24q0 -17 -13 -30q-12 -12 -31 -12
q-14 0 -23 9q-9 8 -9 24zM243 775q0 18 13 31q12 12 28 12t26 -10q9 -11 9 -24q0 -17 -13 -30q-12 -12 -31 -12q-14 0 -23 9q-9 8 -9 24z" />
    <glyph glyph-name="uni04F5" unicode="&#x4f5;" horiz-adv-x="412" 
d="M300 0l21 169q-43 -10 -90 -10q-86 0 -119 34q-16 17 -19 40.5t2 51.5l15 123h40l-15 -123q-5 -22 -1 -43t24 -32q24 -13 71 -13q63 0 96 10l25 201h40l-50 -408h-40zM311 523q0 15 12 27t29 12q16 0 24 -10t8 -22q0 -16 -11 -27q-12 -13 -30 -13q-13 0 -22 9
q-10 10 -10 24zM145 523q0 15 12 27t29 12q16 0 24 -10t8 -22q0 -16 -11 -27q-12 -13 -30 -13q-13 0 -22 9q-10 10 -10 24z" />
    <glyph glyph-name="uni04F8" unicode="&#x4f8;" horiz-adv-x="690" 
d="M638 667h44l-82 -667h-44zM90 0l82 667h44l-35 -287h114q106 0 159 -45q52 -44 52 -126q0 -91 -51 -146q-59 -63 -210 -63h-155zM176 340l-37 -300h114q121 0 168 52q39 42 39 116q0 68 -49 103q-40 29 -136 29h-99zM496 775q0 18 13 31q12 12 28 12t26 -10q9 -11 9 -24
q0 -17 -13 -30q-12 -12 -31 -12q-14 0 -23 9q-9 8 -9 24zM310 775q0 18 13 31q12 12 28 12t26 -10q9 -11 9 -24q0 -17 -13 -30q-12 -12 -31 -12q-14 0 -23 9q-9 8 -9 24z" />
    <glyph glyph-name="uni04F9" unicode="&#x4f9;" 
d="M438 408h40l-50 -408h-40zM121 408h41l-21 -170h86q67 0 101 -32q30 -29 30 -79q0 -56 -31 -87q-40 -40 -133 -40h-122zM117 38h92q53 0 80 22q27 23 27 64q0 38 -23 57t-71 19h-85zM351 523q0 15 12 27t29 12q16 0 24 -10t8 -22q0 -16 -11 -27q-12 -13 -30 -13
q-13 0 -22 9q-10 10 -10 24zM185 523q0 15 12 27t29 12q16 0 24 -10t8 -22q0 -16 -11 -27q-12 -13 -30 -13q-13 0 -22 9q-10 10 -10 24z" />
    <glyph glyph-name="uni1E9E" unicode="&#x1e9e;" horiz-adv-x="563" 
d="M90 0l60 486q12 96 73 147q52 43 129 43q69 0 112 -36q49 -41 49 -99v-16l-159 -136q81 -14 123 -50q55 -47 55 -121q0 -96 -92 -159q-79 -53 -180 -59l6 40q84 5 148 48q71 48 71 125q0 68 -53 107q-43 33 -128 37l5 40l158 138q2 38 -34 72q-31 29 -82 29
q-59 0 -98 -32q-50 -41 -60 -129l-59 -475h-44z" />
    <glyph glyph-name="uni2010" unicode="&#x2010;" horiz-adv-x="300" 
d="M73 184l5 46h200l-5 -46h-200z" />
    <glyph glyph-name="uni2011" unicode="&#x2011;" horiz-adv-x="300" 
d="M73 184l5 46h200l-5 -46h-200z" />
    <glyph glyph-name="figuredash" unicode="&#x2012;" horiz-adv-x="540" 
d="M93 319l5 38h400l-5 -38h-400z" />
    <glyph glyph-name="endash" unicode="&#x2013;" horiz-adv-x="540" 
d="M93 188l5 38h400l-5 -38h-400z" />
    <glyph glyph-name="emdash" unicode="&#x2014;" horiz-adv-x="740" 
d="M93 188l5 38h600l-5 -38h-600z" />
    <glyph glyph-name="afii00208" unicode="&#x2015;" horiz-adv-x="740" 
d="M93 188l5 38h600l-5 -38h-600z" />
    <glyph glyph-name="quoteleft" unicode="&#x2018;" horiz-adv-x="228" 
d="M249 667l-84 -202l-39 12l99 200z" />
    <glyph glyph-name="quoteright" unicode="&#x2019;" horiz-adv-x="228" 
d="M126 477l85 202l38 -12l-98 -200z" />
    <glyph glyph-name="quotesinglbase" unicode="&#x201a;" horiz-adv-x="254" 
d="M47 -137l85 202l39 -12l-99 -200z" />
    <glyph glyph-name="quotedblleft" unicode="&#x201c;" horiz-adv-x="344" 
d="M249 667l-84 -202l-39 12l99 200zM365 667l-84 -202l-39 12l99 200z" />
    <glyph glyph-name="quotedblright" unicode="&#x201d;" horiz-adv-x="344" 
d="M126 477l85 202l38 -12l-98 -200zM242 477l85 202l38 -12l-98 -200z" />
    <glyph glyph-name="quotedblbase" unicode="&#x201e;" horiz-adv-x="370" 
d="M47 -137l85 202l39 -12l-99 -200zM163 -137l85 202l39 -12l-99 -200z" />
    <glyph glyph-name="dagger" unicode="&#x2020;" horiz-adv-x="548" 
d="M320 489l30 240h44l-30 -240h160l-5 -40h-160l-75 -609h-44l75 609h-160l5 40h160z" />
    <glyph glyph-name="daggerdbl" unicode="&#x2021;" horiz-adv-x="539" 
d="M275 -160h-44l33 264h-160l5 40h160l37 305h-160l5 40h160l30 240h44l-30 -240h160l-5 -40h-160l-37 -305h160l-5 -40h-160z" />
    <glyph glyph-name="bullet" unicode="&#x2022;" horiz-adv-x="1000" 
d="M401 323q0 63 45 108q49 49 113 49q58 0 92 -39q32 -35 32 -84q0 -62 -47 -109q-48 -48 -111 -48q-56 0 -92 39q-32 34 -32 84z" />
    <glyph glyph-name="ellipsis" unicode="&#x2026;" horiz-adv-x="606" 
d="M472 25q0 20 13 31t28 11q13 0 23 -8q10 -9 10 -24q0 -18 -12 -30t-30 -12q-11 0 -22 8q-10 8 -10 24zM270 25q0 20 13 31t28 11q13 0 23 -8q10 -9 10 -24q0 -18 -12 -30t-30 -12q-11 0 -22 8q-10 8 -10 24zM68 25q0 20 13 31t28 11q13 0 23 -8q10 -9 10 -24
q0 -18 -12 -30t-30 -12q-11 0 -22 8q-10 8 -10 24z" />
    <glyph glyph-name="perthousand" unicode="&#x2030;" horiz-adv-x="932" 
d="M243 673q59 0 97 -38q33 -33 33 -82q0 -64 -39 -103q-38 -39 -107 -39q-59 0 -92 32q-35 35 -35 86q0 60 39 101q41 43 104 43zM230 447q44 0 72 27q30 30 30 78q0 37 -21 59q-24 26 -67 26q-45 0 -74 -29t-29 -74q0 -37 23 -62q24 -25 66 -25zM92 1l478 681l28 -16
l-478 -681zM461 256q59 0 97 -38q33 -33 33 -82q0 -64 -39 -103q-38 -39 -107 -39q-59 0 -92 32q-35 35 -35 86q0 60 39 101q41 43 104 43zM448 30q44 0 72 27q30 30 30 78q0 37 -21 59q-24 26 -67 26q-45 0 -74 -29t-29 -74q0 -37 23 -62q24 -25 66 -25zM783 256
q59 0 97 -38q33 -33 33 -82q0 -64 -39 -103q-38 -39 -107 -39q-59 0 -92 32q-35 35 -35 86q0 60 39 101q41 43 104 43zM770 30q44 0 72 27q30 30 30 78q0 37 -21 59q-24 26 -67 26q-45 0 -74 -29t-29 -74q0 -37 23 -62q24 -25 66 -25z" />
    <glyph glyph-name="guilsinglleft" unicode="&#x2039;" horiz-adv-x="242" 
d="M229 333l-124 -126l93 -126l-29 -24l-112 150l149 150z" />
    <glyph glyph-name="guilsinglright" unicode="&#x203a;" horiz-adv-x="242" 
d="M64 81l123 126l-92 126l29 24l111 -150l-148 -150z" />
    <glyph glyph-name="fraction" unicode="&#x2044;" horiz-adv-x="106" 
d="M-200 1l478 681l28 -16l-478 -681z" />
    <glyph glyph-name="uni2080" unicode="&#x2080;" horiz-adv-x="330" 
d="M213 405q41 0 74 -31q47 -47 47 -139q0 -131 -74 -200q-42 -40 -97 -40q-46 0 -77 31q-46 46 -46 136q0 48 16.5 102t52.5 93q44 48 104 48zM164 31q37 0 65 27q34 32 49.5 81t15.5 94q0 83 -39 118q-20 18 -48 18q-34 0 -63 -27q-31 -30 -48 -79t-17 -99q0 -76 36 -112
q21 -21 49 -21z" />
    <glyph glyph-name="uni2081" unicode="&#x2081;" horiz-adv-x="330" 
d="M152 0l45 364h-62l16 36h88l-49 -400h-38z" />
    <glyph glyph-name="uni2082" unicode="&#x2082;" horiz-adv-x="330" 
d="M282 0h-246l167 169q37 37 55 64q22 31 22 66q0 31 -18 49q-21 21 -59 21q-39 0 -59 -20q-24 -24 -28 -62h-36q7 52 38 84q33 34 88 34q56 0 88 -32q27 -27 27 -71q0 -40 -23 -75q-12 -19 -52 -61l-126 -130h166z" />
    <glyph glyph-name="uni2083" unicode="&#x2083;" horiz-adv-x="330" 
d="M60 98h36q0 -30 18 -48q19 -19 53 -19t58 20q26 24 26 68q0 35 -22 53t-61 18h-5l5 36q55 0 81 26q20 22 20 55q0 28 -16 44q-18 18 -48 18q-32 0 -50 -22q-14 -17 -19 -42h-36q7 44 35 72t71 28q45 0 75 -28q28 -28 28 -70q0 -43 -28 -71q-20 -20 -48 -27q24 -8 39 -27
q18 -23 18 -59q0 -59 -35 -94q-33 -34 -89 -34q-51 0 -80 31q-26 28 -26 72z" />
    <glyph glyph-name="uni2084" unicode="&#x2084;" horiz-adv-x="330" 
d="M301 413l-37 -301h56l-5 -36h-56l-9 -76h-38l9 76h-204zM92 112h134l23 190z" />
    <glyph glyph-name="uni2085" unicode="&#x2085;" horiz-adv-x="330" 
d="M331 400l-4 -36h-134l-42 -96q69 11 112 -31q34 -33 34 -85q0 -70 -41 -113q-42 -44 -115 -44q-84 0 -116 66l40 10q20 -40 77 -40q54 0 83 28q32 32 32 85q0 43 -26 68q-24 24 -69 24q-36 0 -70 -18l80 182h159z" />
    <glyph glyph-name="uni2086" unicode="&#x2086;" horiz-adv-x="330" 
d="M230 405l25 -21l-97 -119q21 7 43 7q52 0 87 -33q36 -35 36 -90q0 -66 -41 -109q-44 -45 -115 -45q-60 0 -95 34q-36 36 -36 89q0 61 58 128zM170 31q49 0 78 27q35 33 35 91q0 40 -26 65q-27 25 -68 25q-45 0 -75 -29q-37 -35 -37 -87q0 -38 25 -64q27 -28 68 -28z" />
    <glyph glyph-name="uni2087" unicode="&#x2087;" horiz-adv-x="330" 
d="M16 19l277 345h-218l4 36h290l-321 -404z" />
    <glyph glyph-name="uni2088" unicode="&#x2088;" horiz-adv-x="330" 
d="M142 208q-20 10 -32 29q-14 21 -14 49q0 53 34 87q32 32 80 32q47 0 74 -27q26 -26 26 -70q0 -39 -21 -66q-21 -26 -47 -34q21 -7 38 -27q18 -24 18 -61q0 -58 -33 -92q-32 -33 -91 -33q-56 0 -85 29t-29 75q0 42 25 72q23 29 57 37zM195 226q31 0 52 19q24 24 24 59
q0 29 -16 47t-48 18q-30 0 -49 -19q-24 -22 -24 -62q0 -27 17 -44q17 -18 44 -18zM173 31q36 0 58 20q27 25 27 68q0 32 -20 52q-19 19 -53 19q-35 0 -59 -24q-26 -26 -26 -63q0 -33 21 -54q18 -18 52 -18z" />
    <glyph glyph-name="uni2089" unicode="&#x2089;" horiz-adv-x="330" 
d="M146 -5l-25 21l98 119q-21 -8 -42 -8q-54 0 -88 32q-36 34 -36 90q0 69 45 114q42 42 111 42q57 0 95 -36q36 -34 36 -88q0 -60 -53 -121zM203 369q-45 0 -77 -32q-33 -35 -33 -84q0 -42 26 -68q24 -24 66 -24q46 0 79 29q35 32 35 84q0 43 -28 69t-68 26z" />
    <glyph glyph-name="Euro" unicode="&#x20ac;" horiz-adv-x="548" 
d="M561 629l-24 -37q-59 44 -140 44q-80 0 -152 -54t-101 -151h325l-21 -40h-316q-13 -48 -15 -103h278l-21 -40h-256q0 -39 11 -76t32.5 -70t60.5 -53t90 -20q102 0 184 71l-7 -58q-80 -53 -181 -53q-58 0 -102.5 19.5t-69 47.5t-40 65.5t-20 67.5t-4.5 59h-68l21 40h46
q2 56 15 103h-64l21 40h55q32 108 116 176.5t193 68.5q91 0 154 -47z" />
    <glyph glyph-name="uni20B4" unicode="&#x20b4;" horiz-adv-x="548" 
d="M219 554l-27 27q30 41 74 67q48 28 106 28q69 0 109 -46q33 -36 33 -90q0 -61 -48 -109h74l-9 -40h-108l-154 -103h240l-8 -40h-283q-60 -41 -60 -106q0 -49 32 -83q30 -30 77 -30q55 0 94 24q49 30 76 97l33 -22q-24 -74 -92 -113q-47 -26 -110 -26q-67 0 -108 40
q-48 47 -48 113q0 60 51 106h-78l8 40h108l154 103h-240l9 40h282q62 47 62 105q0 44 -25 70q-29 30 -72 30q-51 0 -90 -25q-32 -20 -62 -57z" />
    <glyph glyph-name="uni20B6" unicode="&#x20b6;" horiz-adv-x="548" 
d="M228 667h129q89 0 135 -47q41 -41 41 -112q0 -84 -49 -135q-54 -56 -169 -56h-86l-11 -90h167l-5 -40h-167l-23 -187h-44l22 186h-75l5 40h75l11 91h-75l6 40h75zM267 627l-33 -270h88q82 0 123 39q40 38 40 110q0 51 -29 82q-17 18 -39.5 27t-37.5 10.5t-41 1.5h-71z
" />
    <glyph glyph-name="uni20B6" unicode="&#x20cf;" horiz-adv-x="548" 
d="M228 667h129q89 0 135 -47q41 -41 41 -112q0 -84 -49 -135q-54 -56 -169 -56h-86l-11 -90h167l-5 -40h-167l-23 -187h-44l22 186h-75l5 40h75l11 91h-75l6 40h75zM267 627l-33 -270h88q82 0 123 39q40 38 40 110q0 51 -29 82q-17 18 -39.5 27t-37.5 10.5t-41 1.5h-71z
" />
    <glyph glyph-name="uni20B6" unicode="&#x20ce;" horiz-adv-x="548" 
d="M228 667h129q89 0 135 -47q41 -41 41 -112q0 -84 -49 -135q-54 -56 -169 -56h-86l-11 -90h167l-5 -40h-167l-23 -187h-44l22 186h-75l5 40h75l11 91h-75l6 40h75zM267 627l-33 -270h88q82 0 123 39q40 38 40 110q0 51 -29 82q-17 18 -39.5 27t-37.5 10.5t-41 1.5h-71z
" />
    <glyph glyph-name="uni20B6" unicode="&#x20cd;" horiz-adv-x="548" 
d="M228 667h129q89 0 135 -47q41 -41 41 -112q0 -84 -49 -135q-54 -56 -169 -56h-86l-11 -90h167l-5 -40h-167l-23 -187h-44l22 186h-75l5 40h75l11 91h-75l6 40h75zM267 627l-33 -270h88q82 0 123 39q40 38 40 110q0 51 -29 82q-17 18 -39.5 27t-37.5 10.5t-41 1.5h-71z
" />
    <glyph glyph-name="uni20B6" unicode="&#x20cc;" horiz-adv-x="548" 
d="M228 667h129q89 0 135 -47q41 -41 41 -112q0 -84 -49 -135q-54 -56 -169 -56h-86l-11 -90h167l-5 -40h-167l-23 -187h-44l22 186h-75l5 40h75l11 91h-75l6 40h75zM267 627l-33 -270h88q82 0 123 39q40 38 40 110q0 51 -29 82q-17 18 -39.5 27t-37.5 10.5t-41 1.5h-71z
" />
    <glyph glyph-name="uni20B6" unicode="&#x20cb;" horiz-adv-x="548" 
d="M228 667h129q89 0 135 -47q41 -41 41 -112q0 -84 -49 -135q-54 -56 -169 -56h-86l-11 -90h167l-5 -40h-167l-23 -187h-44l22 186h-75l5 40h75l11 91h-75l6 40h75zM267 627l-33 -270h88q82 0 123 39q40 38 40 110q0 51 -29 82q-17 18 -39.5 27t-37.5 10.5t-41 1.5h-71z
" />
    <glyph glyph-name="uni20B6" unicode="&#x20ca;" horiz-adv-x="548" 
d="M228 667h129q89 0 135 -47q41 -41 41 -112q0 -84 -49 -135q-54 -56 -169 -56h-86l-11 -90h167l-5 -40h-167l-23 -187h-44l22 186h-75l5 40h75l11 91h-75l6 40h75zM267 627l-33 -270h88q82 0 123 39q40 38 40 110q0 51 -29 82q-17 18 -39.5 27t-37.5 10.5t-41 1.5h-71z
" />
    <glyph glyph-name="uni20B6" unicode="&#x20c9;" horiz-adv-x="548" 
d="M228 667h129q89 0 135 -47q41 -41 41 -112q0 -84 -49 -135q-54 -56 -169 -56h-86l-11 -90h167l-5 -40h-167l-23 -187h-44l22 186h-75l5 40h75l11 91h-75l6 40h75zM267 627l-33 -270h88q82 0 123 39q40 38 40 110q0 51 -29 82q-17 18 -39.5 27t-37.5 10.5t-41 1.5h-71z
" />
    <glyph glyph-name="uni20B6" unicode="&#x20c8;" horiz-adv-x="548" 
d="M228 667h129q89 0 135 -47q41 -41 41 -112q0 -84 -49 -135q-54 -56 -169 -56h-86l-11 -90h167l-5 -40h-167l-23 -187h-44l22 186h-75l5 40h75l11 91h-75l6 40h75zM267 627l-33 -270h88q82 0 123 39q40 38 40 110q0 51 -29 82q-17 18 -39.5 27t-37.5 10.5t-41 1.5h-71z
" />
    <glyph glyph-name="uni20B6" unicode="&#x20c7;" horiz-adv-x="548" 
d="M228 667h129q89 0 135 -47q41 -41 41 -112q0 -84 -49 -135q-54 -56 -169 -56h-86l-11 -90h167l-5 -40h-167l-23 -187h-44l22 186h-75l5 40h75l11 91h-75l6 40h75zM267 627l-33 -270h88q82 0 123 39q40 38 40 110q0 51 -29 82q-17 18 -39.5 27t-37.5 10.5t-41 1.5h-71z
" />
    <glyph glyph-name="uni20B6" unicode="&#x20c6;" horiz-adv-x="548" 
d="M228 667h129q89 0 135 -47q41 -41 41 -112q0 -84 -49 -135q-54 -56 -169 -56h-86l-11 -90h167l-5 -40h-167l-23 -187h-44l22 186h-75l5 40h75l11 91h-75l6 40h75zM267 627l-33 -270h88q82 0 123 39q40 38 40 110q0 51 -29 82q-17 18 -39.5 27t-37.5 10.5t-41 1.5h-71z
" />
    <glyph glyph-name="uni20B6" unicode="&#x20c5;" horiz-adv-x="548" 
d="M228 667h129q89 0 135 -47q41 -41 41 -112q0 -84 -49 -135q-54 -56 -169 -56h-86l-11 -90h167l-5 -40h-167l-23 -187h-44l22 186h-75l5 40h75l11 91h-75l6 40h75zM267 627l-33 -270h88q82 0 123 39q40 38 40 110q0 51 -29 82q-17 18 -39.5 27t-37.5 10.5t-41 1.5h-71z
" />
    <glyph glyph-name="uni20B6" unicode="&#x20c4;" horiz-adv-x="548" 
d="M228 667h129q89 0 135 -47q41 -41 41 -112q0 -84 -49 -135q-54 -56 -169 -56h-86l-11 -90h167l-5 -40h-167l-23 -187h-44l22 186h-75l5 40h75l11 91h-75l6 40h75zM267 627l-33 -270h88q82 0 123 39q40 38 40 110q0 51 -29 82q-17 18 -39.5 27t-37.5 10.5t-41 1.5h-71z
" />
    <glyph glyph-name="uni20B6" unicode="&#x20c3;" horiz-adv-x="548" 
d="M228 667h129q89 0 135 -47q41 -41 41 -112q0 -84 -49 -135q-54 -56 -169 -56h-86l-11 -90h167l-5 -40h-167l-23 -187h-44l22 186h-75l5 40h75l11 91h-75l6 40h75zM267 627l-33 -270h88q82 0 123 39q40 38 40 110q0 51 -29 82q-17 18 -39.5 27t-37.5 10.5t-41 1.5h-71z
" />
    <glyph glyph-name="uni20B6" unicode="&#x20c2;" horiz-adv-x="548" 
d="M228 667h129q89 0 135 -47q41 -41 41 -112q0 -84 -49 -135q-54 -56 -169 -56h-86l-11 -90h167l-5 -40h-167l-23 -187h-44l22 186h-75l5 40h75l11 91h-75l6 40h75zM267 627l-33 -270h88q82 0 123 39q40 38 40 110q0 51 -29 82q-17 18 -39.5 27t-37.5 10.5t-41 1.5h-71z
" />
    <glyph glyph-name="uni20B6" unicode="&#x20c1;" horiz-adv-x="548" 
d="M228 667h129q89 0 135 -47q41 -41 41 -112q0 -84 -49 -135q-54 -56 -169 -56h-86l-11 -90h167l-5 -40h-167l-23 -187h-44l22 186h-75l5 40h75l11 91h-75l6 40h75zM267 627l-33 -270h88q82 0 123 39q40 38 40 110q0 51 -29 82q-17 18 -39.5 27t-37.5 10.5t-41 1.5h-71z
" />
    <glyph glyph-name="uni20B6" unicode="&#x20c0;" horiz-adv-x="548" 
d="M228 667h129q89 0 135 -47q41 -41 41 -112q0 -84 -49 -135q-54 -56 -169 -56h-86l-11 -90h167l-5 -40h-167l-23 -187h-44l22 186h-75l5 40h75l11 91h-75l6 40h75zM267 627l-33 -270h88q82 0 123 39q40 38 40 110q0 51 -29 82q-17 18 -39.5 27t-37.5 10.5t-41 1.5h-71z
" />
    <glyph glyph-name="uni20B6" unicode="&#x20bf;" horiz-adv-x="548" 
d="M228 667h129q89 0 135 -47q41 -41 41 -112q0 -84 -49 -135q-54 -56 -169 -56h-86l-11 -90h167l-5 -40h-167l-23 -187h-44l22 186h-75l5 40h75l11 91h-75l6 40h75zM267 627l-33 -270h88q82 0 123 39q40 38 40 110q0 51 -29 82q-17 18 -39.5 27t-37.5 10.5t-41 1.5h-71z
" />
    <glyph glyph-name="uni20B6" unicode="&#x20be;" horiz-adv-x="548" 
d="M228 667h129q89 0 135 -47q41 -41 41 -112q0 -84 -49 -135q-54 -56 -169 -56h-86l-11 -90h167l-5 -40h-167l-23 -187h-44l22 186h-75l5 40h75l11 91h-75l6 40h75zM267 627l-33 -270h88q82 0 123 39q40 38 40 110q0 51 -29 82q-17 18 -39.5 27t-37.5 10.5t-41 1.5h-71z
" />
    <glyph glyph-name="uni20B6" unicode="&#x20bd;" horiz-adv-x="548" 
d="M228 667h129q89 0 135 -47q41 -41 41 -112q0 -84 -49 -135q-54 -56 -169 -56h-86l-11 -90h167l-5 -40h-167l-23 -187h-44l22 186h-75l5 40h75l11 91h-75l6 40h75zM267 627l-33 -270h88q82 0 123 39q40 38 40 110q0 51 -29 82q-17 18 -39.5 27t-37.5 10.5t-41 1.5h-71z
" />
    <glyph glyph-name="uni20B6" unicode="&#x20bc;" horiz-adv-x="548" 
d="M228 667h129q89 0 135 -47q41 -41 41 -112q0 -84 -49 -135q-54 -56 -169 -56h-86l-11 -90h167l-5 -40h-167l-23 -187h-44l22 186h-75l5 40h75l11 91h-75l6 40h75zM267 627l-33 -270h88q82 0 123 39q40 38 40 110q0 51 -29 82q-17 18 -39.5 27t-37.5 10.5t-41 1.5h-71z
" />
    <glyph glyph-name="uni20B6" unicode="&#x20bb;" horiz-adv-x="548" 
d="M228 667h129q89 0 135 -47q41 -41 41 -112q0 -84 -49 -135q-54 -56 -169 -56h-86l-11 -90h167l-5 -40h-167l-23 -187h-44l22 186h-75l5 40h75l11 91h-75l6 40h75zM267 627l-33 -270h88q82 0 123 39q40 38 40 110q0 51 -29 82q-17 18 -39.5 27t-37.5 10.5t-41 1.5h-71z
" />
    <glyph glyph-name="uni20B6" unicode="&#x20ba;" horiz-adv-x="548" 
d="M228 667h129q89 0 135 -47q41 -41 41 -112q0 -84 -49 -135q-54 -56 -169 -56h-86l-11 -90h167l-5 -40h-167l-23 -187h-44l22 186h-75l5 40h75l11 91h-75l6 40h75zM267 627l-33 -270h88q82 0 123 39q40 38 40 110q0 51 -29 82q-17 18 -39.5 27t-37.5 10.5t-41 1.5h-71z
" />
    <glyph glyph-name="uni20B6" unicode="&#x20b9;" horiz-adv-x="548" 
d="M228 667h129q89 0 135 -47q41 -41 41 -112q0 -84 -49 -135q-54 -56 -169 -56h-86l-11 -90h167l-5 -40h-167l-23 -187h-44l22 186h-75l5 40h75l11 91h-75l6 40h75zM267 627l-33 -270h88q82 0 123 39q40 38 40 110q0 51 -29 82q-17 18 -39.5 27t-37.5 10.5t-41 1.5h-71z
" />
    <glyph glyph-name="uni20B6" unicode="&#x20b7;" horiz-adv-x="548" 
d="M228 667h129q89 0 135 -47q41 -41 41 -112q0 -84 -49 -135q-54 -56 -169 -56h-86l-11 -90h167l-5 -40h-167l-23 -187h-44l22 186h-75l5 40h75l11 91h-75l6 40h75zM267 627l-33 -270h88q82 0 123 39q40 38 40 110q0 51 -29 82q-17 18 -39.5 27t-37.5 10.5t-41 1.5h-71z
" />
    <glyph glyph-name="uni20B8" unicode="&#x20b8;" horiz-adv-x="548" 
d="M536 537h-173l-67 -537h-44l67 537h-173l5 40h390zM546 627h-390l5 40h390z" />
    <glyph glyph-name="afii61352" unicode="&#x2116;" horiz-adv-x="941" 
d="M134 0h-44l83 674l379 -566l68 559h44l-84 -684l-379 566zM847 667q59 0 97 -38q31 -32 31 -80q0 -63 -39 -102q-42 -42 -106 -42q-59 0 -95 38q-32 34 -32 83q0 58 39 99q42 42 105 42zM834 441q44 0 71 25q30 27 30 78q0 40 -24 64q-25 23 -67 23q-44 0 -70 -26
q-31 -29 -31 -79q0 -36 24 -60q25 -25 67 -25zM692 279l6 46h230l-6 -46h-230z" />
    <glyph glyph-name="uni2117" unicode="&#x2117;" horiz-adv-x="740" 
d="M338 505h71q54 0 82 -26q27 -25 27 -71t-27 -73q-29 -29 -92 -29h-27v-171h-34v370zM372 474v-137h32q44 0 62 19q17 17 17 50q0 34 -17 51t-56 17h-38zM754 334q0 -65 -27 -132t-77 -116q-98 -96 -239 -96t-239 96q-50 49 -77 116t-27 132t27 131.5t77 115.5
q98 96 239 96t239 -96q50 -49 77 -115.5t27 -131.5zM411 647q-121 0 -210 -84q-45 -43 -72 -104.5t-27 -124.5q0 -64 27 -125.5t72 -104.5q89 -84 210 -84t210 84q45 43 72 104.5t27 125.5q0 63 -27 124.5t-72 104.5q-89 84 -210 84z" />
    <glyph glyph-name="trademark" unicode="&#x2122;" horiz-adv-x="720" 
d="M303 631h-93l-42 -344h-40l42 344h-93l5 36h226zM338 287h-38l96 410l120 -348l207 348l-6 -410h-38l3 277l-176 -299l-104 299z" />
    <glyph glyph-name="partialdiff" unicode="&#x2202;" horiz-adv-x="509" 
d="M131 636l5 37q138 -20 228 -103q63 -59 97 -145q35 -88 35 -186q0 -123 -66 -193q-55 -57 -136 -57q-102 0 -161 64q-27 28 -44 71t-17 88q0 96 63 162q60 63 153 63q94 0 147 -78h2q-27 111 -100 179q-53 47 -107 71q-46 20 -99 27zM454 215q0 87 -52 139
q-47 45 -114 45q-76 0 -123 -51q-51 -54 -51 -140q0 -76 50 -129q49 -52 121 -52q64 0 112 45q57 56 57 143z" />
    <glyph glyph-name="product" unicode="&#x220f;" horiz-adv-x="710" 
d="M90 710v40h610v-40h-77v-920h77v-40h-202v40h81v920h-369v-920h80v-40h-200v40h76v920h-76z" />
    <glyph glyph-name="summation" unicode="&#x2211;" horiz-adv-x="662" 
d="M90 750h554v-215h-40v175h-465l253 -439l-256 -481h476v173h40v-213h-562v46l252 476l-252 432v46z" />
    <glyph glyph-name="minus" unicode="&#x2212;" 
d="M71 310v38h434v-38h-434z" />
    <glyph glyph-name="uni2215" unicode="&#x2215;" horiz-adv-x="576" 
d="M1 -158l614 901l30 -16l-614 -901z" />
    <glyph glyph-name="uni2219" unicode="&#x2219;" horiz-adv-x="200" 
d="M94 332q0 23 15 40q16 16 39 16q19 0 31 -12q11 -11 11 -28q0 -22 -15 -39q-16 -17 -39 -17q-19 0 -31 12q-11 11 -11 28z" />
    <glyph glyph-name="radical" unicode="&#x221a;" horiz-adv-x="605" 
d="M466 827h241v-38h-208l-244 -789h-43l-96 315h-77v38h109l84 -286h3z" />
    <glyph glyph-name="infinity" unicode="&#x221e;" horiz-adv-x="667" 
d="M396 341q21 -41 58 -75q43 -38 90 -38q45 0 73 29q32 32 32 85q0 50 -34 82q-29 28 -73 28q-51 0 -92 -41q-29 -29 -54 -70zM376 312q-29 -48 -66 -79q-49 -41 -107 -41q-63 0 -102 42q-39 41 -39 106t41 108q40 40 102 40q59 0 106 -40q37 -30 64 -79q27 49 64 79
q47 40 107 40q62 0 102 -40q41 -43 41 -108t-39 -106q-39 -42 -102 -42q-59 0 -108 41q-38 32 -64 79zM355 341q-25 41 -54 70q-41 41 -92 41q-44 0 -73 -28q-34 -32 -34 -82q0 -53 32 -85q28 -29 73 -29q47 0 90 38q37 34 58 75z" />
    <glyph glyph-name="integral" unicode="&#x222b;" horiz-adv-x="380" 
d="M349 739l-12 -36q-18 11 -43 11q-24 0 -37 -13q-16 -16 -16 -68v-766q0 -69 -26 -95q-24 -22 -63 -22q-32 0 -59 11l12 36q18 -11 42 -11q25 0 38 13q16 16 16 68v776q0 56 26 83q22 24 64 24q30 0 58 -11z" />
    <glyph glyph-name="approxequal" unicode="&#x2248;" 
d="M72 195l-25 16q29 44 54 67q40 35 88 35q38 0 109 -39q4 -2 14 -8t14 -8l12 -6t11.5 -5.5l10.5 -4.5t12 -3.5t11.5 -1.5t12.5 -1q44 0 76 32q16 16 36 46l26 -16q-21 -35 -44 -58q-40 -42 -97 -42q-27 0 -49.5 7.5t-69.5 34.5q-60 35 -91 35q-38 0 -68 -27
q-20 -19 -43 -53zM72 342l-25 16q29 44 54 67q40 35 88 35q38 0 109 -39q4 -2 14 -8t14 -8l12 -6t11.5 -5.5l10.5 -4.5t12 -3.5t11.5 -1.5t12.5 -1q44 0 76 32q16 16 36 46l26 -16q-21 -35 -44 -58q-40 -42 -97 -42q-27 0 -49.5 7.5t-69.5 34.5q-60 35 -91 35q-38 0 -68 -27
q-20 -19 -43 -53z" />
    <glyph glyph-name="notequal" unicode="&#x2260;" 
d="M71 381v38h243l55 117h36l-55 -117h155v-38h-173l-49 -104h222v-38h-240l-58 -123h-36l58 123h-158v38h176l49 104h-225z" />
    <glyph glyph-name="lessequal" unicode="&#x2264;" 
d="M85 378l434 192v-41l-390 -170l390 -170v-41l-434 192v38zM85 118h434v-38h-434v38z" />
    <glyph glyph-name="greaterequal" unicode="&#x2265;" 
d="M496 340l-434 -192v41l390 170l-390 170v41l434 -192v-38zM62 118h434v-38h-434v38z" />
    <glyph glyph-name="dotmath" unicode="&#x22c5;" horiz-adv-x="200" 
d="M94 332q0 23 15 40q16 16 39 16q19 0 31 -12q11 -11 11 -28q0 -22 -15 -39q-16 -17 -39 -17q-19 0 -31 12q-11 11 -11 28z" />
    <glyph glyph-name="lozenge" unicode="&#x25ca;" horiz-adv-x="700" 
d="M131 334l260 360l260 -360l-260 -360zM605 334l-214 294l-214 -294l214 -294z" />
    <glyph glyph-name="openbullet" unicode="&#x25e6;" horiz-adv-x="502" 
d="M326 667q59 0 97 -38q31 -32 31 -80q0 -63 -39 -102q-42 -42 -106 -42q-59 0 -95 38q-32 34 -32 83q0 58 39 99q42 42 105 42zM313 441q44 0 71 25q30 27 30 78q0 40 -24 64q-25 23 -67 23q-44 0 -70 -26q-31 -29 -31 -79q0 -36 24 -60q25 -25 67 -25z" />
    <glyph glyph-name="uniF400" unicode="&#xf400;" horiz-adv-x="2" 
d="M-121 620l40 -25l-121 -128l-28 16z" />
    <glyph glyph-name="uniF401" unicode="&#xf401;" horiz-adv-x="2" 
d="M-144 854l47 -25l-150 -126l-29 18z" />
    <glyph glyph-name="uniF406" unicode="&#xf406;" 
d="M224 826h40q6 -22 23 -36q21 -16 58 -16q38 0 63 16q21 14 30 36h40q-13 -44 -48 -69q-37 -25 -89 -25q-50 0 -82 26q-30 26 -35 68z" />
    <glyph glyph-name="uniF407" unicode="&#xf407;" 
d="M269 -50l44 -28l-129 -124l-28 20z" />
    <glyph glyph-name="uniF408" unicode="&#xf408;" 
d="M347 786l-104 -64l-31 27l141 90l119 -90l-37 -27z" />
    <glyph glyph-name="uniF409" unicode="&#xf409;" 
d="M170 -188l64 138l42 -16l-80 -134z" />
    <glyph glyph-name="uniF40A" unicode="&#xf40a;" 
d="M256 522l68 158l42 -16l-84 -154z" />
    <glyph glyph-name="uniF40B" unicode="&#xf40b;" 
d="M305 775q0 21 12 33q11 14 34 14q16 0 26 -10t10 -25q0 -21 -12 -33q-12 -14 -33 -14q-17 0 -27 10t-10 25z" />
    <glyph glyph-name="uniF40C" unicode="&#xf40c;" 
d="M266 779q0 37 25 62q26 26 62 26q34 0 55 -23q20 -22 20 -52q0 -35 -25 -60t-62 -25q-34 0 -54 20q-21 21 -21 52zM306 783q0 -16 10 -26q11 -11 29 -11q21 0 32 13q11 11 11 30q0 18 -11 29q-12 10 -28 10q-18 0 -30 -12q-13 -13 -13 -33z" />
    <glyph glyph-name="uniF40D" unicode="&#xf40d;" 
d="M237 717l-26 22q13 24 27 38q22 22 53 22q19 0 49 -13l24 -11q24 -11 41 -11q14 0 25 11q9 7 19 27l27 -22q-13 -25 -30 -40q-23 -20 -48 -20q-19 0 -52 14l-21 9q-30 12 -41 12q-16 0 -29 -12q-10 -9 -18 -26z" />
    <glyph glyph-name="uniF40E" unicode="&#xf40e;" 
d="M343 -137l-13 -37q-23 -8 -46 -8q-44 0 -67 22.5t-23 60.5q0 28 30 62q20 21 48 37h44q-29 -19 -51 -42q-29 -31 -29 -55q0 -49 54 -49q24 0 53 9z" />
    <glyph glyph-name="uniF4C6" unicode="&#xf4c6;" horiz-adv-x="578" 
d="M526 667h44l-93 -751q-9 -82 -42 -114q-34 -32 -85 -32q-16 0 -44 7l5 41q18 -6 33 -6q33 0 54 18q28 24 37 98l46 375q-67 -10 -136 -10q-116 0 -161 25q-61 33 -61 109q0 17 8 80l19 160h44l-20 -164q-7 -55 -7 -69q0 -63 56 -85q40 -16 125 -16q70 0 138 10z" />
    <glyph glyph-name="uniF4C7" unicode="&#xf4c7;" horiz-adv-x="412" 
d="M110 408h40l-12 -97q-5 -45 -5 -51q0 -36 27 -50q25 -13 79 -13q49 0 86 10l25 201h40l-62 -503q-9 -76 -38 -105q-31 -30 -82 -30q-22 0 -39 6l5 37q12 -5 32 -5q35 0 53 18q22 22 30 91l32 252q-44 -10 -89 -10q-73 0 -108 24q-32 22 -32 62q0 15 5 52z" />
    <glyph glyph-name="uniF4CC" unicode="&#xf4cc;" horiz-adv-x="550" 
d="M96 667h48l178 -432l248 432h48l-387 -667h-46l108 186zM446 854l47 -25l-150 -126l-29 18z" />
    <glyph glyph-name="uniF4CD" unicode="&#xf4cd;" horiz-adv-x="428" 
d="M78 -230l123 223l-143 415h44l127 -363l193 363h48l-346 -638h-46zM345 620l40 -25l-121 -128l-28 16z" />
    <glyph glyph-name="dollar.fitted" unicode="&#xf5f5;" horiz-adv-x="485" 
d="M477 590l-35 -27q-13 31 -37 49q-23 18 -57 23l-33 -269l30 -16q51 -27 77 -55q42 -44 42 -102q0 -42 -16.5 -83t-44.5 -67q-53 -51 -134 -51l-12 -99h-40l12 96q-83 2 -127 49q-36 38 -52 94l40 18q12 -52 44 -83q40 -38 100 -38l38 310l-24 13q-54 29 -78 55
q-35 38 -35 96q0 75 44 122q50 53 134 51l11 89h40l-11 -90q43 -6 76 -29q28 -20 48 -56zM309 319l-35 -287q59 3 98 40q20 20 32.5 52.5t12.5 60.5q0 48 -35 86q-21 22 -59 41zM277 386l31 250q-58 4 -95 -38q-31 -36 -31 -90q0 -48 31 -79q22 -22 64 -43z" />
    <glyph glyph-name="Euro.fitted" unicode="&#xf5f6;" horiz-adv-x="548" 
d="M616 629l-24 -37q-59 44 -140 44q-80 0 -152 -54t-101 -151h325l-21 -40h-316q-13 -48 -15 -103h278l-21 -40h-256q0 -39 11 -76t32.5 -70t60.5 -53t90 -20q102 0 184 71l-7 -58q-80 -53 -181 -53q-58 0 -102.5 19.5t-69 47.5t-40 65.5t-20 67.5t-4.5 59h-68l21 40h46
q2 56 15 103h-64l21 40h55q32 108 116 176.5t193 68.5q91 0 154 -47z" />
    <glyph glyph-name="cent.fitted" unicode="&#xf5f7;" horiz-adv-x="445" 
d="M342 655l-12 -102q40 -3 71 -17q29 -14 52 -34l-7 -53q-22 32 -52 48q-31 16 -69 18l-43 -352q40 -2 78 15q37 16 64 51l-7 -54q-25 -24 -62 -37q-39 -13 -77 -12l-14 -113h-38l14 114q-67 10 -109 54q-53 53 -53 141q0 105 65 170q60 60 149 60l12 103h38zM244 165
l43 349q-66 -1 -112 -47q-25 -25 -39.5 -65.5t-14.5 -81.5q0 -69 40 -112q34 -36 83 -43z" />
    <glyph glyph-name="sterling.fitted" unicode="&#xf5f8;" horiz-adv-x="498" 
d="M124 273l4 40h98l-16 35q-1 2 -10.5 22t-11 24.5t-8.5 21.5t-8.5 25.5t-4 22t-2.5 25.5q0 78 55 133q52 52 133 52q80 0 125 -47q37 -38 37 -102q0 -21 -3 -36h-44q3 15 3 28q0 49 -29 81q-32 36 -88 36q-59 0 -98 -39q-44 -42 -44 -106q0 -35 16 -71q5 -13 16.5 -35.5
t16.5 -33.5l17 -36h121l-4 -40h-107q11 -33 11 -71q0 -69 -61 -132l62 -22q49 -17 71 -17q59 0 101 69l34 -22q-21 -39 -57 -65t-80 -26q-13 0 -28 3t-24.5 6t-30 10.5t-28.5 10.5q-54 19 -77 19q-41 0 -96 -46l-20 32q59 57 126 57q63 60 63 125q0 35 -15 69h-115z" />
    <glyph glyph-name="yen.fitted" unicode="&#xf5f9;" horiz-adv-x="544" 
d="M540 391h-145l-74 -103h206l-5 -40h-207l-30 -248h-44l30 248h-200l5 40h198l-46 103h-139l5 40h116l-105 236h49l149 -335l235 335h53l-168 -236h122z" />
    <glyph glyph-name="florin.fitted" unicode="&#xf5fa;" horiz-adv-x="328" 
d="M114 370l10 38h62l62 235q12 49 38 72q28 25 71 25q31 0 57 -14l-11 -36q-23 12 -45 12q-31 0 -50 -18q-13 -12 -21 -41l-61 -235h101l-10 -38h-101l-103 -397q-20 -80 -51 -106q-31 -27 -77 -27q-35 0 -66 14l11 37q30 -13 55 -13q31 0 50 17t37 84l104 391h-62z" />
    <glyph glyph-name="uni20B4.fitted" unicode="&#xf5fb;" horiz-adv-x="487" 
d="M149 554l-27 27q30 41 74 67q48 28 106 28q69 0 109 -46q33 -36 33 -90q0 -61 -48 -109h74l-9 -40h-108l-154 -103h240l-8 -40h-283q-60 -41 -60 -106q0 -49 32 -83q30 -30 77 -30q55 0 94 24q49 30 76 97l33 -22q-24 -74 -92 -113q-47 -26 -110 -26q-67 0 -108 40
q-48 47 -48 113q0 60 51 106h-78l8 40h108l154 103h-240l9 40h282q62 47 62 105q0 44 -25 70q-29 30 -72 30q-51 0 -90 -25q-32 -20 -62 -57z" />
    <glyph glyph-name="uni20B6.fitted" unicode="&#xf5fc;" horiz-adv-x="460" 
d="M149 667h129q89 0 135 -47q41 -41 41 -112q0 -84 -49 -135q-54 -56 -169 -56h-86l-11 -90h167l-5 -40h-167l-23 -187h-44l22 186h-75l5 40h75l11 91h-75l6 40h75zM188 627l-33 -270h88q82 0 123 39q40 38 40 110q0 51 -29 82q-17 18 -39.5 27t-37.5 10.5t-41 1.5h-71z
" />
    <glyph glyph-name="uni20B8.fitted" unicode="&#xf5fd;" horiz-adv-x="412" 
d="M396 537h-173l-67 -537h-44l67 537h-173l5 40h390zM406 627h-390l5 40h390z" />
    <glyph glyph-name="currency.fitted" unicode="&#xf5fe;" horiz-adv-x="578" 
d="M55 90l-24 25l90 89q-56 61 -56 146q0 84 53 143l-90 90l24 24l90 -89q60 56 147 56q83 0 147 -56l90 89l24 -24l-90 -90q54 -59 54 -144q0 -83 -55 -143l91 -91l-24 -24l-91 91q-57 -55 -144 -55t-146 53zM476 349q0 38 -15.5 74.5t-38.5 59.5q-53 55 -133 55
q-76 0 -130 -54q-56 -56 -56 -134q0 -76 54 -132q53 -55 132 -55q78 0 132 55q55 55 55 131z" />
    <glyph glyph-name="uniF639" unicode="&#xf639;" horiz-adv-x="543" 
d="M342 676q79 0 131 -54q75 -78 75 -229q0 -83 -28 -177.5t-92 -157.5q-69 -69 -166 -69q-76 0 -126 50q-37 37 -58 98.5t-21 133.5q0 91 29.5 180t87.5 149q73 76 168 76zM263 29q74 0 129 53q57 56 83.5 145.5t26.5 169.5q0 128 -62 196q-40 43 -102 43q-73 0 -128 -57
q-51 -52 -79.5 -136.5t-28.5 -170.5q0 -139 65 -204q39 -39 96 -39z" />
    <glyph glyph-name="uniF63A" unicode="&#xf63a;" horiz-adv-x="507" 
d="M444 0h-411l291 282q73 73 97 106q41 57 41 118q0 54 -36 90q-40 40 -108 40q-73 0 -115 -44q-43 -45 -48 -114h-44q8 87 60 140q56 58 149 58q85 0 137 -47q51 -46 51 -118q0 -73 -48 -139q-22 -34 -109 -118l-220 -214h318z" />
    <glyph glyph-name="uniF63B" unicode="&#xf63b;" horiz-adv-x="457" 
d="M56 162h44q5 -60 40 -97q35 -36 96 -36q70 0 113 47q45 50 45 125q0 63 -38 96q-36 32 -94 29l5 40q70 0 115 43q42 40 42 108q0 55 -34 87t-89 32q-61 0 -97 -39q-31 -34 -39 -89h-42q8 73 54 119q49 49 129 49q76 0 122 -46q43 -43 43 -110q0 -66 -35 -110
q-33 -42 -91 -62q45 -14 71 -54q25 -38 25 -88q0 -94 -57 -156q-57 -61 -151 -61q-78 0 -124 47t-53 126z" />
    <glyph glyph-name="uniF63C" unicode="&#xf63c;" horiz-adv-x="523" 
d="M512 689l-64 -522h93l-5 -40h-93l-16 -127h-44l16 127h-359zM125 167h279l48 390z" />
    <glyph glyph-name="uniF63D" unicode="&#xf63d;" horiz-adv-x="536" 
d="M568 667l-5 -40h-224l-78 -180q26 6 51 6q91 0 144 -51q57 -54 57 -148q0 -122 -74 -196q-68 -69 -188 -69q-71 0 -122 33q-44 29 -71 77l41 16q23 -41 59 -62q38 -24 104 -24q88 0 145 58q59 62 59 158q0 77 -44 121q-45 47 -120 47q-59 0 -110 -29l121 283h255z" />
    <glyph glyph-name="uniF63E" unicode="&#xf63e;" horiz-adv-x="514" 
d="M376 676l31 -26l-174 -210q33 16 77 16q99 0 161 -60q61 -59 61 -152q0 -52 -20 -103t-53 -85q-66 -67 -179 -67q-103 0 -164 61q-63 63 -63 159q0 67 30 121q20 36 98 125zM282 29q87 0 141 53q62 62 62 158q0 78 -52 128q-52 48 -135 48q-82 0 -136 -51
q-62 -58 -62 -153q0 -82 51 -133q50 -50 131 -50z" />
    <glyph glyph-name="uniF63F" unicode="&#xf63f;" horiz-adv-x="569" 
d="M89 14l473 613h-403l5 40h483l-526 -678z" />
    <glyph glyph-name="uniF640" unicode="&#xf640;" horiz-adv-x="462" 
d="M361 344q39 -15 63 -48q28 -39 28 -98q0 -93 -57 -152q-55 -57 -151 -57q-85 0 -134 50q-48 50 -48 119q0 71 39 124q36 49 92 64q-34 22 -54 55q-22 35 -22 77q0 86 51 140q55 58 142 58q71 0 118 -43q46 -44 46 -116q0 -64 -33 -111q-29 -41 -80 -62zM284 365
q61 0 100 39q44 42 44 112q0 58 -37 90q-33 30 -87 30q-60 0 -96 -36q-44 -42 -44 -117q0 -52 33 -85q35 -33 87 -33zM242 29q78 0 121 47q43 46 43 121q0 59 -38 95q-37 35 -99 35q-70 0 -112 -41q-48 -46 -48 -122q0 -56 35 -95q36 -40 98 -40z" />
    <glyph glyph-name="uniF641" unicode="&#xf641;" horiz-adv-x="513" 
d="M229 -11l-31 26l171 207q-45 -14 -81 -14q-94 0 -155 62q-60 60 -60 151q0 111 74 185q71 70 178 70q99 0 160 -55q67 -60 67 -154q0 -54 -21 -102q-20 -46 -66 -99zM324 636q-84 0 -142 -55q-63 -61 -63 -155q0 -75 47 -126q48 -52 133 -52q86 0 143 56q63 63 63 158
q0 77 -49 124q-50 50 -132 50z" />
    <glyph glyph-name="uniF6BA" unicode="&#xf6ba;" horiz-adv-x="300" 
d="M73 315l5 46h200l-5 -46h-200z" />
    <glyph glyph-name="uniF6BB" unicode="&#xf6bb;" horiz-adv-x="540" 
d="M93 319l5 38h400l-5 -38h-400z" />
    <glyph glyph-name="uniF6BC" unicode="&#xf6bc;" horiz-adv-x="740" 
d="M93 319l5 38h600l-5 -38h-600z" />
    <glyph glyph-name="uniF6C3" unicode="&#xf6c3;" 
d="M170 -188l58 138l42 -16l-74 -134z" />
    <glyph glyph-name="uniF6C9" unicode="&#xf6c9;" 
d="M421 854l47 -25l-150 -126l-29 18z" />
    <glyph glyph-name="uniF6CA" unicode="&#xf6ca;" 
d="M345 775l104 64l31 -27l-141 -90l-119 90l37 27z" />
    <glyph glyph-name="uniF6CB" unicode="&#xf6cb;" 
d="M401 775q0 18 13 31q12 12 28 12t26 -10q9 -11 9 -24q0 -17 -13 -30q-12 -12 -31 -12q-14 0 -23 9q-9 8 -9 24zM215 775q0 18 13 31q12 12 28 12t26 -10q9 -11 9 -24q0 -17 -13 -30q-12 -12 -31 -12q-14 0 -23 9q-9 8 -9 24z" />
    <glyph glyph-name="uniF6CE" unicode="&#xf6ce;" 
d="M354 703l-118 126l53 25l100 -133z" />
    <glyph glyph-name="uniF6CF" unicode="&#xf6cf;" 
d="M345 854l49 -26l-116 -125l-34 15zM466 854l49 -26l-116 -125l-34 15z" />
    <glyph glyph-name="uniF6D0" unicode="&#xf6d0;" 
d="M207 750l5 44h270l-5 -44h-270z" />
    <glyph glyph-name="uniF6D1" unicode="&#xf6d1;" 
d="M456 822l33 -19q-22 -41 -56 -62q-38 -23 -90 -23q-55 0 -90 28q-31 24 -44 57l37 19q10 -31 34 -47q23 -17 68 -17q43 0 70 19q24 17 38 45z" />
    <glyph glyph-name="uniF6D4" unicode="&#xf6d4;" 
d="M190 573l35 17q7 -33 28 -52q23 -21 63 -21q46 0 71 23q22 20 30 50l33 -17q-14 -43 -46 -67q-35 -27 -89 -27q-57 0 -91 33q-24 24 -34 61z" />
    <glyph glyph-name="uniF6DC" unicode="&#xf6dc;" horiz-adv-x="172" 
d="M73 0l77 627h-104l25 40h128l-82 -667h-44z" />
    <glyph glyph-name="uniF6DE" unicode="&#xf6de;" horiz-adv-x="555" 
d="M70 188l3 38h450l-3 -38h-450z" />
    <glyph glyph-name="nbspace" horiz-adv-x="233" 
 />
    <glyph glyph-name="hyphenminus" horiz-adv-x="300" 
d="M73 184l5 46h200l-5 -46h-200z" />
    <glyph glyph-name="dotlessi1" horiz-adv-x="184" 
d="M122 408h40l-50 -408h-40z" />
    </font>
</defs>
</svg>
