<?xml version="1.0" standalone="no"?>
<!DOCTYPE svg PUBLIC "-//W3C//DTD SVG 1.1//EN" "http://www.w3.org/Graphics/SVG/1.1/DTD/svg11.dtd" >
<svg xmlns="http://www.w3.org/2000/svg" xmlns:xlink="http://www.w3.org/1999/xlink" version="1.1">
<metadata>
Created by FontForge 20170731 at Fri Mar 29 22:16:14 2013
 By Aleksey,,,
Copyright (c) 1995 ParaGraph Intl., (c) 1998 ParaType Inc., ParaType Ltd. All rights reserved.
</metadata>
<defs>
<font id="FuturaPT-HeavyObl" horiz-adv-x="500" >
  <font-face 
    font-family="Futura PT Heavy Italic"
    font-weight="400"
    font-style="italic"
    font-stretch="normal"
    units-per-em="1000"
    panose-1="2 11 8 2 2 2 4 9 3 3"
    ascent="763"
    descent="-237"
    x-height="446"
    cap-height="667"
    bbox="-330 -260 1235 955"
    underline-thickness="50"
    underline-position="-200"
    slope="-7"
    unicode-range="U+0020-FB02"
  />
<missing-glyph horiz-adv-x="233" 
 />
    <glyph glyph-name="afii10017.var.accented" unicode="&#x410;`" horiz-adv-x="677" 
d="M517 0l-34 126h-252l-63 -126h-166l352 667h142l179 -667h-158zM289 244h166l-54 235zM508 925l86 -72l-180 -129l-59 53z" />
    <glyph glyph-name="afii10022.var.accented" unicode="&#x415;`" horiz-adv-x="502" 
d="M520 667l-16 -130h-218l-16 -129h210l-16 -130h-210l-18 -148h222l-16 -130h-372l82 667h368zM420 925l86 -72l-180 -129l-59 53z" />
    <glyph glyph-name="afii10026.var.accented" unicode="&#x418;`" horiz-adv-x="743" 
d="M152 667h154l-54 -432l361 432h136l-82 -667h-154l54 433l-360 -433h-137zM541 925l86 -72l-180 -129l-59 53z" />
    <glyph glyph-name="afii10032.var.accented" unicode="&#x41e;`" horiz-adv-x="810" 
d="M464 682q158 0 249 -87q94 -91 94 -237q0 -74 -26 -146t-77 -124q-101 -103 -276 -103q-160 0 -254 95q-94 96 -94 233q0 163 110 268q106 101 274 101zM458 540q-98 0 -159 -64t-61 -153q0 -86 54 -140q55 -56 146 -56q93 0 149 57q62 64 62 164q0 88 -53 140t-138 52z
M574 925l86 -72l-180 -129l-59 53z" />
    <glyph glyph-name="afii10037.var.accented" unicode="&#x423;`" horiz-adv-x="622" 
d="M82 667h168l102 -308l172 308h170l-387 -667h-166l117 196zM480 925l86 -72l-180 -129l-59 53z" />
    <glyph glyph-name="afii10045.var.accented" unicode="&#x42b;`" horiz-adv-x="847" 
d="M70 0l83 667h152l-32 -261h91q106 0 163 -55q49 -47 49 -130q0 -103 -61 -162q-37 -35 -89.5 -47t-126.5 -12h-229zM258 283l-20 -160h64q62 0 85 15q37 22 37 72q0 39 -29 58q-22 15 -77 15h-60zM696 667h154l-82 -667h-154zM593 925l86 -72l-180 -129l-59 53z" />
    <glyph glyph-name="afii10047.var.accented" unicode="&#x42d;`" horiz-adv-x="623" 
d="M45 32l19 162q81 -69 188 -69q75 0 125 37q55 41 68 113h-268l16 124h263q-10 68 -58 107q-44 36 -118 36q-61 0 -109 -23q-27 -13 -73 -46l20 165q94 44 190 44q146 0 231 -87q81 -83 81 -230q0 -181 -104 -287q-57 -57 -118.5 -75t-139.5 -18q-116 0 -213 47zM431 925
l86 -72l-180 -129l-59 53z" />
    <glyph glyph-name="afii10048.var.accented" unicode="&#x42e;`" horiz-adv-x="1058" 
d="M275 417h84q22 95 88 164q95 101 252 101q165 0 261 -92q95 -91 95 -237q0 -163 -103 -267q-56 -56 -120.5 -78.5t-147.5 -22.5q-160 0 -249 95q-80 85 -88 207h-88l-35 -287h-154l82 667h154zM706 540q-88 0 -148 -58q-63 -63 -63 -158q0 -85 54 -141q56 -56 142 -56
q87 0 144 57q62 63 62 164q0 85 -55 140q-52 52 -136 52zM698 925l86 -72l-180 -129l-59 53z" />
    <glyph glyph-name="afii10049.var.accented" unicode="&#x42f;`" horiz-adv-x="602" 
d="M608 667l-82 -667h-154l30 243h-16l-189 -243h-185l227 263q-56 13 -89 51q-38 44 -38 112q0 110 69 176q68 65 199 65h228zM440 541h-45q-66 0 -95 -27q-30 -27 -30 -71q0 -43 29 -63q26 -19 81 -19h36zM470 925l86 -72l-180 -129l-59 53z" />
    <glyph glyph-name="afii10023.var.accented" unicode="&#x401;`" horiz-adv-x="502" 
d="M70 0l82 667h368l-16 -130h-218l-16 -129h210l-16 -130h-210l-18 -148h222l-16 -130h-372zM377 925l72 -61l-161 -129l-45 42zM110 825q0 25 19 45t45 20t45 -20t19 -45q0 -26 -19.5 -45t-44.5 -19q-23 0 -43.5 18t-20.5 46zM458 825q0 29 20 47t43 18q26 0 45 -20
t19 -45q0 -28 -20.5 -46t-43.5 -18t-43 17t-20 47z" />
    <glyph glyph-name="afii10065.var.accented" unicode="&#x430;`" horiz-adv-x="598" 
d="M444 392l4 54h144l-55 -446h-144l11 51q-29 -34 -63 -50q-35 -16 -83 -16q-86 0 -138 55q-60 64 -60 164q0 118 72 192q64 65 164 65q52 0 87 -17q36 -17 61 -52zM327 337q-52 0 -85 -33q-34 -34 -34 -89q0 -45 29 -76q29 -30 76 -30q50 0 82 30q38 37 38 96q0 49 -31 77
q-27 25 -75 25zM448 715l86 -65l-169 -135l-59 48z" />
    <glyph glyph-name="afii10070.var.accented" unicode="&#x435;`" horiz-adv-x="542" 
d="M218 283h181q-4 37 -29 58q-22 18 -59 18q-41 0 -68 -27q-19 -21 -25 -49zM537 195h-333q-2 -39 18 -67q23 -31 69 -31q37 0 57 13q20 14 31 40l145 -12q-29 -72 -81 -111q-56 -42 -153 -42q-114 0 -174 60q-56 56 -56 156q0 125 77 198q66 62 177 62q108 0 167 -57
q40 -39 51 -97.5t5 -111.5zM420 715l86 -65l-169 -135l-59 48z" />
    <glyph glyph-name="afii10074.var.accented" unicode="&#x438;`" horiz-adv-x="580" 
d="M111 446h144l-31 -253l219 253h134l-55 -446h-144l32 257l-220 -257h-134zM439 715l86 -65l-169 -135l-59 48z" />
    <glyph glyph-name="afii10080.var.accented" unicode="&#x43e;`" horiz-adv-x="592" 
d="M337 461q118 0 187 -69q60 -60 60 -151q0 -109 -72 -183q-72 -73 -205 -73q-121 0 -186 67q-61 63 -61 157q0 107 72 176q78 76 205 76zM315 107q50 0 84 32q37 36 37 95q0 49 -30 77t-78 28q-46 0 -80 -31q-40 -36 -40 -95q0 -45 29 -76q28 -30 78 -30zM445 715l86 -65
l-169 -135l-59 48z" />
    <glyph glyph-name="afii10085.var.accented" unicode="&#x443;`" horiz-adv-x="583" 
d="M40 -229l184 286l-173 389h164l99 -244l150 244h169l-431 -675h-162zM441 715l86 -65l-169 -135l-59 48z" />
    <glyph glyph-name="afii10093.var.accented" unicode="&#x44b;`" horiz-adv-x="703" 
d="M111 446h144l-19 -153h74q87 0 128 -42q35 -35 35 -95q0 -74 -42 -114q-47 -42 -151 -42h-224zM213 102h53q33 0 47 9q20 13 20 39q0 20 -14 31q-14 10 -50 10h-45zM556 446h144l-55 -446h-144zM501 715l86 -65l-169 -135l-59 48z" />
    <glyph glyph-name="afii10095.var.accented" unicode="&#x44d;`" horiz-adv-x="460" 
d="M40 19l16 128q59 -46 130 -46q45 0 75 19q32 20 42 57h-166l13 97h162q-11 33 -40 52t-73 19q-65 0 -124 -43l16 132q68 27 135 27q112 0 174 -63q56 -57 56 -155q0 -124 -72 -194q-65 -64 -190 -64q-87 0 -154 34zM333 715l86 -65l-169 -135l-59 48z" />
    <glyph glyph-name="afii10096.var.accented" unicode="&#x44e;`" horiz-adv-x="789" 
d="M233 292h54q19 70 76 116q68 53 173 53q117 0 185 -69q60 -60 60 -154q0 -114 -72 -184q-70 -69 -194 -69q-114 0 -174 54q-58 52 -66 137h-56l-21 -176h-142l54 446h142zM516 107q49 0 80 30q37 36 37 97q0 49 -28 77t-74 28q-54 0 -83 -33q-34 -37 -34 -93
q0 -46 29 -77q29 -29 73 -29zM544 715l86 -65l-169 -135l-59 48z" />
    <glyph glyph-name="afii10097.var.accented" unicode="&#x44f;`" horiz-adv-x="492" 
d="M12 0l148 163q-38 11 -61 33q-31 31 -31 86q0 62 35 105q51 59 176 59h210l-55 -446h-144l18 149h-10l-121 -149h-165zM319 243l12 101h-47q-41 0 -57 -16q-15 -15 -15 -39q0 -23 20 -36q13 -10 51 -10h36zM395 715l86 -65l-169 -135l-59 48z" />
    <glyph glyph-name="afii10071.var.accented" unicode="&#x451;`" horiz-adv-x="548" 
d="M218 283h181q-4 37 -29 58q-22 18 -59 18q-41 0 -68 -27q-19 -21 -25 -49zM537 195h-333q-2 -39 18 -67q23 -31 69 -31q37 0 57 13q20 14 31 40l145 -12q-29 -72 -81 -111q-56 -42 -153 -42q-114 0 -174 60q-56 56 -56 156q0 125 77 198q66 62 177 62q108 0 167 -57
q40 -39 51 -97.5t5 -111.5zM341 715l71 -56l-155 -135l-44 39zM74 611q0 24 18.5 45.5t49.5 21.5t49 -22t18 -45t-18 -45t-49 -22t-49.5 21.5t-18.5 45.5zM410 611q0 24 18.5 45.5t49.5 21.5t49 -22t18 -45t-18 -45t-49 -22t-49.5 21.5t-18.5 45.5z" />
    <glyph glyph-name="fi" unicode="fi" horiz-adv-x="573" 
d="M348 328h-96l-40 -328h-144l40 328h-52l15 118h52l9 70q5 37 10 60t18.5 53.5t35.5 52.5q57 58 166 58q114 0 172 -52q47 -41 47 -115q0 -3 -4 -65h-144q2 10 2 28q0 38 -18 58q-20 22 -58 22t-57 -23q-20 -22 -27 -80l-8 -67h96zM425 446h144l-55 -446h-144z" />
    <glyph glyph-name="fl" unicode="fl" horiz-adv-x="574" 
d="M348 328h-96l-40 -328h-144l40 328h-52l15 118h52l9 70q5 37 10 60t18.5 53.5t35.5 52.5q57 58 166 58q114 0 172 -52q47 -41 47 -116q0 -13 -3 -38.5t-3 -37.5l-61 -496h-144l62 499q3 17 3 37q0 39 -18 58q-20 22 -58 22t-57 -23q-20 -22 -27 -80l-8 -67h96z" />
    <glyph glyph-name=".notdef" horiz-adv-x="233" 
 />
    <glyph glyph-name=".null" horiz-adv-x="0" 
 />
    <glyph glyph-name="nonmarkingreturn" horiz-adv-x="333" 
 />
    <glyph glyph-name="space" unicode=" " horiz-adv-x="233" 
 />
    <glyph glyph-name="exclam" unicode="!" horiz-adv-x="298" 
d="M249 223h-152l55 444h152zM64 75q0 38 26.5 64.5t64.5 26.5t64.5 -26.5t26.5 -64.5t-26.5 -64.5t-64.5 -26.5t-64.5 26.5t-26.5 64.5z" />
    <glyph glyph-name="quotedbl" unicode="&#x22;" horiz-adv-x="407" 
d="M261 667l-57 -268h-93l10 268h140zM444 667l-56 -268h-93l9 268h140z" />
    <glyph glyph-name="numbersign" unicode="#" horiz-adv-x="600" 
d="M504 295h102l-30 -111h-102l-53 -184h-128l53 184h-89l-53 -184h-128l53 184h-101l31 111h100l27 92h-100l30 110h100l49 170h128l-49 -170h89l49 170h128l-49 -170h101l-30 -110h-101zM376 295l27 92h-89l-27 -92h89z" />
    <glyph glyph-name="dollar" unicode="$" horiz-adv-x="600" 
d="M344 775h90l-12 -101q78 -6 147 -67l-74 -108q-48 51 -110 51q-43 0 -63 -20q-19 -17 -19 -46q0 -26 21 -44q15 -12 63 -35l37 -17q56 -26 85 -63q33 -42 33 -104q0 -93 -61 -158q-57 -59 -142 -65l-15 -110h-90l15 108q-103 14 -178 95l79 102q29 -31 56 -47
q41 -24 82 -24q49 0 75 21t26 59q0 27 -22 47q-13 12 -61 36l-33 17q-62 31 -89 67q-31 40 -31 101q0 89 56 145q49 49 123 59z" />
    <glyph glyph-name="percent" unicode="%" horiz-adv-x="830" 
d="M185 2l474 676l68 -15l-475 -677zM655 234q-39 0 -63 -23q-29 -27 -29 -69q0 -27 17 -47q19 -23 54 -23q38 0 64 27q26 26 26 65q0 34 -21 53q-18 17 -48 17zM659 315q80 0 122 -42q39 -37 39 -100q0 -79 -48 -130q-49 -52 -138 -52q-78 0 -121 38q-45 38 -45 107
q0 77 50 127q51 52 141 52zM284 676q80 0 122 -42q39 -37 39 -100q0 -79 -48 -130q-49 -52 -138 -52q-78 0 -121 38q-45 38 -45 107q0 77 50 127q51 52 141 52zM280 595q-39 0 -63 -23q-29 -27 -29 -69q0 -27 17 -47q19 -23 54 -23q38 0 64 27q26 26 26 65q0 34 -21 53
q-18 17 -48 17z" />
    <glyph glyph-name="ampersand" unicode="&#x26;" horiz-adv-x="744" 
d="M637 337l77 -85q-46 -51 -101 -96l123 -156h-188l-50 62q-49 -44 -94 -60q-45 -17 -119 -17q-112 0 -165 53q-48 48 -48 118q0 78 49 134t137 81q-50 57 -50 116q0 80 53 134q60 61 162 61q89 0 136 -47q42 -40 42 -103q0 -70 -50 -121q-34 -35 -92 -62l82 -105
q49 40 96 93zM422 162l-97 125q-39 -13 -65 -39t-26 -63q0 -26 17 -45q22 -22 62 -22q54 0 109 44zM398 426q32 16 52 36q27 27 27 60q0 27 -17 41q-15 13 -41 13q-29 0 -47 -18q-18 -20 -18 -46q0 -39 44 -86z" />
    <glyph glyph-name="quotesingle" unicode="'" horiz-adv-x="224" 
d="M261 667l-57 -268h-93l10 268h140z" />
    <glyph glyph-name="parenleft" unicode="(" horiz-adv-x="335" 
d="M273 740l90 -54q-53 -85 -85 -175q-63 -170 -63 -341q0 -174 51 -305l-106 -49q-66 158 -66 343q0 203 76 389q43 104 103 192z" />
    <glyph glyph-name="parenright" unicode=")" horiz-adv-x="335" 
d="M142 691l106 49q66 -158 66 -344q0 -94 -14.5 -183.5t-61.5 -204.5q-42 -102 -103 -192l-90 54q52 84 86 175q63 166 63 363q0 144 -52 283z" />
    <glyph glyph-name="asterisk" unicode="*" horiz-adv-x="598" 
d="M238 659l99 -44l6 114h99l-23 -114l110 44l19 -93l-114 -26l63 -87l-86 -58l-49 97l-72 -97l-70 58l83 86l-108 26z" />
    <glyph glyph-name="plus" unicode="+" 
d="M73 282v116h154v154h126v-154h154v-116h-154v-155h-126v155h-154z" />
    <glyph glyph-name="comma" unicode="," horiz-adv-x="351" 
d="M8 -128l145 282l136 -7l-185 -279z" />
    <glyph glyph-name="hyphen" unicode="-" horiz-adv-x="356" 
d="M73 190l16 126h256l-16 -126h-256z" />
    <glyph glyph-name="period" unicode="." horiz-adv-x="278" 
d="M54 75q0 38 26.5 64.5t64.5 26.5t64.5 -26.5t26.5 -64.5t-26.5 -64.5t-64.5 -26.5t-64.5 26.5t-26.5 64.5z" />
    <glyph glyph-name="slash" unicode="/" horiz-adv-x="697" 
d="M-40 -184l634 933l113 -20l-634 -933z" />
    <glyph glyph-name="zero" unicode="0" horiz-adv-x="600" 
d="M311 -15q-109 0 -173 62q-82 80 -82 233q0 103 32.5 185.5t83.5 134.5q81 82 200 82q104 0 167 -63q77 -77 77 -230q0 -216 -117 -332q-42 -41 -85 -56.5t-103 -15.5zM313 117q43 0 73 31q38 39 56 107t18 136q0 107 -43 142q-22 17 -50 17q-42 0 -76 -31
q-39 -36 -59 -102.5t-20 -135.5q0 -93 36 -133q27 -31 65 -31z" />
    <glyph glyph-name="one" unicode="1" horiz-adv-x="600" 
d="M231 0l66 537h-95l16 130h249l-82 -667h-154z" />
    <glyph glyph-name="two" unicode="2" horiz-adv-x="600" 
d="M38 0l200 200q86 86 126 137q61 77 61 134q0 40 -25 62q-21 19 -60 19q-40 0 -63 -25q-25 -28 -29 -81h-154q8 98 69 163q68 73 187 73q115 0 178 -61q55 -53 55 -142q0 -77 -44 -144q-36 -54 -109 -121l-91 -84h211l-17 -130h-495z" />
    <glyph glyph-name="three" unicode="3" horiz-adv-x="600" 
d="M257 467h-148q12 94 69 151q62 63 176 63q111 0 170 -56q52 -50 52 -131q0 -57 -29 -95q-24 -31 -62 -46q34 -18 56 -52q24 -37 24 -85q0 -102 -63 -166q-64 -66 -186 -66q-125 0 -192 67q-65 65 -72 167h154q4 -45 28 -73q26 -29 75 -29q48 0 74 28q24 26 24 66
q0 39 -26 62q-23 20 -77 20h-9l14 106h10q51 0 76 18q30 23 30 64q0 33 -24 53q-21 18 -56 18q-37 0 -60 -23q-23 -24 -28 -61z" />
    <glyph glyph-name="four" unicode="4" horiz-adv-x="600" 
d="M569 667l-52 -421h80l-15 -122h-80l-15 -124h-148l15 124h-326l11 88l350 455h180zM205 246h164l31 255z" />
    <glyph glyph-name="five" unicode="5" horiz-adv-x="600" 
d="M580 667l-16 -130h-232l-32 -88q28 4 44 4q105 0 163 -56q56 -54 56 -147q0 -116 -69 -188q-44 -47 -97.5 -62t-120.5 -15q-135 0 -241 79l52 137q37 -40 86 -62t94 -22q67 0 102 31q36 31 36 84q0 47 -35 77q-36 32 -108 32q-73 0 -139 -35l119 361h338z" />
    <glyph glyph-name="six" unicode="6" horiz-adv-x="600" 
d="M385 682l149 -36l-183 -201q54 9 103.5 -6.5t83.5 -50.5q54 -56 54 -147q0 -116 -72 -186q-71 -70 -202 -70q-117 0 -184 51q-80 62 -80 170q0 74 36 138q23 40 89 112zM314 111q54 0 86 32q34 33 34 88q0 43 -29 70q-29 29 -82 29q-50 0 -83 -33q-32 -32 -32 -80
q0 -46 29 -75q31 -31 77 -31z" />
    <glyph glyph-name="seven" unicode="7" horiz-adv-x="600" 
d="M52 20l358 517h-286l16 130h530l-471 -682z" />
    <glyph glyph-name="eight" unicode="8" horiz-adv-x="600" 
d="M460 346q41 -12 71 -40q44 -43 44 -110q0 -89 -58 -147q-64 -64 -196 -64q-118 0 -183 51q-68 54 -68 140q0 80 50 128q38 36 96 49q-33 18 -55 50q-25 37 -25 86q0 79 51 131q60 62 176 62q110 0 166 -55q48 -45 48 -125q0 -66 -37 -107q-30 -33 -80 -49zM352 410
q39 0 63 24t24 62q0 33 -23 53q-21 19 -57 19q-37 0 -60 -23q-25 -25 -25 -63q0 -27 18 -47q23 -25 60 -25zM319 107q46 0 73 26q27 25 27 67q0 44 -30 68q-28 20 -63 20q-48 0 -76 -30q-24 -24 -24 -66q0 -38 26 -62q24 -23 67 -23z" />
    <glyph glyph-name="nine" unicode="9" horiz-adv-x="600" 
d="M141 21l180 202q-109 -10 -178 58q-58 55 -58 152q0 113 72 181t204 68q127 0 194 -62q63 -58 63 -154q0 -76 -40 -144q-21 -37 -96 -121l-192 -215zM357 556q-54 0 -84 -32t-30 -83q0 -43 28 -71q30 -30 80 -30q51 0 81 30q34 34 34 84q0 46 -31 75q-29 27 -78 27z" />
    <glyph glyph-name="colon" unicode=":" horiz-adv-x="278" 
d="M48 76q0 38 26.5 64.5t64.5 26.5t64.5 -26.5t26.5 -64.5t-26.5 -64.5t-64.5 -26.5t-64.5 26.5t-26.5 64.5zM85 370q0 38 26.5 64.5t64.5 26.5t64.5 -26.5t26.5 -64.5t-26.5 -64.5t-64.5 -26.5t-64.5 26.5t-26.5 64.5z" />
    <glyph glyph-name="semicolon" unicode=";" horiz-adv-x="354" 
d="M-12 -128l145 282l136 -7l-185 -279zM130 370q0 38 26.5 64.5t64.5 26.5t64.5 -26.5t26.5 -64.5t-26.5 -64.5t-64.5 -26.5t-64.5 26.5t-26.5 64.5z" />
    <glyph glyph-name="less" unicode="&#x3c;" 
d="M58 388l434 219v-124l-301 -149l301 -149v-124l-434 219v108z" />
    <glyph glyph-name="equal" unicode="=" 
d="M73 371v110h434v-110h-434zM73 199v110h434v-110h-434z" />
    <glyph glyph-name="greater" unicode="&#x3e;" 
d="M522 388v-108l-434 -219v124l301 149l-301 149v124z" />
    <glyph glyph-name="question" unicode="?" horiz-adv-x="525" 
d="M339 214h-146l23 184q21 -5 46 -5q66 0 99 27q32 26 32 71q0 30 -19 49q-18 18 -48 18q-35 0 -53 -17q-24 -23 -26 -59h-150q12 88 68 143q58 57 166 57q105 0 163 -59q51 -52 51 -135q0 -91 -55 -143q-55 -50 -140 -50zM158 75q0 38 26.5 64.5t64.5 26.5t64.5 -26.5
t26.5 -64.5t-26.5 -64.5t-64.5 -26.5t-64.5 26.5t-26.5 64.5z" />
    <glyph glyph-name="at" unicode="@" horiz-adv-x="734" 
d="M523 445l13 42h84l-65 -203q-8 -27 -8 -39q0 -14 8 -22q7 -7 21 -7q18 0 39 17q29 24 44.5 72.5t15.5 91.5q0 92 -64 147q-63 54 -162 54q-125 0 -208 -86q-42 -43 -65 -102.5t-23 -120.5q0 -105 63 -168q64 -63 191 -63q86 0 178 33l10 -76q-86 -32 -203 -32
q-154 0 -237 81q-85 81 -85 218q0 83 29 157t80 126q106 108 276 108q148 0 228 -88q68 -75 68 -184q0 -136 -72 -208q-45 -45 -111 -45q-41 0 -63 19q-16 13 -21 37q-21 -31 -50 -47q-32 -17 -75 -17q-60 0 -94 34q-36 38 -36 99q0 45 19 93t53 81q52 50 124 50
q68 0 98 -52zM386 225q30 0 56 23q45 40 45 101q0 28 -15 44q-17 17 -43 17q-34 0 -60 -25q-43 -40 -43 -97q0 -30 18 -48q17 -15 42 -15z" />
    <glyph glyph-name="A" unicode="A" horiz-adv-x="677" 
d="M517 0l-34 126h-252l-63 -126h-166l352 667h142l179 -667h-158zM289 244h166l-54 235z" />
    <glyph glyph-name="B" unicode="B" horiz-adv-x="594" 
d="M70 0l82 667h213q100 0 147 -46q43 -41 43 -114q0 -62 -31 -104q-27 -37 -70 -51q45 -11 76 -40q43 -42 43 -106q0 -89 -54 -143q-63 -63 -201 -63h-248zM291 547l-18 -151h31q59 0 85 25q23 21 23 60q0 31 -21 50q-20 16 -68 16h-32zM259 282l-20 -162h56q73 0 100 25
q24 21 24 64q0 32 -18 50q-23 23 -82 23h-60z" />
    <glyph glyph-name="C" unicode="C" horiz-adv-x="605" 
d="M587 187l-20 -166q-72 -36 -162 -36q-143 0 -235 89q-90 90 -90 231q0 167 106 273q104 104 267 104q107 0 189 -48l-19 -163q-67 67 -167 67t-158 -63q-60 -64 -60 -157q0 -85 52 -137t141 -52q84 0 156 58z" />
    <glyph glyph-name="D" unicode="D" horiz-adv-x="685" 
d="M152 667h195q170 0 255 -85q80 -80 80 -222q0 -170 -104 -268q-97 -92 -303 -92h-205zM290 537l-50 -407h47q113 0 170 51q67 60 67 175q0 88 -48 134q-49 47 -139 47h-47z" />
    <glyph glyph-name="E" unicode="E" horiz-adv-x="502" 
d="M520 667l-16 -130h-218l-16 -129h210l-16 -130h-210l-18 -148h222l-16 -130h-372l82 667h368z" />
    <glyph glyph-name="F" unicode="F" horiz-adv-x="483" 
d="M523 667l-16 -130h-216l-16 -129h200l-16 -130h-200l-35 -278h-154l83 667h370z" />
    <glyph glyph-name="G" unicode="G" horiz-adv-x="767" 
d="M432 241l15 123h312q-5 -185 -103 -285q-90 -94 -246 -94q-155 0 -245 94q-85 89 -85 231q0 163 100 269q58 60 124 81.5t149 21.5q113 0 188 -49q64 -42 108 -120l-142 -75q-22 49 -62 76q-41 28 -102 28q-87 0 -140 -56q-65 -68 -65 -170q0 -90 55 -143q48 -48 137 -48
q65 0 106 30q42 30 57 86h-161z" />
    <glyph glyph-name="H" unicode="H" horiz-adv-x="720" 
d="M306 667l-31 -250h266l31 250h154l-82 -667h-154l35 287h-266l-35 -287h-154l82 667h154z" />
    <glyph glyph-name="I" unicode="I" horiz-adv-x="306" 
d="M155 667h154l-82 -667h-154z" />
    <glyph glyph-name="J" unicode="J" horiz-adv-x="415" 
d="M267 667h154l-56 -453q-12 -91 -33 -132q-14 -28 -35 -48q-51 -49 -149 -49q-65 0 -106 24t-67 68l105 96q9 -24 24 -38q16 -14 40 -14q23 0 39 14q22 19 28 77z" />
    <glyph glyph-name="K" unicode="K" horiz-adv-x="670" 
d="M306 667l-34 -279l244 279h184l-291 -323l247 -344h-194l-201 302l-37 -302h-154l82 667h154z" />
    <glyph glyph-name="L" unicode="L" horiz-adv-x="448" 
d="M152 667h154l-66 -537h208l-16 -130h-362z" />
    <glyph glyph-name="M" unicode="M" horiz-adv-x="886" 
d="M196 0h-154l190 667h127l114 -399l216 399h131l24 -667h-154l-4 398l-213 -398h-58l-117 398z" />
    <glyph glyph-name="N" unicode="N" horiz-adv-x="796" 
d="M224 0h-154l83 667h134l307 -434l54 434h154l-82 -667h-134l-309 436z" />
    <glyph glyph-name="O" unicode="O" horiz-adv-x="810" 
d="M464 682q158 0 249 -87q94 -91 94 -237q0 -74 -26 -146t-77 -124q-101 -103 -276 -103q-160 0 -254 95q-94 96 -94 233q0 163 110 268q106 101 274 101zM458 540q-98 0 -159 -64t-61 -153q0 -86 54 -140q55 -56 146 -56q93 0 149 57q62 64 62 164q0 88 -53 140t-138 52z
" />
    <glyph glyph-name="P" unicode="P" horiz-adv-x="572" 
d="M152 667h225q117 0 173 -56q54 -54 54 -143q0 -115 -65 -175q-63 -59 -198 -59h-88l-29 -234h-154zM291 541l-23 -181h55q68 0 97 29q26 25 26 69q0 37 -22 58q-26 25 -87 25h-46z" />
    <glyph glyph-name="Q" unicode="Q" horiz-adv-x="813" 
d="M639 -39l-46 60q-77 -35 -168 -35q-158 0 -253 95q-92 92 -92 231q0 165 106 269q103 101 276 101q166 0 261 -95q87 -87 87 -227q0 -86 -33 -161q-30 -68 -86 -110l86 -107zM534 285l65 -84q53 55 53 143q0 90 -58 145q-53 51 -140 51q-99 0 -158 -64q-58 -63 -58 -156
q0 -80 50 -134q55 -59 148 -59q40 0 67 14l-108 126z" />
    <glyph glyph-name="R" unicode="R" horiz-adv-x="607" 
d="M152 667h209q58 0 100.5 -11.5t76.5 -48.5q48 -50 48 -136q0 -91 -55 -146q-44 -42 -106 -54l172 -271h-180l-161 263l-32 -263h-154zM291 547l-23 -183h38q59 0 90 24q34 26 34 78q0 45 -32 65q-25 16 -84 16h-23z" />
    <glyph glyph-name="S" unicode="S" horiz-adv-x="550" 
d="M554 616l-77 -112q-53 48 -112 48q-42 0 -63 -17q-23 -18 -23 -48q0 -27 23 -45q14 -12 65 -35l39 -18q58 -27 88 -64q34 -43 34 -104q0 -104 -67 -171q-66 -65 -191 -65q-77 0 -133 30q-47 26 -89 71l86 110q23 -32 56 -53q36 -22 78 -22q46 0 74 21q28 22 28 62
q0 27 -19 46q-15 15 -53 30l-39 16q-57 21 -94 59q-44 45 -44 113q0 91 60 151q64 63 180 63q109 0 193 -66z" />
    <glyph glyph-name="T" unicode="T" horiz-adv-x="460" 
d="M515 537h-145l-66 -537h-154l66 537h-145l16 130h444z" />
    <glyph glyph-name="U" unicode="U" horiz-adv-x="710" 
d="M151 667h154l-44 -364q-5 -35 -5 -58q0 -57 29 -86q32 -30 88 -30q65 0 98 33t45 127l46 378h154l-48 -388q-7 -55 -12 -82.5t-22 -69.5t-45 -70q-70 -72 -219 -72q-142 0 -211 69q-59 58 -59 154q0 33 8 105z" />
    <glyph glyph-name="V" unicode="V" horiz-adv-x="678" 
d="M83 667h160l117 -427l221 427h172l-364 -667h-106z" />
    <glyph glyph-name="W" unicode="W" horiz-adv-x="1002" 
d="M83 667h156l88 -442l197 442h106l87 -442l196 442h164l-308 -667h-132l-89 405l-189 -405h-132z" />
    <glyph glyph-name="X" unicode="X" horiz-adv-x="686" 
d="M7 0l289 354l-169 313h181l87 -190l133 190h189l-245 -313l201 -354h-181l-119 231l-177 -231h-189z" />
    <glyph glyph-name="Y" unicode="Y" horiz-adv-x="632" 
d="M236 0l38 311l-195 356h176l109 -207l159 207h188l-283 -356l-38 -311h-154z" />
    <glyph glyph-name="Z" unicode="Z" horiz-adv-x="616" 
d="M673 667l-381 -537h282l-16 -130h-539l382 537h-264l16 130h520z" />
    <glyph glyph-name="bracketleft" unicode="[" horiz-adv-x="357" 
d="M394 631h-92l-87 -717h92l-12 -98h-214l112 913h214z" />
    <glyph glyph-name="backslash" unicode="\" horiz-adv-x="579" 
d="M584 -184l-113 -20l-406 933l113 20z" />
    <glyph glyph-name="bracketright" unicode="]" horiz-adv-x="357" 
d="M119 631l13 98h214l-112 -913h-214l12 98h92l87 717h-92z" />
    <glyph glyph-name="asciicircum" unicode="^" horiz-adv-x="496" 
d="M285 570l-111 -237h-132l161 334h165l161 -334h-132z" />
    <glyph glyph-name="underscore" unicode="_" 
d="M0 -184v118h500v-118h-500z" />
    <glyph glyph-name="grave" unicode="`" 
d="M303 515l-135 135l103 65l103 -152z" />
    <glyph glyph-name="a" unicode="a" horiz-adv-x="598" 
d="M444 392l4 54h144l-55 -446h-144l11 51q-29 -34 -63 -50q-35 -16 -83 -16q-86 0 -138 55q-60 64 -60 164q0 118 72 192q64 65 164 65q52 0 87 -17q36 -17 61 -52zM327 337q-52 0 -85 -33q-34 -34 -34 -89q0 -45 29 -76q29 -30 76 -30q50 0 82 30q38 37 38 96q0 49 -31 77
q-27 25 -75 25z" />
    <glyph glyph-name="b" unicode="b" horiz-adv-x="602" 
d="M295 729l-42 -333q23 29 55 46q38 19 87 19q83 0 135 -48q64 -59 64 -163q0 -127 -73 -202q-62 -63 -165 -63q-56 0 -94 21q-32 18 -54 49l-4 -55h-144l91 729h144zM344 337q-52 0 -83 -31q-37 -37 -37 -92q0 -51 29 -77q30 -28 73 -28q49 0 82 33q38 36 38 93
q0 46 -31 75q-27 27 -71 27z" />
    <glyph glyph-name="c" unicode="c" horiz-adv-x="431" 
d="M445 432l-17 -131q-41 38 -100 38q-53 0 -87 -34q-33 -36 -33 -89q0 -49 32 -79q31 -30 78 -30q51 0 91 36l-16 -132q-53 -26 -118 -26q-97 0 -155 62q-60 65 -60 161q0 110 70 182q69 71 185 71q71 0 130 -29z" />
    <glyph glyph-name="d" unicode="d" horiz-adv-x="602" 
d="M441 392l41 337h144l-90 -729h-143l8 51q-23 -33 -59 -50q-33 -16 -86 -16q-83 0 -135 51q-61 61 -61 162q0 123 77 200q63 63 160 63q90 0 144 -69zM326 337q-49 0 -82 -33q-36 -36 -36 -91q0 -48 31 -77q27 -27 74 -27q51 0 83 34q35 37 35 92q0 43 -29 72
q-30 30 -76 30z" />
    <glyph glyph-name="e" unicode="e" horiz-adv-x="542" 
d="M218 283h181q-4 37 -29 58q-22 18 -59 18q-41 0 -68 -27q-19 -21 -25 -49zM537 195h-333q-2 -39 18 -67q23 -31 69 -31q37 0 57 13q20 14 31 40l145 -12q-29 -72 -81 -111q-56 -42 -153 -42q-114 0 -174 60q-56 56 -56 156q0 125 77 198q66 62 177 62q108 0 167 -57
q40 -39 51 -97.5t5 -111.5z" />
    <glyph glyph-name="f" unicode="f" horiz-adv-x="326" 
d="M360 330h-114l-40 -330h-144l40 330h-52l16 116h52l10 97q10 100 57 148q49 49 126 49q46 0 95 -18l-16 -124q-24 18 -51 18q-30 0 -45 -17q-19 -19 -24 -66l-10 -87h114z" />
    <glyph glyph-name="g" unicode="g" horiz-adv-x="595" 
d="M440 392l5 54h144l-56 -448q-15 -110 -67 -162q-65 -65 -195 -65q-113 0 -173 56q-51 50 -62 122h154q7 -27 27 -44q22 -18 63 -18q51 0 79 33q24 28 30 83l6 48q-44 -63 -137 -63q-87 0 -138 53q-60 62 -60 162q0 118 73 193q64 65 160 65q91 0 147 -69zM320 336
q-50 0 -79 -29q-33 -33 -33 -90q0 -49 30 -78q29 -27 72 -27q50 0 79 29q16 15 26.5 42.5t10.5 52.5q0 46 -29 73q-27 27 -77 27z" />
    <glyph glyph-name="h" unicode="h" horiz-adv-x="571" 
d="M150 729h144l-42 -332q25 26 55 42q36 19 91 19q74 0 113 -38q38 -37 38 -106q0 -29 -7 -85l-27 -229h-144l24 193q6 46 6 72q0 35 -18 54q-19 19 -51 19q-43 0 -67 -24q-27 -27 -35 -94l-26 -220h-144z" />
    <glyph glyph-name="i" unicode="i" horiz-adv-x="276" 
d="M120 446h144l-55 -446h-144zM127 636q0 35 24.5 59.5t59.5 24.5t59.5 -24.5t24.5 -59.5t-24.5 -59.5t-59.5 -24.5t-59.5 24.5t-24.5 59.5z" />
    <glyph glyph-name="j" unicode="j" horiz-adv-x="276" 
d="M120 446h144l-85 -675h-144zM127 636q0 35 24.5 59.5t59.5 24.5t59.5 -24.5t24.5 -59.5t-24.5 -59.5t-59.5 -24.5t-59.5 24.5t-24.5 59.5z" />
    <glyph glyph-name="k" unicode="k" horiz-adv-x="566" 
d="M151 729h144l-55 -447l164 164h192l-219 -205l202 -241h-185l-164 196l-26 -196h-144z" />
    <glyph glyph-name="l" unicode="l" horiz-adv-x="264" 
d="M150 729h144l-90 -729h-144z" />
    <glyph glyph-name="m" unicode="m" horiz-adv-x="843" 
d="M56 0l55 446h144l-8 -52q20 28 53 46q37 17 76 17q49 0 81 -22q32 -21 46 -60q25 37 59 58q39 24 95 24q76 0 119 -41q25 -24 34.5 -58.5t8.5 -56t-6 -61.5l-29 -240h-144l26 215q5 45 5 55q0 33 -18 51q-16 16 -43 16q-33 0 -55 -22q-28 -28 -37 -100l-26 -215h-144
l27 220q4 36 4 49q0 35 -16 51q-17 17 -46 17q-32 0 -55 -23q-27 -28 -36 -101l-26 -213h-144z" />
    <glyph glyph-name="n" unicode="n" horiz-adv-x="567" 
d="M111 446h144l-7 -49q25 26 55 42q36 19 88 19q77 0 116 -38q38 -37 38 -106q0 -29 -7 -85l-27 -229h-144l24 193q6 46 6 72q0 35 -18 54q-19 19 -53 19q-41 0 -65 -24q-27 -28 -35 -94l-26 -220h-144z" />
    <glyph glyph-name="o" unicode="o" horiz-adv-x="592" 
d="M337 461q118 0 187 -69q60 -60 60 -151q0 -109 -72 -183q-72 -73 -205 -73q-121 0 -186 67q-61 63 -61 157q0 107 72 176q78 76 205 76zM315 107q50 0 84 32q37 36 37 95q0 49 -30 77t-78 28q-46 0 -80 -31q-40 -36 -40 -95q0 -45 29 -76q28 -30 78 -30z" />
    <glyph glyph-name="p" unicode="p" horiz-adv-x="598" 
d="M210 55l-36 -284h-144l83 675h144l-8 -52q24 29 56 46q41 21 92 21q84 0 135 -49q59 -59 59 -167q0 -125 -75 -200q-60 -60 -151 -60q-60 0 -97 19q-34 18 -58 51zM341 337q-50 0 -84 -34q-36 -36 -36 -90q0 -45 27 -73q29 -31 75 -31q47 0 80 31q18 16 29 43.5t11 52.5
q0 47 -31 75q-28 26 -71 26z" />
    <glyph glyph-name="q" unicode="q" horiz-adv-x="598" 
d="M440 392l6 54h144l-83 -675h-144l34 276q-24 -28 -57 -45q-35 -17 -84 -17q-85 0 -138 55q-58 58 -58 163q0 120 74 196q61 62 165 62q46 0 81 -18q37 -19 60 -51zM328 337q-50 0 -84 -34q-36 -36 -36 -89q0 -47 27 -76t73 -29t80 30q40 35 40 98q0 45 -28 73
q-27 27 -72 27z" />
    <glyph glyph-name="r" unicode="r" horiz-adv-x="384" 
d="M56 0l55 446h144l-13 -66q19 38 56 59q34 18 75 18q33 0 59 -7l-28 -134q-30 15 -63 15q-45 0 -74 -27q-33 -31 -43 -114l-24 -190h-144z" />
    <glyph glyph-name="s" unicode="s" horiz-adv-x="434" 
d="M428 416l-61 -89q-40 30 -84 30q-30 0 -43 -12q-10 -8 -10 -22q0 -15 14 -24q6 -4 35 -12l33 -9q50 -14 77 -42q33 -33 33 -85q0 -68 -42 -110q-54 -56 -157 -56q-67 0 -116 22q-35 16 -69 46l61 97q25 -24 55 -37q35 -14 62 -14t44 10q18 10 18 29q0 18 -14 28
q-4 3 -35 13l-32 10q-49 14 -75 40q-30 33 -30 80q0 62 42 104q49 48 147 48q82 0 147 -45z" />
    <glyph glyph-name="t" unicode="t" horiz-adv-x="299" 
d="M334 330h-88l-41 -330h-144l41 330h-52l14 116h52l18 144h144l-18 -144h88z" />
    <glyph glyph-name="u" unicode="u" horiz-adv-x="570" 
d="M423 446h144l-28 -241q-4 -34 -8.5 -56.5t-19 -53.5t-37.5 -53q-59 -57 -175 -57q-121 0 -174 51q-48 45 -48 120q0 28 5 63l27 227h144l-26 -222q-5 -47 -5 -49q0 -32 19 -49q21 -19 59 -19q42 0 66 25q22 22 29 80z" />
    <glyph glyph-name="v" unicode="v" horiz-adv-x="546" 
d="M54 446h150l85 -239l147 239h160l-284 -446h-86z" />
    <glyph glyph-name="w" unicode="w" horiz-adv-x="852" 
d="M450 254l-145 -254h-92l-159 446h152l81 -237l141 237h84l93 -237l133 237h162l-269 -446h-90z" />
    <glyph glyph-name="x" unicode="x" horiz-adv-x="620" 
d="M632 446l-206 -205l184 -241h-182l-102 144l-131 -144h-192l234 241l-158 205h182l77 -115l102 115h192z" />
    <glyph glyph-name="y" unicode="y" horiz-adv-x="583" 
d="M40 -229l184 286l-173 389h164l99 -244l150 244h169l-431 -675h-162z" />
    <glyph glyph-name="z" unicode="z" horiz-adv-x="499" 
d="M552 446l-281 -326h223l-17 -120h-477l282 326h-201l18 120h453z" />
    <glyph glyph-name="braceleft" unicode="{" horiz-adv-x="506" 
d="M284 272q27 -14 37 -35t10 -55q0 -14 -2 -36l-19 -160q-2 -12 -2 -17q0 -24 17 -33t60 -9h19l-13 -109q-44 -2 -75 -2q-70 0 -102 25q-35 27 -35 77q0 18 4 42l23 189q1 6 1 17q0 22 -11 39t-36 17l13 106q55 3 64 73l23 184q9 79 50 112q41 32 130 32q40 0 62 -2
l-13 -109h-39q-34 0 -50 -14t-20 -45l-20 -161q-6 -46 -25 -80.5t-51 -45.5z" />
    <glyph glyph-name="bar" unicode="|" horiz-adv-x="504" 
d="M226 -250v1000h126v-1000h-126z" />
    <glyph glyph-name="braceright" unicode="}" horiz-adv-x="506" 
d="M193 -14l20 161q13 107 75 126q-29 12 -38 32t-9 50q0 19 3 44l19 160q1 5 1 18q0 19 -13.5 28.5t-27 11t-36.5 1.5h-19l13 109q24 2 74 2q137 0 137 -102q0 -21 -3 -42l-22 -183q-1 -6 -1 -19q0 -23 12.5 -38t34.5 -16l-13 -106q-57 -6 -64 -73l-24 -190
q-3 -28 -6 -41.5t-13.5 -34.5t-29.5 -36q-40 -32 -120 -32q-41 0 -73 2l13 109h19q23 0 34.5 1t26 6.5t21 18t9.5 33.5z" />
    <glyph glyph-name="asciitilde" unicode="~" 
d="M286 225l-36 14q-44 16 -64 16q-48 0 -77 -61l-71 43l5 11q31 68 56 93q36 36 90 36q36 0 80 -17l45 -17q41 -16 69 -16q43 0 71 52l72 -42l-4 -8q-62 -124 -149 -124q-34 0 -87 20z" />
    <glyph glyph-name="uni00A0" unicode="&#xa0;" horiz-adv-x="233" 
 />
    <glyph glyph-name="exclamdown" unicode="&#xa1;" horiz-adv-x="298" 
d="M259 214l-54 -444h-156l54 444h156zM109 362q0 38 26.5 64.5t64.5 26.5t64.5 -26.5t26.5 -64.5t-26.5 -64.5t-64.5 -26.5t-64.5 26.5t-26.5 64.5z" />
    <glyph glyph-name="cent" unicode="&#xa2;" horiz-adv-x="600" 
d="M532 544l-16 -130q-44 36 -96 36q-54 0 -87 -33q-35 -35 -35 -84q0 -46 29 -75q30 -30 81 -30t90 34l-17 -133q-39 -19 -82 -23l-11 -93h-90l13 100q-70 14 -116 69q-45 58 -45 140q0 114 68 182q59 59 147 66l10 90h90l-11 -94q37 -4 78 -22z" />
    <glyph glyph-name="sterling" unicode="&#xa3;" horiz-adv-x="600" 
d="M189 248h-110l11 92h75q-21 65 -21 121q0 96 61 157q64 64 178 64q109 0 168 -63q57 -59 57 -160q0 -18 -1 -27h-145q1 6 1 21q0 52 -25 78q-22 22 -59 22q-34 0 -58 -21q-32 -28 -32 -84q0 -22 22 -108h166l-12 -92h-146q1 -6 1 -18q0 -46 -26 -85q30 -7 59 -20
q43 -17 62 -17q24 0 38 15q13 15 18 33l104 -10q-10 -73 -53 -120q-39 -41 -108 -41q-46 0 -103 22l-41 16q-35 15 -65 15q-48 0 -59 -43l-107 9q17 57 43 93q33 45 92 58q17 28 17 65q0 18 -2 28z" />
    <glyph glyph-name="currency" unicode="&#xa4;" horiz-adv-x="667" 
d="M129 67l-68 68l103 103q-44 55 -44 138q0 77 45 138l-104 104l68 68l104 -103q56 44 140 44q83 0 139 -44l103 103l68 -68l-102 -103q45 -56 45 -139q0 -85 -44 -138l103 -103l-68 -68l-103 103q-55 -45 -138 -45q-88 0 -144 44zM373 237q58 0 97 38q40 39 40 101
q0 61 -39 100t-98 39q-61 0 -98 -39q-39 -39 -39 -100q0 -60 38 -98q41 -41 99 -41z" />
    <glyph glyph-name="yen" unicode="&#xa5;" horiz-adv-x="600" 
d="M241 347h-140l12 97h82l-107 223h168l91 -212l140 212h182l-165 -223h86l-12 -97h-146l-28 -35l-3 -28h169l-12 -97h-169l-23 -187h-146l23 187h-162l12 97h162l3 28z" />
    <glyph glyph-name="brokenbar" unicode="&#xa6;" horiz-adv-x="504" 
d="M226 365v385h126v-385h-126zM226 -250v386h126v-386h-126z" />
    <glyph glyph-name="section" unicode="&#xa7;" horiz-adv-x="574" 
d="M80 9h130q0 -42 22 -64q19 -19 52 -19q36 0 54 18q19 19 19 47q0 26 -19 44q-11 11 -70 40l-43 21q-50 24 -76 50q-44 44 -44 117q0 64 34 108q33 42 83 63q-61 39 -61 114q0 81 49 130q52 51 147 51q103 0 154 -53q49 -51 51 -131h-130q0 39 -19 58t-52 19
q-34 0 -52 -18t-18 -46q0 -29 30 -51q21 -15 63 -35l38 -18q58 -27 84 -61q35 -43 35 -112q0 -67 -34 -110q-26 -35 -74 -51q52 -45 52 -117q0 -82 -52 -134q-53 -53 -148 -53q-98 0 -150 54q-49 52 -55 139zM321 197q39 0 60 23q22 23 22 58q0 42 -23 61q-20 17 -57 17
q-38 0 -59 -22q-23 -23 -23 -65q0 -31 21 -52q22 -20 59 -20z" />
    <glyph glyph-name="dieresis" unicode="&#xa8;" 
d="M136 599q0 32 23.5 55.5t55.5 23.5t55.5 -23.5t23.5 -55.5t-23.5 -55.5t-55.5 -23.5t-55.5 23.5t-23.5 55.5zM354 599q0 32 23.5 55.5t55.5 23.5t55.5 -23.5t23.5 -55.5t-23.5 -55.5t-55.5 -23.5t-55.5 23.5t-23.5 55.5z" />
    <glyph glyph-name="copyright" unicode="&#xa9;" horiz-adv-x="762" 
d="M547 518v-122q-44 50 -102 50q-49 0 -80 -30q-32 -31 -32 -84q0 -48 28 -78q32 -34 85 -34q55 0 101 49v-120q-57 -25 -111 -25q-100 0 -157 59q-58 60 -58 148q0 90 59 149q60 62 160 62q56 0 107 -24zM421 620q-49 0 -101.5 -21t-89.5 -57q-38 -37 -62 -93t-24 -115
q0 -60 24 -116.5t62 -92.5q37 -36 89.5 -57t101.5 -21t101.5 21t89.5 57q38 36 62 92.5t24 116.5q0 59 -24 115t-62 93q-37 36 -89.5 57t-101.5 21zM768 333q0 -146 -103 -249q-101 -99 -244 -99t-244 99q-103 103 -103 249q0 147 103 250q101 99 244 99t244 -99
q103 -103 103 -250z" />
    <glyph glyph-name="ordfeminine" unicode="&#xaa;" horiz-adv-x="349" 
d="M307 659h84l-32 -264h-84l5 32q-34 -41 -87 -41q-51 0 -82 30q-36 35 -36 97q0 72 42 115q39 39 101 39q56 0 86 -39zM233 593q-32 0 -52 -20q-19 -21 -19 -51q0 -28 16 -44q16 -18 48 -18t51 19q20 18 20 53q0 29 -18 45q-17 16 -46 16zM67 357h287l-9 -66h-286z" />
    <glyph glyph-name="guillemotleft" unicode="&#xab;" horiz-adv-x="534" 
d="M186 214l98 -159l-88 -47l-128 216l181 215l72 -65zM394 214l98 -159l-88 -47l-128 216l181 215l72 -65z" />
    <glyph glyph-name="logicalnot" unicode="&#xac;" 
d="M488 0h-126v149h-310v118h436v-267z" />
    <glyph glyph-name="uni00AD" unicode="&#xad;" horiz-adv-x="356" 
d="M73 190l16 126h256l-16 -126h-256z" />
    <glyph glyph-name="registered" unicode="&#xae;" horiz-adv-x="762" 
d="M268 529h142q82 0 120 -39q31 -31 31 -82q0 -45 -29 -76q-23 -23 -54 -30l107 -152h-133l-76 128v-128h-108v379zM376 449v-88h15q31 0 45 9q19 12 19 37q0 21 -14 32q-14 10 -51 10h-14zM421 620q-49 0 -101.5 -21t-89.5 -57q-38 -37 -62 -93t-24 -115q0 -60 24 -116.5
t62 -92.5q37 -36 89.5 -57t101.5 -21t101.5 21t89.5 57q38 36 62 92.5t24 116.5q0 59 -24 115t-62 93q-37 36 -89.5 57t-101.5 21zM768 333q0 -146 -103 -249q-101 -99 -244 -99t-244 99q-103 103 -103 249q0 147 103 250q101 99 244 99t244 -99q103 -103 103 -250z" />
    <glyph glyph-name="macron" unicode="&#xaf;" 
d="M127 543l11 90h380l-11 -90h-380z" />
    <glyph glyph-name="degree" unicode="&#xb0;" horiz-adv-x="502" 
d="M235 515q0 -30 22.5 -52t53.5 -22t53.5 22t22.5 52t-22.5 52t-53.5 22t-53.5 -22t-22.5 -52zM157 515q0 64 44.5 108t109.5 44t109.5 -44t44.5 -108t-44.5 -108t-109.5 -44t-109.5 44t-44.5 108z" />
    <glyph glyph-name="plusminus" unicode="&#xb1;" 
d="M63 356v116h154v155h126v-155h154v-116h-154v-155h-126v155h-154zM63 51v116h434v-116h-434z" />
    <glyph glyph-name="twosuperior" unicode="&#xb2;" horiz-adv-x="395" 
d="M62 275l119 119q9 9 26.5 26t24.5 24t17.5 18.5t16.5 19.5t12 17q18 28 18 55q0 23 -15 35q-13 10 -33 10q-19 0 -32 -13q-17 -17 -21 -47h-94q11 65 49 102q38 38 101 38q67 0 104 -31q42 -34 42 -90q0 -41 -25 -81q-17 -28 -74 -78l-53 -46h131l-10 -78h-304z" />
    <glyph glyph-name="threesuperior" unicode="&#xb3;" horiz-adv-x="395" 
d="M77 396h94q3 -24 17 -38q16 -16 42 -16q27 0 43 14t16 40q0 24 -18 36q-15 11 -51 11h-6l8 70h10q34 0 48 12q16 13 16 36q0 21 -14 32q-14 10 -31 10q-21 0 -35 -14q-10 -10 -15 -34h-90q9 53 42 86q38 38 104 38q68 0 104 -36q30 -30 30 -80q0 -31 -15 -52
q-14 -21 -41 -31q20 -9 33 -23q20 -23 20 -57q0 -61 -40 -99q-40 -39 -116 -39q-73 0 -113 39q-38 38 -42 95z" />
    <glyph glyph-name="acute" unicode="&#xb4;" 
d="M405 715l86 -65l-169 -135l-59 48z" />
    <glyph glyph-name="mu" unicode="&#xb5;" horiz-adv-x="570" 
d="M171 -230h-141l83 676h144l-24 -195q-6 -54 -6 -70q0 -45 20 -66t53 -21q35 0 57 20q28 26 39 117l27 215h144l-55 -446h-141l7 53q-8 -20 -32 -44q-25 -19 -58 -19q-35 0 -55 21q-18 18 -27 51z" />
    <glyph glyph-name="mu" unicode="&#x3bc;" horiz-adv-x="570" 
d="M171 -230h-141l83 676h144l-24 -195q-6 -54 -6 -70q0 -45 20 -66t53 -21q35 0 57 20q28 26 39 117l27 215h144l-55 -446h-141l7 53q-8 -20 -32 -44q-25 -19 -58 -19q-35 0 -55 21q-18 18 -27 51z" />
    <glyph glyph-name="paragraph" unicode="&#xb6;" horiz-adv-x="659" 
d="M313 -94h-108l50 415h-7q-83 0 -128 47q-37 38 -37 101q0 87 50 139q57 59 201 59h335l-12 -97h-72l-81 -664h-108l81 664h-83z" />
    <glyph glyph-name="periodcentered" unicode="&#xb7;" horiz-adv-x="256" 
d="M53 334q0 46 31 77t77 31t77 -31t31 -77t-31 -77t-77 -31t-77 31t-31 77z" />
    <glyph glyph-name="cedilla" unicode="&#xb8;" 
d="M251 -46l94 -51l-126 -139l-74 40z" />
    <glyph glyph-name="onesuperior" unicode="&#xb9;" horiz-adv-x="395" 
d="M195 275l38 314h-66l10 78h158l-48 -392h-92z" />
    <glyph glyph-name="ordmasculine" unicode="&#xba;" horiz-adv-x="352" 
d="M240 667q78 0 121 -45q35 -37 35 -93q0 -62 -40 -100q-43 -43 -127 -43q-74 0 -114 33q-44 36 -44 101q0 64 45 105q46 42 124 42zM236 593q-33 0 -51 -20q-20 -22 -20 -53q0 -28 18 -44q16 -16 44 -16q34 0 55 19q20 20 20 50q0 31 -19 48q-18 16 -47 16zM60 357h300
l-8 -66h-300z" />
    <glyph glyph-name="guillemotright" unicode="&#xbb;" horiz-adv-x="534" 
d="M196 234l-97 160l86 45l129 -215l-182 -216l-74 67zM404 234l-97 160l86 45l129 -215l-182 -216l-74 67z" />
    <glyph glyph-name="onequarter" unicode="&#xbc;" horiz-adv-x="860" 
d="M186 267l39 322h-67l10 78h159l-49 -400h-92zM174 10l472 668l65 -23l-472 -669zM783 400l-31 -250h46l-9 -74h-46l-9 -76h-88l9 76h-192l6 50l208 274h106zM570 150h94l19 148z" />
    <glyph glyph-name="onehalf" unicode="&#xbd;" horiz-adv-x="860" 
d="M163 275l38 314h-66l10 78h158l-48 -392h-92zM150 10l472 668l65 -23l-472 -669zM477 0l119 119q82 82 97 105q18 26 18 56q0 22 -15 34q-13 10 -33 10q-23 0 -36 -18q-14 -19 -17 -42h-94q11 65 49 102q38 38 101 38q69 0 111 -38q35 -31 35 -83q0 -40 -25 -81
q-17 -28 -74 -78l-53 -46h131l-10 -78h-304z" />
    <glyph glyph-name="threequarters" unicode="&#xbe;" horiz-adv-x="860" 
d="M78 399h94q0 -25 15 -40q14 -14 40 -14q29 0 46 16t17 40q0 22 -18 35q-13 10 -46 10h-11l8 70h10q33 0 48 13q16 14 16 36q0 18 -14 30q-13 11 -33 11t-34 -14q-10 -11 -14 -34h-90q9 53 42 86q37 38 100 38t100 -28q38 -29 38 -77q0 -30 -15 -54t-41 -34q20 -9 33 -23
q20 -23 20 -57q0 -60 -42 -101q-44 -43 -115 -43q-80 0 -120 42q-34 36 -34 92zM224 10l472 668l65 -23l-472 -669zM620 150h94l19 148zM833 400l-31 -250h46l-9 -74h-46l-9 -76h-88l9 76h-192l6 50l208 274h106z" />
    <glyph glyph-name="questiondown" unicode="&#xbf;" horiz-adv-x="525" 
d="M239 224h146l-22 -183q-25 3 -51 3q-65 0 -97 -30q-26 -24 -26 -64q0 -30 18 -49t52 -19q31 0 49 18q21 20 23 57h150q-8 -92 -62 -145q-54 -54 -159 -54q-107 0 -165 57q-53 51 -53 134q0 87 55 142q52 52 132 58zM238 362q0 38 26.5 64.5t64.5 26.5t64.5 -26.5
t26.5 -64.5t-26.5 -64.5t-64.5 -26.5t-64.5 26.5t-26.5 64.5z" />
    <glyph glyph-name="Agrave" unicode="&#xc0;" horiz-adv-x="677" 
d="M517 0l-34 126h-252l-63 -126h-166l352 667h142l179 -667h-158zM289 244h166l-54 235zM443 724l-148 129l105 72l114 -148z" />
    <glyph glyph-name="Aacute" unicode="&#xc1;" horiz-adv-x="677" 
d="M517 0l-34 126h-252l-63 -126h-166l352 667h142l179 -667h-158zM289 244h166l-54 235zM508 925l86 -72l-180 -129l-59 53z" />
    <glyph glyph-name="Acircumflex" unicode="&#xc2;" horiz-adv-x="677" 
d="M517 0l-34 126h-252l-63 -126h-166l352 667h142l179 -667h-158zM289 244h166l-54 235zM318 726l-64 71l205 140l172 -140l-66 -71l-114 93z" />
    <glyph glyph-name="Atilde" unicode="&#xc3;" horiz-adv-x="677" 
d="M517 0l-34 126h-252l-63 -126h-166l352 667h142l179 -667h-158zM289 244h166l-54 235zM557 867l65 -50q-19 -32 -47 -58q-34 -31 -77 -31q-24 0 -62 15l-33 13q-37 15 -52 15q-31 0 -51 -39l-65 50q19 34 40 55q34 34 82 34q28 0 63 -14l34 -14q32 -14 51 -14q30 0 52 38
z" />
    <glyph glyph-name="Adieresis" unicode="&#xc4;" horiz-adv-x="677" 
d="M517 0l-34 126h-252l-63 -126h-166l352 667h142l179 -667h-158zM289 244h166l-54 235zM252 811q0 32 23.5 55.5t55.5 23.5t55.5 -23.5t23.5 -55.5t-23.5 -55.5t-55.5 -23.5t-55.5 23.5t-23.5 55.5zM470 811q0 32 23.5 55.5t55.5 23.5t55.5 -23.5t23.5 -55.5t-23.5 -55.5
t-55.5 -23.5t-55.5 23.5t-23.5 55.5z" />
    <glyph glyph-name="Aring" unicode="&#xc5;" horiz-adv-x="677" 
d="M517 0l-34 126h-252l-63 -126h-166l352 667h142l179 -667h-158zM289 244h166l-54 235zM553 827q0 -39 -27 -66q-34 -32 -89 -32t-89 32q-27 27 -27 66t27 66q34 32 89 32t89 -32q27 -27 27 -66zM437 866q-22 0 -34 -12t-12 -27t12 -27t34 -12t34 12t12 27t-12 27t-34 12z
" />
    <glyph glyph-name="AE" unicode="&#xc6;" horiz-adv-x="920" 
d="M526 0l-35 129h-255l-66 -129h-164l355 667h379l32 -130h-232l35 -129h230l34 -130h-231l41 -148h232l33 -130h-388zM295 247h168l-55 219z" />
    <glyph glyph-name="Ccedilla" unicode="&#xc7;" horiz-adv-x="605" 
d="M587 187l-20 -166q-72 -36 -162 -36q-143 0 -235 89q-90 90 -90 231q0 167 106 273q104 104 267 104q107 0 189 -48l-19 -163q-67 67 -167 67t-158 -63q-60 -64 -60 -157q0 -85 52 -137t141 -52q84 0 156 58zM376 -46l100 -50l-120 -140l-80 40z" />
    <glyph glyph-name="Egrave" unicode="&#xc8;" horiz-adv-x="502" 
d="M520 667l-16 -130h-218l-16 -129h210l-16 -130h-210l-18 -148h222l-16 -130h-372l82 667h368zM355 724l-148 129l105 72l114 -148z" />
    <glyph glyph-name="Eacute" unicode="&#xc9;" horiz-adv-x="502" 
d="M520 667l-16 -130h-218l-16 -129h210l-16 -130h-210l-18 -148h222l-16 -130h-372l82 667h368zM420 925l86 -72l-180 -129l-59 53z" />
    <glyph glyph-name="Ecircumflex" unicode="&#xca;" horiz-adv-x="502" 
d="M520 667l-16 -130h-218l-16 -129h210l-16 -130h-210l-18 -148h222l-16 -130h-372l82 667h368zM216 726l-64 71l205 140l172 -140l-66 -71l-114 93z" />
    <glyph glyph-name="Edieresis" unicode="&#xcb;" horiz-adv-x="502" 
d="M520 667l-16 -130h-218l-16 -129h210l-16 -130h-210l-18 -148h222l-16 -130h-372l82 667h368zM159 811q0 32 23.5 55.5t55.5 23.5t55.5 -23.5t23.5 -55.5t-23.5 -55.5t-55.5 -23.5t-55.5 23.5t-23.5 55.5zM377 811q0 32 23.5 55.5t55.5 23.5t55.5 -23.5t23.5 -55.5
t-23.5 -55.5t-55.5 -23.5t-55.5 23.5t-23.5 55.5z" />
    <glyph glyph-name="Igrave" unicode="&#xcc;" horiz-adv-x="306" 
d="M155 667h154l-82 -667h-154zM258 724l-148 129l105 72l114 -148z" />
    <glyph glyph-name="Iacute" unicode="&#xcd;" horiz-adv-x="306" 
d="M155 667h154l-82 -667h-154zM323 925l86 -72l-180 -129l-59 53z" />
    <glyph glyph-name="Icircumflex" unicode="&#xce;" horiz-adv-x="306" 
d="M155 667h154l-82 -667h-154zM122 726l-64 71l205 140l172 -140l-66 -71l-114 93z" />
    <glyph glyph-name="Idieresis" unicode="&#xcf;" horiz-adv-x="306" 
d="M155 667h154l-82 -667h-154zM60 811q0 32 23.5 55.5t55.5 23.5t55.5 -23.5t23.5 -55.5t-23.5 -55.5t-55.5 -23.5t-55.5 23.5t-23.5 55.5zM278 811q0 32 23.5 55.5t55.5 23.5t55.5 -23.5t23.5 -55.5t-23.5 -55.5t-55.5 -23.5t-55.5 23.5t-23.5 55.5z" />
    <glyph glyph-name="Eth" unicode="&#xd0;" horiz-adv-x="712" 
d="M148 413l31 254h195q170 0 255 -85q80 -80 80 -222q0 -170 -104 -268q-97 -92 -303 -92h-205l37 303h-90l14 110h90zM317 537l-15 -124h120l-14 -110h-120l-21 -173h47q113 0 170 51q67 60 67 175q0 88 -48 134q-49 47 -139 47h-47z" />
    <glyph glyph-name="Ntilde" unicode="&#xd1;" horiz-adv-x="796" 
d="M224 0h-154l83 667h134l307 -434l54 434h154l-82 -667h-134l-309 436zM642 867l65 -50q-19 -32 -47 -58q-34 -31 -77 -31q-25 0 -62 15l-33 13q-37 15 -52 15q-31 0 -51 -39l-65 50q19 34 40 55q34 34 82 34q28 0 63 -14l34 -14q32 -14 51 -14q30 0 52 38z" />
    <glyph glyph-name="Ograve" unicode="&#xd2;" horiz-adv-x="810" 
d="M464 682q158 0 249 -87q94 -91 94 -237q0 -74 -26 -146t-77 -124q-101 -103 -276 -103q-160 0 -254 95q-94 96 -94 233q0 163 110 268q106 101 274 101zM458 540q-98 0 -159 -64t-61 -153q0 -86 54 -140q55 -56 146 -56q93 0 149 57q62 64 62 164q0 88 -53 140t-138 52z
M479 724l-148 129l105 72l114 -148z" />
    <glyph glyph-name="Oacute" unicode="&#xd3;" horiz-adv-x="810" 
d="M464 682q158 0 249 -87q94 -91 94 -237q0 -74 -26 -146t-77 -124q-101 -103 -276 -103q-160 0 -254 95q-94 96 -94 233q0 163 110 268q106 101 274 101zM458 540q-98 0 -159 -64t-61 -153q0 -86 54 -140q55 -56 146 -56q93 0 149 57q62 64 62 164q0 88 -53 140t-138 52z
M574 925l86 -72l-180 -129l-59 53z" />
    <glyph glyph-name="Ocircumflex" unicode="&#xd4;" horiz-adv-x="810" 
d="M464 682q158 0 249 -87q94 -91 94 -237q0 -74 -26 -146t-77 -124q-101 -103 -276 -103q-160 0 -254 95q-94 96 -94 233q0 163 110 268q106 101 274 101zM458 540q-98 0 -159 -64t-61 -153q0 -86 54 -140q55 -56 146 -56q93 0 149 57q62 64 62 164q0 88 -53 140t-138 52z
M353 726l-64 71l205 140l172 -140l-66 -71l-114 93z" />
    <glyph glyph-name="Otilde" unicode="&#xd5;" horiz-adv-x="810" 
d="M464 682q158 0 249 -87q94 -91 94 -237q0 -74 -26 -146t-77 -124q-101 -103 -276 -103q-160 0 -254 95q-94 96 -94 233q0 163 110 268q106 101 274 101zM458 540q-98 0 -159 -64t-61 -153q0 -86 54 -140q55 -56 146 -56q93 0 149 57q62 64 62 164q0 88 -53 140t-138 52z
M607 867l65 -50q-19 -32 -47 -58q-34 -31 -77 -31q-24 0 -62 15l-33 13q-37 15 -52 15q-31 0 -51 -39l-65 50q19 34 40 55q34 34 82 34q28 0 63 -14l34 -14q32 -14 51 -14q30 0 52 38z" />
    <glyph glyph-name="Odieresis" unicode="&#xd6;" horiz-adv-x="810" 
d="M464 682q158 0 249 -87q94 -91 94 -237q0 -74 -26 -146t-77 -124q-101 -103 -276 -103q-160 0 -254 95q-94 96 -94 233q0 163 110 268q106 101 274 101zM458 540q-98 0 -159 -64t-61 -153q0 -86 54 -140q55 -56 146 -56q93 0 149 57q62 64 62 164q0 88 -53 140t-138 52z
M297 811q0 32 23.5 55.5t55.5 23.5t55.5 -23.5t23.5 -55.5t-23.5 -55.5t-55.5 -23.5t-55.5 23.5t-23.5 55.5zM515 811q0 32 23.5 55.5t55.5 23.5t55.5 -23.5t23.5 -55.5t-23.5 -55.5t-55.5 -23.5t-55.5 23.5t-23.5 55.5z" />
    <glyph glyph-name="multiply" unicode="&#xd7;" 
d="M87 218l118 118l-118 119l87 87l118 -119l118 119l84 -84l-118 -118l118 -119l-87 -87l-118 119l-119 -118z" />
    <glyph glyph-name="Oslash" unicode="&#xd8;" horiz-adv-x="842" 
d="M41 37l109 97q-52 86 -52 184q0 158 110 263q106 101 274 101q122 0 217 -61l104 93l79 -84l-105 -93q48 -88 48 -178q0 -73 -26 -146t-77 -125q-101 -103 -277 -103q-126 0 -218 64l-108 -96zM272 242l307 273q-44 25 -103 25q-98 0 -159 -64t-61 -153q0 -43 16 -81z
M654 427l-308 -272q49 -28 110 -28q93 0 149 57q62 65 62 164q0 42 -13 79z" />
    <glyph glyph-name="Ugrave" unicode="&#xd9;" horiz-adv-x="710" 
d="M151 667h154l-44 -364q-5 -35 -5 -58q0 -57 29 -86q32 -30 88 -30q65 0 98 33t45 127l46 378h154l-48 -388q-7 -55 -12 -82.5t-22 -69.5t-45 -70q-70 -72 -219 -72q-142 0 -211 69q-59 58 -59 154q0 33 8 105zM444 724l-148 129l105 72l114 -148z" />
    <glyph glyph-name="Uacute" unicode="&#xda;" horiz-adv-x="710" 
d="M151 667h154l-44 -364q-5 -35 -5 -58q0 -57 29 -86q32 -30 88 -30q65 0 98 33t45 127l46 378h154l-48 -388q-7 -55 -12 -82.5t-22 -69.5t-45 -70q-70 -72 -219 -72q-142 0 -211 69q-59 58 -59 154q0 33 8 105zM524 925l86 -72l-180 -129l-59 53z" />
    <glyph glyph-name="Ucircumflex" unicode="&#xdb;" horiz-adv-x="710" 
d="M151 667h154l-44 -364q-5 -35 -5 -58q0 -57 29 -86q32 -30 88 -30q65 0 98 33t45 127l46 378h154l-48 -388q-7 -55 -12 -82.5t-22 -69.5t-45 -70q-70 -72 -219 -72q-142 0 -211 69q-59 58 -59 154q0 33 8 105zM313 726l-64 71l205 140l172 -140l-66 -71l-114 93z" />
    <glyph glyph-name="Udieresis" unicode="&#xdc;" horiz-adv-x="710" 
d="M151 667h154l-44 -364q-5 -35 -5 -58q0 -57 29 -86q32 -30 88 -30q65 0 98 33t45 127l46 378h154l-48 -388q-7 -55 -12 -82.5t-22 -69.5t-45 -70q-70 -72 -219 -72q-142 0 -211 69q-59 58 -59 154q0 33 8 105zM257 811q0 32 23.5 55.5t55.5 23.5t55.5 -23.5t23.5 -55.5
t-23.5 -55.5t-55.5 -23.5t-55.5 23.5t-23.5 55.5zM475 811q0 32 23.5 55.5t55.5 23.5t55.5 -23.5t23.5 -55.5t-23.5 -55.5t-55.5 -23.5t-55.5 23.5t-23.5 55.5z" />
    <glyph glyph-name="Yacute" unicode="&#xdd;" horiz-adv-x="632" 
d="M236 0l38 311l-195 356h176l109 -207l159 207h188l-283 -356l-38 -311h-154zM485 925l86 -72l-180 -129l-59 53z" />
    <glyph glyph-name="Thorn" unicode="&#xde;" horiz-adv-x="572" 
d="M152 667h154l-11 -92h63q44 0 70.5 -2.5t61.5 -15.5t60 -38q54 -54 54 -143q0 -115 -65 -175q-63 -59 -209 -59h-89l-17 -142h-154zM280 449l-23 -181h57q77 0 107 29q26 25 26 69q0 37 -22 58q-26 25 -92 25h-53z" />
    <glyph glyph-name="germandbls" unicode="&#xdf;" horiz-adv-x="585" 
d="M204 0h-144l62 502q15 117 69 175q59 63 166 63q105 0 164 -60q50 -52 50 -130q0 -64 -34 -106q-28 -35 -76 -48q36 -12 67 -39q53 -51 53 -134q0 -109 -63 -170q-41 -39 -102 -53t-147 -14h-6l16 124h5q80 0 114 35q31 33 31 81q0 62 -37 89q-29 21 -88 21l16 122h5
q47 0 73 19q32 24 32 66q0 35 -21 54q-19 19 -55 19q-34 0 -54 -20q-25 -24 -33 -87z" />
    <glyph glyph-name="agrave" unicode="&#xe0;" horiz-adv-x="598" 
d="M444 392l4 54h144l-55 -446h-144l11 51q-29 -34 -63 -50q-35 -16 -83 -16q-86 0 -138 55q-60 64 -60 164q0 118 72 192q64 65 164 65q52 0 87 -17q36 -17 61 -52zM327 337q-52 0 -85 -33q-34 -34 -34 -89q0 -45 29 -76q29 -30 76 -30q50 0 82 30q38 37 38 96q0 49 -31 77
q-27 25 -75 25zM353 515l-135 135l103 65l103 -152z" />
    <glyph glyph-name="aacute" unicode="&#xe1;" horiz-adv-x="598" 
d="M444 392l4 54h144l-55 -446h-144l11 51q-29 -34 -63 -50q-35 -16 -83 -16q-86 0 -138 55q-60 64 -60 164q0 118 72 192q64 65 164 65q52 0 87 -17q36 -17 61 -52zM327 337q-52 0 -85 -33q-34 -34 -34 -89q0 -45 29 -76q29 -30 76 -30q50 0 82 30q38 37 38 96q0 49 -31 77
q-27 25 -75 25zM405 715l86 -65l-169 -135l-59 48z" />
    <glyph glyph-name="acircumflex" unicode="&#xe2;" horiz-adv-x="598" 
d="M444 392l4 54h144l-55 -446h-144l11 51q-29 -34 -63 -50q-35 -16 -83 -16q-86 0 -138 55q-60 64 -60 164q0 118 72 192q64 65 164 65q52 0 87 -17q36 -17 61 -52zM327 337q-52 0 -85 -33q-34 -34 -34 -89q0 -45 29 -76q29 -30 76 -30q50 0 82 30q38 37 38 96q0 49 -31 77
q-27 25 -75 25zM351 610l-131 -95l-62 69l200 142l167 -142l-68 -69z" />
    <glyph glyph-name="atilde" unicode="&#xe3;" horiz-adv-x="598" 
d="M444 392l4 54h144l-55 -446h-144l11 51q-29 -34 -63 -50q-35 -16 -83 -16q-86 0 -138 55q-60 64 -60 164q0 118 72 192q64 65 164 65q52 0 87 -17q36 -17 61 -52zM327 337q-52 0 -85 -33q-34 -34 -34 -89q0 -45 29 -76q29 -30 76 -30q50 0 82 30q38 37 38 96q0 49 -31 77
q-27 25 -75 25zM469 657l62 -44q-17 -34 -44 -60q-36 -34 -77 -34q-27 0 -63 15l-32 13q-35 14 -50 14q-32 0 -52 -38l-59 44q16 38 41 63q31 31 77 31q29 0 68 -16l32 -13q33 -13 52 -13q29 0 45 38z" />
    <glyph glyph-name="adieresis" unicode="&#xe4;" horiz-adv-x="598" 
d="M444 392l4 54h144l-55 -446h-144l11 51q-29 -34 -63 -50q-35 -16 -83 -16q-86 0 -138 55q-60 64 -60 164q0 118 72 192q64 65 164 65q52 0 87 -17q36 -17 61 -52zM327 337q-52 0 -85 -33q-34 -34 -34 -89q0 -45 29 -76q29 -30 76 -30q50 0 82 30q38 37 38 96q0 49 -31 77
q-27 25 -75 25zM156 599q0 32 23.5 55.5t55.5 23.5t55.5 -23.5t23.5 -55.5t-23.5 -55.5t-55.5 -23.5t-55.5 23.5t-23.5 55.5zM374 599q0 32 23.5 55.5t55.5 23.5t55.5 -23.5t23.5 -55.5t-23.5 -55.5t-55.5 -23.5t-55.5 23.5t-23.5 55.5z" />
    <glyph glyph-name="aring" unicode="&#xe5;" horiz-adv-x="598" 
d="M444 392l4 54h144l-55 -446h-144l11 51q-29 -34 -63 -50q-35 -16 -83 -16q-86 0 -138 55q-60 64 -60 164q0 118 72 192q64 65 164 65q52 0 87 -17q36 -17 61 -52zM327 337q-52 0 -85 -33q-34 -34 -34 -89q0 -45 29 -76q29 -30 76 -30q50 0 82 30q38 37 38 96q0 49 -31 77
q-27 25 -75 25zM330 650q-19 0 -31 -9q-13 -11 -13 -27t13 -27q12 -9 31 -9t31 9q13 11 13 27t-13 27q-12 9 -31 9zM444 614q0 -38 -27 -65q-33 -31 -87 -31t-87 31q-27 27 -27 65t27 65q33 31 87 31t87 -31q27 -27 27 -65z" />
    <glyph glyph-name="ae" unicode="&#xe6;" horiz-adv-x="840" 
d="M683 141l134 -9q-26 -73 -87 -113q-54 -34 -135 -34q-68 0 -113 20q-41 19 -66 55q-30 -40 -75 -59q-41 -16 -106 -16q-94 0 -139 36q-47 37 -47 103q0 81 63 123q47 32 137 32q73 0 116 -27q8 56 -26 82q-25 21 -78 21q-51 0 -115 -22l13 110q64 18 127 18
q122 0 162 -77q63 77 174 77q97 0 153 -56q59 -59 59 -160q0 -19 -4 -47h-330q0 -52 26 -81q23 -27 72 -27q60 0 85 51zM268 192q-44 0 -67 -24q-14 -14 -14 -34q0 -18 15 -32q21 -19 60 -19q44 0 68 20q18 16 18 39q0 16 -14 30q-23 20 -66 20zM515 284h191q-8 35 -30 56
q-23 21 -61 21q-41 0 -66 -23q-23 -20 -34 -54z" />
    <glyph glyph-name="ccedilla" unicode="&#xe7;" horiz-adv-x="431" 
d="M445 432l-17 -131q-41 38 -100 38q-53 0 -87 -34q-33 -36 -33 -89q0 -49 32 -79q31 -30 78 -30q51 0 91 36l-16 -132q-53 -26 -118 -26q-97 0 -155 62q-60 65 -60 161q0 110 70 182q69 71 185 71q71 0 130 -29zM256 -46l94 -51l-126 -139l-74 40z" />
    <glyph glyph-name="egrave" unicode="&#xe8;" horiz-adv-x="542" 
d="M218 283h181q-4 37 -29 58q-22 18 -59 18q-41 0 -68 -27q-19 -21 -25 -49zM537 195h-333q-2 -39 18 -67q23 -31 69 -31q37 0 57 13q20 14 31 40l145 -12q-29 -72 -81 -111q-56 -42 -153 -42q-114 0 -174 60q-56 56 -56 156q0 125 77 198q66 62 177 62q108 0 167 -57
q40 -39 51 -97.5t5 -111.5zM351 515l-135 135l103 65l103 -152z" />
    <glyph glyph-name="eacute" unicode="&#xe9;" horiz-adv-x="542" 
d="M218 283h181q-4 37 -29 58q-22 18 -59 18q-41 0 -68 -27q-19 -21 -25 -49zM537 195h-333q-2 -39 18 -67q23 -31 69 -31q37 0 57 13q20 14 31 40l145 -12q-29 -72 -81 -111q-56 -42 -153 -42q-114 0 -174 60q-56 56 -56 156q0 125 77 198q66 62 177 62q108 0 167 -57
q40 -39 51 -97.5t5 -111.5zM423 715l86 -65l-169 -135l-59 48z" />
    <glyph glyph-name="ecircumflex" unicode="&#xea;" horiz-adv-x="542" 
d="M218 283h181q-4 37 -29 58q-22 18 -59 18q-41 0 -68 -27q-19 -21 -25 -49zM537 195h-333q-2 -39 18 -67q23 -31 69 -31q37 0 57 13q20 14 31 40l145 -12q-29 -72 -81 -111q-56 -42 -153 -42q-114 0 -174 60q-56 56 -56 156q0 125 77 198q66 62 177 62q108 0 167 -57
q40 -39 51 -97.5t5 -111.5zM341 610l-131 -95l-62 69l200 142l167 -142l-68 -69z" />
    <glyph glyph-name="edieresis" unicode="&#xeb;" horiz-adv-x="542" 
d="M218 283h181q-4 37 -29 58q-22 18 -59 18q-41 0 -68 -27q-19 -21 -25 -49zM537 195h-333q-2 -39 18 -67q23 -31 69 -31q37 0 57 13q20 14 31 40l145 -12q-29 -72 -81 -111q-56 -42 -153 -42q-114 0 -174 60q-56 56 -56 156q0 125 77 198q66 62 177 62q108 0 167 -57
q40 -39 51 -97.5t5 -111.5zM147 599q0 32 23.5 55.5t55.5 23.5t55.5 -23.5t23.5 -55.5t-23.5 -55.5t-55.5 -23.5t-55.5 23.5t-23.5 55.5zM365 599q0 32 23.5 55.5t55.5 23.5t55.5 -23.5t23.5 -55.5t-23.5 -55.5t-55.5 -23.5t-55.5 23.5t-23.5 55.5z" />
    <glyph glyph-name="igrave" unicode="&#xec;" horiz-adv-x="276" 
d="M120 446h144l-55 -446h-144zM201 515l-116 135l104 65l83 -152z" />
    <glyph glyph-name="iacute" unicode="&#xed;" horiz-adv-x="276" 
d="M120 446h144l-55 -446h-144zM262 715l86 -65l-149 -135l-59 48z" />
    <glyph glyph-name="icircumflex" unicode="&#xee;" horiz-adv-x="276" 
d="M121 446h144l-55 -446h-144zM215 602l-105 -87l-59 69l176 142l142 -142l-72 -69z" />
    <glyph glyph-name="idieresis" unicode="&#xef;" horiz-adv-x="276" 
d="M121 446h144l-55 -446h-144zM48 599q0 32 21 55.5t50 23.5q27 0 49 -21.5t22 -57.5t-22 -57.5t-49 -21.5q-29 0 -50 23.5t-21 55.5zM236 599q0 36 22 57.5t49 21.5q29 0 50 -23.5t21 -55.5t-21 -55.5t-50 -23.5q-27 0 -49 21.5t-22 57.5z" />
    <glyph glyph-name="eth" unicode="&#xf0;" horiz-adv-x="580" 
d="M141 596l51 96q124 -7 217 -49l154 56l29 -76l-110 -39q46 -41 71 -102t25 -147q0 -190 -86 -277q-72 -73 -195 -73q-111 0 -175 63q-62 59 -62 154q0 104 68 174q67 67 173 67q93 0 143 -50q-9 94 -86 140l-195 -79l-27 75l137 51q-67 18 -132 16zM319 327
q-47 0 -76 -29q-35 -35 -35 -92q0 -46 27 -73q26 -26 68 -26q45 0 74 27q38 35 38 95q0 48 -28 74q-24 24 -68 24z" />
    <glyph glyph-name="ntilde" unicode="&#xf1;" horiz-adv-x="567" 
d="M111 446h144l-7 -49q25 26 55 42q36 19 88 19q77 0 116 -38q38 -37 38 -106q0 -29 -7 -85l-27 -229h-144l24 193q6 46 6 72q0 35 -18 54q-19 19 -53 19q-41 0 -65 -24q-27 -28 -35 -94l-26 -220h-144zM499 657l62 -44q-17 -34 -44 -60q-36 -34 -77 -34q-27 0 -63 15
l-32 13q-35 14 -50 14q-32 0 -52 -38l-59 44q16 38 41 63q31 31 77 31q29 0 68 -16l32 -13q33 -13 52 -13q29 0 45 38z" />
    <glyph glyph-name="ograve" unicode="&#xf2;" horiz-adv-x="592" 
d="M337 461q118 0 187 -69q60 -60 60 -151q0 -109 -72 -183q-72 -73 -205 -73q-121 0 -186 67q-61 63 -61 157q0 107 72 176q78 76 205 76zM315 107q50 0 84 32q37 36 37 95q0 49 -30 77t-78 28q-46 0 -80 -31q-40 -36 -40 -95q0 -45 29 -76q28 -30 78 -30zM343 515
l-135 135l103 65l103 -152z" />
    <glyph glyph-name="oacute" unicode="&#xf3;" horiz-adv-x="592" 
d="M337 461q118 0 187 -69q60 -60 60 -151q0 -109 -72 -183q-72 -73 -205 -73q-121 0 -186 67q-61 63 -61 157q0 107 72 176q78 76 205 76zM315 107q50 0 84 32q37 36 37 95q0 49 -30 77t-78 28q-46 0 -80 -31q-40 -36 -40 -95q0 -45 29 -76q28 -30 78 -30zM415 715l86 -65
l-169 -135l-59 48z" />
    <glyph glyph-name="ocircumflex" unicode="&#xf4;" horiz-adv-x="592" 
d="M337 461q118 0 187 -69q60 -60 60 -151q0 -109 -72 -183q-72 -73 -205 -73q-121 0 -186 67q-61 63 -61 157q0 107 72 176q78 76 205 76zM315 107q50 0 84 32q37 36 37 95q0 49 -30 77t-78 28q-46 0 -80 -31q-40 -36 -40 -95q0 -45 29 -76q28 -30 78 -30zM361 610
l-131 -95l-62 69l200 142l167 -142l-68 -69z" />
    <glyph glyph-name="otilde" unicode="&#xf5;" horiz-adv-x="592" 
d="M337 461q118 0 187 -69q60 -60 60 -151q0 -109 -72 -183q-72 -73 -205 -73q-121 0 -186 67q-61 63 -61 157q0 107 72 176q78 76 205 76zM315 107q50 0 84 32q37 36 37 95q0 49 -30 77t-78 28q-46 0 -80 -31q-40 -36 -40 -95q0 -45 29 -76q28 -30 78 -30zM479 657l62 -44
q-17 -34 -44 -60q-36 -34 -77 -34q-27 0 -63 15l-32 13q-35 14 -50 14q-32 0 -52 -38l-59 44q16 38 41 63q31 31 77 31q29 0 68 -16l32 -13q33 -13 52 -13q29 0 45 38z" />
    <glyph glyph-name="odieresis" unicode="&#xf6;" horiz-adv-x="592" 
d="M337 461q118 0 187 -69q60 -60 60 -151q0 -109 -72 -183q-72 -73 -205 -73q-121 0 -186 67q-61 63 -61 157q0 107 72 176q78 76 205 76zM315 107q50 0 84 32q37 36 37 95q0 49 -30 77t-78 28q-46 0 -80 -31q-40 -36 -40 -95q0 -45 29 -76q28 -30 78 -30zM166 599
q0 32 23.5 55.5t55.5 23.5t55.5 -23.5t23.5 -55.5t-23.5 -55.5t-55.5 -23.5t-55.5 23.5t-23.5 55.5zM384 599q0 32 23.5 55.5t55.5 23.5t55.5 -23.5t23.5 -55.5t-23.5 -55.5t-55.5 -23.5t-55.5 23.5t-23.5 55.5z" />
    <glyph glyph-name="divide" unicode="&#xf7;" 
d="M73 282v116h434v-116h-434zM217 510q0 30 21.5 51.5t51.5 21.5t51.5 -21.5t21.5 -51.5t-21.5 -51.5t-51.5 -21.5t-51.5 21.5t-21.5 51.5zM217 168q0 30 21.5 51.5t51.5 21.5t51.5 -21.5t21.5 -51.5t-21.5 -51.5t-51.5 -21.5t-51.5 21.5t-21.5 51.5z" />
    <glyph glyph-name="oslash" unicode="&#xf8;" horiz-adv-x="612" 
d="M30 6l81 72q-40 60 -40 131q0 105 72 176q78 76 205 76q85 0 151 -41l88 78l49 -57l-81 -73q40 -58 40 -127q0 -111 -72 -183q-73 -73 -201 -73q-91 0 -154 38l-84 -75zM440 271l-168 -150q24 -14 53 -14q55 0 89 36q33 36 33 86q0 22 -7 42zM226 175l169 149
q-24 15 -55 15q-48 0 -81 -31q-40 -37 -40 -92q0 -21 7 -41z" />
    <glyph glyph-name="ugrave" unicode="&#xf9;" horiz-adv-x="570" 
d="M423 446h144l-28 -241q-4 -34 -8.5 -56.5t-19 -53.5t-37.5 -53q-59 -57 -175 -57q-121 0 -174 51q-48 45 -48 120q0 28 5 63l27 227h144l-26 -222q-5 -47 -5 -49q0 -32 19 -49q21 -19 59 -19q42 0 66 25q22 22 29 80zM332 515l-135 135l103 65l103 -152z" />
    <glyph glyph-name="uacute" unicode="&#xfa;" horiz-adv-x="570" 
d="M423 446h144l-28 -241q-4 -34 -8.5 -56.5t-19 -53.5t-37.5 -53q-59 -57 -175 -57q-121 0 -174 51q-48 45 -48 120q0 28 5 63l27 227h144l-26 -222q-5 -47 -5 -49q0 -32 19 -49q21 -19 59 -19q42 0 66 25q22 22 29 80zM425 715l86 -65l-169 -135l-59 48z" />
    <glyph glyph-name="ucircumflex" unicode="&#xfb;" horiz-adv-x="570" 
d="M423 446h144l-28 -241q-4 -34 -8.5 -56.5t-19 -53.5t-37.5 -53q-59 -57 -175 -57q-121 0 -174 51q-48 45 -48 120q0 28 5 63l27 227h144l-26 -222q-5 -47 -5 -49q0 -32 19 -49q21 -19 59 -19q42 0 66 25q22 22 29 80zM341 610l-131 -95l-62 69l200 142l167 -142l-68 -69z
" />
    <glyph glyph-name="udieresis" unicode="&#xfc;" horiz-adv-x="570" 
d="M423 446h144l-28 -241q-4 -34 -8.5 -56.5t-19 -53.5t-37.5 -53q-59 -57 -175 -57q-121 0 -174 51q-48 45 -48 120q0 28 5 63l27 227h144l-26 -222q-5 -47 -5 -49q0 -32 19 -49q21 -19 59 -19q42 0 66 25q22 22 29 80zM161 599q0 32 23.5 55.5t55.5 23.5t55.5 -23.5
t23.5 -55.5t-23.5 -55.5t-55.5 -23.5t-55.5 23.5t-23.5 55.5zM379 599q0 32 23.5 55.5t55.5 23.5t55.5 -23.5t23.5 -55.5t-23.5 -55.5t-55.5 -23.5t-55.5 23.5t-23.5 55.5z" />
    <glyph glyph-name="yacute" unicode="&#xfd;" horiz-adv-x="583" 
d="M40 -229l184 286l-173 389h164l99 -244l150 244h169l-431 -675h-162zM431 715l86 -65l-169 -135l-59 48z" />
    <glyph glyph-name="thorn" unicode="&#xfe;" horiz-adv-x="598" 
d="M210 55l-36 -284h-144l118 958h144l-43 -335q24 29 56 46q41 21 92 21q84 0 135 -49q59 -59 59 -167q0 -125 -75 -200q-60 -60 -151 -60q-60 0 -97 19q-34 18 -58 51zM341 337q-50 0 -84 -34q-36 -36 -36 -90q0 -45 27 -73q29 -31 75 -31q47 0 80 31q18 16 29 43.5
t11 52.5q0 47 -31 75q-28 26 -71 26z" />
    <glyph glyph-name="ydieresis" unicode="&#xff;" horiz-adv-x="583" 
d="M40 -229l184 286l-173 389h164l99 -244l150 244h169l-431 -675h-162zM161 599q0 32 23.5 55.5t55.5 23.5t55.5 -23.5t23.5 -55.5t-23.5 -55.5t-55.5 -23.5t-55.5 23.5t-23.5 55.5zM379 599q0 32 23.5 55.5t55.5 23.5t55.5 -23.5t23.5 -55.5t-23.5 -55.5t-55.5 -23.5
t-55.5 23.5t-23.5 55.5z" />
    <glyph glyph-name="Amacron" unicode="&#x100;" horiz-adv-x="677" 
d="M517 0l-34 126h-252l-63 -126h-166l352 667h142l179 -667h-158zM289 244h166l-54 235zM228 753l12 92h388l-12 -92h-388z" />
    <glyph glyph-name="amacron" unicode="&#x101;" horiz-adv-x="598" 
d="M444 392l4 54h144l-55 -446h-144l11 51q-29 -34 -63 -50q-35 -16 -83 -16q-86 0 -138 55q-60 64 -60 164q0 118 72 192q64 65 164 65q52 0 87 -17q36 -17 61 -52zM327 337q-52 0 -85 -33q-34 -34 -34 -89q0 -45 29 -76q29 -30 76 -30q50 0 82 30q38 37 38 96q0 49 -31 77
q-27 25 -75 25zM167 543l11 90h380l-11 -90h-380z" />
    <glyph glyph-name="Abreve" unicode="&#x102;" horiz-adv-x="677" 
d="M517 0l-34 126h-252l-63 -126h-166l352 667h142l179 -667h-158zM289 244h166l-54 235zM513 874h96q-12 -66 -51 -105q-44 -44 -127 -44q-81 0 -123 42q-41 41 -43 107h96q2 -25 16 -42q18 -21 57 -21q35 0 55 18q19 17 24 45z" />
    <glyph glyph-name="abreve" unicode="&#x103;" horiz-adv-x="598" 
d="M444 392l4 54h144l-55 -446h-144l11 51q-29 -34 -63 -50q-35 -16 -83 -16q-86 0 -138 55q-60 64 -60 164q0 118 72 192q64 65 164 65q52 0 87 -17q36 -17 61 -52zM327 337q-52 0 -85 -33q-34 -34 -34 -89q0 -45 29 -76q29 -30 76 -30q50 0 82 30q38 37 38 96q0 49 -31 77
q-27 25 -75 25zM427 664h94q-8 -65 -49 -104q-44 -43 -126 -43q-83 0 -124 42q-39 41 -39 105h94q0 -25 15 -42q17 -19 55 -19q34 0 54 16q20 15 26 45z" />
    <glyph glyph-name="Aogonek" unicode="&#x104;" horiz-adv-x="677" 
d="M354 667h142l179 -667h-86q-25 -28 -35 -40q-19 -24 -19 -42q0 -16 9 -23q10 -9 27 -9q24 0 50 15l-27 -77q-31 -17 -66 -17q-39 0 -61 20q-23 20 -23 55q0 34 25 67l3 3q2 4 6.5 9t9.5 11t13 13.5t16 14.5l-35 131h-249l-65 -131h-166zM292 251h161l-52 228z" />
    <glyph glyph-name="aogonek" unicode="&#x105;" horiz-adv-x="598" 
d="M444 392l4 54h144l-55 -446h-40q-13 -13 -30 -35q-20 -27 -20 -44q0 -13 10 -22t26 -9q23 0 52 15l-27 -77q-32 -17 -68 -17q-39 0 -59 18q-23 19 -23 51q0 35 29 72q19 25 44 48h-38l11 51q-26 -30 -62 -48t-85 -18q-85 0 -137 55q-60 64 -60 164q0 118 72 192
q64 65 164 65q52 0 87 -17q36 -17 61 -52zM327 337q-52 0 -85 -33q-34 -34 -34 -89q0 -45 29 -76q29 -30 76 -30q50 0 82 30q38 37 38 96q0 49 -31 77q-27 25 -75 25z" />
    <glyph glyph-name="Cacute" unicode="&#x106;" horiz-adv-x="605" 
d="M587 187l-20 -166q-72 -36 -162 -36q-143 0 -235 89q-90 90 -90 231q0 167 106 273q104 104 267 104q107 0 189 -48l-19 -163q-67 67 -167 67t-158 -63q-60 -64 -60 -157q0 -85 52 -137t141 -52q84 0 156 58zM549 925l86 -72l-180 -129l-59 53z" />
    <glyph glyph-name="cacute" unicode="&#x107;" horiz-adv-x="431" 
d="M445 432l-17 -131q-41 38 -100 38q-53 0 -87 -34q-33 -36 -33 -89q0 -49 32 -79q31 -30 78 -30q51 0 91 36l-16 -132q-53 -26 -118 -26q-97 0 -155 62q-60 65 -60 161q0 110 70 182q69 71 185 71q71 0 130 -29zM395 715l86 -65l-169 -135l-59 48z" />
    <glyph glyph-name="Ccircumflex" unicode="&#x108;" horiz-adv-x="605" 
d="M587 187l-20 -166q-72 -36 -162 -36q-143 0 -235 89q-90 90 -90 231q0 167 106 273q104 104 267 104q107 0 189 -48l-19 -163q-67 67 -167 67t-158 -63q-60 -64 -60 -157q0 -85 52 -137t141 -52q84 0 156 58zM323 726l-64 71l205 140l172 -140l-66 -71l-114 93z" />
    <glyph glyph-name="ccircumflex" unicode="&#x109;" horiz-adv-x="431" 
d="M445 432l-17 -131q-41 38 -100 38q-53 0 -87 -34q-33 -36 -33 -89q0 -49 32 -79q31 -30 78 -30q51 0 91 36l-16 -132q-53 -26 -118 -26q-97 0 -155 62q-60 65 -60 161q0 110 70 182q69 71 185 71q71 0 130 -29zM321 610l-131 -95l-62 69l200 142l167 -142l-68 -69z" />
    <glyph glyph-name="Cdotaccent" unicode="&#x10a;" horiz-adv-x="605" 
d="M587 187l-20 -166q-72 -36 -162 -36q-143 0 -235 89q-90 90 -90 231q0 167 106 273q104 104 267 104q107 0 189 -48l-19 -163q-67 67 -167 67t-158 -63q-60 -64 -60 -157q0 -85 52 -137t141 -52q84 0 156 58zM392 815q0 36 24.5 60.5t60.5 24.5t60.5 -24.5t24.5 -60.5
t-24.5 -60.5t-60.5 -24.5t-60.5 24.5t-24.5 60.5z" />
    <glyph glyph-name="cdotaccent" unicode="&#x10b;" horiz-adv-x="431" 
d="M445 432l-17 -131q-41 38 -100 38q-53 0 -87 -34q-33 -36 -33 -89q0 -49 32 -79q31 -30 78 -30q51 0 91 36l-16 -132q-53 -26 -118 -26q-97 0 -155 62q-60 65 -60 161q0 110 70 182q69 71 185 71q71 0 130 -29zM265 603q0 35 24 59t59 24t59 -24t24 -59t-24 -59t-59 -24
t-59 24t-24 59z" />
    <glyph glyph-name="Ccaron" unicode="&#x10c;" horiz-adv-x="605" 
d="M587 187l-20 -166q-72 -36 -162 -36q-143 0 -235 89q-90 90 -90 231q0 167 106 273q104 104 267 104q107 0 189 -48l-19 -163q-67 67 -167 67t-158 -63q-60 -64 -60 -157q0 -85 52 -137t141 -52q84 0 156 58zM456 844l132 93l66 -70l-206 -141l-171 141l64 70z" />
    <glyph glyph-name="ccaron" unicode="&#x10d;" horiz-adv-x="431" 
d="M445 432l-17 -131q-41 38 -100 38q-53 0 -87 -34q-33 -36 -33 -89q0 -49 32 -79q31 -30 78 -30q51 0 91 36l-16 -132q-53 -26 -118 -26q-97 0 -155 62q-60 65 -60 161q0 110 70 182q69 71 185 71q71 0 130 -29zM307 631l130 95l67 -68l-202 -143l-165 143l63 68z" />
    <glyph glyph-name="Dcaron" unicode="&#x10e;" horiz-adv-x="685" 
d="M152 667h195q170 0 255 -85q80 -80 80 -222q0 -170 -104 -268q-97 -92 -303 -92h-205zM290 537l-50 -407h47q113 0 170 51q67 60 67 175q0 88 -48 134q-49 47 -139 47h-47zM370 844l132 93l66 -70l-206 -141l-171 141l64 70z" />
    <glyph glyph-name="dcaron" unicode="&#x10f;" horiz-adv-x="749" 
d="M441 392l41 337h144l-90 -729h-143l8 51q-23 -33 -59 -50q-33 -16 -86 -16q-83 0 -135 51q-61 61 -61 162q0 123 77 200q63 63 160 63q90 0 144 -69zM326 337q-49 0 -82 -33q-36 -36 -36 -91q0 -48 31 -77q27 -27 74 -27q51 0 83 34q35 37 35 92q0 43 -29 72
q-30 30 -76 30zM633 492l82 208l130 -30l-124 -198z" />
    <glyph glyph-name="Dcroat" unicode="&#x110;" horiz-adv-x="712" 
d="M148 413l31 254h195q170 0 255 -85q80 -80 80 -222q0 -170 -104 -268q-97 -92 -303 -92h-205l37 303h-90l14 110h90zM317 537l-15 -124h120l-14 -110h-120l-21 -173h47q113 0 170 51q67 60 67 175q0 88 -48 134q-49 47 -139 47h-47z" />
    <glyph glyph-name="dcroat" unicode="&#x111;" horiz-adv-x="608" 
d="M441 392l18 150h-192l11 94h192l12 93h144l-12 -93h80l-11 -94h-80l-67 -542h-143l8 51q-23 -33 -59 -50q-33 -16 -86 -16q-83 0 -135 51q-61 61 -61 162q0 123 77 200q63 63 160 63q90 0 144 -69zM326 337q-49 0 -82 -33q-36 -36 -36 -91q0 -48 31 -77q27 -27 74 -27
q51 0 83 34q35 37 35 92q0 43 -29 72q-30 30 -76 30z" />
    <glyph glyph-name="Emacron" unicode="&#x112;" horiz-adv-x="502" 
d="M520 667l-16 -130h-218l-16 -129h210l-16 -130h-210l-18 -148h222l-16 -130h-372l82 667h368zM145 753l12 92h388l-12 -92h-388z" />
    <glyph glyph-name="emacron" unicode="&#x113;" horiz-adv-x="542" 
d="M218 283h181q-4 37 -29 58q-22 18 -59 18q-41 0 -68 -27q-19 -21 -25 -49zM537 195h-333q-2 -39 18 -67q23 -31 69 -31q37 0 57 13q20 14 31 40l145 -12q-29 -72 -81 -111q-56 -42 -153 -42q-114 0 -174 60q-56 56 -56 156q0 125 77 198q66 62 177 62q108 0 167 -57
q40 -39 51 -97.5t5 -111.5zM142 543l11 90h380l-11 -90h-380z" />
    <glyph glyph-name="Edotaccent" unicode="&#x116;" horiz-adv-x="502" 
d="M520 667l-16 -130h-218l-16 -129h210l-16 -130h-210l-18 -148h222l-16 -130h-372l82 667h368zM259 815q0 36 24.5 60.5t60.5 24.5t60.5 -24.5t24.5 -60.5t-24.5 -60.5t-60.5 -24.5t-60.5 24.5t-24.5 60.5z" />
    <glyph glyph-name="edotaccent" unicode="&#x117;" horiz-adv-x="542" 
d="M218 283h181q-4 37 -29 58q-22 18 -59 18q-41 0 -68 -27q-19 -21 -25 -49zM537 195h-333q-2 -39 18 -67q23 -31 69 -31q37 0 57 13q20 14 31 40l145 -12q-29 -72 -81 -111q-56 -42 -153 -42q-114 0 -174 60q-56 56 -56 156q0 125 77 198q66 62 177 62q108 0 167 -57
q40 -39 51 -97.5t5 -111.5zM257 603q0 35 24 59t59 24t59 -24t24 -59t-24 -59t-59 -24t-59 24t-24 59z" />
    <glyph glyph-name="Eogonek" unicode="&#x118;" horiz-adv-x="502" 
d="M520 667l-16 -130h-218l-16 -129h210l-16 -130h-210l-18 -148h222l-16 -130h-40q-25 -28 -35 -40q-19 -24 -19 -42q0 -16 9 -23q10 -9 27 -9q24 0 50 15l-27 -77q-31 -17 -66 -17q-39 0 -61 20q-23 20 -23 55q0 34 25 67l2 3q3 4 7.5 9t9.5 11t13 13.5t16 14.5h-260
l82 667h368z" />
    <glyph glyph-name="eogonek" unicode="&#x119;" horiz-adv-x="542" 
d="M537 195h-333q0 -41 18 -67q23 -31 69 -31q37 0 57 13q20 14 31 40l145 -12q-9 -49 -46 -86q-26 -26 -72 -50q-53 -30 -64 -41q-19 -19 -19 -40q0 -14 10 -22q9 -9 26 -9q30 0 52 15l-27 -77q-32 -17 -68 -17q-39 0 -59 18q-23 21 -23 51q0 33 18 59q14 21 40 45
q-115 0 -176 61q-56 56 -56 151q0 129 77 203q66 62 176 62q109 0 168 -57q58 -57 58 -168q0 -17 -2 -41zM218 283h181q-4 37 -29 58q-22 18 -59 18q-41 0 -68 -27q-19 -21 -25 -49z" />
    <glyph glyph-name="Ecaron" unicode="&#x11a;" horiz-adv-x="502" 
d="M520 667l-16 -130h-218l-16 -129h210l-16 -130h-210l-18 -148h222l-16 -130h-372l82 667h368zM339 844l132 93l66 -70l-206 -141l-171 141l64 70z" />
    <glyph glyph-name="ecaron" unicode="&#x11b;" horiz-adv-x="542" 
d="M218 283h181q-4 37 -29 58q-22 18 -59 18q-41 0 -68 -27q-19 -21 -25 -49zM537 195h-333q-2 -39 18 -67q23 -31 69 -31q37 0 57 13q20 14 31 40l145 -12q-29 -72 -81 -111q-56 -42 -153 -42q-114 0 -174 60q-56 56 -56 156q0 125 77 198q66 62 177 62q108 0 167 -57
q40 -39 51 -97.5t5 -111.5zM327 631l130 95l67 -68l-202 -143l-165 143l63 68z" />
    <glyph glyph-name="Gcircumflex" unicode="&#x11c;" horiz-adv-x="767" 
d="M432 241l15 123h312q-5 -185 -103 -285q-90 -94 -246 -94q-155 0 -245 94q-85 89 -85 231q0 163 100 269q58 60 124 81.5t149 21.5q113 0 188 -49q64 -42 108 -120l-142 -75q-22 49 -62 76q-41 28 -102 28q-87 0 -140 -56q-65 -68 -65 -170q0 -90 55 -143q48 -48 137 -48
q65 0 106 30q42 30 57 86h-161zM313 726l-64 71l205 140l172 -140l-66 -71l-114 93z" />
    <glyph glyph-name="gcircumflex" unicode="&#x11d;" horiz-adv-x="595" 
d="M440 392l5 54h144l-56 -448q-15 -110 -67 -162q-65 -65 -195 -65q-113 0 -173 56q-51 50 -62 122h154q7 -27 27 -44q22 -18 63 -18q51 0 79 33q24 28 30 83l6 48q-44 -63 -137 -63q-87 0 -138 53q-60 62 -60 162q0 118 73 193q64 65 160 65q91 0 147 -69zM320 336
q-50 0 -79 -29q-33 -33 -33 -90q0 -49 30 -78q29 -27 72 -27q50 0 79 29q16 15 26.5 42.5t10.5 52.5q0 46 -29 73q-27 27 -77 27zM361 610l-131 -95l-62 69l200 142l167 -142l-68 -69z" />
    <glyph glyph-name="Gbreve" unicode="&#x11e;" horiz-adv-x="767" 
d="M432 241l15 123h312q-5 -185 -103 -285q-90 -94 -246 -94q-155 0 -245 94q-85 89 -85 231q0 163 100 269q58 60 124 81.5t149 21.5q113 0 188 -49q64 -42 108 -120l-142 -75q-22 49 -62 76q-41 28 -102 28q-87 0 -140 -56q-65 -68 -65 -170q0 -90 55 -143q48 -48 137 -48
q65 0 106 30q42 30 57 86h-161zM543 874h96q-12 -66 -51 -105q-44 -44 -127 -44q-81 0 -123 42q-41 41 -43 107h96q2 -25 16 -42q18 -21 57 -21q35 0 55 18q19 17 24 45z" />
    <glyph glyph-name="gbreve" unicode="&#x11f;" horiz-adv-x="595" 
d="M440 392l5 54h144l-56 -448q-15 -110 -67 -162q-65 -65 -195 -65q-113 0 -173 56q-51 50 -62 122h154q7 -27 27 -44q22 -18 63 -18q51 0 79 33q24 28 30 83l6 48q-44 -63 -137 -63q-87 0 -138 53q-60 62 -60 162q0 118 73 193q64 65 160 65q91 0 147 -69zM320 336
q-50 0 -79 -29q-33 -33 -33 -90q0 -49 30 -78q29 -27 72 -27q50 0 79 29q16 15 26.5 42.5t10.5 52.5q0 46 -29 73q-27 27 -77 27zM427 664h94q-8 -65 -49 -104q-44 -43 -126 -43q-83 0 -124 42q-39 41 -39 105h94q0 -25 15 -42q17 -19 55 -19q34 0 54 16q20 15 26 45z" />
    <glyph glyph-name="Gdotaccent" unicode="&#x120;" horiz-adv-x="767" 
d="M432 241l15 123h312q-5 -185 -103 -285q-90 -94 -246 -94q-155 0 -245 94q-85 89 -85 231q0 163 100 269q58 60 124 81.5t149 21.5q113 0 188 -49q64 -42 108 -120l-142 -75q-22 49 -62 76q-41 28 -102 28q-87 0 -140 -56q-65 -68 -65 -170q0 -90 55 -143q48 -48 137 -48
q65 0 106 30q42 30 57 86h-161zM386 815q0 36 24.5 60.5t60.5 24.5t60.5 -24.5t24.5 -60.5t-24.5 -60.5t-60.5 -24.5t-60.5 24.5t-24.5 60.5z" />
    <glyph glyph-name="gdotaccent" unicode="&#x121;" horiz-adv-x="595" 
d="M440 392l5 54h144l-56 -448q-15 -110 -67 -162q-65 -65 -195 -65q-113 0 -173 56q-51 50 -62 122h154q7 -27 27 -44q22 -18 63 -18q51 0 79 33q24 28 30 83l6 48q-44 -63 -137 -63q-87 0 -138 53q-60 62 -60 162q0 118 73 193q64 65 160 65q91 0 147 -69zM320 336
q-50 0 -79 -29q-33 -33 -33 -90q0 -49 30 -78q29 -27 72 -27q50 0 79 29q16 15 26.5 42.5t10.5 52.5q0 46 -29 73q-27 27 -77 27zM246 603q0 35 24 59t59 24t59 -24t24 -59t-24 -59t-59 -24t-59 24t-24 59z" />
    <glyph glyph-name="Gcommaaccent" unicode="&#x122;" horiz-adv-x="767" 
d="M432 241l15 123h312q-5 -185 -103 -285q-90 -94 -246 -94q-155 0 -245 94q-85 89 -85 231q0 163 100 269q58 60 124 81.5t149 21.5q113 0 188 -49q64 -42 108 -120l-142 -75q-22 49 -62 76q-41 28 -102 28q-87 0 -140 -56q-65 -68 -65 -170q0 -90 55 -143q48 -48 137 -48
q65 0 106 30q42 30 57 86h-161zM295 -248l66 198l134 -16l-108 -194z" />
    <glyph glyph-name="gcommaaccent" unicode="&#x123;" horiz-adv-x="595" 
d="M440 392l5 54h144l-56 -448q-15 -110 -67 -162q-65 -65 -195 -65q-113 0 -173 56q-51 50 -62 122h154q7 -27 27 -44q22 -18 63 -18q51 0 79 33q24 28 30 83l6 48q-44 -63 -137 -63q-87 0 -138 53q-60 62 -60 162q0 118 73 193q64 65 160 65q91 0 147 -69zM320 336
q-50 0 -79 -29q-33 -33 -33 -90q0 -49 30 -78q29 -27 72 -27q50 0 79 29q16 15 26.5 42.5t10.5 52.5q0 46 -29 73q-27 27 -77 27zM420 686l-66 -188l-134 16l108 184z" />
    <glyph glyph-name="Hcircumflex" unicode="&#x124;" horiz-adv-x="720" 
d="M306 667l-31 -250h266l31 250h154l-82 -667h-154l35 287h-266l-35 -287h-154l82 667h154zM313 726l-64 71l205 140l172 -140l-66 -71l-114 93z" />
    <glyph glyph-name="hcircumflex" unicode="&#x125;" horiz-adv-x="571" 
d="M150 729h144l-42 -332q25 26 55 42q36 19 91 19q74 0 113 -38q38 -37 38 -106q0 -29 -7 -85l-27 -229h-144l24 193q6 46 6 72q0 35 -18 54q-19 19 -51 19q-43 0 -67 -24q-27 -27 -35 -94l-26 -220h-144zM234 833l-131 -95l-62 69l200 142l167 -142l-68 -69z" />
    <glyph glyph-name="Hbar" unicode="&#x126;" horiz-adv-x="720" 
d="M306 667l-7 -53h266l7 53h154l-7 -53h60l-13 -106h-60l-62 -508h-154l36 287h-266l-36 -287h-154l62 508h-60l13 106h60l7 53h154zM552 508h-266l-11 -92h266z" />
    <glyph glyph-name="hbar" unicode="&#x127;" horiz-adv-x="581" 
d="M70 0l67 542h-80l11 94h80l12 93h144l-12 -93h192l-11 -94h-192l-19 -145q25 26 55 42q36 19 91 19q74 0 113 -38q38 -37 38 -106q0 -29 -7 -85l-27 -229h-144l24 193q6 46 6 72q0 35 -18 54q-19 19 -53 19q-41 0 -65 -24q-27 -28 -35 -94l-26 -220h-144z" />
    <glyph glyph-name="Imacron" unicode="&#x12a;" horiz-adv-x="306" 
d="M155 667h154l-82 -667h-154zM47 753l12 92h388l-12 -92h-388z" />
    <glyph glyph-name="imacron" unicode="&#x12b;" horiz-adv-x="276" 
d="M120 446h144l-55 -446h-144zM66 543l11 90h276l-11 -90h-276z" />
    <glyph glyph-name="Iogonek" unicode="&#x12e;" horiz-adv-x="306" 
d="M155 667h154l-82 -667q-25 -28 -35 -40q-19 -24 -19 -42q0 -16 9 -23q10 -9 27 -9q24 0 50 15l-27 -77q-31 -17 -66 -17q-39 0 -61 20q-23 20 -23 55q0 34 25 67l3 3q2 4 6.5 9t9.5 11t13 13.5t16 14.5h-82z" />
    <glyph glyph-name="iogonek" unicode="&#x12f;" horiz-adv-x="276" 
d="M120 446h144l-55 -446q-12 -13 -30 -35q-20 -27 -20 -44q0 -13 10 -22t26 -9q23 0 52 15l-27 -77q-32 -17 -68 -17q-39 0 -59 18q-23 19 -23 51q0 35 29 72q19 25 44 48h-78zM127 636q0 35 24.5 59.5t59.5 24.5t59.5 -24.5t24.5 -59.5t-24.5 -59.5t-59.5 -24.5
t-59.5 24.5t-24.5 59.5z" />
    <glyph glyph-name="Idotaccent" unicode="&#x130;" horiz-adv-x="306" 
d="M155 667h154l-82 -667h-154zM155 815q0 36 24.5 60.5t60.5 24.5t60.5 -24.5t24.5 -60.5t-24.5 -60.5t-60.5 -24.5t-60.5 24.5t-24.5 60.5z" />
    <glyph glyph-name="dotlessi" unicode="&#x131;" horiz-adv-x="276" 
d="M120 446h144l-55 -446h-144z" />
    <glyph glyph-name="Jcircumflex" unicode="&#x134;" horiz-adv-x="415" 
d="M267 667h154l-56 -453q-12 -91 -33 -132q-14 -28 -35 -48q-51 -49 -149 -49q-65 0 -106 24t-67 68l105 96q9 -24 24 -38q16 -14 40 -14q23 0 39 14q22 19 28 77zM228 726l-64 71l205 140l172 -140l-66 -71l-114 93z" />
    <glyph glyph-name="jcircumflex" unicode="&#x135;" horiz-adv-x="276" 
d="M120 446h144l-85 -675h-144zM215 602l-105 -87l-59 69l176 142l142 -142l-72 -69z" />
    <glyph glyph-name="Kcommaaccent" unicode="&#x136;" horiz-adv-x="670" 
d="M306 667l-34 -279l244 279h184l-291 -323l247 -344h-194l-201 302l-37 -302h-154l82 667h154zM235 -248l66 198l134 -16l-108 -194z" />
    <glyph glyph-name="kcommaaccent" unicode="&#x137;" horiz-adv-x="566" 
d="M151 729h144l-55 -447l164 164h192l-219 -205l202 -241h-185l-164 196l-26 -196h-144zM175 -238l66 188l134 -16l-108 -184z" />
    <glyph glyph-name="Lacute" unicode="&#x139;" horiz-adv-x="448" 
d="M152 667h154l-66 -537h208l-16 -130h-362zM339 925l86 -72l-180 -129l-59 53z" />
    <glyph glyph-name="lacute" unicode="&#x13a;" horiz-adv-x="264" 
d="M150 729h144l-90 -729h-144zM287 955l86 -65l-169 -135l-59 48z" />
    <glyph glyph-name="Lcommaaccent" unicode="&#x13b;" horiz-adv-x="448" 
d="M152 667h154l-66 -537h208l-16 -130h-362zM150 -248l66 198l134 -16l-108 -194z" />
    <glyph glyph-name="lcommaaccent" unicode="&#x13c;" horiz-adv-x="264" 
d="M150 729h144l-90 -729h-144zM10 -238l66 188l134 -16l-108 -184z" />
    <glyph glyph-name="Lcaron" unicode="&#x13d;" horiz-adv-x="448" 
d="M152 667h154l-66 -537h208l-16 -130h-362zM330 472l104 208l130 -30l-146 -198z" />
    <glyph glyph-name="lcaron" unicode="&#x13e;" horiz-adv-x="409" 
d="M150 729h144l-90 -729h-144zM293 492l82 208l130 -30l-124 -198z" />
    <glyph glyph-name="Ldot" unicode="&#x13f;" horiz-adv-x="448" 
d="M152 667h154l-66 -537h208l-16 -130h-362zM332 334q0 36 24.5 60.5t60.5 24.5t60.5 -24.5t24.5 -60.5t-24.5 -60.5t-60.5 -24.5t-60.5 24.5t-24.5 60.5z" />
    <glyph glyph-name="ldot" unicode="&#x140;" horiz-adv-x="439" 
d="M150 729h144l-90 -729h-144zM313 364q0 35 24 59t59 24t59 -24t24 -59t-24 -59t-59 -24t-59 24t-24 59z" />
    <glyph glyph-name="Lslash" unicode="&#x141;" horiz-adv-x="467" 
d="M92 0l32 258l-93 -55l15 120l92 55l36 289h154l-28 -226l110 65l-15 -120l-110 -65l-23 -191h207l-16 -130h-361z" />
    <glyph glyph-name="lslash" unicode="&#x142;" horiz-adv-x="268" 
d="M121 449l35 280h144l-27 -213l87 54l-13 -106l-87 -54l-50 -410h-144l42 343l-87 -54l13 106z" />
    <glyph glyph-name="Nacute" unicode="&#x143;" horiz-adv-x="796" 
d="M224 0h-154l83 667h134l307 -434l54 434h154l-82 -667h-134l-309 436zM567 925l86 -72l-180 -129l-59 53z" />
    <glyph glyph-name="nacute" unicode="&#x144;" horiz-adv-x="567" 
d="M111 446h144l-7 -49q25 26 55 42q36 19 88 19q77 0 116 -38q38 -37 38 -106q0 -29 -7 -85l-27 -229h-144l24 193q6 46 6 72q0 35 -18 54q-19 19 -53 19q-41 0 -65 -24q-27 -28 -35 -94l-26 -220h-144zM425 715l86 -65l-169 -135l-59 48z" />
    <glyph glyph-name="Ncommaaccent" unicode="&#x145;" horiz-adv-x="796" 
d="M224 0h-154l83 667h134l307 -434l54 434h154l-82 -667h-134l-309 436zM294 -248l66 198l134 -16l-108 -194z" />
    <glyph glyph-name="ncommaaccent" unicode="&#x146;" horiz-adv-x="567" 
d="M111 446h144l-7 -49q25 26 55 42q36 19 88 19q77 0 116 -38q38 -37 38 -106q0 -29 -7 -85l-27 -229h-144l24 193q6 46 6 72q0 35 -18 54q-19 19 -53 19q-41 0 -65 -24q-27 -28 -35 -94l-26 -220h-144zM165 -238l66 188l134 -16l-108 -184z" />
    <glyph glyph-name="Ncaron" unicode="&#x147;" horiz-adv-x="796" 
d="M224 0h-154l83 667h134l307 -434l54 434h154l-82 -667h-134l-309 436zM485 844l132 93l66 -70l-206 -141l-171 141l64 70z" />
    <glyph glyph-name="ncaron" unicode="&#x148;" horiz-adv-x="567" 
d="M111 446h144l-7 -49q25 26 55 42q36 19 88 19q77 0 116 -38q38 -37 38 -106q0 -29 -7 -85l-27 -229h-144l24 193q6 46 6 72q0 35 -18 54q-19 19 -53 19q-41 0 -65 -24q-27 -28 -35 -94l-26 -220h-144zM357 631l130 95l67 -68l-202 -143l-165 143l63 68z" />
    <glyph glyph-name="Omacron" unicode="&#x14c;" horiz-adv-x="810" 
d="M464 682q158 0 249 -87q94 -91 94 -237q0 -74 -26 -146t-77 -124q-101 -103 -276 -103q-160 0 -254 95q-94 96 -94 233q0 163 110 268q106 101 274 101zM458 540q-98 0 -159 -64t-61 -153q0 -86 54 -140q55 -56 146 -56q93 0 149 57q62 64 62 164q0 88 -53 140t-138 52z
M298 753l12 92h388l-12 -92h-388z" />
    <glyph glyph-name="omacron" unicode="&#x14d;" horiz-adv-x="592" 
d="M337 461q118 0 187 -69q60 -60 60 -151q0 -109 -72 -183q-72 -73 -205 -73q-121 0 -186 67q-61 63 -61 157q0 107 72 176q78 76 205 76zM315 107q50 0 84 32q37 36 37 95q0 49 -30 77t-78 28q-46 0 -80 -31q-40 -36 -40 -95q0 -45 29 -76q28 -30 78 -30zM167 543l11 90
h380l-11 -90h-380z" />
    <glyph glyph-name="Obreve" unicode="&#x14e;" horiz-adv-x="810" 
d="M464 682q158 0 249 -87q94 -91 94 -237q0 -74 -26 -146t-77 -124q-101 -103 -276 -103q-160 0 -254 95q-94 96 -94 233q0 163 110 268q106 101 274 101zM458 540q-98 0 -159 -64t-61 -153q0 -86 54 -140q55 -56 146 -56q93 0 149 57q62 64 62 164q0 88 -53 140t-138 52z
M563 874h96q-12 -66 -51 -105q-44 -44 -127 -44q-81 0 -123 42q-41 41 -43 107h96q2 -25 16 -42q18 -21 57 -21q35 0 55 18q19 17 24 45z" />
    <glyph glyph-name="obreve" unicode="&#x14f;" horiz-adv-x="592" 
d="M337 461q118 0 187 -69q60 -60 60 -151q0 -109 -72 -183q-72 -73 -205 -73q-121 0 -186 67q-61 63 -61 157q0 107 72 176q78 76 205 76zM315 107q50 0 84 32q37 36 37 95q0 49 -30 77t-78 28q-46 0 -80 -31q-40 -36 -40 -95q0 -45 29 -76q28 -30 78 -30zM437 664h94
q-8 -65 -49 -104q-44 -43 -126 -43q-83 0 -124 42q-39 41 -39 105h94q0 -25 15 -42q17 -19 55 -19q34 0 54 16q20 15 26 45z" />
    <glyph glyph-name="Ohungarumlaut" unicode="&#x150;" horiz-adv-x="810" 
d="M464 682q158 0 249 -87q94 -91 94 -237q0 -74 -26 -146t-77 -124q-101 -103 -276 -103q-160 0 -254 95q-94 96 -94 233q0 163 110 268q106 101 274 101zM458 540q-98 0 -159 -64t-61 -153q0 -86 54 -140q55 -56 146 -56q93 0 149 57q62 64 62 164q0 88 -53 140t-138 52z
M464 925l77 -66l-156 -135l-49 48zM650 925l78 -66l-156 -135l-50 48z" />
    <glyph glyph-name="ohungarumlaut" unicode="&#x151;" horiz-adv-x="592" 
d="M337 461q118 0 187 -69q60 -60 60 -151q0 -109 -72 -183q-72 -73 -205 -73q-121 0 -186 67q-61 63 -61 157q0 107 72 176q78 76 205 76zM315 107q50 0 84 32q37 36 37 95q0 49 -30 77t-78 28q-46 0 -80 -31q-40 -36 -40 -95q0 -45 29 -76q28 -30 78 -30zM327 710l74 -66
l-151 -135l-46 48zM507 709l75 -65l-151 -135l-47 48z" />
    <glyph glyph-name="OE" unicode="&#x152;" horiz-adv-x="1032" 
d="M1050 667l-16 -130h-223l-16 -131h207l-16 -128h-207l-18 -148h223l-16 -130h-362l10 83q-35 -43 -84 -68q-57 -29 -136 -29q-137 0 -222 81q-94 89 -94 241q0 82 30.5 155.5t80.5 123.5q95 94 247 94q91 0 151 -33q50 -27 84 -77l12 96h365zM430 125q89 0 146 60
q61 63 61 161q0 88 -53 143q-53 53 -134 53q-89 0 -146 -59q-30 -30 -48 -76t-18 -93q0 -79 51 -133q52 -56 141 -56z" />
    <glyph glyph-name="oe" unicode="&#x153;" horiz-adv-x="903" 
d="M749 147l131 -9q-24 -76 -78 -115q-54 -38 -144 -38q-133 0 -189 82q-61 -82 -181 -82q-114 0 -174 65q-55 59 -55 149q0 121 85 199q70 63 177 63q117 0 181 -73q54 73 167 73q116 0 174 -55q56 -53 56 -149q0 -37 -5 -62h-330q0 -46 26 -72q24 -26 76 -26q60 0 83 50z
M327 339q-47 0 -81 -34q-39 -41 -39 -102q0 -43 27 -70q26 -26 68 -26q53 0 86 36q36 38 36 100q0 43 -25 68q-27 28 -72 28zM579 283h195q-7 36 -31 56q-25 20 -62 20q-43 0 -70 -25q-22 -21 -32 -51z" />
    <glyph glyph-name="Racute" unicode="&#x154;" horiz-adv-x="607" 
d="M152 667h209q58 0 100.5 -11.5t76.5 -48.5q48 -50 48 -136q0 -91 -55 -146q-44 -42 -106 -54l172 -271h-180l-161 263l-32 -263h-154zM291 547l-23 -183h38q59 0 90 24q34 26 34 78q0 45 -32 65q-25 16 -84 16h-23zM463 925l86 -72l-180 -129l-59 53z" />
    <glyph glyph-name="racute" unicode="&#x155;" horiz-adv-x="384" 
d="M56 0l55 446h144l-13 -66q19 38 56 59q34 18 75 18q33 0 59 -7l-28 -134q-30 15 -63 15q-45 0 -74 -27q-33 -31 -43 -114l-24 -190h-144zM355 715l86 -65l-169 -135l-59 48z" />
    <glyph glyph-name="Rcommaaccent" unicode="&#x156;" horiz-adv-x="607" 
d="M152 667h209q58 0 100.5 -11.5t76.5 -48.5q48 -50 48 -136q0 -91 -55 -146q-44 -42 -106 -54l172 -271h-180l-161 263l-32 -263h-154zM291 547l-23 -183h38q59 0 90 24q34 26 34 78q0 45 -32 65q-25 16 -84 16h-23zM200 -248l66 198l134 -16l-108 -194z" />
    <glyph glyph-name="rcommaaccent" unicode="&#x157;" horiz-adv-x="384" 
d="M56 0l55 446h144l-13 -66q19 38 56 59q34 18 75 18q33 0 59 -7l-28 -134q-30 15 -63 15q-45 0 -74 -27q-33 -31 -43 -114l-24 -190h-144zM70 -238l66 188l134 -16l-108 -184z" />
    <glyph glyph-name="Rcaron" unicode="&#x158;" horiz-adv-x="607" 
d="M152 667h209q58 0 100.5 -11.5t76.5 -48.5q48 -50 48 -136q0 -91 -55 -146q-44 -42 -106 -54l172 -271h-180l-161 263l-32 -263h-154zM291 547l-23 -183h38q59 0 90 24q34 26 34 78q0 45 -32 65q-25 16 -84 16h-23zM371 844l132 93l66 -70l-206 -141l-171 141l64 70z" />
    <glyph glyph-name="rcaron" unicode="&#x159;" horiz-adv-x="384" 
d="M56 0l55 446h144l-13 -66q19 38 56 59q34 18 75 18q33 0 59 -7l-28 -134q-30 15 -63 15q-45 0 -74 -27q-33 -31 -43 -114l-24 -190h-144zM267 631l130 95l67 -68l-202 -143l-165 143l63 68z" />
    <glyph glyph-name="Sacute" unicode="&#x15a;" horiz-adv-x="550" 
d="M554 616l-77 -112q-53 48 -112 48q-42 0 -63 -17q-23 -18 -23 -48q0 -27 23 -45q14 -12 65 -35l39 -18q58 -27 88 -64q34 -43 34 -104q0 -104 -67 -171q-66 -65 -191 -65q-77 0 -133 30q-47 26 -89 71l86 110q23 -32 56 -53q36 -22 78 -22q46 0 74 21q28 22 28 62
q0 27 -19 46q-15 15 -53 30l-39 16q-57 21 -94 59q-44 45 -44 113q0 91 60 151q64 63 180 63q109 0 193 -66zM454 925l86 -72l-180 -129l-59 53z" />
    <glyph glyph-name="sacute" unicode="&#x15b;" horiz-adv-x="434" 
d="M428 416l-61 -89q-40 30 -84 30q-30 0 -43 -12q-10 -8 -10 -22q0 -15 14 -24q6 -4 35 -12l33 -9q50 -14 77 -42q33 -33 33 -85q0 -68 -42 -110q-54 -56 -157 -56q-67 0 -116 22q-35 16 -69 46l61 97q25 -24 55 -37q35 -14 62 -14t44 10q18 10 18 29q0 18 -14 28
q-4 3 -35 13l-32 10q-49 14 -75 40q-30 33 -30 80q0 62 42 104q49 48 147 48q82 0 147 -45zM355 715l86 -65l-169 -135l-59 48z" />
    <glyph glyph-name="Scircumflex" unicode="&#x15c;" horiz-adv-x="550" 
d="M554 616l-77 -112q-53 48 -112 48q-42 0 -63 -17q-23 -18 -23 -48q0 -27 23 -45q14 -12 65 -35l39 -18q58 -27 88 -64q34 -43 34 -104q0 -104 -67 -171q-66 -65 -191 -65q-77 0 -133 30q-47 26 -89 71l86 110q23 -32 56 -53q36 -22 78 -22q46 0 74 21q28 22 28 62
q0 27 -19 46q-15 15 -53 30l-39 16q-57 21 -94 59q-44 45 -44 113q0 91 60 151q64 63 180 63q109 0 193 -66zM223 726l-64 71l205 140l172 -140l-66 -71l-114 93z" />
    <glyph glyph-name="scircumflex" unicode="&#x15d;" horiz-adv-x="434" 
d="M428 416l-61 -89q-40 30 -84 30q-30 0 -43 -12q-10 -8 -10 -22q0 -15 14 -24q6 -4 35 -12l33 -9q50 -14 77 -42q33 -33 33 -85q0 -68 -42 -110q-54 -56 -157 -56q-67 0 -116 22q-35 16 -69 46l61 97q25 -24 55 -37q35 -14 62 -14t44 10q18 10 18 29q0 18 -14 28
q-4 3 -35 13l-32 10q-49 14 -75 40q-30 33 -30 80q0 62 42 104q49 48 147 48q82 0 147 -45zM285 610l-131 -95l-62 69l200 142l167 -142l-68 -69z" />
    <glyph glyph-name="Scedilla" unicode="&#x15e;" horiz-adv-x="550" 
d="M554 616l-77 -112q-53 48 -112 48q-42 0 -63 -17q-23 -18 -23 -48q0 -27 23 -45q14 -12 65 -35l39 -18q58 -27 88 -64q34 -43 34 -104q0 -104 -67 -171q-66 -65 -191 -65q-77 0 -133 30q-47 26 -89 71l86 110q23 -32 56 -53q36 -22 78 -22q46 0 74 21q28 22 28 62
q0 27 -19 46q-15 15 -53 30l-39 16q-57 21 -94 59q-44 45 -44 113q0 91 60 151q64 63 180 63q109 0 193 -66zM245 -46l100 -50l-120 -140l-80 40z" />
    <glyph glyph-name="scedilla" unicode="&#x15f;" horiz-adv-x="434" 
d="M428 416l-61 -89q-40 30 -84 30q-30 0 -43 -12q-10 -8 -10 -22q0 -15 14 -24q6 -4 35 -12l33 -9q50 -14 77 -42q33 -33 33 -85q0 -68 -42 -110q-54 -56 -157 -56q-67 0 -116 22q-35 16 -69 46l61 97q25 -24 55 -37q35 -14 62 -14t44 10q18 10 18 29q0 18 -14 28
q-4 3 -35 13l-32 10q-49 14 -75 40q-30 33 -30 80q0 62 42 104q49 48 147 48q82 0 147 -45zM200 -46l94 -51l-126 -139l-74 40z" />
    <glyph glyph-name="Scaron" unicode="&#x160;" horiz-adv-x="550" 
d="M554 616l-77 -112q-53 48 -112 48q-42 0 -63 -17q-23 -18 -23 -48q0 -27 23 -45q14 -12 65 -35l39 -18q58 -27 88 -64q34 -43 34 -104q0 -104 -67 -171q-66 -65 -191 -65q-77 0 -133 30q-47 26 -89 71l86 110q23 -32 56 -53q36 -22 78 -22q46 0 74 21q28 22 28 62
q0 27 -19 46q-15 15 -53 30l-39 16q-57 21 -94 59q-44 45 -44 113q0 91 60 151q64 63 180 63q109 0 193 -66zM362 844l132 93l66 -70l-206 -141l-171 141l64 70z" />
    <glyph glyph-name="scaron" unicode="&#x161;" horiz-adv-x="434" 
d="M428 416l-61 -89q-40 30 -84 30q-30 0 -43 -12q-10 -8 -10 -22q0 -15 14 -24q6 -4 35 -12l33 -9q50 -14 77 -42q33 -33 33 -85q0 -68 -42 -110q-54 -56 -157 -56q-67 0 -116 22q-35 16 -69 46l61 97q25 -24 55 -37q35 -14 62 -14t44 10q18 10 18 29q0 18 -14 28
q-4 3 -35 13l-32 10q-49 14 -75 40q-30 33 -30 80q0 62 42 104q49 48 147 48q82 0 147 -45zM271 631l130 95l67 -68l-202 -143l-165 143l63 68z" />
    <glyph glyph-name="Tcedilla" unicode="&#x162;" horiz-adv-x="460" 
d="M515 537h-145l-66 -537h-154l66 537h-145l16 130h444zM197 -46l100 -50l-120 -140l-80 40z" />
    <glyph glyph-name="tcedilla" unicode="&#x163;" horiz-adv-x="299" 
d="M334 330h-88l-41 -330h-144l41 330h-52l14 116h52l18 144h144l-18 -144h88zM106 -46l94 -51l-126 -139l-74 40z" />
    <glyph glyph-name="Tcaron" unicode="&#x164;" horiz-adv-x="460" 
d="M370 537h145l16 130h-444l-16 -130h145l-66 -537h154zM318 844l132 93l66 -70l-206 -141l-171 141l64 70z" />
    <glyph glyph-name="tcaron" unicode="&#x165;" horiz-adv-x="409" 
d="M334 330h-88l-41 -330h-144l41 330h-52l14 116h52l18 144h144l-18 -144h88zM303 492l82 208l130 -30l-124 -198z" />
    <glyph glyph-name="Utilde" unicode="&#x168;" horiz-adv-x="710" 
d="M151 667h154l-44 -364q-5 -35 -5 -58q0 -57 29 -86q32 -30 88 -30q65 0 98 33t45 127l46 378h154l-48 -388q-7 -55 -12 -82.5t-22 -69.5t-45 -70q-70 -72 -219 -72q-142 0 -211 69q-59 58 -59 154q0 33 8 105zM589 867l65 -50q-19 -32 -47 -58q-34 -31 -77 -31
q-24 0 -62 15l-33 13q-37 15 -52 15q-31 0 -51 -39l-65 50q19 34 40 55q34 34 82 34q28 0 63 -14l34 -14q32 -14 51 -14q30 0 52 38z" />
    <glyph glyph-name="utilde" unicode="&#x169;" horiz-adv-x="570" 
d="M423 446h144l-28 -241q-4 -34 -8.5 -56.5t-19 -53.5t-37.5 -53q-59 -57 -175 -57q-121 0 -174 51q-48 45 -48 120q0 28 5 63l27 227h144l-26 -222q-5 -47 -5 -49q0 -32 19 -49q21 -19 59 -19q42 0 66 25q22 22 29 80zM486 657l62 -44q-17 -34 -44 -60q-36 -34 -77 -34
q-27 0 -63 15l-32 13q-35 14 -50 14q-32 0 -52 -38l-59 44q16 38 41 63q31 31 77 31q29 0 68 -16l32 -13q33 -13 52 -13q29 0 45 38z" />
    <glyph glyph-name="Umacron" unicode="&#x16a;" horiz-adv-x="710" 
d="M151 667h154l-44 -364q-5 -35 -5 -58q0 -57 29 -86q32 -30 88 -30q65 0 98 33t45 127l46 378h154l-48 -388q-7 -55 -12 -82.5t-22 -69.5t-45 -70q-70 -72 -219 -72q-142 0 -211 69q-59 58 -59 154q0 33 8 105zM238 753l12 92h388l-12 -92h-388z" />
    <glyph glyph-name="umacron" unicode="&#x16b;" horiz-adv-x="570" 
d="M423 446h144l-28 -241q-4 -34 -8.5 -56.5t-19 -53.5t-37.5 -53q-59 -57 -175 -57q-121 0 -174 51q-48 45 -48 120q0 28 5 63l27 227h144l-26 -222q-5 -47 -5 -49q0 -32 19 -49q21 -19 59 -19q42 0 66 25q22 22 29 80zM147 543l11 90h380l-11 -90h-380z" />
    <glyph glyph-name="Ubreve" unicode="&#x16c;" horiz-adv-x="710" 
d="M151 667h154l-44 -364q-5 -35 -5 -58q0 -57 29 -86q32 -30 88 -30q65 0 98 33t45 127l46 378h154l-48 -388q-7 -55 -12 -82.5t-22 -69.5t-45 -70q-70 -72 -219 -72q-142 0 -211 69q-59 58 -59 154q0 33 8 105zM523 874h96q-12 -66 -51 -105q-44 -44 -127 -44
q-81 0 -123 42q-41 41 -43 107h96q2 -25 16 -42q18 -21 57 -21q35 0 55 18q19 17 24 45z" />
    <glyph glyph-name="ubreve" unicode="&#x16d;" horiz-adv-x="570" 
d="M423 446h144l-28 -241q-4 -34 -8.5 -56.5t-19 -53.5t-37.5 -53q-59 -57 -175 -57q-121 0 -174 51q-48 45 -48 120q0 28 5 63l27 227h144l-26 -222q-5 -47 -5 -49q0 -32 19 -49q21 -19 59 -19q42 0 66 25q22 22 29 80zM432 664h94q-8 -65 -49 -104q-44 -43 -126 -43
q-83 0 -124 42q-39 41 -39 105h94q0 -25 15 -42q17 -19 55 -19q34 0 54 16q20 15 26 45z" />
    <glyph glyph-name="Uring" unicode="&#x16e;" horiz-adv-x="710" 
d="M151 667h154l-44 -364q-5 -35 -5 -58q0 -57 29 -86q32 -30 88 -30q65 0 98 33t45 127l46 378h154l-48 -388q-7 -55 -12 -82.5t-22 -69.5t-45 -70q-70 -72 -219 -72q-142 0 -211 69q-59 58 -59 154q0 33 8 105zM568 827q0 -39 -27 -66q-34 -32 -89 -32t-89 32
q-27 27 -27 66t27 66q34 32 89 32t89 -32q27 -27 27 -66zM452 866q-22 0 -34 -12t-12 -27t12 -27t34 -12t34 12t12 27t-12 27t-34 12z" />
    <glyph glyph-name="uring" unicode="&#x16f;" horiz-adv-x="570" 
d="M423 446h144l-28 -241q-4 -34 -8.5 -56.5t-19 -53.5t-37.5 -53q-59 -57 -175 -57q-121 0 -174 51q-48 45 -48 120q0 28 5 63l27 227h144l-26 -222q-5 -47 -5 -49q0 -32 19 -49q21 -19 59 -19q42 0 66 25q22 22 29 80zM355 650q-19 0 -31 -9q-13 -11 -13 -27t13 -27
q12 -9 31 -9t31 9q13 11 13 27t-13 27q-12 9 -31 9zM469 614q0 -38 -27 -65q-33 -31 -87 -31t-87 31q-27 27 -27 65t27 65q33 31 87 31t87 -31q27 -27 27 -65z" />
    <glyph glyph-name="Uhungarumlaut" unicode="&#x170;" horiz-adv-x="710" 
d="M151 667h154l-44 -364q-5 -35 -5 -58q0 -57 29 -86q32 -30 88 -30q65 0 98 33t45 127l46 378h154l-48 -388q-7 -55 -12 -82.5t-22 -69.5t-45 -70q-70 -72 -219 -72q-142 0 -211 69q-59 58 -59 154q0 33 8 105zM420 925l77 -66l-156 -135l-49 48zM606 925l78 -66
l-156 -135l-50 48z" />
    <glyph glyph-name="uhungarumlaut" unicode="&#x171;" horiz-adv-x="570" 
d="M423 446h144l-28 -241q-4 -34 -8.5 -56.5t-19 -53.5t-37.5 -53q-59 -57 -175 -57q-121 0 -174 51q-48 45 -48 120q0 28 5 63l27 227h144l-26 -222q-5 -47 -5 -49q0 -32 19 -49q21 -19 59 -19q42 0 66 25q22 22 29 80zM297 710l74 -66l-151 -135l-46 48zM477 709l75 -65
l-151 -135l-47 48z" />
    <glyph glyph-name="Uogonek" unicode="&#x172;" horiz-adv-x="710" 
d="M151 667h154l-44 -364q-5 -35 -5 -58q0 -57 29 -86q30 -30 91 -30q60 0 95 33q32 31 45 127l46 378h154l-48 -388q-7 -51 -11 -76t-16.5 -60t-32.5 -59q-30 -37 -103 -76q-58 -31 -74 -52q-15 -19 -15 -38q0 -16 9 -23q10 -9 27 -9q24 0 50 15l-27 -77q-31 -17 -66 -17
q-39 0 -61 20q-23 20 -23 55q0 29 20 60q13 20 39 44q-8 -1 -28 -1q-127 0 -197 69q-59 58 -59 154q0 33 8 105z" />
    <glyph glyph-name="uogonek" unicode="&#x173;" horiz-adv-x="570" 
d="M423 446h144l-29 -247q-7 -59 -21 -94t-47 -63q-24 -21 -69.5 -44.5t-58.5 -36.5q-19 -18 -19 -40q0 -14 10 -22q9 -9 26 -9q30 0 52 15l-27 -77q-32 -17 -68 -17q-39 0 -59 18q-23 21 -23 51q0 33 18 59q14 21 40 45q-113 0 -167 52q-48 45 -48 120q0 28 5 63l27 227
h144l-26 -222q-5 -47 -5 -49q0 -32 19 -49q21 -19 59 -19q42 0 66 25q22 22 29 80z" />
    <glyph glyph-name="Ydieresis" unicode="&#x178;" horiz-adv-x="632" 
d="M236 0l38 311l-195 356h176l109 -207l159 207h188l-283 -356l-38 -311h-154zM212 811q0 32 23.5 55.5t55.5 23.5t55.5 -23.5t23.5 -55.5t-23.5 -55.5t-55.5 -23.5t-55.5 23.5t-23.5 55.5zM430 811q0 32 23.5 55.5t55.5 23.5t55.5 -23.5t23.5 -55.5t-23.5 -55.5
t-55.5 -23.5t-55.5 23.5t-23.5 55.5z" />
    <glyph glyph-name="Zacute" unicode="&#x179;" horiz-adv-x="616" 
d="M673 667l-381 -537h282l-16 -130h-539l382 537h-264l16 130h520zM487 925l86 -72l-180 -129l-59 53z" />
    <glyph glyph-name="zacute" unicode="&#x17a;" horiz-adv-x="499" 
d="M552 446l-281 -326h223l-17 -120h-477l282 326h-201l18 120h453zM399 715l86 -65l-169 -135l-59 48z" />
    <glyph glyph-name="Zdotaccent" unicode="&#x17b;" horiz-adv-x="616" 
d="M673 667l-381 -537h282l-16 -130h-539l382 537h-264l16 130h520zM310 815q0 36 24.5 60.5t60.5 24.5t60.5 -24.5t24.5 -60.5t-24.5 -60.5t-60.5 -24.5t-60.5 24.5t-24.5 60.5z" />
    <glyph glyph-name="zdotaccent" unicode="&#x17c;" horiz-adv-x="499" 
d="M552 446l-281 -326h223l-17 -120h-477l282 326h-201l18 120h453zM236 603q0 35 24 59t59 24t59 -24t24 -59t-24 -59t-59 -24t-59 24t-24 59z" />
    <glyph glyph-name="Zcaron" unicode="&#x17d;" horiz-adv-x="616" 
d="M673 667l-381 -537h282l-16 -130h-539l382 537h-264l16 130h520zM400 844l132 93l66 -70l-206 -141l-171 141l64 70z" />
    <glyph glyph-name="zcaron" unicode="&#x17e;" horiz-adv-x="499" 
d="M552 446l-281 -326h223l-17 -120h-477l282 326h-201l18 120h453zM311 631l130 95l67 -68l-202 -143l-165 143l63 68z" />
    <glyph glyph-name="uni018F" unicode="&#x18f;" horiz-adv-x="765" 
d="M83 375h517q-7 69 -47 114q-46 51 -130 51q-57 0 -98 -24q-37 -20 -61 -60l-148 51q48 82 119 126q77 49 190 49q156 0 244 -85q93 -89 93 -240q0 -181 -107 -284q-90 -88 -242 -88q-150 0 -235 86q-55 55 -80 138t-15 166zM588 267h-351q4 -34 20 -63.5t38 -46.5
q43 -34 111 -34q72 0 117 34q51 39 65 110z" />
    <glyph glyph-name="florin" unicode="&#x192;" horiz-adv-x="600" 
d="M209 118l60 238h-68l21 90h69l29 115q20 83 69 130q50 49 131 49q52 0 98 -20l-32 -123q-25 17 -55 17q-29 0 -47 -17q-21 -19 -34 -74l-19 -77h102l-22 -90h-102l-68 -268q-20 -80 -39.5 -125.5t-50.5 -78.5q-65 -68 -189 -68q-38 0 -66 7l32 128q20 -5 41 -5
q49 0 79 28q21 18 33 50t28 94z" />
    <glyph glyph-name="uni01CF" unicode="&#x1cf;" horiz-adv-x="306" 
d="M155 667h154l-82 -667h-154zM241 844l132 93l66 -70l-206 -141l-171 141l64 70z" />
    <glyph glyph-name="uni01D0" unicode="&#x1d0;" horiz-adv-x="276" 
d="M121 446h144l-55 -446h-144zM210 639l104 87l64 -69l-177 -142l-141 142l67 69z" />
    <glyph glyph-name="uni01DD" unicode="&#x1dd;" horiz-adv-x="547" 
d="M61 255h334q0 50 -26 76q-23 23 -65 23q-32 0 -55 -16q-17 -12 -30 -35l-137 28q31 60 85 93q58 37 140 37q107 0 170 -60q62 -60 62 -160q0 -121 -71 -192q-63 -64 -176 -64q-106 0 -167 62q-74 74 -64 208zM385 166h-189q5 -34 26 -54q23 -23 65 -23q40 0 63 18
q26 20 35 59z" />
    <glyph glyph-name="Gcaron" unicode="&#x1e6;" horiz-adv-x="767" 
d="M432 241l15 123h312q-5 -185 -103 -285q-90 -94 -246 -94q-155 0 -245 94q-85 89 -85 231q0 163 100 269q58 60 124 81.5t149 21.5q113 0 188 -49q64 -42 108 -120l-142 -75q-22 49 -62 76q-41 28 -102 28q-87 0 -140 -56q-65 -68 -65 -170q0 -90 55 -143q48 -48 137 -48
q65 0 106 30q42 30 57 86h-161zM446 844l132 93l66 -70l-206 -141l-171 141l64 70z" />
    <glyph glyph-name="gcaron" unicode="&#x1e7;" horiz-adv-x="595" 
d="M440 392l5 54h144l-56 -448q-15 -110 -67 -162q-65 -65 -195 -65q-113 0 -173 56q-51 50 -62 122h154q7 -27 27 -44q22 -18 63 -18q51 0 79 33q24 28 30 83l6 48q-44 -63 -137 -63q-87 0 -138 53q-60 62 -60 162q0 118 73 193q64 65 160 65q91 0 147 -69zM320 336
q-50 0 -79 -29q-33 -33 -33 -90q0 -49 30 -78q29 -27 72 -27q50 0 79 29q16 15 26.5 42.5t10.5 52.5q0 46 -29 73q-27 27 -77 27zM327 631l130 95l67 -68l-202 -143l-165 143l63 68z" />
    <glyph glyph-name="AEacute" unicode="&#x1fc;" horiz-adv-x="920" 
d="M526 0l-35 129h-255l-66 -129h-164l355 667h379l32 -130h-232l35 -129h230l34 -130h-231l41 -148h232l33 -130h-388zM295 247h168l-55 219zM629 925l86 -72l-180 -129l-59 53z" />
    <glyph glyph-name="aeacute" unicode="&#x1fd;" horiz-adv-x="840" 
d="M683 141l134 -9q-26 -73 -87 -113q-54 -34 -135 -34q-68 0 -113 20q-41 19 -66 55q-30 -40 -75 -59q-41 -16 -106 -16q-94 0 -139 36q-47 37 -47 103q0 81 63 123q47 32 137 32q73 0 116 -27q8 56 -26 82q-25 21 -78 21q-51 0 -115 -22l13 110q64 18 127 18
q122 0 162 -77q63 77 174 77q97 0 153 -56q59 -59 59 -160q0 -19 -4 -47h-330q0 -52 26 -81q23 -27 72 -27q60 0 85 51zM268 192q-44 0 -67 -24q-14 -14 -14 -34q0 -18 15 -32q21 -19 60 -19q44 0 68 20q18 16 18 39q0 16 -14 30q-23 20 -66 20zM515 284h191q-8 35 -30 56
q-23 21 -61 21q-41 0 -66 -23q-23 -20 -34 -54zM575 715l86 -65l-169 -135l-59 48z" />
    <glyph glyph-name="Scommaaccent" unicode="&#x218;" horiz-adv-x="550" 
d="M554 616l-77 -112q-53 48 -112 48q-42 0 -63 -17q-23 -18 -23 -48q0 -27 23 -45q14 -12 65 -35l39 -18q58 -27 88 -64q34 -43 34 -104q0 -104 -67 -171q-66 -65 -191 -65q-77 0 -133 30q-47 26 -89 71l86 110q23 -32 56 -53q36 -22 78 -22q46 0 74 21q28 22 28 62
q0 27 -19 46q-15 15 -53 30l-39 16q-57 21 -94 59q-44 45 -44 113q0 91 60 151q64 63 180 63q109 0 193 -66zM160 -248l66 198l134 -16l-108 -194z" />
    <glyph glyph-name="scommaaccent" unicode="&#x219;" horiz-adv-x="434" 
d="M428 416l-61 -89q-40 30 -84 30q-30 0 -43 -12q-10 -8 -10 -22q0 -15 14 -24q6 -4 35 -12l33 -9q50 -14 77 -42q33 -33 33 -85q0 -68 -42 -110q-54 -56 -157 -56q-67 0 -116 22q-35 16 -69 46l61 97q25 -24 55 -37q35 -14 62 -14t44 10q18 10 18 29q0 18 -14 28
q-4 3 -35 13l-32 10q-49 14 -75 40q-30 33 -30 80q0 62 42 104q49 48 147 48q82 0 147 -45zM94 -238l66 188l134 -16l-108 -184z" />
    <glyph glyph-name="Tcommaaccent" unicode="&#x21a;" horiz-adv-x="460" 
d="M515 537h-145l-66 -537h-154l66 537h-145l16 130h444zM90 -248l66 198l134 -16l-108 -194z" />
    <glyph glyph-name="tcommaaccent" unicode="&#x21b;" horiz-adv-x="299" 
d="M334 330h-88l-41 -330h-144l41 330h-52l14 116h52l18 144h144l-18 -144h88zM0 -238l66 188l134 -16l-108 -184z" />
    <glyph glyph-name="uni0228" unicode="&#x228;" horiz-adv-x="502" 
d="M520 667l-16 -130h-218l-16 -129h210l-16 -130h-210l-18 -148h222l-16 -130h-372l82 667h368zM226 -46l100 -50l-120 -140l-80 40z" />
    <glyph glyph-name="uni0229" unicode="&#x229;" horiz-adv-x="542" 
d="M218 283h181q-4 37 -29 58q-22 18 -59 18q-41 0 -68 -27q-19 -21 -25 -49zM537 195h-333q-2 -39 18 -67q23 -31 69 -31q37 0 57 13q20 14 31 40l145 -12q-29 -72 -81 -111q-56 -42 -153 -42q-114 0 -174 60q-56 56 -56 156q0 125 77 198q66 62 177 62q108 0 167 -57
q40 -39 51 -97.5t5 -111.5zM262 -46l94 -51l-126 -139l-74 40z" />
    <glyph glyph-name="uni0237" unicode="&#x237;" horiz-adv-x="276" 
d="M120 446h144l-85 -675h-144z" />
    <glyph glyph-name="uni0259" unicode="&#x259;" horiz-adv-x="547" 
d="M61 255h334q0 50 -26 76q-23 23 -65 23q-32 0 -55 -16q-17 -12 -30 -35l-137 28q31 60 85 93q58 37 140 37q107 0 170 -60q62 -60 62 -160q0 -121 -71 -192q-63 -64 -176 -64q-106 0 -167 62q-74 74 -64 208zM385 166h-189q5 -34 26 -54q23 -23 65 -23q40 0 63 18
q26 20 35 59z" />
    <glyph glyph-name="afii57929" unicode="&#x2bc;" 
d="M113 492l82 208l130 -30l-124 -198z" />
    <glyph glyph-name="circumflex" unicode="&#x2c6;" 
d="M331 610l-131 -95l-62 69l200 142l167 -142l-68 -69z" />
    <glyph glyph-name="caron" unicode="&#x2c7;" 
d="M317 631l130 95l67 -68l-202 -143l-165 143l63 68z" />
    <glyph glyph-name="uni02C9" unicode="&#x2c9;" 
d="M127 543l11 90h380l-11 -90h-380z" />
    <glyph glyph-name="breve" unicode="&#x2d8;" 
d="M407 664h94q-8 -65 -49 -104q-44 -43 -126 -43q-83 0 -124 42q-39 41 -39 105h94q0 -25 15 -42q17 -19 55 -19q34 0 54 16q20 15 26 45z" />
    <glyph glyph-name="dotaccent" unicode="&#x2d9;" 
d="M241 603q0 35 24 59t59 24t59 -24t24 -59t-24 -59t-59 -24t-59 24t-24 59z" />
    <glyph glyph-name="ring" unicode="&#x2da;" 
d="M325 650q-19 0 -31 -9q-13 -11 -13 -27t13 -27q12 -9 31 -9t31 9q13 11 13 27t-13 27q-12 9 -31 9zM439 614q0 -38 -27 -65q-33 -31 -87 -31t-87 31q-27 27 -27 65t27 65q33 31 87 31t87 -31q27 -27 27 -65z" />
    <glyph glyph-name="ogonek" unicode="&#x2db;" horiz-adv-x="508" 
d="M370 -95l-27 -77q-32 -17 -68 -17q-39 0 -59 18q-23 19 -23 51q0 35 29 72q19 25 44 48h66q-12 -13 -30 -35q-20 -27 -20 -44q0 -13 10 -22t26 -9q23 0 52 15z" />
    <glyph glyph-name="tilde" unicode="&#x2dc;" 
d="M449 657l62 -44q-17 -34 -44 -60q-36 -34 -77 -34q-27 0 -63 15l-32 13q-35 14 -50 14q-32 0 -52 -38l-59 44q16 38 41 63q31 31 77 31q29 0 68 -16l32 -13q33 -13 52 -13q29 0 45 38z" />
    <glyph glyph-name="hungarumlaut" unicode="&#x2dd;" 
d="M297 710l74 -66l-151 -135l-46 48zM477 709l75 -65l-151 -135l-47 48z" />
    <glyph glyph-name="acutecomb" unicode="&#x301;" horiz-adv-x="2" 
d="M-175 715l86 -65l-169 -135l-59 48z" />
    <glyph glyph-name="uni0394" unicode="&#x394;" horiz-adv-x="669" 
d="M667 0h-633l247 667h136zM350 484l-129 -368h257z" />
    <glyph glyph-name="uni0394" unicode="&#x2206;" horiz-adv-x="669" 
d="M667 0h-633l247 667h136zM350 484l-129 -368h257z" />
    <glyph glyph-name="uni03A9" unicode="&#x3a9;" horiz-adv-x="688" 
d="M421 0v108q63 28 98 94q33 62 33 145q0 110 -59 167q-44 42 -109 42t-109 -42q-59 -57 -59 -167q0 -83 33 -145q35 -66 98 -94v-108h-268v116h133q-30 17 -56 41q-80 79 -80 208q0 142 88 230q87 87 220 87t220 -87q88 -88 88 -230q0 -129 -80 -208q-26 -24 -56 -41h133
v-116h-268z" />
    <glyph glyph-name="uni03A9" unicode="&#x2126;" horiz-adv-x="688" 
d="M421 0v108q63 28 98 94q33 62 33 145q0 110 -59 167q-44 42 -109 42t-109 -42q-59 -57 -59 -167q0 -83 33 -145q35 -66 98 -94v-108h-268v116h133q-30 17 -56 41q-80 79 -80 208q0 142 88 230q87 87 220 87t220 -87q88 -88 88 -230q0 -129 -80 -208q-26 -24 -56 -41h133
v-116h-268z" />
    <glyph glyph-name="pi" unicode="&#x3c0;" horiz-adv-x="676" 
d="M286 0h-144v330h-76v116h604v-116h-76v-330h-144v330h-164v-330z" />
    <glyph glyph-name="afii10023" unicode="&#x401;" horiz-adv-x="502" 
d="M171 799q0 31 21.5 53t53.5 22t53.5 -22t21.5 -53t-21.5 -53t-53.5 -22t-53.5 22t-21.5 53zM380 799q0 31 22 53t53 22t53 -22t22 -53t-22 -53t-53 -22t-53 22t-22 53zM520 667l-16 -130h-218l-16 -129h210l-16 -130h-210l-18 -148h222l-16 -130h-372l82 667h368z" />
    <glyph glyph-name="afii10051" unicode="&#x402;" horiz-adv-x="686" 
d="M135 0l66 537h-130l16 130h504l-16 -130h-220l-18 -145q55 23 113 23q111 0 168 -51q10 -9 22 -23.5t26 -52t14 -81.5q0 -104 -68 -164q-57 -50 -170 -50q-45 0 -85 8l14 121q33 -7 58 -7q47 0 69 21q24 24 24 68q0 39 -21 59q-23 22 -71 22q-54 0 -109 -23l-32 -262
h-154z" />
    <glyph glyph-name="afii10052" unicode="&#x403;" horiz-adv-x="473" 
d="M533 667l-16 -130h-227l-66 -537h-154l82 667h381zM444 925l86 -72l-180 -129l-59 53z" />
    <glyph glyph-name="afii10053" unicode="&#x404;" horiz-adv-x="623" 
d="M599 192l-21 -163q-63 -43 -175 -43q-146 0 -232 83q-91 88 -91 229q0 180 112 287q100 96 271 96q100 0 190 -47l-20 -162q-74 70 -176 70q-81 0 -133 -40q-52 -41 -71 -103h274l-15 -124h-273q8 -59 46 -98q51 -52 147 -52q98 0 167 67z" />
    <glyph glyph-name="afii10054" unicode="&#x405;" horiz-adv-x="550" 
d="M554 616l-77 -112q-53 48 -112 48q-42 0 -63 -17q-23 -18 -23 -48q0 -27 23 -45q14 -12 65 -35l39 -18q58 -27 88 -64q34 -43 34 -104q0 -104 -67 -171q-66 -65 -191 -65q-77 0 -133 30q-47 26 -89 71l86 110q23 -32 56 -53q36 -22 78 -22q46 0 74 21q28 22 28 62
q0 27 -19 46q-15 15 -53 30l-39 16q-57 21 -94 59q-44 45 -44 113q0 91 60 151q64 63 180 63q109 0 193 -66z" />
    <glyph glyph-name="afii10055" unicode="&#x406;" horiz-adv-x="306" 
d="M155 667h154l-82 -667h-154z" />
    <glyph glyph-name="afii10056" unicode="&#x407;" horiz-adv-x="337" 
d="M166 667h154l-82 -667h-154zM101 811q0 32 20.5 55.5t49.5 23.5t49.5 -23.5t20.5 -55.5t-20.5 -55.5t-49.5 -23.5t-49.5 23.5t-20.5 55.5zM275 811q0 32 20.5 55.5t49.5 23.5t49.5 -23.5t20.5 -55.5t-20.5 -55.5t-49.5 -23.5t-49.5 23.5t-20.5 55.5z" />
    <glyph glyph-name="afii10057" unicode="&#x408;" horiz-adv-x="415" 
d="M267 667h154l-56 -453q-12 -91 -33 -132q-14 -28 -35 -48q-51 -49 -149 -49q-65 0 -106 24t-67 68l105 96q9 -24 24 -38q16 -14 40 -14q23 0 39 14q22 19 28 77z" />
    <glyph glyph-name="afii10058" unicode="&#x409;" horiz-adv-x="984" 
d="M468 0l65 537h-181l-33 -268q-19 -154 -80 -218q-35 -36 -74.5 -47.5t-88.5 -11.5q-43 0 -74 10l17 138q20 -8 43 -8q42 0 65 23q28 28 42 139l46 373h488l-32 -261h95q106 0 163 -55q49 -47 49 -130q0 -103 -61 -160q-65 -61 -216 -61h-233zM656 283l-20 -160h64
q62 0 85 15q37 22 37 72q0 39 -29 58q-22 15 -77 15h-60z" />
    <glyph glyph-name="afii10059" unicode="&#x40a;" horiz-adv-x="1005" 
d="M489 0l35 283h-264l-36 -283h-154l82 667h154l-31 -261h265l32 261h152l-32 -261h95q106 0 163 -55q49 -47 49 -130q0 -103 -61 -160q-65 -61 -216 -61h-233zM677 283l-20 -160h64q62 0 85 15q37 22 37 72q0 39 -29 58q-22 15 -77 15h-60z" />
    <glyph glyph-name="afii10060" unicode="&#x40b;" horiz-adv-x="722" 
d="M135 0l66 537h-130l16 130h504l-16 -130h-220l-16 -132q58 10 114 10q126 0 187 -48q58 -45 58 -125q0 -7 -1 -19.5t-3 -22.5l-1 -10l-24 -190h-154l20 163q7 26 1 56.5t-34 47.5q-30 18 -92 18q-35 0 -87 -8l-34 -277h-154z" />
    <glyph glyph-name="afii10061" unicode="&#x40c;" horiz-adv-x="670" 
d="M306 667l-34 -279l244 279h184l-291 -323l247 -344h-194l-201 302l-37 -302h-154l82 667h154zM504 925l86 -72l-180 -129l-59 53z" />
    <glyph glyph-name="afii10062" unicode="&#x40e;" horiz-adv-x="622" 
d="M82 667h168l102 -308l172 308h170l-387 -667h-166l117 196zM482 886l111 -46q-55 -116 -208 -116q-81 0 -127 30q-48 31 -70 86l111 46q8 -29 30 -46q24 -18 61 -18q40 0 62 19q19 16 30 45z" />
    <glyph glyph-name="afii10145" unicode="&#x40f;" horiz-adv-x="701" 
d="M70 0l82 667h154l-66 -537h247l66 537h154l-82 -667h-208l-20 -166h-138l20 166h-209z" />
    <glyph glyph-name="afii10017" unicode="&#x410;" horiz-adv-x="677" 
d="M517 0l-34 126h-252l-63 -126h-166l352 667h142l179 -667h-158zM289 244h166l-54 235z" />
    <glyph glyph-name="afii10018" unicode="&#x411;" horiz-adv-x="597" 
d="M70 0l81 667h412l-16 -130h-258l-16 -133h83q120 0 176 -57q45 -47 45 -125q0 -101 -60 -158q-66 -64 -211 -64h-236zM258 281l-19 -158h57q71 0 99 26q24 22 24 59q0 42 -28 58q-24 15 -80 15h-53z" />
    <glyph glyph-name="afii10019" unicode="&#x412;" horiz-adv-x="594" 
d="M70 0l82 667h213q100 0 147 -46q43 -41 43 -114q0 -62 -31 -104q-27 -37 -70 -51q45 -11 76 -40q43 -42 43 -106q0 -89 -54 -143q-63 -63 -201 -63h-248zM291 547l-18 -151h31q59 0 85 25q23 21 23 60q0 31 -21 50q-20 16 -68 16h-32zM259 282l-20 -162h56q73 0 100 25
q24 21 24 64q0 32 -18 50q-23 23 -82 23h-60z" />
    <glyph glyph-name="afii10020" unicode="&#x413;" horiz-adv-x="473" 
d="M533 667l-16 -130h-227l-66 -537h-154l82 667h381z" />
    <glyph glyph-name="afii10021" unicode="&#x414;" horiz-adv-x="701" 
d="M221 667h477l-66 -539h75l-33 -278h-138l18 150h-409l-19 -150h-138l35 278q54 9 92 45q24 24 39.5 64.5t19.5 65t10 73.5zM351 539l-20 -168q-13 -110 -28 -148q-22 -57 -67 -95h244l49 411h-178z" />
    <glyph glyph-name="afii10022" unicode="&#x415;" horiz-adv-x="502" 
d="M520 667l-16 -130h-218l-16 -129h210l-16 -130h-210l-18 -148h222l-16 -130h-372l82 667h368z" />
    <glyph glyph-name="afii10024" unicode="&#x416;" horiz-adv-x="941" 
d="M390 0l37 299l-238 -299h-186l290 354l-190 313h172l162 -286l35 286h154l-35 -286l232 286h176l-274 -328l203 -339h-182l-165 299l-37 -299h-154z" />
    <glyph glyph-name="afii10025" unicode="&#x417;" horiz-adv-x="590" 
d="M188 492l-61 115q42 32 92 51q63 24 137 24q114 0 170 -56q44 -44 44 -116q0 -60 -32 -101q-29 -38 -75 -55q46 -17 71 -45q35 -39 35 -99q0 -93 -64 -157q-68 -68 -197 -68q-100 0 -165 31q-57 27 -103 77l89 112q32 -37 68 -59q43 -25 95 -25q55 0 85 24q28 22 28 62
q0 41 -37 60q-27 14 -87 14h-42l15 124h38q54 0 85 16q38 18 38 60q0 33 -28 51q-21 14 -64 14q-42 0 -75 -16q-30 -13 -60 -38z" />
    <glyph glyph-name="afii10026" unicode="&#x418;" horiz-adv-x="743" 
d="M152 667h154l-54 -432l361 432h136l-82 -667h-154l54 433l-360 -433h-137z" />
    <glyph glyph-name="afii10027" unicode="&#x419;" horiz-adv-x="743" 
d="M152 667h154l-54 -432l361 432h136l-82 -667h-154l54 433l-360 -433h-137zM569 886l111 -46q-55 -116 -208 -116q-81 0 -127 30q-48 31 -70 86l111 46q8 -29 30 -46q24 -18 61 -18q40 0 62 19q19 16 30 45z" />
    <glyph glyph-name="afii10028" unicode="&#x41a;" horiz-adv-x="670" 
d="M306 667l-34 -279l244 279h184l-291 -323l247 -344h-194l-201 302l-37 -302h-154l82 667h154z" />
    <glyph glyph-name="afii10029" unicode="&#x41b;" horiz-adv-x="697" 
d="M215 667h488l-82 -667h-154l66 537h-181l-33 -268q-19 -154 -80 -218q-35 -36 -74.5 -47.5t-88.5 -11.5q-43 0 -74 10l17 138q20 -8 43 -8q42 0 65 23q28 28 42 139z" />
    <glyph glyph-name="afii10030" unicode="&#x41c;" horiz-adv-x="886" 
d="M196 0h-154l190 667h127l114 -399l216 399h131l24 -667h-154l-4 398l-213 -398h-58l-117 398z" />
    <glyph glyph-name="afii10031" unicode="&#x41d;" horiz-adv-x="720" 
d="M306 667l-31 -250h266l31 250h154l-82 -667h-154l35 287h-266l-35 -287h-154l82 667h154z" />
    <glyph glyph-name="afii10032" unicode="&#x41e;" horiz-adv-x="810" 
d="M464 682q158 0 249 -87q94 -91 94 -237q0 -74 -26 -146t-77 -124q-101 -103 -276 -103q-160 0 -254 95q-94 96 -94 233q0 163 110 268q106 101 274 101zM458 540q-98 0 -159 -64t-61 -153q0 -86 54 -140q55 -56 146 -56q93 0 149 57q62 64 62 164q0 88 -53 140t-138 52z
" />
    <glyph glyph-name="afii10033" unicode="&#x41f;" horiz-adv-x="707" 
d="M70 0l82 667h561l-82 -667h-154l67 537h-253l-67 -537h-154z" />
    <glyph glyph-name="afii10034" unicode="&#x420;" horiz-adv-x="572" 
d="M152 667h225q117 0 173 -56q54 -54 54 -143q0 -115 -65 -175q-63 -59 -198 -59h-88l-29 -234h-154zM291 541l-23 -181h55q68 0 97 29q26 25 26 69q0 37 -22 58q-26 25 -87 25h-46z" />
    <glyph glyph-name="afii10035" unicode="&#x421;" horiz-adv-x="605" 
d="M587 187l-20 -166q-72 -36 -162 -36q-143 0 -235 89q-90 90 -90 231q0 167 106 273q104 104 267 104q107 0 189 -48l-19 -163q-67 67 -167 67t-158 -63q-60 -64 -60 -157q0 -85 52 -137t141 -52q84 0 156 58z" />
    <glyph glyph-name="afii10036" unicode="&#x422;" horiz-adv-x="460" 
d="M515 537h-145l-66 -537h-154l66 537h-145l16 130h444z" />
    <glyph glyph-name="afii10037" unicode="&#x423;" horiz-adv-x="622" 
d="M82 667h168l102 -308l172 308h170l-387 -667h-166l117 196z" />
    <glyph glyph-name="afii10038" unicode="&#x424;" horiz-adv-x="852" 
d="M343 0l12 93q-130 0 -202 67q-73 68 -73 183q0 123 81 201q83 78 255 78h5l11 92h154l-12 -92h4q62 0 117.5 -21t90.5 -56q63 -64 63 -174q0 -129 -73 -200q-81 -78 -261 -78h-6l-12 -93h-154zM376 217l35 281h-6q-85 0 -128 -43t-43 -113q0 -56 37 -91q38 -34 105 -34z
M553 498l-35 -281h4q84 0 127 39q46 40 46 115q0 62 -37 96q-33 31 -100 31h-5z" />
    <glyph glyph-name="afii10039" unicode="&#x425;" horiz-adv-x="686" 
d="M7 0l289 354l-169 313h181l87 -190l133 190h189l-245 -313l201 -354h-181l-119 231l-177 -231h-189z" />
    <glyph glyph-name="afii10040" unicode="&#x426;" horiz-adv-x="728" 
d="M70 0l82 667h154l-66 -537h247l66 537h154l-66 -537h90l-34 -280h-138l18 150h-507z" />
    <glyph glyph-name="afii10041" unicode="&#x427;" horiz-adv-x="646" 
d="M416 0l33 266q-63 -10 -118 -10q-113 0 -173 42q-60 44 -60 122q0 21 10 97l19 150h154l-17 -135q-6 -50 -6 -60q0 -45 33 -65q27 -17 87 -17q34 0 86 9l34 268h154l-82 -667h-154z" />
    <glyph glyph-name="afii10042" unicode="&#x428;" horiz-adv-x="986" 
d="M70 0l82 667h154l-66 -537h189l66 537h154l-66 -537h189l66 537h154l-82 -667h-840z" />
    <glyph glyph-name="afii10043" unicode="&#x429;" horiz-adv-x="1013" 
d="M865 0h-795l82 667h154l-66 -537h189l66 537h154l-66 -537h189l66 537h154l-66 -537h93l-34 -280h-138z" />
    <glyph glyph-name="afii10044" unicode="&#x42a;" horiz-adv-x="660" 
d="M142 0l66 537h-140l16 130h293l-32 -261h97q106 0 163 -55q49 -47 49 -129q0 -102 -61 -161q-65 -61 -216 -61h-235zM330 283l-20 -160h66q62 0 85 15q37 21 37 69q0 41 -29 61q-22 15 -77 15h-62z" />
    <glyph glyph-name="afii10045" unicode="&#x42b;" horiz-adv-x="847" 
d="M70 0l83 667h152l-32 -261h91q106 0 163 -55q49 -47 49 -130q0 -103 -61 -162q-37 -35 -89.5 -47t-126.5 -12h-229zM258 283l-20 -160h64q62 0 85 15q37 22 37 72q0 39 -29 58q-22 15 -77 15h-60zM696 667h154l-82 -667h-154z" />
    <glyph glyph-name="afii10046" unicode="&#x42c;" horiz-adv-x="586" 
d="M70 0l83 667h152l-32 -261h95q106 0 163 -55q49 -47 49 -130q0 -103 -61 -160q-65 -61 -216 -61h-233zM258 283l-20 -160h64q62 0 85 15q37 22 37 72q0 39 -29 58q-22 15 -77 15h-60z" />
    <glyph glyph-name="afii10047" unicode="&#x42d;" horiz-adv-x="623" 
d="M45 32l19 162q81 -69 188 -69q75 0 125 37q55 41 68 113h-268l16 124h263q-10 68 -58 107q-44 36 -118 36q-61 0 -109 -23q-27 -13 -73 -46l20 165q94 44 190 44q146 0 231 -87q81 -83 81 -230q0 -181 -104 -287q-57 -57 -118.5 -75t-139.5 -18q-116 0 -213 47z" />
    <glyph glyph-name="afii10048" unicode="&#x42e;" horiz-adv-x="1058" 
d="M275 417h84q22 95 88 164q95 101 252 101q165 0 261 -92q95 -91 95 -237q0 -163 -103 -267q-56 -56 -120.5 -78.5t-147.5 -22.5q-160 0 -249 95q-80 85 -88 207h-88l-35 -287h-154l82 667h154zM706 540q-88 0 -148 -58q-63 -63 -63 -158q0 -85 54 -141q56 -56 142 -56
q87 0 144 57q62 63 62 164q0 85 -55 140q-52 52 -136 52z" />
    <glyph glyph-name="afii10049" unicode="&#x42f;" horiz-adv-x="602" 
d="M608 667l-82 -667h-154l30 243h-16l-189 -243h-185l227 263q-56 13 -89 51q-38 44 -38 112q0 110 69 176q68 65 199 65h228zM440 541h-45q-66 0 -95 -27q-30 -27 -30 -71q0 -43 29 -63q26 -19 81 -19h36z" />
    <glyph glyph-name="afii10065" unicode="&#x430;" horiz-adv-x="598" 
d="M444 392l4 54h144l-55 -446h-144l11 51q-29 -34 -63 -50q-35 -16 -83 -16q-86 0 -138 55q-60 64 -60 164q0 118 72 192q64 65 164 65q52 0 87 -17q36 -17 61 -52zM327 337q-52 0 -85 -33q-34 -34 -34 -89q0 -45 29 -76q29 -30 76 -30q50 0 82 30q38 37 38 96q0 49 -31 77
q-27 25 -75 25z" />
    <glyph glyph-name="afii10066" unicode="&#x431;" horiz-adv-x="601" 
d="M501 730h129q-11 -71 -59 -115q-38 -34 -119 -57l-71 -20q-81 -23 -120 -58q-36 -31 -49 -87h4q50 67 151 67q112 0 174 -65q52 -56 52 -149q0 -116 -70 -188q-72 -73 -202 -73q-119 0 -185 70q-64 68 -64 179q0 87 29 189t90 159q58 55 164 76q77 15 104 26
q19 8 29 17.5t13 28.5zM322 109q54 0 87 33q36 36 36 91q0 48 -30 78q-27 27 -74 27q-52 0 -83 -29q-37 -33 -37 -95q0 -46 27 -75q27 -30 74 -30z" />
    <glyph glyph-name="afii10067" unicode="&#x432;" horiz-adv-x="502" 
d="M111 446h224q68 0 103 -25q43 -31 43 -91q0 -47 -26 -73q-21 -21 -49 -26q36 -7 58 -28q26 -26 26 -70q0 -59 -36 -93q-41 -40 -129 -40h-269zM235 268h49q36 0 49 12q12 10 12 31t-16 32q-12 7 -39 7h-45zM214 96h62q28 0 45 11q19 14 19 38q0 22 -17 33q-12 8 -44 8
h-55z" />
    <glyph glyph-name="afii10068" unicode="&#x433;" horiz-adv-x="366" 
d="M56 0l55 446h300l-14 -118h-156l-41 -328h-144z" />
    <glyph glyph-name="afii10069" unicode="&#x434;" horiz-adv-x="573" 
d="M158 446h398l-42 -336h65l-28 -236h-128l15 126h-306l-16 -126h-128l29 236q46 7 73 36q34 35 46 127zM370 110l28 226h-120l-9 -84q-6 -54 -23 -90q-16 -32 -41 -52h165z" />
    <glyph glyph-name="afii10070" unicode="&#x435;" horiz-adv-x="542" 
d="M218 283h181q-4 37 -29 58q-22 18 -59 18q-41 0 -68 -27q-19 -21 -25 -49zM537 195h-333q-2 -39 18 -67q23 -31 69 -31q37 0 57 13q20 14 31 40l145 -12q-29 -72 -81 -111q-56 -42 -153 -42q-114 0 -174 60q-56 56 -56 156q0 125 77 198q66 62 177 62q108 0 167 -57
q40 -39 51 -97.5t5 -111.5z" />
    <glyph glyph-name="afii10072" unicode="&#x436;" horiz-adv-x="762" 
d="M366 446h140l-22 -179l149 179h169l-188 -213l141 -233h-171l-109 193l-24 -193h-140l24 193l-157 -193h-181l211 239l-128 207h159l105 -179z" />
    <glyph glyph-name="afii10073" unicode="&#x437;" horiz-adv-x="463" 
d="M129 311l-47 96q38 25 78 38q49 16 110 16q77 0 125 -28q54 -35 54 -99q0 -45 -30 -75q-17 -17 -46 -27q28 -7 51 -28q27 -26 27 -69q0 -76 -56 -115q-50 -35 -149 -35q-81 0 -133 21q-44 17 -87 53l67 93q29 -25 58 -38q37 -17 77 -17q34 0 50 9q21 11 21 33
q0 25 -24 34q-19 7 -52 7h-48l12 98h46q40 0 52 6q24 9 24 32q0 18 -18 28q-16 9 -46 9q-35 0 -65 -13q-34 -17 -51 -29z" />
    <glyph glyph-name="afii10074" unicode="&#x438;" horiz-adv-x="580" 
d="M111 446h144l-31 -253l219 253h134l-55 -446h-144l32 257l-220 -257h-134z" />
    <glyph glyph-name="afii10075" unicode="&#x439;" horiz-adv-x="580" 
d="M111 446h144l-31 -253l219 253h134l-55 -446h-144l32 257l-220 -257h-134zM444 662l101 -36q-20 -57 -70 -86q-45 -27 -119 -27q-72 0 -115 29q-45 31 -61 84l101 36q7 -26 28 -44q21 -17 53 -17t52 15q22 17 30 46z" />
    <glyph glyph-name="afii10076" unicode="&#x43a;" horiz-adv-x="540" 
d="M56 0l55 446h144l-22 -177l168 177h179l-213 -213l171 -233h-186l-128 198l-24 -198h-144z" />
    <glyph glyph-name="afii10077" unicode="&#x43b;" horiz-adv-x="548" 
d="M545 446l-55 -446h-144l41 330h-116l-17 -133q-14 -109 -56 -153q-46 -50 -133 -50q-31 0 -62 7l16 122q14 -5 31 -5q28 0 44 16q17 17 24 68l30 244h397z" />
    <glyph glyph-name="afii10078" unicode="&#x43c;" horiz-adv-x="664" 
d="M24 0l133 446h110l85 -248l147 248h118l23 -446h-138l-7 237l-140 -237h-48l-80 237l-65 -237h-138z" />
    <glyph glyph-name="afii10079" unicode="&#x43d;" horiz-adv-x="561" 
d="M56 0l54 446h144l-19 -154h160l19 154h144l-54 -446h-144l22 176h-161l-21 -176h-144z" />
    <glyph glyph-name="afii10080" unicode="&#x43e;" horiz-adv-x="592" 
d="M337 461q118 0 187 -69q60 -60 60 -151q0 -109 -72 -183q-72 -73 -205 -73q-121 0 -186 67q-61 63 -61 157q0 107 72 176q78 76 205 76zM315 107q50 0 84 32q37 36 37 95q0 49 -30 77t-78 28q-46 0 -80 -31q-40 -36 -40 -95q0 -45 29 -76q28 -30 78 -30z" />
    <glyph glyph-name="afii10081" unicode="&#x43f;" horiz-adv-x="555" 
d="M56 0l54 446h442l-54 -446h-144l41 330h-155l-40 -330h-144z" />
    <glyph glyph-name="afii10082" unicode="&#x440;" horiz-adv-x="598" 
d="M210 55l-36 -284h-144l83 675h144l-8 -52q24 29 56 46q41 21 92 21q84 0 135 -49q59 -59 59 -167q0 -125 -75 -200q-60 -60 -151 -60q-60 0 -97 19q-34 18 -58 51zM341 337q-50 0 -84 -34q-36 -36 -36 -90q0 -45 27 -73q29 -31 75 -31q47 0 80 31q18 16 29 43.5t11 52.5
q0 47 -31 75q-28 26 -71 26z" />
    <glyph glyph-name="afii10083" unicode="&#x441;" horiz-adv-x="431" 
d="M445 432l-17 -131q-41 38 -100 38q-53 0 -87 -34q-33 -36 -33 -89q0 -49 32 -79q31 -30 78 -30q51 0 91 36l-16 -132q-53 -26 -118 -26q-97 0 -155 62q-60 65 -60 161q0 110 70 182q69 71 185 71q71 0 130 -29z" />
    <glyph glyph-name="afii10084" unicode="&#x442;" horiz-adv-x="400" 
d="M432 330h-120l-41 -330h-144l41 330h-120l14 116h384z" />
    <glyph glyph-name="afii10085" unicode="&#x443;" horiz-adv-x="583" 
d="M40 -229l184 286l-173 389h164l99 -244l150 244h169l-431 -675h-162z" />
    <glyph glyph-name="afii10086" unicode="&#x444;" horiz-adv-x="718" 
d="M400 -229h-144l29 222q-106 -1 -170 67q-55 58 -55 148q0 88 51 154q43 55 106 76t124 18l27 211h144l-27 -211q104 -6 167 -67q58 -56 58 -151q0 -107 -64 -173q-70 -72 -206 -72h-11zM333 337q-55 0 -92 -32q-39 -35 -39 -94q0 -46 32 -74q27 -24 72 -28zM463 337
l-27 -228q58 0 96 33q36 36 36 91q0 46 -29 75q-29 27 -76 29z" />
    <glyph glyph-name="afii10087" unicode="&#x445;" horiz-adv-x="620" 
d="M632 446l-206 -205l184 -241h-182l-102 144l-131 -144h-192l234 241l-158 205h182l77 -115l102 115h192z" />
    <glyph glyph-name="afii10088" unicode="&#x446;" horiz-adv-x="575" 
d="M56 0l55 446h144l-41 -330h152l41 330h144l-41 -330h73l-29 -242h-128l15 126h-385z" />
    <glyph glyph-name="afii10089" unicode="&#x447;" horiz-adv-x="518" 
d="M316 0l19 156q-42 -13 -90 -13q-93 0 -136 42q-33 33 -33 89q0 17 5 55l14 117h140l-14 -107q-6 -49 15 -65q18 -15 53 -15q33 0 60 10l22 177h144l-55 -446h-144z" />
    <glyph glyph-name="afii10090" unicode="&#x448;" horiz-adv-x="804" 
d="M56 0l55 446h144l-41 -330h129l41 330h144l-41 -330h129l41 330h144l-55 -446h-690z" />
    <glyph glyph-name="afii10091" unicode="&#x449;" horiz-adv-x="827" 
d="M693 0h-637l55 446h144l-41 -330h130l41 330h144l-41 -330h130l41 330h144l-41 -330h73l-29 -242h-128z" />
    <glyph glyph-name="afii10092" unicode="&#x44a;" horiz-adv-x="552" 
d="M68 446h252l-19 -153h84q87 0 128 -42q35 -35 35 -95q0 -74 -42 -114q-47 -42 -151 -42h-233l41 329h-109zM278 102h57q33 0 47 9q20 13 20 39q0 20 -14 31q-14 10 -50 10h-49z" />
    <glyph glyph-name="afii10093" unicode="&#x44b;" horiz-adv-x="703" 
d="M111 446h144l-19 -153h74q87 0 128 -42q35 -35 35 -95q0 -74 -42 -114q-47 -42 -151 -42h-224zM213 102h53q33 0 47 9q20 13 20 39q0 20 -14 31q-14 10 -50 10h-45zM556 446h144l-55 -446h-144z" />
    <glyph glyph-name="afii10094" unicode="&#x44c;" horiz-adv-x="487" 
d="M111 446h144l-19 -153h84q87 0 128 -42q35 -35 35 -95q0 -74 -42 -114q-47 -42 -151 -42h-234zM213 102h57q33 0 47 9q20 13 20 39q0 20 -14 31q-14 10 -50 10h-49z" />
    <glyph glyph-name="afii10095" unicode="&#x44d;" horiz-adv-x="460" 
d="M40 19l16 128q59 -46 130 -46q45 0 75 19q32 20 42 57h-166l13 97h162q-11 33 -40 52t-73 19q-65 0 -124 -43l16 132q68 27 135 27q112 0 174 -63q56 -57 56 -155q0 -124 -72 -194q-65 -64 -190 -64q-87 0 -154 34z" />
    <glyph glyph-name="afii10096" unicode="&#x44e;" horiz-adv-x="789" 
d="M233 292h54q19 70 76 116q68 53 173 53q117 0 185 -69q60 -60 60 -154q0 -114 -72 -184q-70 -69 -194 -69q-114 0 -174 54q-58 52 -66 137h-56l-21 -176h-142l54 446h142zM516 107q49 0 80 30q37 36 37 97q0 49 -28 77t-74 28q-54 0 -83 -33q-34 -37 -34 -93
q0 -46 29 -77q29 -29 73 -29z" />
    <glyph glyph-name="afii10097" unicode="&#x44f;" horiz-adv-x="492" 
d="M12 0l148 163q-38 11 -61 33q-31 31 -31 86q0 62 35 105q51 59 176 59h210l-55 -446h-144l18 149h-10l-121 -149h-165zM319 243l12 101h-47q-41 0 -57 -16q-15 -15 -15 -39q0 -23 20 -36q13 -10 51 -10h36z" />
    <glyph glyph-name="afii10071" unicode="&#x451;" horiz-adv-x="542" 
d="M218 283h181q-4 37 -29 58q-22 18 -59 18q-41 0 -68 -27q-19 -21 -25 -49zM537 195h-333q-2 -39 18 -67q23 -31 69 -31q37 0 57 13q20 14 31 40l145 -12q-29 -72 -81 -111q-56 -42 -153 -42q-114 0 -174 60q-56 56 -56 156q0 125 77 198q66 62 177 62q108 0 167 -57
q58 -57 58 -168q0 -17 -2 -41zM352 600q0 33 22.5 55.5t55.5 22.5t55.5 -22.5t22.5 -55.5t-22.5 -55.5t-55.5 -22.5t-55.5 22.5t-22.5 55.5zM138 600q0 33 22.5 55.5t55.5 22.5t55.5 -22.5t22.5 -55.5t-22.5 -55.5t-55.5 -22.5t-55.5 22.5t-22.5 55.5z" />
    <glyph glyph-name="afii10099" unicode="&#x452;" horiz-adv-x="571" 
d="M60 0l62 502h-80l11 94h80l17 133h144l-17 -133h192l-11 -94h-192l-18 -145q25 27 54 42q35 19 91 19q74 0 113 -38t39 -106q0 -24 -7 -85l-29 -239q-12 -96 -54 -137q-43 -42 -130 -42q-43 0 -80 10l14 114q18 -6 36 -6q31 0 47 16q19 18 26 73l22 175q6 45 6 72
q0 35 -18 54q-19 19 -53 19q-41 0 -65 -24q-26 -27 -34 -94l-22 -180h-144z" />
    <glyph glyph-name="afii10100" unicode="&#x453;" horiz-adv-x="366" 
d="M56 0l55 446h300l-14 -118h-156l-41 -328h-144zM345 715l86 -65l-169 -135l-59 48z" />
    <glyph glyph-name="afii10101" unicode="&#x454;" horiz-adv-x="456" 
d="M471 428l-16 -129q-53 46 -123 46q-44 0 -74 -20q-29 -19 -43 -51h167l-12 -98h-164q10 -36 39 -55q29 -20 75 -20q67 0 116 41l-15 -127q-61 -30 -134 -30q-106 0 -168 64q-59 59 -59 158q0 112 69 183q70 71 198 71q77 0 144 -33z" />
    <glyph glyph-name="afii10102" unicode="&#x455;" horiz-adv-x="434" 
d="M428 416l-61 -89q-40 30 -84 30q-30 0 -43 -12q-10 -8 -10 -22q0 -15 14 -24q6 -4 35 -12l33 -9q50 -14 77 -42q33 -33 33 -85q0 -68 -42 -110q-54 -56 -157 -56q-67 0 -116 22q-35 16 -69 46l61 97q25 -24 55 -37q35 -14 62 -14t44 10q18 10 18 29q0 18 -14 28
q-4 3 -35 13l-32 10q-49 14 -75 40q-30 33 -30 80q0 62 42 104q49 48 147 48q82 0 147 -45z" />
    <glyph glyph-name="afii10103" unicode="&#x456;" horiz-adv-x="276" 
d="M120 446h144l-55 -446h-144zM127 636q0 35 24.5 59.5t59.5 24.5t59.5 -24.5t24.5 -59.5t-24.5 -59.5t-59.5 -24.5t-59.5 24.5t-24.5 59.5z" />
    <glyph glyph-name="afii10104" unicode="&#x457;" horiz-adv-x="332" 
d="M141 446h144l-55 -446h-144zM322 720q28 0 47 -21t19 -54q0 -36 -22 -59.5t-52 -23.5q-28 0 -47 21t-19 54q0 36 22 59.5t52 23.5zM152 720q28 0 47 -21t19 -54q0 -36 -22 -59.5t-52 -23.5q-28 0 -47 21t-19 54q0 36 22 59.5t52 23.5z" />
    <glyph glyph-name="afii10105" unicode="&#x458;" horiz-adv-x="276" 
d="M120 446h144l-85 -675h-144zM127 636q0 35 24.5 59.5t59.5 24.5t59.5 -24.5t24.5 -59.5t-24.5 -59.5t-59.5 -24.5t-59.5 24.5t-24.5 59.5z" />
    <glyph glyph-name="afii10106" unicode="&#x459;" horiz-adv-x="777" 
d="M526 293h84q87 0 128 -42q35 -35 35 -95q0 -74 -42 -114q-47 -42 -151 -42h-234l41 330h-116l-17 -133q-14 -109 -56 -153q-46 -50 -133 -50q-31 0 -62 7l16 122q14 -5 31 -5q28 0 44 16q17 17 24 68l30 244h397zM503 102h57q33 0 47 9q20 13 20 39q0 20 -14 31
q-14 10 -50 10h-49z" />
    <glyph glyph-name="afii10107" unicode="&#x45a;" horiz-adv-x="790" 
d="M539 293h84q87 0 128 -42q35 -35 35 -95q0 -74 -42 -114q-47 -42 -151 -42h-234l24 191h-160l-23 -191h-144l54 446h144l-19 -153h160l19 153h144zM516 102h57q33 0 47 9q20 13 20 39q0 20 -14 31q-14 10 -50 10h-49z" />
    <glyph glyph-name="afii10108" unicode="&#x45b;" horiz-adv-x="571" 
d="M60 0l62 502h-80l11 94h80l17 133h144l-17 -133h192l-11 -94h-192l-18 -145q25 27 54 42q35 19 91 19q74 0 113 -38t39 -106q0 -24 -7 -85l-23 -189h-144l19 153q6 46 6 72q0 35 -18 54q-19 19 -53 19q-41 0 -65 -24q-26 -27 -34 -94l-22 -180h-144z" />
    <glyph glyph-name="afii10109" unicode="&#x45c;" horiz-adv-x="540" 
d="M56 0l55 446h144l-22 -177l168 177h179l-213 -213l171 -233h-186l-128 198l-24 -198h-144zM419 715l86 -65l-169 -135l-59 48z" />
    <glyph glyph-name="afii10110" unicode="&#x45e;" horiz-adv-x="583" 
d="M40 -229l184 286l-173 389h164l99 -244l150 244h169l-431 -675h-162zM438 662l101 -36q-20 -57 -70 -86q-45 -27 -119 -27q-72 0 -115 29q-45 31 -61 84l101 36q7 -26 28 -44q21 -17 53 -17t52 15q22 17 30 46z" />
    <glyph glyph-name="afii10193" unicode="&#x45f;" horiz-adv-x="552" 
d="M56 0l55 446h144l-41 -330h152l41 330h144l-55 -446h-156l-17 -136h-128l17 136h-156z" />
    <glyph glyph-name="afii10146" unicode="&#x462;" horiz-adv-x="641" 
d="M123 0l59 481h-120l15 120h120l14 113h154l-14 -113h166l-15 -120h-166l-8 -75h95q106 0 163 -55q49 -47 49 -130q0 -103 -61 -160q-65 -61 -216 -61h-235zM312 283l-19 -160h64q62 0 85 15q37 22 37 72q0 39 -29 58q-22 15 -77 15h-61z" />
    <glyph glyph-name="afii10194" unicode="&#x463;" horiz-adv-x="533" 
d="M289 353l-7 -60h84q87 0 128 -42q35 -35 35 -95q0 -74 -42 -114q-47 -42 -151 -42h-234l43 353h-95l12 94h95l27 221h144l-27 -221h154l-12 -94h-154zM259 102h57q33 0 47 9q20 13 20 39q0 20 -14 31q-14 10 -50 10h-49z" />
    <glyph glyph-name="afii10147" unicode="&#x472;" horiz-adv-x="810" 
d="M464 682q158 0 249 -87q94 -91 94 -237q0 -74 -26 -146t-77 -124q-101 -103 -276 -103q-160 0 -254 95q-94 96 -94 233q0 163 110 268q106 101 274 101zM255 399h387q-8 64 -60 104q-47 37 -126 37q-82 0 -135 -43q-47 -37 -66 -98zM637 269h-390q14 -68 65 -106
q47 -36 123 -36q80 0 128 34q55 38 74 108z" />
    <glyph glyph-name="afii10195" unicode="&#x473;" horiz-adv-x="592" 
d="M337 461q118 0 187 -69q60 -60 60 -151q0 -109 -72 -183q-72 -73 -205 -73q-121 0 -186 67q-61 63 -61 157q0 107 72 176q78 76 205 76zM220 266h211q-10 37 -33 57q-26 22 -70 22q-45 0 -75 -27q-24 -22 -33 -52zM428 188h-218q7 -38 34 -61q29 -26 73 -26q41 0 69 21
q30 23 42 66z" />
    <glyph glyph-name="afii10148" unicode="&#x474;" horiz-adv-x="678" 
d="M83 667h160l117 -427l221 427h172l-364 -667h-106z" />
    <glyph glyph-name="afii10196" unicode="&#x475;" horiz-adv-x="546" 
d="M54 446h150l85 -239l147 239h160l-284 -446h-86z" />
    <glyph glyph-name="afii10050" unicode="&#x490;" horiz-adv-x="482" 
d="M152 667h261l18 150h133l-34 -279v-1h-240l-66 -537h-154z" />
    <glyph glyph-name="afii10098" unicode="&#x491;" horiz-adv-x="411" 
d="M56 0l55 446h212l15 126h128l-30 -244h-196l-40 -328h-144z" />
    <glyph glyph-name="uni0492" unicode="&#x492;" horiz-adv-x="501" 
d="M553 667l-16 -130h-220l-16 -129h162l-15 -124h-162l-35 -284h-154l35 284h-98l15 124h98l32 259h374z" />
    <glyph glyph-name="uni0493" unicode="&#x493;" horiz-adv-x="388" 
d="M78 0l17 142h-73l12 96h73l26 208h300l-15 -118h-156l-11 -90h107l-12 -96h-107l-17 -142h-144z" />
    <glyph glyph-name="uni0494" unicode="&#x494;" horiz-adv-x="621" 
d="M546 667l-16 -130h-240l-18 -145q55 23 113 23q111 0 168 -51q10 -9 22 -23.5t26 -52t14 -81.5q0 -104 -68 -164q-57 -50 -170 -50q-45 0 -85 8l14 121q33 -7 58 -7q47 0 69 21q24 24 24 68q0 39 -21 59q-24 22 -70 22q-58 0 -110 -23l-32 -262h-154l82 667h394z" />
    <glyph glyph-name="uni0495" unicode="&#x495;" horiz-adv-x="484" 
d="M56 0l55 446h300l-15 -118h-156l-11 -90h16q108 0 163 -55q50 -50 50 -137q0 -102 -66 -172q-73 -78 -212 -82l14 112q47 4 78 35q40 39 40 99q0 46 -27 70q-23 20 -64 20h-5l-16 -128h-144z" />
    <glyph glyph-name="uni0496" unicode="&#x496;" horiz-adv-x="942" 
d="M823 667h177l-275 -328l127 -209h90l-34 -280h-138l18 150h-42l-165 299l-37 -299h-154l37 299l-238 -299h-186l290 354l-190 313h172l162 -286l35 286h154l-35 -286z" />
    <glyph glyph-name="uni0497" unicode="&#x497;" horiz-adv-x="767" 
d="M368 446h140l-22 -179l152 179h169l-191 -213l72 -117h73l-29 -242h-128l15 126h-33l-109 193l-24 -193h-140l24 193l-159 -193h-181l213 239l-128 207h159l105 -179z" />
    <glyph glyph-name="uni0498" unicode="&#x498;" horiz-adv-x="590" 
d="M188 492l-61 115q42 32 92 51q63 24 137 24q114 0 170 -56q44 -44 44 -116q0 -60 -32 -101q-29 -38 -75 -55q39 -10 71 -45q35 -40 35 -101q0 -91 -64 -155q-51 -51 -120 -63l-20 -156h-138l20 154q-119 10 -207 105l89 112q32 -37 68 -59q43 -25 95 -25q55 0 85 24
q28 22 28 60q0 43 -37 62q-27 14 -87 14h-42l15 124h38q54 0 85 16q38 18 38 60q0 33 -28 51q-21 14 -64 14q-42 0 -75 -16q-30 -13 -60 -38z" />
    <glyph glyph-name="uni0499" unicode="&#x499;" horiz-adv-x="463" 
d="M129 311l-47 96q38 25 78 38q49 16 110 16q77 0 125 -28q54 -35 54 -99q0 -45 -30 -75q-17 -17 -46 -27q30 -7 51 -28q27 -27 27 -72q0 -62 -41 -100q-42 -40 -100 -42l-17 -126h-128l17 125q-83 8 -156 70l67 93q29 -25 58 -38q37 -17 77 -17q34 0 50 9q21 11 21 33
q0 25 -24 34q-19 7 -52 7h-48l12 98h46q40 0 52 6q24 9 24 32q0 18 -18 28q-16 9 -46 9q-35 0 -65 -13q-34 -17 -51 -29z" />
    <glyph glyph-name="uni049A" unicode="&#x49a;" horiz-adv-x="670" 
d="M306 667l-34 -279l244 279h184l-291 -323l154 -214h90l-34 -280h-138l18 150h-37l-201 302l-37 -302h-154l82 667h154z" />
    <glyph glyph-name="uni049B" unicode="&#x49b;" horiz-adv-x="540" 
d="M56 0l55 446h144l-22 -177l168 177h179l-213 -213l85 -117h73l-29 -242h-128l15 126h-31l-128 198l-24 -198h-144z" />
    <glyph glyph-name="uni049C" unicode="&#x49c;" horiz-adv-x="790" 
d="M152 667h154l-33 -266h59l19 150h104l-20 -163l231 279h184l-279 -323l216 -344h-194l-169 302l-19 -158h-104l19 155h-59l-37 -299h-154z" />
    <glyph glyph-name="uni049D" unicode="&#x49d;" horiz-adv-x="632" 
d="M56 0l54 446h144l-21 -173h50l12 99h82l-13 -104l139 178h169l-187 -215l131 -231h-163l-98 193l-14 -119h-82l13 114h-49l-23 -188h-144z" />
    <glyph glyph-name="uni04A0" unicode="&#x4a0;" horiz-adv-x="712" 
d="M383 667l-35 -279l232 279h184l-279 -323l216 -344h-194l-170 302l-36 -302h-154l66 537h-144l16 130h298z" />
    <glyph glyph-name="uni04A1" unicode="&#x4a1;" horiz-adv-x="600" 
d="M116 0l42 328h-108l15 118h250l-22 -177l168 177h179l-213 -213l171 -233h-186l-128 198l-24 -198h-144z" />
    <glyph glyph-name="uni04A2" unicode="&#x4a2;" horiz-adv-x="747" 
d="M306 667l-31 -250h266l31 250h154l-66 -537h90l-34 -280h-138l18 150h-106l35 287h-266l-35 -287h-154l82 667h154z" />
    <glyph glyph-name="uni04A3" unicode="&#x4a3;" horiz-adv-x="584" 
d="M56 0l55 446h144l-19 -155h161l19 155h144l-41 -330h73l-29 -242h-128l15 126h-89l21 175h-161l-21 -175h-144z" />
    <glyph glyph-name="uni04A4" unicode="&#x4a4;" horiz-adv-x="864" 
d="M931 667l-16 -130h-205l-66 -537h-154l35 283h-266l-35 -283h-154l82 667h154l-31 -254h266l31 254h359z" />
    <glyph glyph-name="uni04A5" unicode="&#x4a5;" horiz-adv-x="655" 
d="M361 0l21 175h-161l-21 -175h-144l55 446h144l-19 -155h161l19 155h286l-15 -118h-142l-40 -328h-144z" />
    <glyph glyph-name="uni04AA" unicode="&#x4aa;" horiz-adv-x="605" 
d="M587 187l-20 -166q-41 -21 -90 -30l-20 -157h-138l20 157q-99 15 -169 83q-90 90 -90 231q0 167 106 273q104 104 267 104q107 0 189 -48l-19 -163q-67 67 -167 67t-158 -63q-60 -64 -60 -157q0 -85 52 -137t141 -52q84 0 156 58z" />
    <glyph glyph-name="uni04AB" unicode="&#x4ab;" horiz-adv-x="431" 
d="M445 432l-17 -131q-41 38 -100 38q-53 0 -87 -34q-33 -36 -33 -89q0 -49 32 -79q31 -30 78 -30q51 0 91 36l-16 -132q-25 -15 -54 -19l-16 -128h-128l16 130q-64 14 -107 72q-44 61 -44 142q0 112 70 182q71 71 185 71q71 0 130 -29z" />
    <glyph glyph-name="uni04AE" unicode="&#x4ae;" horiz-adv-x="632" 
d="M236 0l38 311l-195 356h176l109 -207l159 207h188l-283 -356l-38 -311h-154z" />
    <glyph glyph-name="uni04AF" unicode="&#x4af;" horiz-adv-x="520" 
d="M57 446h147l75 -247l137 247h157l-235 -395l-34 -280h-144l34 279z" />
    <glyph glyph-name="uni04B0" unicode="&#x4b0;" horiz-adv-x="632" 
d="M236 0l22 179h-179l15 120h179l1 12l-195 356h176l108 -207l160 207h188l-283 -356l-1 -12h179l-15 -120h-179l-22 -179h-154z" />
    <glyph glyph-name="uni04B1" unicode="&#x4b1;" horiz-adv-x="520" 
d="M57 446h148l75 -247l137 247h156l-235 -395l-3 -30h140l-13 -100h-140l-18 -150h-144l18 150h-139l13 100h139l3 29z" />
    <glyph glyph-name="uni04B2" unicode="&#x4b2;" horiz-adv-x="686" 
d="M7 0l289 354l-169 313h181l87 -190l133 190h189l-245 -313l125 -224h90l-34 -280h-138l18 150h-41l-119 231l-177 -231h-189z" />
    <glyph glyph-name="uni04B3" unicode="&#x4b3;" horiz-adv-x="620" 
d="M632 446l-206 -205l95 -125h73l-29 -242h-128l15 126h-24l-102 144l-131 -144h-192l234 241l-158 205h182l77 -115l102 115h192z" />
    <glyph glyph-name="uni04B6" unicode="&#x4b6;" horiz-adv-x="674" 
d="M498 667h154l-65 -537h90l-34 -280h-138l18 150h-107l33 266q-63 -10 -118 -10q-113 0 -173 42q-60 44 -60 122q0 21 10 97l19 150h154l-17 -135q-6 -50 -6 -60q0 -45 33 -65q27 -17 87 -17q34 0 86 9z" />
    <glyph glyph-name="uni04B7" unicode="&#x4b7;" horiz-adv-x="539" 
d="M371 446h144l-41 -330h73l-29 -242h-128l15 126h-89l19 156q-42 -13 -90 -13q-93 0 -136 42q-33 33 -33 89q0 17 5 55l14 117h140l-14 -107q-6 -49 15 -65q18 -15 53 -15q33 0 60 10z" />
    <glyph glyph-name="uni04B8" unicode="&#x4b8;" horiz-adv-x="688" 
d="M458 0l34 272q-42 -7 -73 -7l-17 -133h-104l16 131q-102 -2 -160 42q-56 44 -56 129q0 27 8 81l20 152h152l-19 -157q-6 -26 -4.5 -59.5t19.5 -48.5q21 -18 56 -16l20 162h104l-20 -164q38 -2 72 6l34 277h154l-82 -667h-154z" />
    <glyph glyph-name="uni04B9" unicode="&#x4b9;" horiz-adv-x="573" 
d="M372 0l20 164q-32 -7 -55 -7l-10 -83h-82l11 81q-108 -3 -151 42q-29 31 -29 83q0 14 5 55l14 111h136l-13 -107q-8 -57 12 -73q15 -13 38 -10l13 116h82l-14 -118q26 0 55 8l22 184h144l-54 -446h-144z" />
    <glyph glyph-name="uni04BA" unicode="&#x4ba;" horiz-adv-x="656" 
d="M306 667l-31 -255q59 10 120 10q117 0 179 -48q58 -44 58 -123q0 -10 -1 -22t-3 -25t-3 -19l-23 -185h-154l19 158q5 48 5 51q0 46 -34 65q-31 18 -95 18q-28 0 -84 -8l-35 -284h-154l82 667h154z" />
    <glyph glyph-name="uni04BB" unicode="&#x4bb;" horiz-adv-x="571" 
d="M150 729h144l-42 -332q25 26 55 42q36 19 91 19q74 0 113 -38q38 -37 38 -106q0 -29 -7 -85l-27 -229h-144l24 193q6 46 6 72q0 35 -18 54q-19 19 -51 19q-43 0 -67 -24q-27 -27 -35 -94l-26 -220h-144z" />
    <glyph glyph-name="uni04C0" unicode="&#x4c0;" horiz-adv-x="306" 
d="M155 667h154l-82 -667h-154z" />
    <glyph glyph-name="uni04C1" unicode="&#x4c1;" horiz-adv-x="941" 
d="M390 0l37 299l-238 -299h-186l290 354l-190 313h172l162 -286l35 286h154l-35 -286l232 286h176l-274 -328l203 -339h-182l-165 299l-37 -299h-154zM655 886l111 -46q-55 -116 -208 -116q-81 0 -127 30q-48 31 -70 86l111 46q8 -29 30 -46q24 -18 61 -18q40 0 62 19
q19 16 30 45z" />
    <glyph glyph-name="uni04C2" unicode="&#x4c2;" horiz-adv-x="762" 
d="M366 446h140l-22 -179l149 179h169l-188 -213l141 -233h-171l-109 193l-24 -193h-140l24 193l-157 -193h-181l211 239l-128 207h159l105 -179zM541 662l101 -36q-20 -57 -70 -86q-45 -27 -119 -27q-71 0 -115 29q-45 31 -61 84l101 36q7 -26 28 -44q21 -17 53 -17t52 15
q22 17 30 46z" />
    <glyph glyph-name="uni04C3" unicode="&#x4c3;" horiz-adv-x="643" 
d="M306 667l-34 -278l256 278h186l-258 -267q83 -12 131 -58q49 -48 49 -129q0 -102 -59 -163q-35 -36 -74 -46.5t-89 -10.5q-57 0 -100 17l32 118q21 -13 49 -13q35 0 56 21q25 25 25 65q0 42 -32 65q-32 22 -96 22q-49 0 -90 -9l-34 -279h-154l82 667h154z" />
    <glyph glyph-name="uni04C4" unicode="&#x4c4;" horiz-adv-x="511" 
d="M56 0l55 446h144l-22 -177l160 177h171l-214 -221q60 -15 98 -62q38 -48 38 -117q0 -103 -66 -172q-73 -78 -212 -82l14 112q46 4 78 35q40 38 40 97q0 47 -35 73q-26 19 -82 19h-7l-16 -128h-144z" />
    <glyph glyph-name="uni04C7" unicode="&#x4c7;" horiz-adv-x="720" 
d="M306 667l-31 -254h266l31 254h154l-89 -727q-11 -87 -51 -126q-45 -43 -133 -43q-48 0 -88 10l14 116q18 -8 40 -8q28 0 44 15q17 16 22 57l40 322h-266l-35 -283h-154l82 667h154z" />
    <glyph glyph-name="uni04C8" unicode="&#x4c8;" horiz-adv-x="563" 
d="M56 0l55 446h144l-19 -155h161l19 155h144l-61 -496q-12 -96 -54 -137q-43 -42 -130 -42q-43 0 -80 10l14 114q18 -6 36 -6q31 0 47 16q19 18 26 73l24 197h-161l-21 -175h-144z" />
    <glyph glyph-name="uni04D0" unicode="&#x4d0;" horiz-adv-x="677" 
d="M517 0l-34 126h-252l-63 -126h-166l352 667h142l179 -667h-158zM289 244h166l-54 235zM535 886l111 -46q-55 -116 -208 -116q-81 0 -127 30q-48 31 -70 86l111 46q8 -29 30 -46q24 -18 61 -18q40 0 62 19q19 16 30 45z" />
    <glyph glyph-name="uni04D1" unicode="&#x4d1;" horiz-adv-x="598" 
d="M444 392l4 54h144l-55 -446h-144l11 51q-29 -34 -63 -50q-35 -16 -83 -16q-86 0 -138 55q-60 64 -60 164q0 118 72 192q64 65 164 65q52 0 87 -17q36 -17 61 -52zM327 337q-52 0 -85 -33q-34 -34 -34 -89q0 -45 29 -76q29 -30 76 -30q50 0 82 30q38 37 38 96q0 49 -31 77
q-27 25 -75 25zM468 662l101 -36q-20 -57 -70 -86q-45 -27 -119 -27q-72 0 -115 29q-45 31 -61 84l101 36q7 -26 28 -44q21 -17 53 -17t52 15q22 17 30 46z" />
    <glyph glyph-name="uni04D2" unicode="&#x4d2;" horiz-adv-x="677" 
d="M517 0l-34 126h-252l-63 -126h-166l352 667h142l179 -667h-158zM289 244h166l-54 235zM247 811q0 32 23.5 55.5t55.5 23.5t55.5 -23.5t23.5 -55.5t-23.5 -55.5t-55.5 -23.5t-55.5 23.5t-23.5 55.5zM465 811q0 32 23.5 55.5t55.5 23.5t55.5 -23.5t23.5 -55.5t-23.5 -55.5
t-55.5 -23.5t-55.5 23.5t-23.5 55.5z" />
    <glyph glyph-name="uni04D3" unicode="&#x4d3;" horiz-adv-x="598" 
d="M444 392l4 54h144l-55 -446h-144l11 51q-29 -34 -63 -50q-35 -16 -83 -16q-86 0 -138 55q-60 64 -60 164q0 118 72 192q64 65 164 65q52 0 87 -17q36 -17 61 -52zM327 337q-52 0 -85 -33q-34 -34 -34 -89q0 -45 29 -76q29 -30 76 -30q50 0 82 30q38 37 38 96q0 49 -31 77
q-27 25 -75 25zM166 599q0 32 23.5 55.5t55.5 23.5t55.5 -23.5t23.5 -55.5t-23.5 -55.5t-55.5 -23.5t-55.5 23.5t-23.5 55.5zM384 599q0 32 23.5 55.5t55.5 23.5t55.5 -23.5t23.5 -55.5t-23.5 -55.5t-55.5 -23.5t-55.5 23.5t-23.5 55.5z" />
    <glyph glyph-name="uni04D4" unicode="&#x4d4;" horiz-adv-x="920" 
d="M526 0l-35 129h-255l-66 -129h-164l355 667h379l32 -130h-232l35 -129h230l34 -130h-231l41 -148h232l33 -130h-388zM295 247h168l-55 219z" />
    <glyph glyph-name="uni04D5" unicode="&#x4d5;" horiz-adv-x="840" 
d="M683 141l134 -9q-26 -73 -87 -113q-54 -34 -135 -34q-68 0 -113 20q-41 19 -66 55q-30 -40 -75 -59q-41 -16 -106 -16q-94 0 -139 36q-47 37 -47 103q0 81 63 123q47 32 137 32q73 0 116 -27q8 56 -26 82q-25 21 -78 21q-51 0 -115 -22l13 110q64 18 127 18
q122 0 162 -77q63 77 174 77q97 0 153 -56q59 -59 59 -160q0 -19 -4 -47h-330q0 -52 26 -81q23 -27 72 -27q60 0 85 51zM268 192q-44 0 -67 -24q-14 -14 -14 -34q0 -18 15 -32q21 -19 60 -19q44 0 68 20q18 16 18 39q0 16 -14 30q-23 20 -66 20zM515 284h191q-8 35 -30 56
q-23 21 -61 21q-41 0 -66 -23q-23 -20 -34 -54z" />
    <glyph glyph-name="uni04D6" unicode="&#x4d6;" horiz-adv-x="502" 
d="M520 667l-16 -130h-218l-16 -129h210l-16 -130h-210l-18 -148h222l-16 -130h-372l82 667h368zM455 886l111 -46q-55 -116 -208 -116q-81 0 -127 30q-48 31 -70 86l111 46q8 -29 30 -46q24 -18 61 -18q40 0 62 19q19 16 30 45z" />
    <glyph glyph-name="uni04D7" unicode="&#x4d7;" horiz-adv-x="542" 
d="M218 283h181q-4 37 -29 58q-22 18 -59 18q-41 0 -68 -27q-19 -21 -25 -49zM537 195h-333q-2 -39 18 -67q23 -31 69 -31q37 0 57 13q20 14 31 40l145 -12q-29 -72 -81 -111q-56 -42 -153 -42q-114 0 -174 60q-56 56 -56 156q0 125 77 198q66 62 177 62q108 0 167 -57
q40 -39 51 -97.5t5 -111.5zM433 662l101 -36q-20 -57 -70 -86q-45 -27 -119 -27q-71 0 -115 29q-45 31 -61 84l101 36q7 -26 28 -44q21 -17 53 -17t52 15q22 17 30 46z" />
    <glyph glyph-name="uni04D8" unicode="&#x4d8;" horiz-adv-x="765" 
d="M83 375h517q-7 69 -47 114q-46 51 -130 51q-57 0 -98 -24q-37 -20 -61 -60l-148 51q48 82 119 126q77 49 190 49q156 0 244 -85q93 -89 93 -240q0 -181 -107 -284q-90 -88 -242 -88q-150 0 -235 86q-55 55 -80 138t-15 166zM588 267h-351q4 -34 20 -63.5t38 -46.5
q43 -34 111 -34q72 0 117 34q51 39 65 110z" />
    <glyph glyph-name="afii10846" unicode="&#x4d9;" horiz-adv-x="547" 
d="M61 255h334q0 50 -26 76q-23 23 -65 23q-32 0 -55 -16q-17 -12 -30 -35l-137 28q31 60 85 93q58 37 140 37q107 0 170 -60q62 -60 62 -160q0 -121 -71 -192q-63 -64 -176 -64q-106 0 -167 62q-74 74 -64 208zM385 166h-189q5 -34 26 -54q23 -23 65 -23q40 0 63 18
q26 20 35 59z" />
    <glyph glyph-name="uni04DA" unicode="&#x4da;" horiz-adv-x="765" 
d="M83 375h517q-7 69 -47 114q-46 51 -130 51q-57 0 -98 -24q-37 -20 -61 -60l-148 51q48 82 119 126q77 49 190 49q156 0 244 -85q93 -89 93 -240q0 -181 -107 -284q-90 -88 -242 -88q-150 0 -235 86q-55 55 -80 138t-15 166zM588 267h-351q4 -34 20 -63.5t38 -46.5
q43 -34 111 -34q72 0 117 34q51 39 65 110zM257 811q0 32 23.5 55.5t55.5 23.5t55.5 -23.5t23.5 -55.5t-23.5 -55.5t-55.5 -23.5t-55.5 23.5t-23.5 55.5zM475 811q0 32 23.5 55.5t55.5 23.5t55.5 -23.5t23.5 -55.5t-23.5 -55.5t-55.5 -23.5t-55.5 23.5t-23.5 55.5z" />
    <glyph glyph-name="uni04DB" unicode="&#x4db;" horiz-adv-x="547" 
d="M61 255h334q0 50 -26 76q-23 23 -65 23q-32 0 -55 -16q-17 -12 -30 -35l-137 28q31 60 85 93q58 37 140 37q107 0 170 -60q62 -60 62 -160q0 -121 -71 -192q-63 -64 -176 -64q-106 0 -167 62q-74 74 -64 208zM385 166h-189q5 -34 26 -54q23 -23 65 -23q40 0 63 18
q26 20 35 59zM141 599q0 32 23.5 55.5t55.5 23.5t55.5 -23.5t23.5 -55.5t-23.5 -55.5t-55.5 -23.5t-55.5 23.5t-23.5 55.5zM359 599q0 32 23.5 55.5t55.5 23.5t55.5 -23.5t23.5 -55.5t-23.5 -55.5t-55.5 -23.5t-55.5 23.5t-23.5 55.5z" />
    <glyph glyph-name="uni04DC" unicode="&#x4dc;" horiz-adv-x="941" 
d="M390 0l37 299l-238 -299h-186l290 354l-190 313h172l162 -286l35 286h154l-35 -286l232 286h176l-274 -328l203 -339h-182l-165 299l-37 -299h-154zM368 811q0 32 23.5 55.5t55.5 23.5t55.5 -23.5t23.5 -55.5t-23.5 -55.5t-55.5 -23.5t-55.5 23.5t-23.5 55.5zM586 811
q0 32 23.5 55.5t55.5 23.5t55.5 -23.5t23.5 -55.5t-23.5 -55.5t-55.5 -23.5t-55.5 23.5t-23.5 55.5z" />
    <glyph glyph-name="uni04DD" unicode="&#x4dd;" horiz-adv-x="762" 
d="M366 446h140l-22 -179l149 179h169l-188 -213l141 -233h-171l-109 193l-24 -193h-140l24 193l-157 -193h-181l211 239l-128 207h159l105 -179zM256 599q0 32 23.5 55.5t55.5 23.5t55.5 -23.5t23.5 -55.5t-23.5 -55.5t-55.5 -23.5t-55.5 23.5t-23.5 55.5zM474 599
q0 32 23.5 55.5t55.5 23.5t55.5 -23.5t23.5 -55.5t-23.5 -55.5t-55.5 -23.5t-55.5 23.5t-23.5 55.5z" />
    <glyph glyph-name="uni04DE" unicode="&#x4de;" horiz-adv-x="590" 
d="M188 492l-61 115q42 32 92 51q63 24 137 24q114 0 170 -56q44 -44 44 -116q0 -60 -32 -101q-29 -38 -75 -55q46 -17 71 -45q35 -39 35 -99q0 -93 -64 -157q-68 -68 -197 -68q-100 0 -165 31q-57 27 -103 77l89 112q32 -37 68 -59q43 -25 95 -25q55 0 85 24q28 22 28 62
q0 41 -37 60q-27 14 -87 14h-42l15 124h38q54 0 85 16q38 18 38 60q0 33 -28 51q-21 14 -64 14q-42 0 -75 -16q-30 -13 -60 -38zM167 811q0 32 23.5 55.5t55.5 23.5t55.5 -23.5t23.5 -55.5t-23.5 -55.5t-55.5 -23.5t-55.5 23.5t-23.5 55.5zM385 811q0 32 23.5 55.5
t55.5 23.5t55.5 -23.5t23.5 -55.5t-23.5 -55.5t-55.5 -23.5t-55.5 23.5t-23.5 55.5z" />
    <glyph glyph-name="uni04DF" unicode="&#x4df;" horiz-adv-x="463" 
d="M129 311l-47 96q38 25 78 38q49 16 110 16q77 0 125 -28q54 -35 54 -99q0 -45 -30 -75q-17 -17 -46 -27q28 -7 51 -28q27 -26 27 -69q0 -76 -56 -115q-50 -35 -149 -35q-81 0 -133 21q-44 17 -87 53l67 93q29 -25 58 -38q37 -17 77 -17q34 0 50 9q21 11 21 33
q0 25 -24 34q-19 7 -52 7h-48l12 98h46q40 0 52 6q24 9 24 32q0 18 -18 28q-16 9 -46 9q-35 0 -65 -13q-34 -17 -51 -29zM81 599q0 32 23.5 55.5t55.5 23.5t55.5 -23.5t23.5 -55.5t-23.5 -55.5t-55.5 -23.5t-55.5 23.5t-23.5 55.5zM299 599q0 32 23.5 55.5t55.5 23.5
t55.5 -23.5t23.5 -55.5t-23.5 -55.5t-55.5 -23.5t-55.5 23.5t-23.5 55.5z" />
    <glyph glyph-name="uni04E2" unicode="&#x4e2;" horiz-adv-x="743" 
d="M152 667h154l-54 -432l361 432h136l-82 -667h-154l54 433l-360 -433h-137zM266 753l12 92h388l-12 -92h-388z" />
    <glyph glyph-name="uni04E3" unicode="&#x4e3;" horiz-adv-x="580" 
d="M111 446h144l-31 -253l219 253h134l-55 -446h-144l32 257l-220 -257h-134zM159 543l11 90h380l-11 -90h-380z" />
    <glyph glyph-name="uni04E4" unicode="&#x4e4;" horiz-adv-x="743" 
d="M152 667h154l-54 -432l361 432h136l-82 -667h-154l54 433l-360 -433h-137zM280 811q0 32 23.5 55.5t55.5 23.5t55.5 -23.5t23.5 -55.5t-23.5 -55.5t-55.5 -23.5t-55.5 23.5t-23.5 55.5zM498 811q0 32 23.5 55.5t55.5 23.5t55.5 -23.5t23.5 -55.5t-23.5 -55.5t-55.5 -23.5
t-55.5 23.5t-23.5 55.5z" />
    <glyph glyph-name="uni04E5" unicode="&#x4e5;" horiz-adv-x="580" 
d="M111 446h144l-31 -253l219 253h134l-55 -446h-144l32 257l-220 -257h-134zM164 599q0 32 23.5 55.5t55.5 23.5t55.5 -23.5t23.5 -55.5t-23.5 -55.5t-55.5 -23.5t-55.5 23.5t-23.5 55.5zM382 599q0 32 23.5 55.5t55.5 23.5t55.5 -23.5t23.5 -55.5t-23.5 -55.5t-55.5 -23.5
t-55.5 23.5t-23.5 55.5z" />
    <glyph glyph-name="uni04E6" unicode="&#x4e6;" horiz-adv-x="810" 
d="M464 682q158 0 249 -87q94 -91 94 -237q0 -74 -26 -146t-77 -124q-101 -103 -276 -103q-160 0 -254 95q-94 96 -94 233q0 163 110 268q106 101 274 101zM458 540q-98 0 -159 -64t-61 -153q0 -86 54 -140q55 -56 146 -56q93 0 149 57q62 64 62 164q0 88 -53 140t-138 52z
M297 811q0 32 23.5 55.5t55.5 23.5t55.5 -23.5t23.5 -55.5t-23.5 -55.5t-55.5 -23.5t-55.5 23.5t-23.5 55.5zM515 811q0 32 23.5 55.5t55.5 23.5t55.5 -23.5t23.5 -55.5t-23.5 -55.5t-55.5 -23.5t-55.5 23.5t-23.5 55.5z" />
    <glyph glyph-name="uni04E7" unicode="&#x4e7;" horiz-adv-x="592" 
d="M337 461q118 0 187 -69q60 -60 60 -151q0 -109 -72 -183q-72 -73 -205 -73q-121 0 -186 67q-61 63 -61 157q0 107 72 176q78 76 205 76zM315 107q50 0 84 32q37 36 37 95q0 49 -30 77t-78 28q-46 0 -80 -31q-40 -36 -40 -95q0 -45 29 -76q28 -30 78 -30zM161 599
q0 32 23.5 55.5t55.5 23.5t55.5 -23.5t23.5 -55.5t-23.5 -55.5t-55.5 -23.5t-55.5 23.5t-23.5 55.5zM379 599q0 32 23.5 55.5t55.5 23.5t55.5 -23.5t23.5 -55.5t-23.5 -55.5t-55.5 -23.5t-55.5 23.5t-23.5 55.5z" />
    <glyph glyph-name="uni04E8" unicode="&#x4e8;" horiz-adv-x="810" 
d="M464 682q158 0 249 -87q94 -91 94 -237q0 -74 -26 -146t-77 -124q-101 -103 -276 -103q-160 0 -254 95q-94 96 -94 233q0 163 110 268q106 101 274 101zM255 399h387q-8 64 -60 104q-47 37 -126 37q-82 0 -135 -43q-47 -37 -66 -98zM637 269h-390q14 -68 65 -106
q47 -36 123 -36q80 0 128 34q55 38 74 108z" />
    <glyph glyph-name="uni04E9" unicode="&#x4e9;" horiz-adv-x="592" 
d="M337 461q118 0 187 -69q60 -60 60 -151q0 -109 -72 -183q-72 -73 -205 -73q-121 0 -186 67q-61 63 -61 157q0 107 72 176q78 76 205 76zM220 266h211q-10 37 -33 57q-26 22 -70 22q-45 0 -75 -27q-24 -22 -33 -52zM428 188h-218q7 -38 34 -61q29 -26 73 -26q41 0 69 21
q30 23 42 66z" />
    <glyph glyph-name="uni04EA" unicode="&#x4ea;" horiz-adv-x="810" 
d="M464 682q158 0 249 -87q94 -91 94 -237q0 -74 -26 -146t-77 -124q-101 -103 -276 -103q-160 0 -254 95q-94 96 -94 233q0 163 110 268q106 101 274 101zM255 399h387q-8 64 -60 104q-47 37 -126 37q-82 0 -135 -43q-47 -37 -66 -98zM637 269h-390q14 -68 65 -106
q47 -36 123 -36q80 0 128 34q55 38 74 108zM297 811q0 32 23.5 55.5t55.5 23.5t55.5 -23.5t23.5 -55.5t-23.5 -55.5t-55.5 -23.5t-55.5 23.5t-23.5 55.5zM515 811q0 32 23.5 55.5t55.5 23.5t55.5 -23.5t23.5 -55.5t-23.5 -55.5t-55.5 -23.5t-55.5 23.5t-23.5 55.5z" />
    <glyph glyph-name="uni04EB" unicode="&#x4eb;" horiz-adv-x="592" 
d="M337 461q118 0 187 -69q60 -60 60 -151q0 -109 -72 -183q-72 -73 -205 -73q-121 0 -186 67q-61 63 -61 157q0 107 72 176q78 76 205 76zM220 266h211q-10 37 -33 57q-26 22 -70 22q-45 0 -75 -27q-24 -22 -33 -52zM428 188h-218q7 -38 34 -61q29 -26 73 -26q41 0 69 21
q30 23 42 66zM171 599q0 32 23.5 55.5t55.5 23.5t55.5 -23.5t23.5 -55.5t-23.5 -55.5t-55.5 -23.5t-55.5 23.5t-23.5 55.5zM389 599q0 32 23.5 55.5t55.5 23.5t55.5 -23.5t23.5 -55.5t-23.5 -55.5t-55.5 -23.5t-55.5 23.5t-23.5 55.5z" />
    <glyph glyph-name="uni04EE" unicode="&#x4ee;" horiz-adv-x="622" 
d="M82 667h168l102 -308l172 308h170l-387 -667h-166l117 196zM193 753l12 92h388l-12 -92h-388z" />
    <glyph glyph-name="uni04EF" unicode="&#x4ef;" horiz-adv-x="583" 
d="M40 -229l184 286l-173 389h164l99 -244l150 244h169l-431 -675h-162zM142 543l11 90h380l-11 -90h-380z" />
    <glyph glyph-name="uni04F0" unicode="&#x4f0;" horiz-adv-x="622" 
d="M82 667h168l102 -308l172 308h170l-387 -667h-166l117 196zM202 811q0 32 23.5 55.5t55.5 23.5t55.5 -23.5t23.5 -55.5t-23.5 -55.5t-55.5 -23.5t-55.5 23.5t-23.5 55.5zM420 811q0 32 23.5 55.5t55.5 23.5t55.5 -23.5t23.5 -55.5t-23.5 -55.5t-55.5 -23.5t-55.5 23.5
t-23.5 55.5z" />
    <glyph glyph-name="uni04F1" unicode="&#x4f1;" horiz-adv-x="583" 
d="M40 -229l184 286l-173 389h164l99 -244l150 244h169l-431 -675h-162zM161 599q0 32 23.5 55.5t55.5 23.5t55.5 -23.5t23.5 -55.5t-23.5 -55.5t-55.5 -23.5t-55.5 23.5t-23.5 55.5zM379 599q0 32 23.5 55.5t55.5 23.5t55.5 -23.5t23.5 -55.5t-23.5 -55.5t-55.5 -23.5
t-55.5 23.5t-23.5 55.5z" />
    <glyph glyph-name="uni04F2" unicode="&#x4f2;" horiz-adv-x="622" 
d="M82 667h168l102 -308l172 308h170l-387 -667h-166l117 196zM360 925l77 -66l-156 -135l-49 48zM546 925l78 -66l-156 -135l-50 48z" />
    <glyph glyph-name="uni04F3" unicode="&#x4f3;" horiz-adv-x="583" 
d="M40 -229l184 286l-173 389h164l99 -244l150 244h169l-431 -675h-162zM307 710l74 -66l-151 -135l-46 48zM487 709l75 -65l-151 -135l-47 48z" />
    <glyph glyph-name="uni04F4" unicode="&#x4f4;" horiz-adv-x="646" 
d="M416 0l33 266q-63 -10 -118 -10q-113 0 -173 42q-60 44 -60 122q0 21 10 97l19 150h154l-17 -135q-6 -50 -6 -60q0 -45 33 -65q27 -17 87 -17q34 0 86 9l34 268h154l-82 -667h-154zM212 811q0 32 23.5 55.5t55.5 23.5t55.5 -23.5t23.5 -55.5t-23.5 -55.5t-55.5 -23.5
t-55.5 23.5t-23.5 55.5zM430 811q0 32 23.5 55.5t55.5 23.5t55.5 -23.5t23.5 -55.5t-23.5 -55.5t-55.5 -23.5t-55.5 23.5t-23.5 55.5z" />
    <glyph glyph-name="uni04F5" unicode="&#x4f5;" horiz-adv-x="518" 
d="M316 0l19 156q-42 -13 -90 -13q-93 0 -136 42q-33 33 -33 89q0 17 5 55l14 117h140l-14 -107q-6 -49 15 -65q18 -15 53 -15q33 0 60 10l22 177h144l-55 -446h-144zM121 599q0 32 23.5 55.5t55.5 23.5t55.5 -23.5t23.5 -55.5t-23.5 -55.5t-55.5 -23.5t-55.5 23.5
t-23.5 55.5zM339 599q0 32 23.5 55.5t55.5 23.5t55.5 -23.5t23.5 -55.5t-23.5 -55.5t-55.5 -23.5t-55.5 23.5t-23.5 55.5z" />
    <glyph glyph-name="uni04F8" unicode="&#x4f8;" horiz-adv-x="847" 
d="M70 0l83 667h152l-32 -261h91q106 0 163 -55q49 -47 49 -130q0 -103 -61 -162q-37 -35 -89.5 -47t-126.5 -12h-229zM258 283l-20 -160h64q62 0 85 15q37 22 37 72q0 39 -29 58q-22 15 -77 15h-60zM696 667h154l-82 -667h-154zM312 811q0 32 23.5 55.5t55.5 23.5
t55.5 -23.5t23.5 -55.5t-23.5 -55.5t-55.5 -23.5t-55.5 23.5t-23.5 55.5zM530 811q0 32 23.5 55.5t55.5 23.5t55.5 -23.5t23.5 -55.5t-23.5 -55.5t-55.5 -23.5t-55.5 23.5t-23.5 55.5z" />
    <glyph glyph-name="uni04F9" unicode="&#x4f9;" horiz-adv-x="703" 
d="M111 446h144l-19 -153h74q87 0 128 -42q35 -35 35 -95q0 -74 -42 -114q-47 -42 -151 -42h-224zM213 102h53q33 0 47 9q20 13 20 39q0 20 -14 31q-14 10 -50 10h-45zM556 446h144l-55 -446h-144zM225 599q0 32 23.5 55.5t55.5 23.5t55.5 -23.5t23.5 -55.5t-23.5 -55.5
t-55.5 -23.5t-55.5 23.5t-23.5 55.5zM443 599q0 32 23.5 55.5t55.5 23.5t55.5 -23.5t23.5 -55.5t-23.5 -55.5t-55.5 -23.5t-55.5 23.5t-23.5 55.5z" />
    <glyph glyph-name="uni1E9E" unicode="&#x1e9e;" horiz-adv-x="603" 
d="M222 0h-152l55 444q7 59 26 102.5t59 79.5q61 56 161 56q87 0 140 -40q66 -51 66 -131q0 -16 -1 -25l-109 -112q61 -21 91 -66q30 -44 22 -112q-6 -47 -33 -87.5t-63 -66.5q-68 -49 -194 -56l15 120q56 8 79 25q36 26 43 74q5 42 -27 69q-25 19 -72 23l11 92l86 100
q0 3 0.5 8t0.5 7q-2 27 -16 41q-17 17 -46 17q-33 0 -55 -22t-29 -67z" />
    <glyph glyph-name="uni2010" unicode="&#x2010;" horiz-adv-x="356" 
d="M73 190l16 126h256l-16 -126h-256z" />
    <glyph glyph-name="uni2011" unicode="&#x2011;" horiz-adv-x="356" 
d="M73 190l16 126h256l-16 -126h-256z" />
    <glyph glyph-name="figuredash" unicode="&#x2012;" horiz-adv-x="607" 
d="M94 282l14 118h467l-14 -118h-467z" />
    <glyph glyph-name="endash" unicode="&#x2013;" horiz-adv-x="607" 
d="M94 194l14 118h467l-14 -118h-467z" />
    <glyph glyph-name="emdash" unicode="&#x2014;" horiz-adv-x="874" 
d="M94 194l14 118h734l-14 -118h-734z" />
    <glyph glyph-name="afii00208" unicode="&#x2015;" horiz-adv-x="874" 
d="M94 194l14 118h734l-14 -118h-734z" />
    <glyph glyph-name="quoteleft" unicode="&#x2018;" horiz-adv-x="327" 
d="M365 667l-144 -282l-131 7l186 279z" />
    <glyph glyph-name="quoteright" unicode="&#x2019;" horiz-adv-x="394" 
d="M120 392l145 282l131 -7l-186 -279z" />
    <glyph glyph-name="quotesinglbase" unicode="&#x201a;" horiz-adv-x="394" 
d="M26 -128l145 282l131 -7l-186 -279z" />
    <glyph glyph-name="quotedblleft" unicode="&#x201c;" horiz-adv-x="535" 
d="M573 667l-145 -282l-131 7l187 279zM365 667l-144 -282l-131 7l186 279z" />
    <glyph glyph-name="quotedblright" unicode="&#x201d;" horiz-adv-x="613" 
d="M120 392l145 282l131 -7l-186 -279zM327 392l146 282l130 -7l-186 -279z" />
    <glyph glyph-name="quotedblbase" unicode="&#x201e;" horiz-adv-x="613" 
d="M30 -128l145 282l131 -7l-186 -279zM237 -128l146 282l130 -7l-186 -279z" />
    <glyph glyph-name="dagger" unicode="&#x2020;" horiz-adv-x="583" 
d="M292 527l25 202h132l-25 -202h157l-15 -116h-157l-73 -595h-132l73 595h-157l15 116h157z" />
    <glyph glyph-name="daggerdbl" unicode="&#x2021;" horiz-adv-x="582" 
d="M293 527l25 202h131l-25 -202h157l-15 -116h-157l-28 -229h157l-14 -115h-157l-31 -251h-131l31 251h-157l14 115h157l28 229h-157l15 116h157z" />
    <glyph glyph-name="bullet" unicode="&#x2022;" horiz-adv-x="1000" 
d="M393 340q0 58 41 99t99 41t99 -41t41 -99t-41 -99t-99 -41t-99 41t-41 99z" />
    <glyph glyph-name="ellipsis" unicode="&#x2026;" horiz-adv-x="894" 
d="M69 76q0 38 26.5 64.5t64.5 26.5t64.5 -26.5t26.5 -64.5t-26.5 -64.5t-64.5 -26.5t-64.5 26.5t-26.5 64.5zM362 76q0 38 26.5 64.5t64.5 26.5t64.5 -26.5t26.5 -64.5t-26.5 -64.5t-64.5 -26.5t-64.5 26.5t-26.5 64.5zM655 76q0 38 26.5 64.5t64.5 26.5t64.5 -26.5
t26.5 -64.5t-26.5 -64.5t-64.5 -26.5t-64.5 26.5t-26.5 64.5z" />
    <glyph glyph-name="perthousand" unicode="&#x2030;" horiz-adv-x="1245" 
d="M190 2l474 676l68 -15l-475 -677zM660 234q-39 0 -63 -23q-29 -27 -29 -69q0 -27 17 -47q19 -23 54 -23q38 0 64 27q26 26 26 65q0 34 -21 53q-18 17 -48 17zM664 315q80 0 122 -42q39 -37 39 -100q0 -79 -48 -130q-49 -52 -138 -52q-78 0 -121 38q-45 38 -45 107
q0 77 50 127q51 52 141 52zM284 676q80 0 122 -42q39 -37 39 -100q0 -79 -48 -130q-49 -52 -138 -52q-78 0 -121 38q-45 38 -45 107q0 77 50 127q51 52 141 52zM280 595q-39 0 -63 -23q-29 -27 -29 -69q0 -27 17 -47q19 -23 54 -23q38 0 64 27q26 26 26 65q0 34 -21 53
q-18 17 -48 17zM1074 315q80 0 122 -42q39 -37 39 -100q0 -79 -48 -130q-49 -52 -138 -52q-78 0 -121 38q-45 38 -45 107q0 77 50 127q51 52 141 52zM1070 234q-39 0 -63 -23q-29 -27 -29 -69q0 -27 17 -47q19 -23 54 -23q38 0 64 27q26 26 26 65q0 34 -21 53q-18 17 -48 17
z" />
    <glyph glyph-name="guilsinglleft" unicode="&#x2039;" horiz-adv-x="326" 
d="M321 371l-135 -160l98 -159l-88 -44l-128 216l175 209z" />
    <glyph glyph-name="guilsinglright" unicode="&#x203a;" horiz-adv-x="326" 
d="M196 234l-97 160l86 45l129 -215l-182 -216l-74 67z" />
    <glyph glyph-name="fraction" unicode="&#x2044;" horiz-adv-x="237" 
d="M-150 10l472 668l65 -23l-472 -669z" />
    <glyph glyph-name="Euro" unicode="&#x20ac;" horiz-adv-x="600" 
d="M548 181l-19 -153q-69 -43 -174 -43q-121 0 -196 59q-79 63 -86 169h-87l47 90h40q4 40 7 57h-76l47 90h51q26 83 90 141q100 91 259 91q92 0 174 -39l-70 -129q-51 33 -117 33t-111 -27q-41 -24 -61 -70h264l-47 -90h-243q-8 -30 -6 -57h223l-47 -90h-170q9 -46 48 -70
q36 -23 97 -23q99 0 163 61z" />
    <glyph glyph-name="uni20B4" unicode="&#x20b4;" horiz-adv-x="600" 
d="M171 616q39 22 91 41q70 25 142 25q85 0 133 -47q42 -42 42 -105q0 -44 -32 -78h68l-11 -97h-150l-97 -63h239l-12 -97h-308q-12 -12 -12 -29q0 -25 22 -37q17 -10 51 -10q41 0 78 11q35 10 67 31l61 -114q-54 -29 -109 -44q-70 -18 -145 -18q-80 0 -127 37
q-55 43 -55 111q0 34 20 62h-66l12 97h124l97 63h-213l11 97h300q26 19 26 47q0 21 -16 35q-19 18 -59 18q-33 0 -69 -17q-28 -14 -48 -31z" />
    <glyph glyph-name="uni20B6" unicode="&#x20b6;" horiz-adv-x="600" 
d="M402 667q117 0 173 -56q54 -54 54 -147q0 -101 -64 -157q-68 -59 -198 -59h-88l-7 -63h184l-12 -97h-184l-11 -88h-154l11 88h-72l12 97h72l7 63h-72l14 112h72l38 307h225zM316 541l-23 -181h55q68 0 97 29q26 25 26 69q0 37 -22 58q-26 25 -87 25h-46z" />
    <glyph glyph-name="uni20B6" unicode="&#x20cf;" horiz-adv-x="600" 
d="M402 667q117 0 173 -56q54 -54 54 -147q0 -101 -64 -157q-68 -59 -198 -59h-88l-7 -63h184l-12 -97h-184l-11 -88h-154l11 88h-72l12 97h72l7 63h-72l14 112h72l38 307h225zM316 541l-23 -181h55q68 0 97 29q26 25 26 69q0 37 -22 58q-26 25 -87 25h-46z" />
    <glyph glyph-name="uni20B6" unicode="&#x20ce;" horiz-adv-x="600" 
d="M402 667q117 0 173 -56q54 -54 54 -147q0 -101 -64 -157q-68 -59 -198 -59h-88l-7 -63h184l-12 -97h-184l-11 -88h-154l11 88h-72l12 97h72l7 63h-72l14 112h72l38 307h225zM316 541l-23 -181h55q68 0 97 29q26 25 26 69q0 37 -22 58q-26 25 -87 25h-46z" />
    <glyph glyph-name="uni20B6" unicode="&#x20cd;" horiz-adv-x="600" 
d="M402 667q117 0 173 -56q54 -54 54 -147q0 -101 -64 -157q-68 -59 -198 -59h-88l-7 -63h184l-12 -97h-184l-11 -88h-154l11 88h-72l12 97h72l7 63h-72l14 112h72l38 307h225zM316 541l-23 -181h55q68 0 97 29q26 25 26 69q0 37 -22 58q-26 25 -87 25h-46z" />
    <glyph glyph-name="uni20B6" unicode="&#x20cc;" horiz-adv-x="600" 
d="M402 667q117 0 173 -56q54 -54 54 -147q0 -101 -64 -157q-68 -59 -198 -59h-88l-7 -63h184l-12 -97h-184l-11 -88h-154l11 88h-72l12 97h72l7 63h-72l14 112h72l38 307h225zM316 541l-23 -181h55q68 0 97 29q26 25 26 69q0 37 -22 58q-26 25 -87 25h-46z" />
    <glyph glyph-name="uni20B6" unicode="&#x20cb;" horiz-adv-x="600" 
d="M402 667q117 0 173 -56q54 -54 54 -147q0 -101 -64 -157q-68 -59 -198 -59h-88l-7 -63h184l-12 -97h-184l-11 -88h-154l11 88h-72l12 97h72l7 63h-72l14 112h72l38 307h225zM316 541l-23 -181h55q68 0 97 29q26 25 26 69q0 37 -22 58q-26 25 -87 25h-46z" />
    <glyph glyph-name="uni20B6" unicode="&#x20ca;" horiz-adv-x="600" 
d="M402 667q117 0 173 -56q54 -54 54 -147q0 -101 -64 -157q-68 -59 -198 -59h-88l-7 -63h184l-12 -97h-184l-11 -88h-154l11 88h-72l12 97h72l7 63h-72l14 112h72l38 307h225zM316 541l-23 -181h55q68 0 97 29q26 25 26 69q0 37 -22 58q-26 25 -87 25h-46z" />
    <glyph glyph-name="uni20B6" unicode="&#x20c9;" horiz-adv-x="600" 
d="M402 667q117 0 173 -56q54 -54 54 -147q0 -101 -64 -157q-68 -59 -198 -59h-88l-7 -63h184l-12 -97h-184l-11 -88h-154l11 88h-72l12 97h72l7 63h-72l14 112h72l38 307h225zM316 541l-23 -181h55q68 0 97 29q26 25 26 69q0 37 -22 58q-26 25 -87 25h-46z" />
    <glyph glyph-name="uni20B6" unicode="&#x20c8;" horiz-adv-x="600" 
d="M402 667q117 0 173 -56q54 -54 54 -147q0 -101 -64 -157q-68 -59 -198 -59h-88l-7 -63h184l-12 -97h-184l-11 -88h-154l11 88h-72l12 97h72l7 63h-72l14 112h72l38 307h225zM316 541l-23 -181h55q68 0 97 29q26 25 26 69q0 37 -22 58q-26 25 -87 25h-46z" />
    <glyph glyph-name="uni20B6" unicode="&#x20c7;" horiz-adv-x="600" 
d="M402 667q117 0 173 -56q54 -54 54 -147q0 -101 -64 -157q-68 -59 -198 -59h-88l-7 -63h184l-12 -97h-184l-11 -88h-154l11 88h-72l12 97h72l7 63h-72l14 112h72l38 307h225zM316 541l-23 -181h55q68 0 97 29q26 25 26 69q0 37 -22 58q-26 25 -87 25h-46z" />
    <glyph glyph-name="uni20B6" unicode="&#x20c6;" horiz-adv-x="600" 
d="M402 667q117 0 173 -56q54 -54 54 -147q0 -101 -64 -157q-68 -59 -198 -59h-88l-7 -63h184l-12 -97h-184l-11 -88h-154l11 88h-72l12 97h72l7 63h-72l14 112h72l38 307h225zM316 541l-23 -181h55q68 0 97 29q26 25 26 69q0 37 -22 58q-26 25 -87 25h-46z" />
    <glyph glyph-name="uni20B6" unicode="&#x20c5;" horiz-adv-x="600" 
d="M402 667q117 0 173 -56q54 -54 54 -147q0 -101 -64 -157q-68 -59 -198 -59h-88l-7 -63h184l-12 -97h-184l-11 -88h-154l11 88h-72l12 97h72l7 63h-72l14 112h72l38 307h225zM316 541l-23 -181h55q68 0 97 29q26 25 26 69q0 37 -22 58q-26 25 -87 25h-46z" />
    <glyph glyph-name="uni20B6" unicode="&#x20c4;" horiz-adv-x="600" 
d="M402 667q117 0 173 -56q54 -54 54 -147q0 -101 -64 -157q-68 -59 -198 -59h-88l-7 -63h184l-12 -97h-184l-11 -88h-154l11 88h-72l12 97h72l7 63h-72l14 112h72l38 307h225zM316 541l-23 -181h55q68 0 97 29q26 25 26 69q0 37 -22 58q-26 25 -87 25h-46z" />
    <glyph glyph-name="uni20B6" unicode="&#x20c3;" horiz-adv-x="600" 
d="M402 667q117 0 173 -56q54 -54 54 -147q0 -101 -64 -157q-68 -59 -198 -59h-88l-7 -63h184l-12 -97h-184l-11 -88h-154l11 88h-72l12 97h72l7 63h-72l14 112h72l38 307h225zM316 541l-23 -181h55q68 0 97 29q26 25 26 69q0 37 -22 58q-26 25 -87 25h-46z" />
    <glyph glyph-name="uni20B6" unicode="&#x20c2;" horiz-adv-x="600" 
d="M402 667q117 0 173 -56q54 -54 54 -147q0 -101 -64 -157q-68 -59 -198 -59h-88l-7 -63h184l-12 -97h-184l-11 -88h-154l11 88h-72l12 97h72l7 63h-72l14 112h72l38 307h225zM316 541l-23 -181h55q68 0 97 29q26 25 26 69q0 37 -22 58q-26 25 -87 25h-46z" />
    <glyph glyph-name="uni20B6" unicode="&#x20c1;" horiz-adv-x="600" 
d="M402 667q117 0 173 -56q54 -54 54 -147q0 -101 -64 -157q-68 -59 -198 -59h-88l-7 -63h184l-12 -97h-184l-11 -88h-154l11 88h-72l12 97h72l7 63h-72l14 112h72l38 307h225zM316 541l-23 -181h55q68 0 97 29q26 25 26 69q0 37 -22 58q-26 25 -87 25h-46z" />
    <glyph glyph-name="uni20B6" unicode="&#x20c0;" horiz-adv-x="600" 
d="M402 667q117 0 173 -56q54 -54 54 -147q0 -101 -64 -157q-68 -59 -198 -59h-88l-7 -63h184l-12 -97h-184l-11 -88h-154l11 88h-72l12 97h72l7 63h-72l14 112h72l38 307h225zM316 541l-23 -181h55q68 0 97 29q26 25 26 69q0 37 -22 58q-26 25 -87 25h-46z" />
    <glyph glyph-name="uni20B6" unicode="&#x20bf;" horiz-adv-x="600" 
d="M402 667q117 0 173 -56q54 -54 54 -147q0 -101 -64 -157q-68 -59 -198 -59h-88l-7 -63h184l-12 -97h-184l-11 -88h-154l11 88h-72l12 97h72l7 63h-72l14 112h72l38 307h225zM316 541l-23 -181h55q68 0 97 29q26 25 26 69q0 37 -22 58q-26 25 -87 25h-46z" />
    <glyph glyph-name="uni20B6" unicode="&#x20be;" horiz-adv-x="600" 
d="M402 667q117 0 173 -56q54 -54 54 -147q0 -101 -64 -157q-68 -59 -198 -59h-88l-7 -63h184l-12 -97h-184l-11 -88h-154l11 88h-72l12 97h72l7 63h-72l14 112h72l38 307h225zM316 541l-23 -181h55q68 0 97 29q26 25 26 69q0 37 -22 58q-26 25 -87 25h-46z" />
    <glyph glyph-name="uni20B6" unicode="&#x20bd;" horiz-adv-x="600" 
d="M402 667q117 0 173 -56q54 -54 54 -147q0 -101 -64 -157q-68 -59 -198 -59h-88l-7 -63h184l-12 -97h-184l-11 -88h-154l11 88h-72l12 97h72l7 63h-72l14 112h72l38 307h225zM316 541l-23 -181h55q68 0 97 29q26 25 26 69q0 37 -22 58q-26 25 -87 25h-46z" />
    <glyph glyph-name="uni20B6" unicode="&#x20bc;" horiz-adv-x="600" 
d="M402 667q117 0 173 -56q54 -54 54 -147q0 -101 -64 -157q-68 -59 -198 -59h-88l-7 -63h184l-12 -97h-184l-11 -88h-154l11 88h-72l12 97h72l7 63h-72l14 112h72l38 307h225zM316 541l-23 -181h55q68 0 97 29q26 25 26 69q0 37 -22 58q-26 25 -87 25h-46z" />
    <glyph glyph-name="uni20B6" unicode="&#x20bb;" horiz-adv-x="600" 
d="M402 667q117 0 173 -56q54 -54 54 -147q0 -101 -64 -157q-68 -59 -198 -59h-88l-7 -63h184l-12 -97h-184l-11 -88h-154l11 88h-72l12 97h72l7 63h-72l14 112h72l38 307h225zM316 541l-23 -181h55q68 0 97 29q26 25 26 69q0 37 -22 58q-26 25 -87 25h-46z" />
    <glyph glyph-name="uni20B6" unicode="&#x20ba;" horiz-adv-x="600" 
d="M402 667q117 0 173 -56q54 -54 54 -147q0 -101 -64 -157q-68 -59 -198 -59h-88l-7 -63h184l-12 -97h-184l-11 -88h-154l11 88h-72l12 97h72l7 63h-72l14 112h72l38 307h225zM316 541l-23 -181h55q68 0 97 29q26 25 26 69q0 37 -22 58q-26 25 -87 25h-46z" />
    <glyph glyph-name="uni20B6" unicode="&#x20b9;" horiz-adv-x="600" 
d="M402 667q117 0 173 -56q54 -54 54 -147q0 -101 -64 -157q-68 -59 -198 -59h-88l-7 -63h184l-12 -97h-184l-11 -88h-154l11 88h-72l12 97h72l7 63h-72l14 112h72l38 307h225zM316 541l-23 -181h55q68 0 97 29q26 25 26 69q0 37 -22 58q-26 25 -87 25h-46z" />
    <glyph glyph-name="uni20B6" unicode="&#x20b7;" horiz-adv-x="600" 
d="M402 667q117 0 173 -56q54 -54 54 -147q0 -101 -64 -157q-68 -59 -198 -59h-88l-7 -63h184l-12 -97h-184l-11 -88h-154l11 88h-72l12 97h72l7 63h-72l14 112h72l38 307h225zM316 541l-23 -181h55q68 0 97 29q26 25 26 69q0 37 -22 58q-26 25 -87 25h-46z" />
    <glyph glyph-name="uni20B8" unicode="&#x20b8;" horiz-adv-x="600" 
d="M570 417h-146l-51 -417h-154l51 417h-144l15 120h444zM589 577h-444l12 90h444z" />
    <glyph glyph-name="afii61352" unicode="&#x2116;" horiz-adv-x="1142" 
d="M999 667q81 0 125 -46q38 -39 38 -103q0 -77 -44 -121q-46 -46 -129 -46q-82 0 -129 47q-39 41 -39 104q0 72 45 117q48 48 133 48zM995 583q-30 0 -52 -22q-22 -24 -22 -59q0 -30 19 -49q16 -18 49 -18q30 0 52 22q21 23 21 57q0 32 -19 51q-18 18 -48 18zM810 285h316
l-11 -90h-316zM224 0h-154l81 667h134l268 -432l53 432h154l-82 -667h-134l-267 430z" />
    <glyph glyph-name="uni2117" unicode="&#x2117;" horiz-adv-x="762" 
d="M292 529h142q80 0 118 -40q33 -34 33 -89q0 -54 -31 -87q-35 -36 -119 -36h-35v-127h-108v379zM400 447v-88h15q36 0 50 12t14 33q0 20 -14 32q-14 11 -51 11h-14zM421 620q-49 0 -101.5 -21t-89.5 -57q-38 -37 -62 -93t-24 -115q0 -60 24 -116.5t62 -92.5
q37 -36 89.5 -57t101.5 -21t101.5 21t89.5 57q38 36 62 92.5t24 116.5q0 59 -24 115t-62 93q-37 36 -89.5 57t-101.5 21zM768 333q0 -146 -103 -249q-101 -99 -244 -99t-244 99q-103 103 -103 249q0 147 103 250q101 99 244 99t244 -99q103 -103 103 -250z" />
    <glyph glyph-name="trademark" unicode="&#x2122;" horiz-adv-x="766" 
d="M337 585h-82l-37 -298h-94l37 298h-81l10 82h257zM410 287h-94l112 380h83l56 -209l114 209h82l12 -380h-94l-2 208l-113 -208h-40l-59 208z" />
    <glyph glyph-name="partialdiff" unicode="&#x2202;" horiz-adv-x="539" 
d="M105 567l17 110q85 -6 167.5 -35t140.5 -84q63 -59 89 -136t26 -147q0 -137 -76 -218q-65 -69 -175 -69q-105 0 -172 64q-70 69 -70 169q0 96 67 161q58 57 145 57q71 0 123 -40q-34 80 -106 120q-73 41 -176 48zM299 110q40 0 68 27q34 34 34 82q0 52 -35 82
q-27 24 -71 24q-42 0 -70 -25q-35 -32 -35 -81q0 -47 32 -79q30 -30 77 -30z" />
    <glyph glyph-name="product" unicode="&#x220f;" horiz-adv-x="738" 
d="M80 634v116h658v-116h-82v-768h82v-116h-292v116h80v768h-234v-768h80v-116h-292v116h82v768h-82z" />
    <glyph glyph-name="summation" unicode="&#x2211;" horiz-adv-x="672" 
d="M72 750h599v-247h-117l-13 131h-323l250 -367l-250 -401h332l8 134h122v-250h-608v130l243 387l-243 353v130z" />
    <glyph glyph-name="minus" unicode="&#x2212;" 
d="M71 282v116h434v-116h-434z" />
    <glyph glyph-name="uni2215" unicode="&#x2215;" horiz-adv-x="697" 
d="M-40 -184l634 933l113 -20l-634 -933z" />
    <glyph glyph-name="uni2219" unicode="&#x2219;" horiz-adv-x="256" 
d="M53 334q0 46 31 77t77 31t77 -31t31 -77t-31 -77t-77 -31t-77 31t-31 77z" />
    <glyph glyph-name="radical" unicode="&#x221a;" horiz-adv-x="668" 
d="M438 827h290v-114h-180l-169 -713h-166l-59 272h-94v114h198l11 -52q14 -65 17 -94q6 -58 6 -87h11q8 95 17 149q13 78 29 145z" />
    <glyph glyph-name="infinity" unicode="&#x221e;" horiz-adv-x="674" 
d="M512 391q-25 0 -45 -17q-17 -14 -30 -35q15 -20 25 -29q25 -22 50 -22q26 0 41 15t15 39q0 20 -15 34q-17 15 -41 15zM377 258q-25 -34 -63 -56q-45 -25 -95 -25q-64 0 -108 41q-51 49 -51 125q0 69 47 114t118 45q45 0 86 -24q36 -21 66 -56q30 35 66 56q41 24 86 24
q71 0 118 -45t47 -114q0 -76 -51 -125q-43 -41 -108 -41q-45 0 -95 27q-37 20 -63 54zM242 391q-24 0 -41 -15q-15 -14 -15 -34q0 -24 15 -39t41 -15q24 0 50 22q17 15 25 29q-13 21 -30 35q-20 17 -45 17z" />
    <glyph glyph-name="integral" unicode="&#x222b;" horiz-adv-x="507" 
d="M358 558v-589q0 -59 -9 -101t-39 -73q-44 -45 -132 -45q-44 0 -85 10l23 112q30 -10 55 -10q29 0 43 17q14 16 14 63v572q0 142 48 192q42 44 129 44q44 0 89 -10l-24 -112q-25 10 -51 10q-29 0 -44 -15q-17 -17 -17 -65z" />
    <glyph glyph-name="approxequal" unicode="&#x2248;" 
d="M306 167l-49 18q-46 17 -65 17q-28 0 -46 -18q-15 -13 -29 -44l-70 44q22 64 58 100q37 39 94 39q30 0 74 -16l50 -19q45 -16 66 -16q24 0 41 13q18 13 32 40l72 -41q-21 -53 -58 -92q-40 -41 -96 -41q-30 0 -74 16zM306 368l-49 18q-46 17 -65 17q-28 0 -46 -18
q-15 -13 -29 -44l-70 44q25 67 58 100q39 39 94 39q31 0 78 -18l46 -17q45 -16 66 -16q24 0 41 13q18 13 32 40l72 -41q-21 -53 -58 -92q-40 -41 -96 -41q-30 0 -74 16z" />
    <glyph glyph-name="notequal" unicode="&#x2260;" 
d="M74 366v110h232l52 106h99l-51 -106h101v-110h-153l-33 -70h186v-110h-237l-51 -104h-99l50 104h-96v110h147l34 70h-181z" />
    <glyph glyph-name="lessequal" unicode="&#x2264;" 
d="M59 458l434 207v-117l-305 -143l305 -136v-118l-434 202v105zM59 122h434v-114h-434v114z" />
    <glyph glyph-name="greaterequal" unicode="&#x2265;" 
d="M499 458v-105l-434 -202v118l305 136l-305 143v117zM499 122v-114h-434v114h434z" />
    <glyph glyph-name="dotmath" unicode="&#x22c5;" horiz-adv-x="256" 
d="M53 334q0 46 31 77t77 31t77 -31t31 -77t-31 -77t-77 -31t-77 31t-31 77z" />
    <glyph glyph-name="lozenge" unicode="&#x25ca;" horiz-adv-x="700" 
d="M132 334l260 360l260 -360l-260 -360zM505 334l-113 155l-113 -155l113 -155z" />
    <glyph glyph-name="openbullet" unicode="&#x25e6;" horiz-adv-x="502" 
d="M235 515q0 -30 22.5 -52t53.5 -22t53.5 22t22.5 52t-22.5 52t-53.5 22t-53.5 -22t-22.5 -52zM157 515q0 64 44.5 108t109.5 44t109.5 -44t44.5 -108t-44.5 -108t-109.5 -44t-109.5 44t-44.5 108z" />
    <glyph glyph-name="uniF400" unicode="&#xf400;" horiz-adv-x="2" 
d="M-175 715l86 -65l-169 -135l-59 48z" />
    <glyph glyph-name="uniF401" unicode="&#xf401;" horiz-adv-x="2" 
d="M-177 925l86 -72l-180 -129l-59 53z" />
    <glyph glyph-name="uniF406" unicode="&#xf406;" 
d="M433 874h96q-12 -66 -51 -105q-44 -44 -127 -44q-81 0 -123 42q-41 41 -43 107h96q2 -25 16 -42q18 -21 57 -21q35 0 55 18q19 17 24 45z" />
    <glyph glyph-name="uniF407" unicode="&#xf407;" 
d="M245 -46l100 -50l-120 -140l-80 40z" />
    <glyph glyph-name="uniF408" unicode="&#xf408;" 
d="M223 726l-64 71l205 140l172 -140l-66 -71l-114 93z" />
    <glyph glyph-name="uniF409" unicode="&#xf409;" 
d="M120 -248l66 198l134 -16l-108 -194z" />
    <glyph glyph-name="uniF40A" unicode="&#xf40a;" 
d="M170 472l104 208l130 -30l-146 -198z" />
    <glyph glyph-name="uniF40B" unicode="&#xf40b;" 
d="M265 815q0 36 24.5 60.5t60.5 24.5t60.5 -24.5t24.5 -60.5t-24.5 -60.5t-60.5 -24.5t-60.5 24.5t-24.5 60.5z" />
    <glyph glyph-name="uniF40C" unicode="&#xf40c;" 
d="M468 827q0 -39 -27 -66q-34 -32 -89 -32t-89 32q-27 27 -27 66t27 66q34 32 89 32t89 -32q27 -27 27 -66zM352 866q-22 0 -34 -12t-12 -27t12 -27t34 -12t34 12t12 27t-12 27t-34 12z" />
    <glyph glyph-name="uniF40D" unicode="&#xf40d;" 
d="M477 867l65 -50q-19 -32 -47 -58q-34 -31 -77 -31q-24 0 -62 15l-33 13q-37 15 -52 15q-31 0 -51 -39l-65 50q19 34 40 55q34 34 82 34q28 0 63 -14l34 -14q32 -14 51 -14q30 0 52 38z" />
    <glyph glyph-name="uniF40E" unicode="&#xf40e;" 
d="M364 -95l-27 -77q-32 -17 -68 -17q-39 0 -59 18q-23 19 -23 51q0 35 29 72q19 25 44 48h66q-12 -13 -30 -35q-20 -27 -20 -44q0 -13 10 -22q9 -9 26 -9q27 0 52 15z" />
    <glyph glyph-name="uniF4C6" unicode="&#xf4c6;" horiz-adv-x="646" 
d="M498 667h154l-90 -727q-11 -87 -51 -126q-45 -43 -133 -43q-48 0 -88 10l14 116q18 -8 40 -8q28 0 44 15q19 19 28 96l33 266q-58 -10 -120 -10q-114 0 -171 42q-60 44 -60 122q0 21 10 97l19 150h154l-17 -135q-6 -50 -6 -60q0 -45 33 -65q27 -17 87 -17q34 0 86 9z" />
    <glyph glyph-name="uniF4C7" unicode="&#xf4c7;" horiz-adv-x="518" 
d="M371 446h144l-61 -496q-12 -96 -54 -137q-43 -42 -130 -42q-43 0 -80 10l14 114q18 -6 36 -6q31 0 47 16q19 18 26 73l22 178q-42 -13 -90 -13q-93 0 -136 42q-33 33 -33 89q0 17 5 55l14 117h140l-14 -107q-6 -49 15 -65q18 -15 53 -15q33 0 60 10z" />
    <glyph glyph-name="uniF4CC" unicode="&#xf4cc;" horiz-adv-x="622" 
d="M82 667h168l102 -308l172 308h170l-387 -667h-166l117 196zM480 925l86 -72l-180 -129l-59 53z" />
    <glyph glyph-name="uniF4CD" unicode="&#xf4cd;" horiz-adv-x="583" 
d="M40 -229l184 286l-173 389h164l99 -244l150 244h169l-431 -675h-162zM431 715l86 -65l-169 -135l-59 48z" />
    <glyph glyph-name="dollar.fitted" unicode="&#xf5f5;" horiz-adv-x="527" 
d="M316 775h90l-12 -101q78 -6 147 -67l-74 -108q-48 51 -110 51q-43 0 -63 -20q-19 -17 -19 -46q0 -26 21 -44q15 -12 63 -35l37 -17q56 -26 85 -63q33 -42 33 -104q0 -93 -61 -158q-57 -59 -142 -65l-15 -110h-90l15 108q-103 14 -178 95l79 102q29 -31 56 -47
q41 -24 82 -24q49 0 75 21t26 59q0 27 -22 47q-13 12 -61 36l-33 17q-62 31 -89 67q-31 40 -31 101q0 89 56 145q49 49 123 59z" />
    <glyph glyph-name="Euro.fitted" unicode="&#xf5f6;" horiz-adv-x="682" 
d="M620 181l-19 -153q-69 -43 -174 -43q-121 0 -196 59q-79 63 -86 169h-87l47 90h40q4 40 7 57h-76l47 90h51q26 83 90 141q100 91 259 91q92 0 174 -39l-70 -129q-51 33 -117 33t-111 -27q-41 -24 -61 -70h264l-47 -90h-243q-8 -30 -6 -57h223l-47 -90h-170q9 -46 48 -70
q36 -23 97 -23q99 0 163 61z" />
    <glyph glyph-name="cent.fitted" unicode="&#xf5f7;" horiz-adv-x="416" 
d="M447 544l-16 -130q-44 36 -96 36q-54 0 -87 -33q-35 -35 -35 -84q0 -46 29 -75q30 -30 81 -30t90 34l-17 -133q-39 -19 -82 -23l-11 -93h-90l13 100q-70 14 -116 69q-45 58 -45 140q0 114 68 182q59 59 147 66l10 90h90l-11 -94q37 -4 78 -22z" />
    <glyph glyph-name="sterling.fitted" unicode="&#xf5f8;" horiz-adv-x="621" 
d="M201 248h-110l11 92h75q-21 65 -21 121q0 96 61 157q64 64 178 64q109 0 168 -63q57 -59 57 -160q0 -18 -1 -27h-145q1 6 1 21q0 52 -25 78q-22 22 -59 22q-34 0 -58 -21q-32 -28 -32 -84q0 -22 22 -108h166l-12 -92h-146q1 -6 1 -18q0 -46 -26 -85q30 -7 59 -20
q43 -17 62 -17q24 0 38 15q13 15 18 33l104 -10q-10 -73 -53 -120q-39 -41 -108 -41q-46 0 -103 22l-41 16q-35 15 -65 15q-48 0 -59 -43l-107 9q17 57 43 93q33 45 92 58q17 28 17 65q0 18 -2 28z" />
    <glyph glyph-name="yen.fitted" unicode="&#xf5f9;" horiz-adv-x="626" 
d="M248 347h-140l12 97h82l-107 223h168l91 -212l140 212h182l-165 -223h86l-12 -97h-146l-28 -35l-3 -28h169l-12 -97h-169l-23 -187h-146l23 187h-162l12 97h162l3 28z" />
    <glyph glyph-name="florin.fitted" unicode="&#xf5fa;" horiz-adv-x="638" 
d="M221 118l60 238h-68l21 90h69l29 115q20 83 69 130q50 49 131 49q52 0 98 -20l-32 -123q-25 17 -55 17q-29 0 -47 -17q-21 -19 -34 -74l-19 -77h102l-22 -90h-102l-68 -268q-20 -80 -39.5 -125.5t-50.5 -78.5q-65 -68 -189 -68q-38 0 -66 7l32 128q20 -5 41 -5
q49 0 79 28q21 18 33 50t28 94z" />
    <glyph glyph-name="uni20B4.fitted" unicode="&#xf5fb;" horiz-adv-x="593" 
d="M167 616q39 22 91 41q70 25 142 25q85 0 133 -47q42 -42 42 -105q0 -44 -32 -78h68l-11 -97h-150l-97 -63h239l-12 -97h-308q-12 -12 -12 -29q0 -25 22 -37q17 -10 51 -10q41 0 78 11q35 10 67 31l61 -114q-54 -29 -109 -44q-70 -18 -145 -18q-80 0 -127 37
q-55 43 -55 111q0 34 20 62h-66l12 97h124l97 63h-213l11 97h300q26 19 26 47q0 21 -16 35q-19 18 -59 18q-33 0 -69 -17q-28 -14 -48 -31z" />
    <glyph glyph-name="uni20B6.fitted" unicode="&#xf5fc;" horiz-adv-x="629" 
d="M411 667q117 0 173 -56q54 -54 54 -147q0 -101 -64 -157q-68 -59 -198 -59h-88l-7 -63h184l-12 -97h-184l-11 -88h-154l11 88h-72l12 97h72l7 63h-72l14 112h72l38 307h225zM325 541l-23 -181h55q68 0 97 29q26 25 26 69q0 37 -22 58q-26 25 -87 25h-46z" />
    <glyph glyph-name="uni20B8.fitted" unicode="&#xf5fd;" horiz-adv-x="501" 
d="M461 417h-146l-51 -417h-154l51 417h-144l15 120h444zM480 577h-444l12 90h444z" />
    <glyph glyph-name="numbersign.fitted" unicode="&#xf5ff;" horiz-adv-x="665" 
d="M539 295h102l-30 -111h-102l-53 -184h-128l53 184h-89l-53 -184h-128l53 184h-101l31 111h100l27 92h-100l30 110h100l49 170h128l-49 -170h89l49 170h128l-49 -170h101l-30 -110h-101zM411 295l27 92h-89l-27 -92h89z" />
    <glyph glyph-name="uniF639" unicode="&#xf639;" horiz-adv-x="583" 
d="M298 -15q-109 0 -173 62q-82 80 -82 233q0 103 32.5 185.5t83.5 134.5q81 82 200 82q104 0 167 -63q77 -77 77 -230q0 -216 -117 -332q-42 -41 -85 -56.5t-103 -15.5zM300 117q43 0 73 31q38 39 56 107t18 136q0 107 -43 142q-22 17 -50 17q-42 0 -76 -31
q-39 -36 -59 -102.5t-20 -135.5q0 -93 36 -133q27 -31 65 -31z" />
    <glyph glyph-name="uniF63A" unicode="&#xf63a;" horiz-adv-x="583" 
d="M21 0l200 200q86 86 126 137q61 77 61 134q0 40 -25 62q-21 19 -60 19q-41 0 -63 -25q-25 -28 -29 -81h-154q8 98 69 163q68 73 187 73q115 0 178 -61q55 -53 55 -142q0 -77 -44 -144q-36 -54 -109 -121l-91 -84h211l-17 -130h-495z" />
    <glyph glyph-name="uniF63B" unicode="&#xf63b;" horiz-adv-x="542" 
d="M237 467h-148q12 94 69 151q62 63 176 63q111 0 170 -56q52 -50 52 -131q0 -57 -29 -95q-24 -31 -62 -46q34 -18 56 -52q24 -37 24 -85q0 -102 -63 -166q-64 -66 -186 -66q-125 0 -192 67q-65 65 -72 167h154q4 -45 28 -73q26 -29 75 -29q48 0 74 28q24 26 24 66
q0 39 -26 62q-23 20 -77 20h-9l14 106h10q51 0 76 18q30 23 30 64q0 33 -24 53q-21 18 -56 18q-37 0 -60 -23q-23 -24 -28 -61z" />
    <glyph glyph-name="uniF63C" unicode="&#xf63c;" horiz-adv-x="594" 
d="M548 667l-52 -421h80l-15 -122h-80l-15 -124h-148l15 124h-326l11 88l350 455h180zM184 246h164l31 255z" />
    <glyph glyph-name="uniF63D" unicode="&#xf63d;" horiz-adv-x="563" 
d="M565 667l-16 -130h-232l-32 -88q28 4 44 4q105 0 163 -56q56 -54 56 -147q0 -116 -69 -188q-44 -47 -97.5 -62t-120.5 -15q-135 0 -241 79l52 137q37 -40 86 -62t94 -22q67 0 102 31q36 31 36 84q0 47 -35 77q-36 32 -108 32q-73 0 -139 -35l119 361h338z" />
    <glyph glyph-name="uniF63E" unicode="&#xf63e;" horiz-adv-x="585" 
d="M382 682l149 -36l-183 -201q54 9 103.5 -6.5t83.5 -50.5q54 -56 54 -147q0 -116 -72 -186q-71 -70 -202 -70q-117 0 -184 51q-80 62 -80 170q0 74 36 138q23 40 89 112zM311 111q54 0 86 32q34 33 34 88q0 43 -29 70q-29 29 -82 29q-50 0 -83 -33q-32 -32 -32 -80
q0 -46 29 -75q31 -31 77 -31z" />
    <glyph glyph-name="uniF63F" unicode="&#xf63f;" horiz-adv-x="594" 
d="M61 20l358 517h-286l16 130h530l-471 -682z" />
    <glyph glyph-name="uniF640" unicode="&#xf640;" horiz-adv-x="568" 
d="M446 346q41 -12 71 -40q44 -43 44 -110q0 -89 -58 -147q-64 -64 -196 -64q-118 0 -183 51q-68 54 -68 140q0 80 50 128q38 36 96 49q-33 18 -55 50q-25 37 -25 86q0 79 51 131q60 62 176 62q110 0 166 -55q48 -45 48 -125q0 -66 -37 -107q-30 -33 -80 -49zM338 410
q39 0 63 24t24 62q0 33 -23 53q-21 19 -57 19q-37 0 -60 -23q-25 -25 -25 -63q0 -27 18 -47q23 -25 60 -25zM305 107q46 0 73 26q27 25 27 67q0 44 -30 68q-28 20 -63 20q-48 0 -76 -30q-24 -24 -24 -66q0 -38 26 -62q24 -23 67 -23z" />
    <glyph glyph-name="uniF641" unicode="&#xf641;" horiz-adv-x="580" 
d="M124 21l180 202q-109 -10 -178 58q-58 55 -58 152q0 113 72 181t204 68q127 0 194 -62q63 -58 63 -154q0 -76 -40 -144q-21 -37 -96 -121l-192 -215zM340 556q-54 0 -84 -32t-30 -83q0 -43 28 -71q30 -30 80 -30q51 0 81 30q34 34 34 84q0 46 -31 75q-29 27 -78 27z" />
    <glyph glyph-name="uniF6BA" unicode="&#xf6ba;" horiz-adv-x="356" 
d="M73 278l16 126h256l-16 -126h-256z" />
    <glyph glyph-name="uniF6BB" unicode="&#xf6bb;" horiz-adv-x="607" 
d="M94 282l14 118h467l-14 -118h-467z" />
    <glyph glyph-name="uniF6BC" unicode="&#xf6bc;" horiz-adv-x="874" 
d="M94 282l14 118h734l-14 -118h-734z" />
    <glyph glyph-name="uniF6C3" unicode="&#xf6c3;" 
d="M120 -238l66 188l134 -16l-108 -184z" />
    <glyph glyph-name="uniF6C9" unicode="&#xf6c9;" 
d="M419 925l86 -72l-180 -129l-59 53z" />
    <glyph glyph-name="uniF6CA" unicode="&#xf6ca;" 
d="M346 844l132 93l66 -70l-206 -141l-171 141l64 70z" />
    <glyph glyph-name="uniF6CB" unicode="&#xf6cb;" 
d="M162 811q0 32 23.5 55.5t55.5 23.5t55.5 -23.5t23.5 -55.5t-23.5 -55.5t-55.5 -23.5t-55.5 23.5t-23.5 55.5zM380 811q0 32 23.5 55.5t55.5 23.5t55.5 -23.5t23.5 -55.5t-23.5 -55.5t-55.5 -23.5t-55.5 23.5t-23.5 55.5z" />
    <glyph glyph-name="uniF6CE" unicode="&#xf6ce;" 
d="M354 724l-148 129l105 72l114 -148z" />
    <glyph glyph-name="uniF6CF" unicode="&#xf6cf;" 
d="M320 925l77 -66l-156 -135l-49 48zM506 925l78 -66l-156 -135l-50 48z" />
    <glyph glyph-name="uniF6D0" unicode="&#xf6d0;" 
d="M148 753l12 92h388l-12 -92h-388z" />
    <glyph glyph-name="uniF6D1" unicode="&#xf6d1;" 
d="M380 886l111 -46q-55 -116 -208 -116q-81 0 -127 30q-48 31 -70 86l111 46q8 -29 30 -46q24 -18 61 -18q40 0 62 19q19 16 30 45z" />
    <glyph glyph-name="uniF6D4" unicode="&#xf6d4;" 
d="M358 662l101 -36q-20 -57 -70 -86q-45 -27 -119 -27q-72 0 -115 29q-45 31 -61 84l101 36q7 -26 28 -44q21 -17 53 -17t52 15q22 17 30 46z" />
    <glyph glyph-name="uniF6DC" unicode="&#xf6dc;" horiz-adv-x="320" 
d="M92 0l66 537h-95l16 130h249l-82 -667h-154z" />
    <glyph glyph-name="uniF6DE" unicode="&#xf6de;" horiz-adv-x="655" 
d="M70 194l11 118h550l-10 -118h-551z" />
    <glyph glyph-name="nbspace" horiz-adv-x="233" 
 />
    <glyph glyph-name="hyphenminus" horiz-adv-x="356" 
d="M73 190l16 126h256l-16 -126h-256z" />
    <glyph glyph-name="dotlessi1" horiz-adv-x="276" 
d="M120 446h144l-55 -446h-144z" />
    </font>
</defs>
</svg>
