<?xml version="1.0" standalone="no"?>
<!DOCTYPE svg PUBLIC "-//W3C//DTD SVG 1.1//EN" "http://www.w3.org/Graphics/SVG/1.1/DTD/svg11.dtd" >
<svg xmlns="http://www.w3.org/2000/svg" xmlns:xlink="http://www.w3.org/1999/xlink" version="1.1">
<metadata>
Created by FontForge 20170731 at Fri Mar 29 22:16:29 2013
 By Aleksey,,,
Copyright (c) 1995 ParaGraph Intl., (c) 1998 ParaType Inc., ParaType Ltd. All rights reserved.
</metadata>
<defs>
<font id="FuturaPT-ExtraBold" horiz-adv-x="500" >
  <font-face 
    font-family="Futura PT Extra Bold"
    font-weight="800"
    font-stretch="normal"
    units-per-em="1000"
    panose-1="2 11 10 2 2 2 4 2 2 3"
    ascent="763"
    descent="-237"
    x-height="467"
    cap-height="667"
    bbox="-411 -268 1491 972"
    underline-thickness="50"
    underline-position="-200"
    unicode-range="U+0020-FB02"
  />
<missing-glyph horiz-adv-x="233" 
 />
    <glyph glyph-name="afii10017.var.accented" unicode="&#x410;`" horiz-adv-x="737" 
d="M458 83h-184l-18 -83h-256l231 667h268l238 -667h-257zM385 369q-8 34 -13 75h-9q-1 -36 -11 -75l-33 -128h97zM262 779l116 146l117 -73l-146 -128z" />
    <glyph glyph-name="afii10022.var.accented" unicode="&#x415;`" horiz-adv-x="560" 
d="M523 0h-456v667h450v-183h-208v-62h189v-175h-189v-64h214v-183zM194 779l116 146l117 -73l-146 -128z" />
    <glyph glyph-name="afii10026.var.accented" unicode="&#x418;`" horiz-adv-x="768" 
d="M67 667h230v-237q0 -53 -12 -123h9q26 69 44 100l146 260h217v-667h-230v227q0 57 12 123h-9q-21 -60 -44 -100l-146 -250h-217v667zM268 779l116 146l117 -73l-146 -128z" />
    <glyph glyph-name="afii10032.var.accented" unicode="&#x41e;`" horiz-adv-x="814" 
d="M777 334q0 -147 -93 -242q-105 -107 -277 -107t-277 107q-93 95 -93 242q0 146 93 241q105 107 277 107t277 -107q93 -95 93 -241zM407 467q-55 0 -87 -34q-38 -40 -38 -100q0 -61 38 -99q34 -34 87 -34t87 34q38 38 38 99q0 64 -38 100q-34 34 -87 34zM291 779l116 146
l117 -73l-146 -128z" />
    <glyph glyph-name="afii10037.var.accented" unicode="&#x423;`" horiz-adv-x="702" 
d="M5 667h255l78 -186q13 -28 18 -58h7q5 33 16 62l68 182h250l-307 -667h-252l98 201zM235 779l116 146l117 -73l-146 -128z" />
    <glyph glyph-name="afii10045.var.accented" unicode="&#x42b;`" horiz-adv-x="986" 
d="M67 0v667h233v-247h112q111 0 172 -63q55 -55 55 -146q0 -98 -60 -152q-66 -59 -202 -59h-310zM300 160h46q34 0 50 11q21 14 21 46q0 29 -19 43q-15 11 -47 11h-51v-111zM919 0h-233v667h233v-667zM377 779l116 146l117 -73l-146 -128z" />
    <glyph glyph-name="afii10047.var.accented" unicode="&#x42d;`" horiz-adv-x="660" 
d="M57 32l-7 216q35 -35 77 -55q44 -21 98 -21q59 0 96 21q40 23 53 71h-217v146h217q-16 44 -55 65q-36 20 -92 20q-58 0 -109 -30q-33 -18 -68 -54l7 221q106 50 217 50q163 0 259 -98q91 -93 91 -248q0 -165 -98 -260q-93 -91 -260 -91q-111 0 -209 47zM182 779l116 146
l117 -73l-146 -128z" />
    <glyph glyph-name="afii10048.var.accented" unicode="&#x42e;`" horiz-adv-x="1125" 
d="M300 441h80q26 105 109 169q94 72 228 72q177 0 280 -107q91 -94 91 -241q0 -151 -91 -246q-98 -103 -279 -103q-142 0 -227 66q-87 66 -112 181h-79v-232h-233v667h233v-226zM720 467q-54 0 -86 -34q-37 -39 -37 -100q0 -62 37 -99q34 -34 86 -34q54 0 86 34
q37 37 37 99q0 63 -37 100q-34 34 -86 34zM466 779l116 146l117 -73l-146 -128z" />
    <glyph glyph-name="afii10049.var.accented" unicode="&#x42f;`" horiz-adv-x="696" 
d="M40 0l128 199q15 24 37 42v5q-60 8 -100 50q-46 48 -46 135q0 104 61 165q71 71 218 71h291v-667h-233v193h-4l-86 -193h-266zM396 367v117h-34q-38 0 -57 -18q-16 -16 -16 -41q0 -28 21 -44q20 -14 52 -14h34zM262 779l116 146l117 -73l-146 -128z" />
    <glyph glyph-name="afii10023.var.accented" unicode="&#x401;`" horiz-adv-x="560" 
d="M523 0h-456v667h450v-183h-208v-62h189v-175h-189v-64h214v-183zM193 779l99 146l100 -62l-129 -128zM31 824q0 27 20 52t57 25q36 0 57 -25t21 -52q0 -32 -23 -55t-55 -23q-33 0 -55 24t-22 54zM398 824q0 27 20.5 52t56.5 25q34 0 56 -22.5t22 -54.5t-22.5 -55
t-55.5 -23q-31 0 -54 23.5t-23 54.5z" />
    <glyph glyph-name="afii10065.var.accented" unicode="&#x430;`" horiz-adv-x="639" 
d="M369 411l5 3q-8 21 -8 40v13h225v-467h-224l1 16q2 21 9 43h-7q-58 -72 -140 -72q-78 0 -132 55q-70 72 -70 189q0 120 73 193q56 56 138 56q79 0 130 -69zM254 234q0 -29 20 -49q16 -16 39 -16t39 15q22 22 22 52q0 31 -20 49q-17 15 -39 15q-25 0 -41 -16
q-20 -20 -20 -50zM213 596l116 146l117 -73l-146 -128z" />
    <glyph glyph-name="afii10070.var.accented" unicode="&#x435;`" horiz-adv-x="613" 
d="M585 196h-331q-2 -47 17 -68q11 -13 34 -13q19 0 34 13q9 8 15 27h222q-14 -43 -47 -80q-38 -43 -87.5 -65.5t-126.5 -22.5q-144 0 -221 77q-66 66 -66 163q0 106 70 176q79 77 208 77q125 0 201 -74q37 -35 57.5 -84.5t20.5 -99.5v-26zM256 293h107q-2 30 -20 47
q-13 13 -36 13q-19 0 -33 -12q-18 -16 -18 -48zM190 596l116 146l117 -73l-146 -128z" />
    <glyph glyph-name="afii10074.var.accented" unicode="&#x438;`" horiz-adv-x="653" 
d="M48 467h220v-156q0 -31 -10 -79l6 -1q13 32 21 46l105 190h215v-467h-220v159q0 31 10 79l-6 1q-8 -22 -21 -46l-105 -193h-215v467zM210 596l116 146l117 -73l-146 -128z" />
    <glyph glyph-name="afii10080.var.accented" unicode="&#x43e;`" horiz-adv-x="626" 
d="M598 234q0 -99 -67 -168q-77 -79 -218 -79t-218 79q-67 69 -67 168t67 167q77 79 218 79t218 -79q67 -68 67 -167zM313 300q-28 0 -44 -16q-20 -18 -20 -50q0 -33 20 -51q16 -16 44 -16t44 16q20 18 20 51q0 32 -20 50q-16 16 -44 16zM197 596l116 146l117 -73l-146 -128
z" />
    <glyph glyph-name="afii10085.var.accented" unicode="&#x443;`" horiz-adv-x="601" 
d="M191 47l-201 420h245l56 -192q9 -30 10 -61h6q2 33 10 64l54 189h240l-317 -696h-241zM184 596l116 146l117 -73l-146 -128z" />
    <glyph glyph-name="afii10093.var.accented" unicode="&#x44b;`" horiz-adv-x="868" 
d="M593 0v467h227v-467h-227zM275 315h96q103 0 150 -45q42 -40 42 -113q0 -70 -40 -110q-47 -47 -141 -47h-334v467h227v-152zM275 110h26q29 0 43 13q13 13 13 36q0 20 -11 31q-13 13 -42 13h-29v-93zM318 596l116 146l117 -73l-146 -128z" />
    <glyph glyph-name="afii10095.var.accented" unicode="&#x44d;`" horiz-adv-x="527" 
d="M57 17l-7 160q26 -25 57 -37q30 -13 72 -13q38 0 63 11q29 13 39 41h-166v110h166q-13 27 -36 38q-25 13 -65 13q-38 0 -76 -19q-28 -13 -54 -36l7 160q83 35 166 35q133 0 207 -70q69 -66 69 -175q0 -112 -72 -181q-71 -67 -209 -67q-88 0 -161 30zM136 596l116 146
l117 -73l-146 -128z" />
    <glyph glyph-name="afii10096.var.accented" unicode="&#x44e;`" horiz-adv-x="911" 
d="M272 313h74q26 74 87 116q72 51 174 51q132 0 209 -77q67 -65 67 -169q0 -101 -67 -168q-77 -79 -222 -79q-112 0 -176 50q-61 47 -78 128h-68v-165h-224v467h224v-154zM598 300q-28 0 -44 -16q-20 -18 -20 -50q0 -33 20 -51q16 -16 44 -16t44 16q20 18 20 51
q0 32 -20 50q-16 16 -44 16zM359 596l116 146l117 -73l-146 -128z" />
    <glyph glyph-name="afii10097.var.accented" unicode="&#x44f;`" horiz-adv-x="609" 
d="M28 0l109 153q-47 10 -75 48t-28 96q0 79 47 124q48 46 140 46h340v-467h-227v138h-6l-77 -138h-223zM334 250v95h-29q-28 0 -40 -10q-15 -12 -15 -37t15 -37q14 -11 40 -11h29zM198 596l116 146l117 -73l-146 -128z" />
    <glyph glyph-name="afii10071.var.accented" unicode="&#x451;`" horiz-adv-x="613" 
d="M585 196h-331q-2 -47 17 -68q11 -13 34 -13q19 0 34 13q9 8 15 27h222q-14 -43 -47 -80q-38 -43 -87.5 -65.5t-126.5 -22.5q-144 0 -221 77q-66 66 -66 163q0 106 70 176q79 77 208 77q125 0 201 -74q37 -35 57.5 -84.5t20.5 -99.5v-26zM256 293h107q-2 30 -20 47
q-13 13 -36 13q-19 0 -33 -12q-18 -16 -18 -48zM213 590l104 152l93 -64l-134 -128zM50 635q0 33 21.5 55.5t55.5 22.5q33 0 55.5 -22.5t22.5 -55.5t-22.5 -55t-55.5 -22t-55 22t-22 55zM417 635q0 37 23 57.5t54 20.5q33 0 55 -22.5t22 -55.5t-22 -55t-55 -22q-31 0 -54 20
t-23 57z" />
    <glyph glyph-name="fi" unicode="fi" horiz-adv-x="697" 
d="M649 0h-224v467h224v-467zM294 0h-224v293l-62 -7v181l62 -6v21q0 115 66 181q77 77 228 77q130 0 201 -53q84 -61 84 -170v-10h-224q-2 23 -16 39q-16 18 -50 18q-30 0 -49 -17q-19 -19 -19 -53v-35l77 8v-181l-74 7v-293z" />
    <glyph glyph-name="fl" unicode="fl" horiz-adv-x="697" 
d="M293 0h-223v293l-62 -7v181l62 -6v25q0 111 66 177q77 77 232 77q125 0 197 -55q84 -65 84 -190v-495h-224v486q0 41 -17 59q-17 19 -48 19q-33 0 -51 -18q-19 -19 -19 -53v-34l77 8v-181l-74 7v-293z" />
    <glyph glyph-name=".notdef" horiz-adv-x="233" 
 />
    <glyph glyph-name=".null" horiz-adv-x="0" 
 />
    <glyph glyph-name="nonmarkingreturn" horiz-adv-x="333" 
 />
    <glyph glyph-name="space" unicode=" " horiz-adv-x="233" 
 />
    <glyph glyph-name="exclam" unicode="!" horiz-adv-x="409" 
d="M319 667v-412h-233v412h233zM336 100q0 -43 -31 -74q-38 -38 -101 -38q-62 0 -100 38q-31 31 -31 74q0 42 31 73q38 38 100 38q63 0 101 -38q31 -31 31 -73z" />
    <glyph glyph-name="quotedbl" unicode="&#x22;" horiz-adv-x="417" 
d="M189 667l-25 -268h-99l-24 268h148zM376 667l-24 -268h-100l-24 268h148z" />
    <glyph glyph-name="numbersign" unicode="#" horiz-adv-x="600" 
d="M475 299h101l-17 -117h-102l-29 -182h-134l30 182h-85l-29 -182h-132l30 182h-102l18 117h101l14 83h-101l18 116h101l27 169h132l-28 -169h85l27 169h133l-27 -169h100l-18 -116h-100zM342 299l13 83h-85l-13 -83h85z" />
    <glyph glyph-name="dollar" unicode="$" horiz-adv-x="707" 
d="M81 81l68 175q40 -35 84 -57q55 -27 107 -27q39 0 59 12q17 11 17 29q0 14 -10 24q-11 11 -39 16l-61 10q-106 17 -155 67q-47 49 -47 126q0 87 59 144q50 50 128 64v109h132v-103q81 -4 170 -52l-67 -167q-36 29 -75 43q-38 13 -78 13q-34 0 -49 -13q-13 -11 -13 -28
q0 -13 9 -22q11 -10 93 -20q114 -14 165 -67q49 -50 49 -128q0 -90 -57 -150q-56 -60 -147 -71v-123h-132v121q-63 5 -116 26q-52 20 -94 49z" />
    <glyph glyph-name="percent" unicode="%" horiz-adv-x="1028" 
d="M446 493q0 -75 -51 -126q-58 -58 -161 -58q-102 0 -160 58q-51 51 -51 126t51 126q58 58 160 58q103 0 161 -58q51 -51 51 -126zM196 494q0 -23 13 -36q10 -10 27 -10t27 10q14 14 14 39q0 24 -12 36q-9 11 -28 11q-16 0 -27 -11q-14 -14 -14 -39zM264 0l387 667h110
l-388 -667h-109zM1004 173q0 -75 -51 -126q-58 -58 -161 -58q-102 0 -160 58q-51 51 -51 126t51 126q58 58 160 58q103 0 161 -58q51 -51 51 -126zM754 174q0 -23 13 -36q10 -10 27 -10t27 10q14 14 14 39q0 24 -12 36q-9 11 -28 11q-16 0 -27 -11q-14 -14 -14 -39z" />
    <glyph glyph-name="ampersand" unicode="&#x26;" horiz-adv-x="843" 
d="M840 0h-279l-43 52q-45 -35 -90 -50q-49 -17 -120 -17q-133 0 -204 67q-64 60 -64 145q0 65 42 109q47 50 125 61q-65 48 -65 128q0 67 45 115q65 72 199 72q131 0 200 -74q45 -48 45 -111q0 -76 -54 -126q-32 -30 -75 -44l59 -61q57 38 103 101l126 -144
q-41 -41 -104 -78zM391 174l-85 84q-17 -10 -27 -22q-13 -17 -13 -36q0 -21 16 -34q18 -14 46 -14q36 0 63 22zM360 493q0 -17 9 -30q8 -15 24 -25q20 11 30 21q16 16 16 38q0 20 -13 33q-10 8 -24 8q-17 0 -29 -12q-13 -13 -13 -33z" />
    <glyph glyph-name="quotesingle" unicode="'" horiz-adv-x="231" 
d="M191 667l-25 -268h-101l-24 268h150z" />
    <glyph glyph-name="parenleft" unicode="(" horiz-adv-x="404" 
d="M353 668q-40 -87 -64 -183t-24 -197t24 -216q22 -104 64 -203l-170 -99q-61 121 -94 243q-37 134 -37 264q0 129 30 240q32 123 101 249z" />
    <glyph glyph-name="parenright" unicode=")" horiz-adv-x="404" 
d="M51 668l170 98q69 -126 101 -249q30 -111 30 -240q0 -130 -37 -264q-33 -122 -94 -243l-170 99q42 99 64 203q24 115 24 216t-24 197t-64 183z" />
    <glyph glyph-name="asterisk" unicode="*" horiz-adv-x="707" 
d="M202 663l101 -44l-10 110h120l-10 -110l102 44l37 -114l-108 -25l73 -83l-97 -70l-57 94l-56 -94l-97 70l73 83l-108 25z" />
    <glyph glyph-name="plus" unicode="+" 
d="M33 280v120h152v153h130v-153h152v-120h-152v-153h-130v153h-152z" />
    <glyph glyph-name="comma" unicode="," horiz-adv-x="356" 
d="M326 170l-158 -330h-178l107 330h229z" />
    <glyph glyph-name="hyphen" unicode="-" horiz-adv-x="415" 
d="M365 175h-315v180h315v-180z" />
    <glyph glyph-name="period" unicode="." horiz-adv-x="355" 
d="M309 99q0 -43 -31 -74q-38 -38 -101 -38q-62 0 -100 38q-31 31 -31 74q0 42 31 73q38 38 100 38q63 0 101 -38q31 -31 31 -73z" />
    <glyph glyph-name="slash" unicode="/" horiz-adv-x="726" 
d="M-26 -193l519 922h173l-520 -922h-172z" />
    <glyph glyph-name="zero" unicode="0" horiz-adv-x="707" 
d="M670 334q0 -67 -22 -139.5t-76 -125.5q-86 -84 -219 -84t-219 84q-54 53 -76 125.5t-22 139.5q0 66 22 138.5t76 125.5q86 84 219 84t219 -84q54 -53 76 -125.5t22 -138.5zM353 484q-25 0 -43 -17q-43 -39 -43 -130q0 -90 43 -129q18 -17 43 -17q22 0 42 17q43 38 43 129
t-43 130q-20 17 -42 17z" />
    <glyph glyph-name="one" unicode="1" horiz-adv-x="707" 
d="M510 0h-240v452l-103 -8v223h343v-667z" />
    <glyph glyph-name="two" unicode="2" horiz-adv-x="707" 
d="M665 205v-205h-661l274 243q56 49 94 94q45 54 45 95q0 22 -16 37q-15 15 -40 15q-28 0 -43 -20q-16 -20 -16 -64h-236q-1 57 17 108.5t48 85.5q39 43 102 65.5t135 22.5q145 0 227 -84q62 -64 62 -152q0 -99 -70 -165q-58 -55 -165 -93v-7q80 16 141 19z" />
    <glyph glyph-name="three" unicode="3" horiz-adv-x="707" 
d="M548 353q40 -12 69 -41q41 -41 41 -108q0 -85 -58 -141q-78 -78 -243 -78q-172 0 -251 81q-64 64 -65 164h244q0 -38 23 -59q17 -17 46 -17t47 18t18 45q0 26 -16 45q-28 30 -78 17v138q33 -8 54 10q16 13 16 41q0 20 -14 33q-11 11 -32 11q-18 0 -30 -12
q-15 -15 -13 -39h-238q3 114 96 175q70 46 189 46q146 0 222 -72q55 -52 55 -123q0 -58 -32 -94q-23 -24 -50 -35v-5z" />
    <glyph glyph-name="four" unicode="4" horiz-adv-x="707" 
d="M585 133l6 -133h-229l8 133l-338 -7v175l273 366h286v-359l84 6v-188zM310 308h61v96q0 26 10 58l-6 4q-10 -21 -30 -47l-63 -81q-16 -22 -29 -32l2 -5q27 7 55 7z" />
    <glyph glyph-name="five" unicode="5" horiz-adv-x="707" 
d="M107 273l58 394h453v-186h-285q-4 -42 -21 -77h6q33 35 104 35q46 0 95 -15.5t83 -47.5q60 -57 60 -147t-70 -157q-91 -87 -248 -87q-72 0 -159 20q-52 12 -109 34l27 181q109 -56 197 -56q48 0 79 13q41 18 41 53q0 37 -42 56q-37 16 -95 16q-89 0 -174 -29z" />
    <glyph glyph-name="six" unicode="6" horiz-adv-x="707" 
d="M287 667h317l-213 -187l1 -6q29 10 58 10q87 0 143 -57q64 -66 64 -172q0 -104 -70 -177q-89 -93 -240 -93q-154 0 -245 93q-77 79 -77 200q0 120 105 228zM258 256q0 -32 21 -54q24 -26 61 -26q33 0 58 22t25 60q0 40 -29 66q-25 22 -55 22q-31 0 -53 -20
q-28 -23 -28 -70z" />
    <glyph glyph-name="seven" unicode="7" horiz-adv-x="707" 
d="M719 667l-379 -667h-268l256 430q11 19 24 31l-1 6q-23 -5 -76 -7l-203 -7v214h647z" />
    <glyph glyph-name="eight" unicode="8" horiz-adv-x="707" 
d="M533 348l1 -7q51 -9 83 -42q40 -42 40 -109q0 -69 -49 -121q-77 -84 -250 -84q-179 0 -260 85q-49 52 -49 117q0 70 46 114q29 29 75 40v7q-43 14 -67 40q-33 36 -33 97q0 85 78 141q79 56 206 56q152 0 230 -76q53 -53 53 -125q0 -55 -32 -91q-29 -32 -72 -42zM354 514
q-21 0 -37 -16q-14 -14 -14 -34q0 -25 14 -39q15 -16 37 -16q21 0 37 16q14 15 14 39q0 20 -14 34q-16 16 -37 16zM289 211q0 -28 18 -46q19 -19 48 -19t48 19q18 18 18 46q0 33 -18 51q-19 19 -48 19t-48 -19q-18 -18 -18 -51z" />
    <glyph glyph-name="nine" unicode="9" horiz-adv-x="707" 
d="M410 0h-322l175 155q13 11 33 23v4q-20 -2 -37 -2q-99 0 -161 65q-62 66 -62 172q0 105 70 177q85 88 242 88q161 0 253 -93q70 -71 70 -185q0 -131 -99 -234zM276 406q0 -38 23 -61q24 -24 58 -24q33 0 56 23t23 62q0 36 -24 58t-56 22q-34 0 -56 -23q-24 -26 -24 -57z
" />
    <glyph glyph-name="colon" unicode=":" horiz-adv-x="355" 
d="M309 369q0 -43 -31 -74q-38 -38 -101 -38q-62 0 -100 38q-31 31 -31 74q0 42 31 73q38 38 100 38q63 0 101 -38q31 -31 31 -73zM309 99q0 -43 -31 -74q-38 -38 -101 -38q-62 0 -100 38q-31 31 -31 74q0 42 31 73q38 38 100 38q63 0 101 -38q31 -31 31 -73z" />
    <glyph glyph-name="semicolon" unicode=";" horiz-adv-x="357" 
d="M326 170l-158 -330h-178l107 330h229zM350 369q0 -43 -31 -74q-38 -38 -101 -38q-62 0 -100 38q-31 31 -31 74q0 42 31 73q38 38 100 38q63 0 101 -38q31 -31 31 -73z" />
    <glyph glyph-name="less" unicode="&#x3c;" 
d="M33 389l434 220v-128l-297 -147l296 -148l1 -128l-434 222v109z" />
    <glyph glyph-name="equal" unicode="=" 
d="M33 370v113h434v-113h-434zM33 197v113h434v-113h-434z" />
    <glyph glyph-name="greater" unicode="&#x3e;" 
d="M467 279l-434 -221v129l297 147l-296 147l-1 128l434 -221v-109z" />
    <glyph glyph-name="question" unicode="?" horiz-adv-x="614" 
d="M266 460h-226q12 89 71 148q74 74 204 74q126 0 198 -70q61 -61 61 -149q0 -93 -53 -148q-62 -64 -202 -64q-48 0 -87 8v151q21 -9 48 -9q35 0 55 19q20 20 20 53q0 24 -13 37q-11 11 -29 11q-20 0 -34 -14q-13 -16 -13 -47zM440 100q0 -43 -31 -74q-38 -38 -101 -38
q-62 0 -100 38q-31 31 -31 74q0 42 31 73q38 38 100 38q63 0 101 -38q31 -31 31 -73z" />
    <glyph glyph-name="at" unicode="@" horiz-adv-x="733" 
d="M461 454l7 38h89l-37 -190q-6 -32 -6 -39q0 -14 7 -21t20 -7q15 0 29 12q21 18 33.5 56t12.5 77q0 86 -58 146q-65 68 -169 68q-109 0 -188 -79q-76 -76 -76 -187t73 -184q43 -43 89.5 -56.5t103.5 -13.5q93 0 179 34l20 -86q-92 -34 -196 -34q-172 0 -268 102
q-93 98 -93 235q0 143 96 244q104 109 262 109q133 0 223 -88q86 -86 86 -206q0 -117 -64 -181q-49 -49 -112 -49q-40 0 -61 23q-13 14 -17 31q-21 -29 -47 -44q-30 -19 -70 -19q-57 0 -95 39q-45 47 -45 117q0 89 61 150q51 51 120 51q31 0 55 -13q23 -13 36 -35zM293 306
q0 -32 15 -49q17 -21 40 -21q26 0 48 19q35 30 35 83q0 37 -18 55q-16 16 -38 16q-28 0 -51 -23q-31 -31 -31 -80z" />
    <glyph glyph-name="A" unicode="A" horiz-adv-x="737" 
d="M458 83h-184l-18 -83h-256l231 667h268l238 -667h-257zM385 369q-8 34 -13 75h-9q-1 -36 -11 -75l-33 -128h97z" />
    <glyph glyph-name="B" unicode="B" horiz-adv-x="677" 
d="M67 0v667h291q140 0 199 -56q51 -48 51 -130q0 -57 -28 -92q-22 -28 -58 -41l-1 -6q38 -10 70 -40q49 -48 49 -116q0 -84 -63 -135t-171 -51h-339zM291 507v-96h38q31 0 46 15q13 13 13 35t-15 35q-14 11 -44 11h-38zM291 271v-110h49q33 0 51 11q23 15 23 45
q0 25 -18 40q-17 14 -53 14h-52z" />
    <glyph glyph-name="C" unicode="C" horiz-adv-x="591" 
d="M555 261l-7 -249q-71 -27 -168 -27q-149 0 -246 97q-97 95 -97 246t100 253q101 101 252 101q82 0 159 -26l7 -254q-66 66 -141 66q-59 0 -97 -41q-35 -38 -35 -95q0 -58 39 -96q40 -38 99 -38q78 0 135 63z" />
    <glyph glyph-name="D" unicode="D" horiz-adv-x="745" 
d="M384 0h-317v667h257q193 0 295 -101q90 -90 90 -241q0 -145 -86 -231q-92 -94 -239 -94zM307 463v-259h18q68 0 103 31q39 34 39 96q0 63 -39 100q-34 32 -95 32h-26z" />
    <glyph glyph-name="E" unicode="E" horiz-adv-x="560" 
d="M523 0h-456v667h450v-183h-208v-62h189v-175h-189v-64h214v-183z" />
    <glyph glyph-name="F" unicode="F" horiz-adv-x="542" 
d="M309 0h-242v667h445v-190h-203v-68h178v-176h-178v-233z" />
    <glyph glyph-name="G" unicode="G" horiz-adv-x="804" 
d="M393 230v158h375v-15q0 -82 -17 -152t-70 -127q-49 -52 -124 -80.5t-159 -28.5q-173 0 -275 110q-86 93 -86 237q0 151 92 245q101 105 280 105q108 0 196 -47q83 -45 128 -123l-226 -84q-32 51 -92 51q-51 0 -85 -31q-49 -45 -49 -126q0 -77 44 -119q32 -30 79 -30
q78 0 99 57h-110z" />
    <glyph glyph-name="H" unicode="H" horiz-adv-x="748" 
d="M300 0h-233v667h233v-226h148v226h233v-667h-233v232h-148v-232z" />
    <glyph glyph-name="I" unicode="I" horiz-adv-x="376" 
d="M309 0h-242v667h242v-667z" />
    <glyph glyph-name="J" unicode="J" horiz-adv-x="482" 
d="M178 255v412h238v-465q0 -87 -60 -149q-65 -68 -167 -68q-96 0 -172 54l-27 19l88 206l5 -17q8 -29 22 -41q12 -12 31 -12q18 0 28 12q14 16 14 49z" />
    <glyph glyph-name="K" unicode="K" horiz-adv-x="740" 
d="M299 0h-232v667h232v-207q0 -46 -5 -84h5q12 33 35 75l115 216h262l-208 -327l230 -340h-280l-122 214q-13 21 -32 64h-5q5 -29 5 -63v-215z" />
    <glyph glyph-name="L" unicode="L" horiz-adv-x="527" 
d="M513 0h-446v667h242v-452h204v-215z" />
    <glyph glyph-name="M" unicode="M" horiz-adv-x="983" 
d="M275 0h-235l108 667h249l78 -273q11 -37 15 -77h6q1 36 13 77l78 273h247l109 -667h-233l-30 299q-4 46 -4 66h-4q-6 -32 -13 -56l-99 -309h-142l-89 292q-12 41 -13 73h-7q0 -39 -1 -52z" />
    <glyph glyph-name="N" unicode="N" horiz-adv-x="801" 
d="M298 0h-231v667h231l155 -252q40 -65 63 -118h7q-21 88 -21 158v212h232v-667h-232l-166 263q-22 35 -46 87h-7q15 -77 15 -123v-227z" />
    <glyph glyph-name="O" unicode="O" horiz-adv-x="814" 
d="M777 334q0 -147 -93 -242q-105 -107 -277 -107t-277 107q-93 95 -93 242q0 146 93 241q105 107 277 107t277 -107q93 -95 93 -241zM407 467q-55 0 -87 -34q-38 -40 -38 -100q0 -61 38 -99q34 -34 87 -34t87 34q38 38 38 99q0 64 -38 100q-34 34 -87 34z" />
    <glyph glyph-name="P" unicode="P" horiz-adv-x="667" 
d="M303 0h-236v667h320q122 0 195 -70q68 -67 68 -175q0 -107 -66 -167q-60 -54 -164 -54h-117v-201zM303 484v-115h41q36 0 54 18q16 14 16 41t-18 41q-18 15 -49 15h-44z" />
    <glyph glyph-name="Q" unicode="Q" horiz-adv-x="811" 
d="M621 -58l-47 81q-71 -38 -163 -38q-176 0 -273 96q-101 99 -101 253q0 147 100 245q105 103 270 103q174 0 277 -107q92 -97 92 -243q0 -120 -63 -202l98 -109zM374 268l151 29q23 81 -32 136q-35 35 -87 35q-54 0 -88 -37q-37 -40 -37 -96q0 -66 40 -103q48 -46 114 -29
z" />
    <glyph glyph-name="R" unicode="R" horiz-adv-x="711" 
d="M303 0h-236v667h301q64 0 113.5 -14t90.5 -55q63 -63 63 -164q0 -74 -37 -119q-33 -41 -92 -53v-6q23 -12 35 -31l150 -225h-279l-96 195l-4 7q-3 7 -5 14l-4 -2v-214zM303 484v-114h28q34 0 51 15t17 41t-13 40q-16 18 -41 18h-42z" />
    <glyph glyph-name="S" unicode="S" horiz-adv-x="618" 
d="M559 624l-65 -170q-72 50 -136 50q-30 0 -46 -12q-12 -9 -12 -24q0 -9 2 -14t11 -11t26 -10l77 -17q73 -16 114 -57q51 -50 51 -132q0 -94 -60 -157q-83 -85 -235 -85q-47 0 -94 9.5t-69 17.5t-64 25l-22 9l73 188l26 -20q64 -49 135 -49q37 0 52 12q13 11 13 30
q0 15 -8 23t-46 16l-59 11q-74 14 -116 57q-48 49 -48 123q0 94 65 159q84 86 232 86q107 0 203 -58z" />
    <glyph glyph-name="T" unicode="T" horiz-adv-x="524" 
d="M381 0h-238v456l-136 -6v217h510v-217l-136 6v-456z" />
    <glyph glyph-name="U" unicode="U" horiz-adv-x="751" 
d="M67 241v426h240v-387q0 -46 21 -68q17 -18 48 -18q33 0 49 16q18 18 18 70v387h241v-409q0 -118 -70 -190q-81 -83 -238 -83q-166 0 -248 88q-61 66 -61 168z" />
    <glyph glyph-name="V" unicode="V" horiz-adv-x="725" 
d="M259 0l-259 667h253l93 -314q10 -34 15 -89h6q2 46 14 89l91 314h253l-258 -667h-208z" />
    <glyph glyph-name="W" unicode="W" horiz-adv-x="1049" 
d="M234 0l-234 667h251l73 -316q11 -51 11 -82h6q3 56 17 112l73 286h186l77 -304q10 -39 14 -94h5q1 46 15 107l69 291h252l-235 -667h-211l-63 272q-10 46 -13 91h-8q-3 -61 -10 -91l-69 -272h-206z" />
    <glyph glyph-name="X" unicode="X" horiz-adv-x="742" 
d="M233 355l-210 312h274l55 -105q8 -15 15 -45h5q6 25 16 45l51 105h274l-209 -312l238 -355h-276l-81 151q-4 7 -9 32h-7q-6 -23 -14 -37l-79 -146h-276z" />
    <glyph glyph-name="Y" unicode="Y" horiz-adv-x="685" 
d="M225 287l-232 380h274l57 -122q11 -26 18 -53h7q3 14 18 53l52 122h273l-228 -380v-287h-239v287z" />
    <glyph glyph-name="Z" unicode="Z" horiz-adv-x="705" 
d="M71 465v202h621l-253 -412q-15 -25 -37 -49l2 -4l46 4h212v-206h-649l247 399q31 48 53 72l-2 4q-27 -10 -48 -10h-192z" />
    <glyph glyph-name="bracketleft" unicode="[" horiz-adv-x="430" 
d="M273 639v-742h117v-90h-317v922h317v-90h-117z" />
    <glyph glyph-name="backslash" unicode="\" horiz-adv-x="726" 
d="M752 -193h-172l-520 922h173z" />
    <glyph glyph-name="bracketright" unicode="]" horiz-adv-x="430" 
d="M157 -103v742h-117v90h317v-922h-317v90h117z" />
    <glyph glyph-name="asciicircum" unicode="^" 
d="M250 549l-101 -219h-144l160 337h170l161 -337h-144z" />
    <glyph glyph-name="underscore" unicode="_" 
d="M0 -196v150h500v-150h-500z" />
    <glyph glyph-name="grave" unicode="`" 
d="M134 669l117 73l115 -146l-86 -55z" />
    <glyph glyph-name="a" unicode="a" horiz-adv-x="639" 
d="M369 411l5 3q-8 21 -8 40v13h225v-467h-224l1 16q2 21 9 43h-7q-58 -72 -140 -72q-78 0 -132 55q-70 72 -70 189q0 120 73 193q56 56 138 56q79 0 130 -69zM254 234q0 -29 20 -49q16 -16 39 -16t39 15q22 22 22 52q0 31 -20 49q-17 15 -39 15q-25 0 -41 -16
q-20 -20 -20 -50z" />
    <glyph glyph-name="b" unicode="b" horiz-adv-x="637" 
d="M48 0v729h228v-262q0 -32 -11 -65h7q21 35 51 53q41 25 89 25q65 0 120 -52q77 -74 77 -200q0 -122 -70 -190q-52 -51 -131 -51q-54 0 -95 30q-29 20 -48 55l-7 -3q7 -19 7 -36v-33h-217zM387 236q0 33 -20 53q-18 18 -42 18q-25 0 -41 -16q-19 -19 -19 -52q0 -39 19 -58
q16 -16 40 -16q26 0 43 19q20 22 20 52z" />
    <glyph glyph-name="c" unicode="c" horiz-adv-x="444" 
d="M416 204l-9 -193q-48 -24 -115 -24q-126 0 -197 69q-67 65 -67 171q0 114 72 186q67 67 181 67q68 0 132 -24v-190q-41 37 -85 37q-32 0 -50 -18q-19 -21 -19 -49q0 -30 19 -49q20 -20 48 -20q50 0 90 37z" />
    <glyph glyph-name="d" unicode="d" horiz-adv-x="637" 
d="M362 473v256h227v-729h-220v21q0 18 7 53l-7 1q-20 -39 -52 -61q-40 -27 -97 -27q-73 0 -123 52q-69 69 -69 193q0 123 72 195q53 53 126 53q49 0 88 -26q24 -16 50 -49h7q-9 41 -9 68zM371 237q0 36 -23 59q-15 15 -38 15q-25 0 -39 -14q-22 -20 -22 -56q0 -35 23 -58
q16 -16 39 -16t38 14q22 19 22 56z" />
    <glyph glyph-name="e" unicode="e" horiz-adv-x="613" 
d="M585 196h-331q-2 -47 17 -68q11 -13 34 -13q19 0 34 13q9 8 15 27h222q-14 -43 -47 -80q-38 -43 -87.5 -65.5t-126.5 -22.5q-144 0 -221 77q-66 66 -66 163q0 106 70 176q79 77 208 77q125 0 201 -74q37 -35 57.5 -84.5t20.5 -99.5v-26zM256 293h107q-2 30 -20 47
q-13 13 -36 13q-19 0 -33 -12q-18 -16 -18 -48z" />
    <glyph glyph-name="f" unicode="f" horiz-adv-x="380" 
d="M297 0h-227v293l-62 -7v181l62 -6v77q0 99 53 150q54 52 153 52q49 0 97 -10v-181q-18 8 -31 8q-20 0 -33 -13q-15 -14 -15 -39v-46l77 8v-181l-74 7v-293z" />
    <glyph glyph-name="g" unicode="g" horiz-adv-x="635" 
d="M587 467v-440q0 -104 -65 -170q-85 -86 -239 -86q-109 0 -195 30l-40 14l51 158q25 -21 66 -39q44 -18 83 -18q57 0 88 31q27 27 31 75l4 46h-5q-17 -35 -49 -55q-33 -21 -83 -21q-81 0 -137 57q-69 71 -69 186q0 53 20 106t54 86q55 53 132 53q48 0 79 -21
q29 -20 53 -57h5q-5 17 -5 36v29h221zM249 234q0 -27 17 -45q19 -22 49 -22q23 0 39 15q19 18 19 48q0 36 -18 53q-19 17 -43 17q-25 0 -44 -19t-19 -47z" />
    <glyph glyph-name="h" unicode="h" horiz-adv-x="625" 
d="M275 0h-227v729h227v-262q0 -39 -7 -74l3 -2q32 41 61 61q42 28 92 28q61 0 103 -40q50 -48 50 -141v-299h-222v253q0 22 -12 34q-10 10 -24 10q-19 0 -32 -13q-12 -11 -12 -34v-250z" />
    <glyph glyph-name="i" unicode="i" horiz-adv-x="323" 
d="M275 0h-227v467h227v-467zM287 613q0 -43 -29 -74q-34 -36 -97 -36t-97 36q-29 31 -29 74t29 74q34 36 97 36t97 -36q29 -31 29 -74z" />
    <glyph glyph-name="j" unicode="j" horiz-adv-x="323" 
d="M275 -229h-227v696h227v-696zM287 613q0 -43 -29 -74q-34 -36 -97 -36t-97 36q-29 31 -29 74t29 74q34 36 97 36t97 -36q29 -31 29 -74z" />
    <glyph glyph-name="k" unicode="k" horiz-adv-x="646" 
d="M275 0h-227v729h227v-434h6l1 3l88 169h266l-172 -227l180 -240h-268l-97 172h-4v-172z" />
    <glyph glyph-name="l" unicode="l" horiz-adv-x="323" 
d="M275 0h-227v729h227v-729z" />
    <glyph glyph-name="m" unicode="m" horiz-adv-x="889" 
d="M268 0h-220v467h214v-36q0 -17 -8 -43l7 -2q16 40 44 63q39 31 95 31q50 0 83 -26q35 -27 50 -74h6q14 43 47 70q36 30 93 30q71 0 114 -43q49 -51 49 -135v-302h-220v257q0 24 -11 35q-8 8 -20 8q-14 0 -24 -10q-12 -12 -12 -33v-257h-220v263q0 16 -8 27q-7 10 -23 10
q-17 0 -26 -11q-10 -12 -10 -40v-249z" />
    <glyph glyph-name="n" unicode="n" horiz-adv-x="629" 
d="M275 0h-227v467h223v-24q0 -21 -9 -48l5 -1q30 39 63 61q38 25 85 25q68 0 114 -42q52 -50 52 -138v-300h-227v254q0 26 -10 36q-9 10 -26 10q-18 0 -29 -11q-14 -14 -14 -46v-243z" />
    <glyph glyph-name="o" unicode="o" horiz-adv-x="626" 
d="M598 234q0 -99 -67 -168q-77 -79 -218 -79t-218 79q-67 69 -67 168t67 167q77 79 218 79t218 -79q67 -68 67 -167zM313 300q-28 0 -44 -16q-20 -18 -20 -50q0 -33 20 -51q16 -16 44 -16t44 16q20 18 20 51q0 32 -20 50q-16 16 -44 16z" />
    <glyph glyph-name="p" unicode="p" horiz-adv-x="637" 
d="M276 -229h-228v696h217v-26q0 -25 -6 -41l-1 -3l7 -2q20 33 48 55q42 30 95 30q80 0 133 -53q68 -68 68 -191q0 -115 -73 -193q-53 -56 -124 -56q-52 0 -92 27q-32 22 -48 50h-7q11 -44 11 -91v-202zM265 231q0 -36 20 -56q14 -15 39 -15q24 0 40 15q23 21 23 56
q0 33 -22 55q-17 17 -42 17q-21 0 -37 -14q-21 -20 -21 -58z" />
    <glyph glyph-name="q" unicode="q" horiz-adv-x="639" 
d="M591 -229h-227v235q0 20 9 56h-7q-25 -33 -52 -50q-38 -25 -89 -25q-71 0 -125 54q-72 74 -72 193q0 126 75 197q52 49 119 49q55 0 96 -29q32 -22 53 -59l7 1q-7 23 -7 44v30h220v-696zM249 226q0 -31 19 -52q17 -19 43 -19q24 0 40 17q22 22 22 57q0 36 -23 57
q-16 14 -38 14q-24 0 -41 -17q-22 -20 -22 -57z" />
    <glyph glyph-name="r" unicode="r" horiz-adv-x="443" 
d="M275 0h-227v467h229v-29q0 -16 -6 -31h4q21 37 57 57q38 21 104 21v-237q-41 26 -71 26q-37 0 -62 -22q-28 -24 -28 -69v-183z" />
    <glyph glyph-name="s" unicode="s" horiz-adv-x="487" 
d="M454 440l-55 -131q-20 15 -47 27q-31 14 -58 14q-15 0 -25 -7q-9 -7 -9 -18q0 -8 7 -15q2 -2 27 -8l46 -10q63 -14 92 -44q33 -35 33 -87q0 -68 -47 -113q-62 -61 -177 -61q-92 0 -185 38l-33 14l58 142l32 -20q51 -32 93 -32q19 0 31 8q9 6 9 18q0 11 -9 19q-9 6 -32 10
l-33 5q-53 9 -83 39q-36 35 -36 89q0 75 66 120q62 43 159 43q91 0 176 -40z" />
    <glyph glyph-name="t" unicode="t" horiz-adv-x="367" 
d="M292 0h-227v292l-57 -4v179l57 -4v170h227v-170l77 4v-179l-77 4v-292z" />
    <glyph glyph-name="u" unicode="u" horiz-adv-x="628" 
d="M48 191v276h227v-253q0 -26 11 -37q9 -10 27 -10t28 10q12 12 12 37v253h227v-269q0 -77 -54 -133q-75 -78 -213 -78q-135 0 -210 75q-55 55 -55 129z" />
    <glyph glyph-name="v" unicode="v" horiz-adv-x="596" 
d="M196 0l-206 467h245l51 -173q5 -20 9 -47h7q0 20 8 47l52 173h244l-203 -467h-207z" />
    <glyph glyph-name="w" unicode="w" horiz-adv-x="845" 
d="M180 0l-190 467h240l45 -191q9 -38 9 -67h7q0 31 9 67l48 191h149l50 -191q8 -29 11 -67h6q0 29 9 67l43 191h239l-192 -467h-184l-45 169l-7 38h-6l-8 -38l-46 -169h-187z" />
    <glyph glyph-name="x" unicode="x" horiz-adv-x="646" 
d="M195 243l-178 224h262l34 -66q7 -13 10 -30h6q3 11 11 30l34 66h261l-177 -224l190 -243h-268l-42 76q-7 11 -10 27h-5q-3 -15 -9 -27l-41 -76h-275z" />
    <glyph glyph-name="y" unicode="y" horiz-adv-x="601" 
d="M191 47l-201 420h245l56 -192q9 -30 10 -61h6q2 33 10 64l54 189h240l-317 -696h-241z" />
    <glyph glyph-name="z" unicode="z" horiz-adv-x="549" 
d="M516 177v-177h-495v31l145 220q13 20 41 43v4q-19 -7 -41 -7h-122v176h483v-24l-151 -225q-14 -21 -37 -41v-6q18 6 36 6h141z" />
    <glyph glyph-name="braceleft" unicode="{" 
d="M304 394q0 -52 -14 -80q-15 -30 -46 -46q32 -19 47 -50q13 -27 13 -77v-161q0 -32 12 -44q12 -13 59 -13q11 0 17 0.5t11 0.5v-115q-19 0 -36 -0.5t-26 -1t-15 -0.5q-86 0 -121 37q-31 33 -31 107v181q0 46 -13 63q-14 20 -42 23v110q27 2 41 19t14 49v188q0 77 35 111
q36 34 119 34q24 0 75 -3v-114h-20q-55 0 -68 -13q-11 -12 -11 -44v-161z" />
    <glyph glyph-name="bar" unicode="|" 
d="M185 -250v1000h130v-1000h-130z" />
    <glyph glyph-name="braceright" unicode="}" 
d="M218 394v161q0 32 -11 44q-13 13 -68 13h-20v114q51 3 75 3q83 0 119 -34q35 -34 35 -111v-188q0 -32 14 -49t41 -19v-110q-28 -3 -42 -23q-13 -17 -13 -63v-181q0 -74 -31 -107q-35 -37 -121 -37q-6 0 -15 0.5t-26 1t-36 0.5v115q5 0 11 -0.5t17 -0.5q47 0 59 13
q12 12 12 44v161q0 50 13 77q15 31 47 50q-31 16 -46 46q-14 28 -14 80z" />
    <glyph glyph-name="asciitilde" unicode="~" 
d="M264 223l-39 13q-62 20 -75 20q-26 0 -45 -17q-16 -14 -28 -44l-71 47l8 17q32 69 55 90q34 32 85 32q38 0 86 -18l43 -16q39 -15 68 -15q23 0 38 11q18 13 31 40l74 -43q-22 -58 -58 -94q-39 -40 -95 -40q-24 0 -77 17z" />
    <glyph glyph-name="uni00A0" unicode="&#xa0;" horiz-adv-x="233" 
 />
    <glyph glyph-name="exclamdown" unicode="&#xa1;" horiz-adv-x="409" 
d="M89 -230v412h233v-412h-233zM73 337q0 43 31 74q38 38 101 38q62 0 100 -38q31 -31 31 -74q0 -42 -31 -73q-38 -38 -100 -38q-63 0 -101 38q-31 31 -31 73z" />
    <glyph glyph-name="cent" unicode="&#xa2;" horiz-adv-x="707" 
d="M437 10h-104v102q-67 9 -116 54q-73 68 -73 180q0 95 63 163q51 54 126 69v92h104v-90q43 -3 82 -17l5 -186q-49 35 -86 35q-30 0 -49 -19q-17 -17 -17 -44q0 -34 21 -51q20 -17 46 -17q40 0 86 37l-3 -187q-42 -14 -85 -20v-101z" />
    <glyph glyph-name="sterling" unicode="&#xa3;" horiz-adv-x="707" 
d="M512 162h126q0 -83 -48 -133q-41 -43 -112 -43q-63 0 -113 20l-41 16q-39 16 -71 16q-29 0 -45 -15q-11 -10 -14 -23h-113q1 65 38 113q33 45 90 63q5 14 5 35q0 20 -3 32h-120v110h83q-35 57 -35 111q0 87 62 149q69 69 184 69q112 0 174 -64q26 -27 39 -63t15 -57.5
t2 -57.5v-12h-154v8q0 51 -15 72q-18 25 -52 25q-31 0 -49 -18q-20 -18 -20 -51q0 -23 17 -59q16 -34 19 -52h127v-110h-118q1 -7 1 -20q0 -31 -12 -61l14 -6q71 -31 98 -31q19 0 29 10t12 27z" />
    <glyph glyph-name="currency" unicode="&#xa4;" horiz-adv-x="667" 
d="M90 67l-70 70l103 103q-44 65 -44 138q0 71 45 137l-105 104l71 71l104 -104q65 44 144 44q71 0 133 -43l103 102l70 -70l-102 -102q46 -65 46 -141q0 -73 -44 -135l103 -103l-69 -71l-103 103q-63 -45 -142 -45q-77 0 -140 44zM334 514q-57 0 -96 -39q-40 -40 -40 -98
q0 -57 40 -97q39 -39 96 -39q56 0 95 39q40 40 40 97q0 58 -40 98q-39 39 -95 39z" />
    <glyph glyph-name="yen" unicode="&#xa5;" horiz-adv-x="707" 
d="M140 454l-122 213h273l65 -182l61 182h272l-120 -213h91v-118h-157l-28 -49v-36h185v-118h-185v-133h-239v133h-189v118h189v36l-28 49h-161v118h93z" />
    <glyph glyph-name="brokenbar" unicode="&#xa6;" 
d="M185 340v410h130v-410h-130zM185 -250v410h130v-410h-130z" />
    <glyph glyph-name="section" unicode="&#xa7;" horiz-adv-x="707" 
d="M381 486l53 -15q99 -28 139 -66q48 -46 48 -114q0 -101 -92 -157q69 -47 69 -141q0 -77 -50 -126q-62 -60 -197 -60q-146 0 -211 66q-51 51 -54 132h185q2 -35 22 -53q17 -16 49 -16q31 0 47 16q14 14 14 42q0 29 -25 45q-12 7 -70 25l-51 15q-85 24 -120 59
q-45 45 -45 112q0 103 87 158q-32 21 -51 53q-20 35 -20 81q0 68 50 120q67 67 206 67q131 0 195 -65q55 -56 56 -141h-178q-2 36 -19 57q-16 19 -53 19q-28 0 -46 -13q-17 -13 -17 -37q0 -22 18 -37q16 -13 61 -26zM420 271q0 25 -17 44q-19 21 -49 21q-26 0 -46 -18
q-19 -19 -19 -47q0 -30 21 -49q19 -17 44 -17q31 0 47 18q19 21 19 48z" />
    <glyph glyph-name="dieresis" unicode="&#xa8;" 
d="M51 622q0 38 26 64.5t64 26.5t64.5 -26.5t26.5 -64.5t-26.5 -64.5t-64.5 -26.5t-64 26.5t-26 64.5zM268 622q0 38 26 64.5t64 26.5t64.5 -26.5t26.5 -64.5t-26.5 -64.5t-64.5 -26.5t-64 26.5t-26 64.5z" />
    <glyph glyph-name="copyright" unicode="&#xa9;" horiz-adv-x="760" 
d="M513 303l-3 -158q-49 -18 -102 -18q-102 0 -164 62q-58 58 -58 141q0 89 63 149q62 60 164 60q48 0 97 -17l3 -160q-18 18 -36 27q-24 13 -52 13q-32 0 -53 -21q-20 -19 -20 -47q0 -27 19 -46q23 -23 55 -23q29 0 54 13q16 8 33 25zM727 334q0 -143 -103 -247
q-101 -102 -244 -102t-244 102q-103 104 -103 247q0 142 103 246q101 102 244 102t244 -102q103 -104 103 -246zM380 609q-107 0 -186 -79q-81 -82 -81 -197t81 -197q79 -79 186 -79t186 79q81 82 81 197t-81 197q-79 79 -186 79z" />
    <glyph glyph-name="ordfeminine" unicode="&#xaa;" horiz-adv-x="363" 
d="M215 427h-4q-15 -17 -33 -28q-22 -13 -48 -13q-43 0 -74 32q-40 42 -40 107q0 69 41 110q32 32 79 32q25 0 43 -11q17 -11 32 -28q-3 15 -3 19v12h129v-266h-128v9q0 7 6 25zM337 267h-315v92h315v-92zM145 527q0 -19 11 -28q9 -9 23 -9t23 9q11 9 11 28q0 16 -11 27
q-9 9 -23 9t-23 -9q-11 -11 -11 -27z" />
    <glyph glyph-name="guillemotleft" unicode="&#xab;" horiz-adv-x="547" 
d="M276 70l-92 -65l-151 227l159 225l92 -64l-113 -161zM497 70l-92 -65l-151 227l159 225l92 -64l-113 -161z" />
    <glyph glyph-name="logicalnot" unicode="&#xac;" 
d="M467 0h-130v150h-304v117h434v-267z" />
    <glyph glyph-name="uni00AD" unicode="&#xad;" horiz-adv-x="415" 
d="M365 175h-315v180h315v-180z" />
    <glyph glyph-name="registered" unicode="&#xae;" horiz-adv-x="760" 
d="M355 159h-142v359h183q79 0 116 -36q34 -34 34 -89q0 -42 -22 -66q-22 -23 -53 -29q10 -7 19 -20l79 -119h-158l-56 113v-113zM355 418v-59h21q16 0 24 6q10 8 10 24q0 13 -9 22q-8 7 -23 7h-23zM380 609q-107 0 -186 -79q-81 -82 -81 -197t81 -197q79 -79 186 -79
t186 79q81 82 81 197t-81 197q-79 79 -186 79zM727 334q0 -143 -103 -247q-101 -102 -244 -102t-244 102q-103 104 -103 247q0 142 103 246q101 102 244 102t244 -102q103 -104 103 -246z" />
    <glyph glyph-name="macron" unicode="&#xaf;" 
d="M420 544h-340v100h340v-100z" />
    <glyph glyph-name="degree" unicode="&#xb0;" 
d="M252 363q-66 0 -111 45t-45 108q0 62 45 106q46 45 108 45q64 0 110 -44q45 -43 45 -107q0 -63 -45 -108t-107 -45zM180 515q0 -28 20.5 -48t49.5 -20t49.5 20t20.5 48t-20.5 48t-49.5 20t-49.5 -20t-20.5 -48z" />
    <glyph glyph-name="plusminus" unicode="&#xb1;" 
d="M33 357v120h152v153h130v-153h152v-120h-152v-154h-130v154h-152zM33 50v120h434v-120h-434z" />
    <glyph glyph-name="twosuperior" unicode="&#xb2;" horiz-adv-x="451" 
d="M411 394v-124h-401l164 147q30 26 58 58q29 35 29 58q0 15 -10 23t-25 8q-19 0 -27 -12q-8 -11 -8 -35v-7h-143q0 74 39 118q48 54 144 54q84 0 135 -48q41 -40 41 -96q0 -60 -42 -97q-29 -26 -101 -57v-4q56 11 86 12z" />
    <glyph glyph-name="threesuperior" unicode="&#xb3;" horiz-adv-x="435" 
d="M329 485q25 -11 42 -28q24 -26 24 -62q0 -50 -35 -85q-48 -48 -142 -48q-109 0 -159 50q-39 39 -39 101h148q0 -27 13 -38q10 -10 30 -10q17 0 28 11q10 10 10 27t-9 25q-10 10 -35 10h-13v82q27 0 35 7q8 8 8 24q0 14 -7 23q-7 8 -22 8t-23 -8q-9 -10 -9 -28h-140
q4 73 58 108q42 28 116 28q91 0 137 -44q33 -31 33 -76q0 -29 -14 -51q-13 -20 -35 -26z" />
    <glyph glyph-name="acute" unicode="&#xb4;" 
d="M134 596l116 146l117 -73l-146 -128z" />
    <glyph glyph-name="mu" unicode="&#xb5;" horiz-adv-x="652" 
d="M268 -230h-220v697h227v-278q0 -25 11 -40q13 -17 39 -17t40 16q12 14 12 43v276h227v-467h-220v9q0 24 5 51h-6q-5 -31 -20 -49q-14 -17 -39 -17q-23 0 -38 18q-14 18 -20 48h-6q8 -48 8 -70v-220z" />
    <glyph glyph-name="mu" unicode="&#x3bc;" horiz-adv-x="652" 
d="M268 -230h-220v697h227v-278q0 -25 11 -40q13 -17 39 -17t40 16q12 14 12 43v276h227v-467h-220v9q0 24 5 51h-6q-5 -31 -20 -49q-14 -17 -39 -17q-23 0 -38 18q-14 18 -20 48h-6q8 -48 8 -70v-220z" />
    <glyph glyph-name="paragraph" unicode="&#xb6;" horiz-adv-x="688" 
d="M340 -95h-122v409h-13q-86 0 -132 45q-46 46 -46 124q0 80 46 126q57 58 200 58h342v-110h-70v-652h-122v652h-83v-652z" />
    <glyph glyph-name="periodcentered" unicode="&#xb7;" horiz-adv-x="303" 
d="M303 340q0 -50 -39 -86q-45 -42 -112 -42q-69 0 -113 42q-39 36 -39 86t39 86q44 42 113 42q67 0 112 -42q39 -36 39 -86z" />
    <glyph glyph-name="cedilla" unicode="&#xb8;" 
d="M384 -121l-126 -129l-100 70l120 135z" />
    <glyph glyph-name="onesuperior" unicode="&#xb9;" horiz-adv-x="313" 
d="M243 267h-146v276l-62 -4v128h208v-400z" />
    <glyph glyph-name="ordmasculine" unicode="&#xba;" horiz-adv-x="357" 
d="M336 267h-315v92h315v-92zM178 564q-14 0 -25 -9q-11 -11 -11 -29q0 -19 11 -28t25 -9t25 9q11 11 11 28q0 20 -11 29t-25 9zM341 527q0 -57 -38 -95q-46 -46 -124 -46q-79 0 -125 46q-38 38 -38 95q0 54 38 94q46 46 125 46q78 0 124 -46q38 -40 38 -94z" />
    <glyph glyph-name="guillemotright" unicode="&#xbb;" horiz-adv-x="547" 
d="M271 70l105 162l-113 161l92 64l159 -225l-151 -227zM50 70l105 162l-113 161l92 64l159 -225l-151 -227z" />
    <glyph glyph-name="onequarter" unicode="&#xbc;" horiz-adv-x="920" 
d="M830 81l3 -81h-146l4 81l-205 -5v106l166 218h181v-214l52 5v-114zM655 186h43v51q0 21 3 43l-6 3q-4 -5 -12.5 -16.5t-9.5 -12.5l-36 -46q-7 -9 -20 -22l2 -4q14 4 36 4zM243 267h-146v276l-62 -4v128h208v-400zM162 0l387 667h110l-388 -667h-109z" />
    <glyph glyph-name="onehalf" unicode="&#xbd;" horiz-adv-x="930" 
d="M243 267h-146v276l-62 -4v128h208v-400zM895 124v-124h-401l164 147q30 26 58 58q29 32 29 57q0 16 -10 24t-25 8q-17 0 -26 -12t-9 -35v-7h-143q0 74 39 118q48 54 144 54q84 0 135 -48q41 -38 41 -96q0 -61 -42 -97q-30 -26 -101 -57v-4q56 11 86 12zM162 0l387 667
h110l-388 -667h-109z" />
    <glyph glyph-name="threequarters" unicode="&#xbe;" horiz-adv-x="1016" 
d="M344 485q24 -11 42 -28q24 -26 24 -62q0 -50 -35 -85q-48 -48 -142 -48q-109 0 -159 50q-39 39 -39 101h148q0 -27 13 -38q10 -10 30 -10q17 0 28 11q10 10 10 27t-9 25q-10 10 -35 10h-13v82q27 0 35 7q8 8 8 24q0 14 -7 23q-7 8 -22 8t-23 -8q-9 -10 -9 -28h-140
q4 73 58 108q42 28 116 28q91 0 137 -44q33 -31 33 -76q0 -29 -14 -51q-13 -20 -35 -26zM926 81l3 -81h-146l4 81l-205 -5v106l166 218h181v-214l52 5v-114zM751 186h43v51q0 21 3 43l-6 3q-4 -5 -12.5 -16.5t-9.5 -12.5l-36 -46q-7 -9 -20 -22l2 -4q14 4 36 4zM269 0
l387 667h110l-388 -667h-109z" />
    <glyph glyph-name="questiondown" unicode="&#xbf;" horiz-adv-x="614" 
d="M348 -20h226q-12 -89 -71 -148q-74 -74 -203 -74q-125 0 -199 70q-61 58 -61 148q0 91 53 146q62 64 202 64q48 0 87 -8v-151q-21 9 -48 9q-35 0 -55 -19q-20 -18 -20 -50q0 -24 13 -37q11 -11 29 -11q20 0 34 14q13 16 13 47zM174 337q0 43 31 74q38 38 101 38
q62 0 100 -38q31 -31 31 -74q0 -42 -31 -73q-38 -38 -100 -38q-63 0 -101 38q-31 31 -31 73z" />
    <glyph glyph-name="Agrave" unicode="&#xc0;" horiz-adv-x="737" 
d="M458 83h-184l-18 -83h-256l231 667h268l238 -667h-257zM385 369q-8 34 -13 75h-9q-1 -36 -11 -75l-33 -128h97zM248 852l117 73l115 -146l-86 -55z" />
    <glyph glyph-name="Aacute" unicode="&#xc1;" horiz-adv-x="737" 
d="M458 83h-184l-18 -83h-256l231 667h268l238 -667h-257zM385 369q-8 34 -13 75h-9q-1 -36 -11 -75l-33 -128h97zM254 779l116 146l117 -73l-146 -128z" />
    <glyph glyph-name="Acircumflex" unicode="&#xc2;" horiz-adv-x="737" 
d="M458 83h-184l-18 -83h-256l231 667h268l238 -667h-257zM385 369q-8 34 -13 75h-9q-1 -36 -11 -75l-33 -128h97zM486 716l-116 70l-119 -72l-72 88l196 114l185 -115z" />
    <glyph glyph-name="Atilde" unicode="&#xc3;" horiz-adv-x="737" 
d="M458 83h-184l-18 -83h-256l231 667h268l238 -667h-257zM385 369q-8 34 -13 75h-9q-1 -36 -11 -75l-33 -128h97zM370 738l-43 17q-28 10 -35 10q-15 0 -24 -9q-12 -12 -22 -32l-82 52q27 43 66 69q33 22 72 22q26 0 54 -14l23 -12q28 -14 40 -14q14 0 22 8q11 8 19 22
l7 11l89 -44q-15 -28 -41 -56q-40 -42 -92 -42q-24 0 -53 12z" />
    <glyph glyph-name="Adieresis" unicode="&#xc4;" horiz-adv-x="737" 
d="M458 83h-184l-18 -83h-256l231 667h268l238 -667h-257zM385 369q-8 34 -13 75h-9q-1 -36 -11 -75l-33 -128h97zM162 811q0 38 26 64t64 26t64.5 -26t26.5 -64t-26.5 -64.5t-64.5 -26.5t-64 26.5t-26 64.5zM389 811q0 38 26 64t64 26t64.5 -26t26.5 -64t-26.5 -64.5
t-64.5 -26.5t-64 26.5t-26 64.5z" />
    <glyph glyph-name="Aring" unicode="&#xc5;" horiz-adv-x="737" 
d="M458 83h-184l-18 -83h-256l231 667h268l238 -667h-257zM385 369q-8 34 -13 75h-9q-1 -36 -11 -75l-33 -128h97zM497 822q0 -48 -38 -77q-36 -27 -99 -27t-99 27q-38 29 -38 77q0 47 38 76q36 27 99 27t99 -27q38 -29 38 -76zM360 857q-22 0 -35 -8q-15 -9 -15 -27
q0 -19 15 -28q13 -8 35 -8t35 8q15 10 15 27q0 18 -15 28q-13 8 -35 8z" />
    <glyph glyph-name="AE" unicode="&#xc6;" horiz-adv-x="947" 
d="M261 0h-254l232 667h469l61 -183h-199l21 -62h200l61 -175h-197l22 -64h200l64 -183h-455l-22 83h-182zM423 241l-40 147q-8 30 -7 56h-7q-1 -31 -10 -67l-35 -136h99z" />
    <glyph glyph-name="Ccedilla" unicode="&#xc7;" horiz-adv-x="591" 
d="M555 261l-7 -249q-71 -27 -168 -27q-149 0 -246 97q-97 95 -97 246t100 253q101 101 252 101q82 0 159 -26l7 -254q-66 66 -141 66q-59 0 -97 -41q-35 -38 -35 -95q0 -58 39 -96q40 -38 99 -38q78 0 135 63zM479 -125l-138 -143l-110 78l132 147z" />
    <glyph glyph-name="Egrave" unicode="&#xc8;" horiz-adv-x="560" 
d="M523 0h-456v667h450v-183h-208v-62h189v-175h-189v-64h214v-183zM184 852l117 73l115 -146l-86 -55z" />
    <glyph glyph-name="Eacute" unicode="&#xc9;" horiz-adv-x="560" 
d="M523 0h-456v667h450v-183h-208v-62h189v-175h-189v-64h214v-183zM204 779l116 146l117 -73l-146 -128z" />
    <glyph glyph-name="Ecircumflex" unicode="&#xca;" horiz-adv-x="560" 
d="M523 0h-456v667h450v-183h-208v-62h189v-175h-189v-64h214v-183zM408 716l-116 70l-119 -72l-72 88l196 114l185 -115z" />
    <glyph glyph-name="Edieresis" unicode="&#xcb;" horiz-adv-x="560" 
d="M523 0h-456v667h450v-183h-208v-62h189v-175h-189v-64h214v-183zM88 811q0 38 26 64t64 26t64.5 -26t26.5 -64t-26.5 -64.5t-64.5 -26.5t-64 26.5t-26 64.5zM315 811q0 38 26 64t64 26t64.5 -26t26.5 -64t-26.5 -64.5t-64.5 -26.5t-64 26.5t-26 64.5z" />
    <glyph glyph-name="Igrave" unicode="&#xcc;" horiz-adv-x="376" 
d="M309 0h-242v667h242v-667zM56 852l117 73l115 -146l-86 -55z" />
    <glyph glyph-name="Iacute" unicode="&#xcd;" horiz-adv-x="376" 
d="M309 0h-242v667h242v-667zM86 779l116 146l117 -73l-146 -128z" />
    <glyph glyph-name="Icircumflex" unicode="&#xce;" horiz-adv-x="376" 
d="M309 0h-242v667h242v-667zM305 716l-116 70l-119 -72l-72 88l196 114l185 -115z" />
    <glyph glyph-name="Idieresis" unicode="&#xcf;" horiz-adv-x="376" 
d="M309 0h-242v667h242v-667zM-16 811q0 38 26 64t64 26t64.5 -26t26.5 -64t-26.5 -64.5t-64.5 -26.5t-64 26.5t-26 64.5zM211 811q0 38 26 64t64 26t64.5 -26t26.5 -64t-26.5 -64.5t-64.5 -26.5t-64 26.5t-26 64.5z" />
    <glyph glyph-name="Eth" unicode="&#xd0;" horiz-adv-x="773" 
d="M412 0h-317v272h-75v132h75v263h257q194 0 295 -101q90 -90 90 -239q0 -146 -86 -233q-92 -94 -239 -94zM325 469v-65h94v-132h-94v-74h28q68 0 103 31q39 35 39 102q0 69 -39 106q-34 32 -95 32h-36z" />
    <glyph glyph-name="Ntilde" unicode="&#xd1;" horiz-adv-x="801" 
d="M298 0h-231v667h231l155 -252q40 -65 63 -118h7q-21 88 -21 158v212h232v-667h-232l-166 263q-22 35 -46 87h-7q15 -77 15 -123v-227zM400 738l-43 17q-28 10 -35 10q-15 0 -24 -9q-12 -12 -22 -32l-82 52q27 43 66 69q33 22 72 22q26 0 54 -14l23 -12q28 -14 40 -14
q14 0 22 8q11 8 19 22l7 11l89 -44q-15 -28 -41 -56q-40 -42 -92 -42q-24 0 -53 12z" />
    <glyph glyph-name="Ograve" unicode="&#xd2;" horiz-adv-x="814" 
d="M777 334q0 -147 -93 -242q-105 -107 -277 -107t-277 107q-93 95 -93 242q0 146 93 241q105 107 277 107t277 -107q93 -95 93 -241zM407 467q-55 0 -87 -34q-38 -40 -38 -100q0 -61 38 -99q34 -34 87 -34t87 34q38 38 38 99q0 64 -38 100q-34 34 -87 34zM254 852l117 73
l115 -146l-86 -55z" />
    <glyph glyph-name="Oacute" unicode="&#xd3;" horiz-adv-x="814" 
d="M777 334q0 -147 -93 -242q-105 -107 -277 -107t-277 107q-93 95 -93 242q0 146 93 241q105 107 277 107t277 -107q93 -95 93 -241zM407 467q-55 0 -87 -34q-38 -40 -38 -100q0 -61 38 -99q34 -34 87 -34t87 34q38 38 38 99q0 64 -38 100q-34 34 -87 34zM334 779l116 146
l117 -73l-146 -128z" />
    <glyph glyph-name="Ocircumflex" unicode="&#xd4;" horiz-adv-x="814" 
d="M777 334q0 -147 -93 -242q-105 -107 -277 -107t-277 107q-93 95 -93 242q0 146 93 241q105 107 277 107t277 -107q93 -95 93 -241zM407 467q-55 0 -87 -34q-38 -40 -38 -100q0 -61 38 -99q34 -34 87 -34t87 34q38 38 38 99q0 64 -38 100q-34 34 -87 34zM528 716l-116 70
l-119 -72l-72 88l196 114l185 -115z" />
    <glyph glyph-name="Otilde" unicode="&#xd5;" horiz-adv-x="814" 
d="M777 334q0 -147 -93 -242q-105 -107 -277 -107t-277 107q-93 95 -93 242q0 146 93 241q105 107 277 107t277 -107q93 -95 93 -241zM407 467q-55 0 -87 -34q-38 -40 -38 -100q0 -61 38 -99q34 -34 87 -34t87 34q38 38 38 99q0 64 -38 100q-34 34 -87 34zM420 738l-43 17
q-27 10 -35 10q-15 0 -24 -9q-12 -12 -22 -32l-82 52q27 43 66 69q33 22 72 22q26 0 54 -14l23 -12q28 -14 40 -14q14 0 22 8q11 8 19 22l7 11l89 -44q-15 -28 -41 -56q-40 -42 -92 -42q-24 0 -53 12z" />
    <glyph glyph-name="Odieresis" unicode="&#xd6;" horiz-adv-x="814" 
d="M777 334q0 -147 -93 -242q-105 -107 -277 -107t-277 107q-93 95 -93 242q0 146 93 241q105 107 277 107t277 -107q93 -95 93 -241zM407 467q-55 0 -87 -34q-38 -40 -38 -100q0 -61 38 -99q34 -34 87 -34t87 34q38 38 38 99q0 64 -38 100q-34 34 -87 34zM206 811
q0 38 26 64t64 26t64.5 -26t26.5 -64t-26.5 -64.5t-64.5 -26.5t-64 26.5t-26 64.5zM433 811q0 38 26 64t64 26t64.5 -26t26.5 -64t-26.5 -64.5t-64.5 -26.5t-64 26.5t-26 64.5z" />
    <glyph glyph-name="multiply" unicode="&#xd7;" 
d="M119 124l-85 85l128 127l-129 129l92 92l129 -129l127 128l85 -85l-128 -127l129 -129l-92 -92l-129 129z" />
    <glyph glyph-name="Oslash" unicode="&#xd8;" horiz-adv-x="851" 
d="M823 631l-94 -91q66 -87 66 -206q0 -147 -93 -242q-103 -107 -277 -107q-112 0 -199 48l-95 -94l-103 95l94 90q-67 88 -67 208q0 145 93 243q101 107 277 107q109 0 203 -50l95 94zM425 467q-55 0 -87 -34q-38 -40 -38 -100q0 -61 38 -99q34 -34 87 -34t87 34
q38 38 38 99q0 64 -38 100q-34 34 -87 34z" />
    <glyph glyph-name="Ugrave" unicode="&#xd9;" horiz-adv-x="751" 
d="M67 241v426h240v-387q0 -46 21 -68q17 -18 48 -18q33 0 49 16q18 18 18 70v387h241v-409q0 -118 -70 -190q-81 -83 -238 -83q-166 0 -248 88q-61 66 -61 168zM234 852l117 73l115 -146l-86 -55z" />
    <glyph glyph-name="Uacute" unicode="&#xda;" horiz-adv-x="751" 
d="M67 241v426h240v-387q0 -46 21 -68q17 -18 48 -18q33 0 49 16q18 18 18 70v387h241v-409q0 -118 -70 -190q-81 -83 -238 -83q-166 0 -248 88q-61 66 -61 168zM284 779l116 146l117 -73l-146 -128z" />
    <glyph glyph-name="Ucircumflex" unicode="&#xdb;" horiz-adv-x="751" 
d="M67 241v426h240v-387q0 -46 21 -68q17 -18 48 -18q33 0 49 16q18 18 18 70v387h241v-409q0 -118 -70 -190q-81 -83 -238 -83q-166 0 -248 88q-61 66 -61 168zM498 716l-116 70l-119 -72l-72 88l196 114l185 -115z" />
    <glyph glyph-name="Udieresis" unicode="&#xdc;" horiz-adv-x="751" 
d="M67 241v426h240v-387q0 -46 21 -68q17 -18 48 -18q33 0 49 16q18 18 18 70v387h241v-409q0 -118 -70 -190q-81 -83 -238 -83q-166 0 -248 88q-61 66 -61 168zM176 811q0 38 26 64t64 26t64.5 -26t26.5 -64t-26.5 -64.5t-64.5 -26.5t-64 26.5t-26 64.5zM403 811
q0 38 26 64t64 26t64.5 -26t26.5 -64t-26.5 -64.5t-64.5 -26.5t-64 26.5t-26 64.5z" />
    <glyph glyph-name="Yacute" unicode="&#xdd;" horiz-adv-x="685" 
d="M225 287l-232 380h274l57 -122q11 -26 18 -53h7q3 14 18 53l52 122h273l-228 -380v-287h-239v287zM274 779l116 146l117 -73l-146 -128z" />
    <glyph glyph-name="Thorn" unicode="&#xde;" horiz-adv-x="667" 
d="M303 0h-236v667h236v-75h84q63 0 109 -12.5t86 -50.5q68 -66 68 -175q0 -111 -66 -171q-62 -57 -178 -57h-103v-126zM303 409v-115h41q36 0 54 18q16 14 16 41t-18 41q-18 15 -49 15h-44z" />
    <glyph glyph-name="germandbls" unicode="&#xdf;" horiz-adv-x="643" 
d="M275 0h-227v477q0 32 2.5 55.5t10.5 55.5t28 59t51 48q68 45 177 45q118 0 185 -57q62 -52 62 -135q0 -49 -22 -86q-20 -32 -51 -48q46 -17 78 -55q46 -57 46 -143q0 -93 -58 -151q-40 -40 -93 -52.5t-120 -12.5h-16v130q19 0 34 15q23 23 23 78q0 65 -19 86
q-14 16 -38 16v129q25 -1 41 15q12 13 12 32q0 20 -14 32q-14 13 -38 13q-25 0 -38 -15q-16 -17 -16 -63v-468z" />
    <glyph glyph-name="agrave" unicode="&#xe0;" horiz-adv-x="639" 
d="M369 411l5 3q-8 21 -8 40v13h225v-467h-224l1 16q2 21 9 43h-7q-58 -72 -140 -72q-78 0 -132 55q-70 72 -70 189q0 120 73 193q56 56 138 56q79 0 130 -69zM254 234q0 -29 20 -49q16 -16 39 -16t39 15q22 22 22 52q0 31 -20 49q-17 15 -39 15q-25 0 -41 -16
q-20 -20 -20 -50zM204 669l117 73l115 -146l-86 -55z" />
    <glyph glyph-name="aacute" unicode="&#xe1;" horiz-adv-x="639" 
d="M369 411l5 3q-8 21 -8 40v13h225v-467h-224l1 16q2 21 9 43h-7q-58 -72 -140 -72q-78 0 -132 55q-70 72 -70 189q0 120 73 193q56 56 138 56q79 0 130 -69zM254 234q0 -29 20 -49q16 -16 39 -16t39 15q22 22 22 52q0 31 -20 49q-17 15 -39 15q-25 0 -41 -16
q-20 -20 -20 -50zM229 596l116 146l117 -73l-146 -128z" />
    <glyph glyph-name="acircumflex" unicode="&#xe2;" horiz-adv-x="639" 
d="M369 411l5 3q-8 21 -8 40v13h225v-467h-224l1 16q2 21 9 43h-7q-58 -72 -140 -72q-78 0 -132 55q-70 72 -70 189q0 120 73 193q56 56 138 56q79 0 130 -69zM254 234q0 -29 20 -49q16 -16 39 -16t39 15q22 22 22 52q0 31 -20 49q-17 15 -39 15q-25 0 -41 -16
q-20 -20 -20 -50zM433 516l-103 72l-99 -72l-74 79l177 129l169 -127z" />
    <glyph glyph-name="atilde" unicode="&#xe3;" horiz-adv-x="639" 
d="M369 411l5 3q-8 21 -8 40v13h225v-467h-224l1 16q2 21 9 43h-7q-58 -72 -140 -72q-78 0 -132 55q-70 72 -70 189q0 120 73 193q56 56 138 56q79 0 130 -69zM254 234q0 -29 20 -49q16 -16 39 -16t39 15q22 22 22 52q0 31 -20 49q-17 15 -39 15q-25 0 -41 -16
q-20 -20 -20 -50zM334 555l-43 17q-27 10 -35 10q-15 0 -24 -9q-12 -12 -22 -32l-82 52q29 46 64 69q32 22 72 22q29 0 56 -14l23 -12q28 -14 40 -14q14 0 22 8q11 8 19 22l7 11l89 -44q-15 -28 -41 -56q-40 -42 -92 -42q-21 0 -53 12z" />
    <glyph glyph-name="adieresis" unicode="&#xe4;" horiz-adv-x="639" 
d="M369 411l5 3q-8 21 -8 40v13h225v-467h-224l1 16q2 21 9 43h-7q-58 -72 -140 -72q-78 0 -132 55q-70 72 -70 189q0 120 73 193q56 56 138 56q79 0 130 -69zM254 234q0 -29 20 -49q16 -16 39 -16t39 15q22 22 22 52q0 31 -20 49q-17 15 -39 15q-25 0 -41 -16
q-20 -20 -20 -50zM131 622q0 38 26 64.5t64 26.5t64.5 -26.5t26.5 -64.5t-26.5 -64.5t-64.5 -26.5t-64 26.5t-26 64.5zM348 622q0 38 26 64.5t64 26.5t64.5 -26.5t26.5 -64.5t-26.5 -64.5t-64.5 -26.5t-64 26.5t-26 64.5z" />
    <glyph glyph-name="aring" unicode="&#xe5;" horiz-adv-x="639" 
d="M369 411l5 3q-8 21 -8 40v13h225v-467h-224l1 16q2 21 9 43h-7q-58 -72 -140 -72q-78 0 -132 55q-70 72 -70 189q0 120 73 193q56 56 138 56q79 0 130 -69zM254 234q0 -29 20 -49q16 -16 39 -16t39 15q22 22 22 52q0 31 -20 49q-17 15 -39 15q-25 0 -41 -16
q-20 -20 -20 -50zM461 645q0 -48 -38 -77q-36 -27 -99 -27t-99 27q-38 29 -38 77q0 47 38 76q36 27 99 27t99 -27q38 -29 38 -76zM324 680q-22 0 -35 -8q-15 -9 -15 -27q0 -19 15 -28q13 -8 35 -8t35 8q15 10 15 27q0 18 -15 28q-13 8 -35 8z" />
    <glyph glyph-name="ae" unicode="&#xe6;" horiz-adv-x="1004" 
d="M742 157h223q-26 -84 -106 -130q-69 -40 -160 -40q-73 0 -131 22q-51 18 -88 58q-41 -34 -92 -55q-61 -25 -139 -25q-119 0 -180 63q-41 43 -41 103q0 61 40 101q55 57 171 57q68 0 138 -22q2 38 -21 61q-25 26 -92 26q-91 0 -217 -45v113q130 36 229 36q77 0 123 -20
q46 -19 81 -62q36 35 81 55q58 27 130 27q139 0 216 -81q69 -71 69 -192v-8h-332v-6q0 -43 17 -60q13 -13 38 -13q20 0 30 10t13 27zM646 296h108q-2 29 -20 46q-16 14 -35 14q-22 0 -34 -12q-19 -17 -19 -48zM323 201q-45 0 -67 -15q-19 -13 -19 -33q0 -25 24 -37
q21 -10 61 -10q45 0 75 15q30 14 30 36q0 23 -34 34q-30 10 -70 10z" />
    <glyph glyph-name="ccedilla" unicode="&#xe7;" horiz-adv-x="444" 
d="M416 204l-9 -193q-48 -24 -115 -24q-126 0 -197 69q-67 65 -67 171q0 114 72 186q67 67 181 67q68 0 132 -24v-190q-41 37 -85 37q-32 0 -50 -18q-19 -21 -19 -49q0 -30 19 -49q20 -20 48 -20q50 0 90 37zM386 -121l-126 -129l-100 70l120 135z" />
    <glyph glyph-name="egrave" unicode="&#xe8;" horiz-adv-x="613" 
d="M585 196h-331q-2 -47 17 -68q11 -13 34 -13q19 0 34 13q9 8 15 27h222q-14 -43 -47 -80q-38 -43 -87.5 -65.5t-126.5 -22.5q-144 0 -221 77q-66 66 -66 163q0 106 70 176q79 77 208 77q125 0 201 -74q37 -35 57.5 -84.5t20.5 -99.5v-26zM256 293h107q-2 30 -20 47
q-13 13 -36 13q-19 0 -33 -12q-18 -16 -18 -48zM194 669l117 73l115 -146l-86 -55z" />
    <glyph glyph-name="eacute" unicode="&#xe9;" horiz-adv-x="613" 
d="M585 196h-331q-2 -47 17 -68q11 -13 34 -13q19 0 34 13q9 8 15 27h222q-14 -43 -47 -80q-38 -43 -87.5 -65.5t-126.5 -22.5q-144 0 -221 77q-66 66 -66 163q0 106 70 176q79 77 208 77q125 0 201 -74q37 -35 57.5 -84.5t20.5 -99.5v-26zM256 293h107q-2 30 -20 47
q-13 13 -36 13q-19 0 -33 -12q-18 -16 -18 -48zM208 596l116 146l117 -73l-146 -128z" />
    <glyph glyph-name="ecircumflex" unicode="&#xea;" horiz-adv-x="613" 
d="M585 196h-331q-2 -47 17 -68q11 -13 34 -13q19 0 34 13q9 8 15 27h222q-14 -43 -47 -80q-38 -43 -87.5 -65.5t-126.5 -22.5q-144 0 -221 77q-66 66 -66 163q0 106 70 176q79 77 208 77q125 0 201 -74q37 -35 57.5 -84.5t20.5 -99.5v-26zM256 293h107q-2 30 -20 47
q-13 13 -36 13q-19 0 -33 -12q-18 -16 -18 -48zM405 516l-103 72l-99 -72l-74 79l177 129l169 -127z" />
    <glyph glyph-name="edieresis" unicode="&#xeb;" horiz-adv-x="613" 
d="M585 196h-331q-2 -47 17 -68q11 -13 34 -13q19 0 34 13q9 8 15 27h222q-14 -43 -47 -80q-38 -43 -87.5 -65.5t-126.5 -22.5q-144 0 -221 77q-66 66 -66 163q0 106 70 176q79 77 208 77q125 0 201 -74q37 -35 57.5 -84.5t20.5 -99.5v-26zM256 293h107q-2 30 -20 47
q-13 13 -36 13q-19 0 -33 -12q-18 -16 -18 -48zM93 622q0 38 26 64.5t64 26.5t64.5 -26.5t26.5 -64.5t-26.5 -64.5t-64.5 -26.5t-64 26.5t-26 64.5zM310 622q0 38 26 64.5t64 26.5t64.5 -26.5t26.5 -64.5t-26.5 -64.5t-64.5 -26.5t-64 26.5t-26 64.5z" />
    <glyph glyph-name="igrave" unicode="&#xec;" horiz-adv-x="323" 
d="M275 0h-227v467h227v-467zM31 669l117 73l115 -146l-86 -55z" />
    <glyph glyph-name="iacute" unicode="&#xed;" horiz-adv-x="323" 
d="M275 0h-227v467h227v-467zM75 596l116 146l117 -73l-146 -128z" />
    <glyph glyph-name="icircumflex" unicode="&#xee;" horiz-adv-x="323" 
d="M275 0h-227v467h227v-467zM265 516l-103 72l-99 -72l-74 79l177 129l169 -127z" />
    <glyph glyph-name="idieresis" unicode="&#xef;" horiz-adv-x="323" 
d="M275 0h-227v467h227v-467zM-38 622q0 38 26 64.5t64 26.5t64.5 -26.5t26.5 -64.5t-26.5 -64.5t-64.5 -26.5t-64 26.5t-26 64.5zM179 622q0 38 26 64.5t64 26.5t64.5 -26.5t26.5 -64.5t-26.5 -64.5t-64.5 -26.5t-64 26.5t-26 64.5z" />
    <glyph glyph-name="eth" unicode="&#xf0;" horiz-adv-x="636" 
d="M120 634l16 111q144 -12 248 -67l143 63l36 -98l-91 -38q71 -55 106 -143q30 -75 30 -168q0 -147 -80 -229q-75 -78 -212 -78q-146 0 -220 72q-68 65 -68 169q0 89 62 153q72 72 194 72q83 0 146 -40q-22 88 -97 129l-188 -83l-36 99l118 51q-54 20 -107 25zM312 300
q-28 0 -44 -16q-20 -18 -20 -50q0 -33 20 -51q16 -16 44 -16t44 16q20 18 20 51q0 32 -20 50q-16 16 -44 16z" />
    <glyph glyph-name="ntilde" unicode="&#xf1;" horiz-adv-x="629" 
d="M275 0h-227v467h223v-24q0 -21 -9 -48l5 -1q30 39 63 61q38 25 85 25q68 0 114 -42q52 -50 52 -138v-300h-227v254q0 26 -10 36q-9 10 -26 10q-18 0 -29 -11q-14 -14 -14 -46v-243zM324 555l-43 17q-27 10 -35 10q-15 0 -24 -9q-12 -12 -22 -32l-82 52q29 46 64 69
q32 22 72 22q29 0 56 -14l23 -12q28 -14 40 -14q14 0 22 8q11 8 19 22l7 11l89 -44q-15 -28 -41 -56q-40 -42 -92 -42q-21 0 -53 12z" />
    <glyph glyph-name="ograve" unicode="&#xf2;" horiz-adv-x="626" 
d="M598 234q0 -99 -67 -168q-77 -79 -218 -79t-218 79q-67 69 -67 168t67 167q77 79 218 79t218 -79q67 -68 67 -167zM313 300q-28 0 -44 -16q-20 -18 -20 -50q0 -33 20 -51q16 -16 44 -16t44 16q20 18 20 51q0 32 -20 50q-16 16 -44 16zM199 669l117 73l115 -146l-86 -55z
" />
    <glyph glyph-name="oacute" unicode="&#xf3;" horiz-adv-x="626" 
d="M598 234q0 -99 -67 -168q-77 -79 -218 -79t-218 79q-67 69 -67 168t67 167q77 79 218 79t218 -79q67 -68 67 -167zM313 300q-28 0 -44 -16q-20 -18 -20 -50q0 -33 20 -51q16 -16 44 -16t44 16q20 18 20 51q0 32 -20 50q-16 16 -44 16zM199 596l116 146l117 -73l-146 -128
z" />
    <glyph glyph-name="ocircumflex" unicode="&#xf4;" horiz-adv-x="626" 
d="M598 234q0 -99 -67 -168q-77 -79 -218 -79t-218 79q-67 69 -67 168t67 167q77 79 218 79t218 -79q67 -68 67 -167zM313 300q-28 0 -44 -16q-20 -18 -20 -50q0 -33 20 -51q16 -16 44 -16t44 16q20 18 20 51q0 32 -20 50q-16 16 -44 16zM416 516l-103 72l-99 -72l-74 79
l177 129l169 -127z" />
    <glyph glyph-name="otilde" unicode="&#xf5;" horiz-adv-x="626" 
d="M598 234q0 -99 -67 -168q-77 -79 -218 -79t-218 79q-67 69 -67 168t67 167q77 79 218 79t218 -79q67 -68 67 -167zM313 300q-28 0 -44 -16q-20 -18 -20 -50q0 -33 20 -51q16 -16 44 -16t44 16q20 18 20 51q0 32 -20 50q-16 16 -44 16zM323 555l-43 17q-27 10 -35 10
q-15 0 -24 -9q-12 -12 -22 -32l-82 52q29 46 64 69q32 22 72 22q29 0 56 -14l23 -12q28 -14 40 -14q14 0 22 8q11 8 19 22l7 11l89 -44q-15 -28 -41 -56q-40 -42 -92 -42q-21 0 -53 12z" />
    <glyph glyph-name="odieresis" unicode="&#xf6;" horiz-adv-x="626" 
d="M598 234q0 -99 -67 -168q-77 -79 -218 -79t-218 79q-67 69 -67 168t67 167q77 79 218 79t218 -79q67 -68 67 -167zM313 300q-28 0 -44 -16q-20 -18 -20 -50q0 -33 20 -51q16 -16 44 -16t44 16q20 18 20 51q0 32 -20 50q-16 16 -44 16zM101 622q0 38 26 64.5t64 26.5
t64.5 -26.5t26.5 -64.5t-26.5 -64.5t-64.5 -26.5t-64 26.5t-26 64.5zM318 622q0 38 26 64.5t64 26.5t64.5 -26.5t26.5 -64.5t-26.5 -64.5t-64.5 -26.5t-64 26.5t-26 64.5z" />
    <glyph glyph-name="divide" unicode="&#xf7;" 
d="M33 280v120h434v-120h-434zM176 510q0 31 21.5 52.5t52.5 21.5t52.5 -21.5t21.5 -52.5t-21.5 -52.5t-52.5 -21.5t-52.5 21.5t-21.5 52.5zM176 170q0 31 21.5 52.5t52.5 21.5t52.5 -21.5t21.5 -52.5t-21.5 -52.5t-52.5 -21.5t-52.5 21.5t-21.5 52.5z" />
    <glyph glyph-name="oslash" unicode="&#xf8;" horiz-adv-x="655" 
d="M639 464l-79 -81q52 -63 52 -149q0 -101 -67 -168q-77 -79 -223 -79q-76 0 -133 25l-91 -91l-82 79l80 81q-54 69 -54 153q0 99 67 167q77 79 218 79q79 0 142 -27l88 91zM327 300q-28 0 -44 -16q-20 -18 -20 -50q0 -33 20 -51q16 -16 44 -16t44 16q20 18 20 51
q0 32 -20 50q-16 16 -44 16z" />
    <glyph glyph-name="ugrave" unicode="&#xf9;" horiz-adv-x="628" 
d="M48 191v276h227v-253q0 -26 11 -37q9 -10 27 -10t28 10q12 12 12 37v253h227v-269q0 -77 -54 -133q-75 -78 -213 -78q-135 0 -210 75q-55 55 -55 129zM184 669l117 73l115 -146l-86 -55z" />
    <glyph glyph-name="uacute" unicode="&#xfa;" horiz-adv-x="628" 
d="M48 191v276h227v-253q0 -26 11 -37q9 -10 27 -10t28 10q12 12 12 37v253h227v-269q0 -77 -54 -133q-75 -78 -213 -78q-135 0 -210 75q-55 55 -55 129zM209 596l116 146l117 -73l-146 -128z" />
    <glyph glyph-name="ucircumflex" unicode="&#xfb;" horiz-adv-x="628" 
d="M48 191v276h227v-253q0 -26 11 -37q9 -10 27 -10t28 10q12 12 12 37v253h227v-269q0 -77 -54 -133q-75 -78 -213 -78q-135 0 -210 75q-55 55 -55 129zM417 516l-103 72l-99 -72l-74 79l177 129l169 -127z" />
    <glyph glyph-name="udieresis" unicode="&#xfc;" horiz-adv-x="628" 
d="M48 191v276h227v-253q0 -26 11 -37q9 -10 27 -10t28 10q12 12 12 37v253h227v-269q0 -77 -54 -133q-75 -78 -213 -78q-135 0 -210 75q-55 55 -55 129zM120 622q0 38 26 64.5t64 26.5t64.5 -26.5t26.5 -64.5t-26.5 -64.5t-64.5 -26.5t-64 26.5t-26 64.5zM337 622
q0 38 26 64.5t64 26.5t64.5 -26.5t26.5 -64.5t-26.5 -64.5t-64.5 -26.5t-64 26.5t-26 64.5z" />
    <glyph glyph-name="yacute" unicode="&#xfd;" horiz-adv-x="601" 
d="M191 47l-201 420h245l56 -192q9 -30 10 -61h6q2 33 10 64l54 189h240l-317 -696h-241zM199 596l116 146l117 -73l-146 -128z" />
    <glyph glyph-name="thorn" unicode="&#xfe;" horiz-adv-x="637" 
d="M276 -229h-228v958h217v-288q0 -25 -6 -41l-1 -3l7 -2q20 33 48 55q42 30 95 30q80 0 133 -53q68 -68 68 -191q0 -115 -73 -193q-53 -56 -124 -56q-52 0 -92 27q-32 22 -48 50h-7q11 -44 11 -91v-202zM265 231q0 -36 20 -56q14 -15 39 -15q24 0 40 15q23 21 23 56
q0 33 -22 55q-17 17 -42 17q-21 0 -37 -14q-21 -20 -21 -58z" />
    <glyph glyph-name="ydieresis" unicode="&#xff;" horiz-adv-x="601" 
d="M191 47l-201 420h245l56 -192q9 -30 10 -61h6q2 33 10 64l54 189h240l-317 -696h-241zM116 622q0 38 26 64.5t64 26.5t64.5 -26.5t26.5 -64.5t-26.5 -64.5t-64.5 -26.5t-64 26.5t-26 64.5zM333 622q0 38 26 64.5t64 26.5t64.5 -26.5t26.5 -64.5t-26.5 -64.5t-64.5 -26.5
t-64 26.5t-26 64.5z" />
    <glyph glyph-name="Amacron" unicode="&#x100;" horiz-adv-x="737" 
d="M458 83h-184l-18 -83h-256l231 667h268l238 -667h-257zM385 369q-8 34 -13 75h-9q-1 -36 -11 -75l-33 -128h97zM542 746h-364v104h364v-104z" />
    <glyph glyph-name="amacron" unicode="&#x101;" horiz-adv-x="639" 
d="M369 411l5 3q-8 21 -8 40v13h225v-467h-224l1 16q2 21 9 43h-7q-58 -72 -140 -72q-78 0 -132 55q-70 72 -70 189q0 120 73 193q56 56 138 56q79 0 130 -69zM254 234q0 -29 20 -49q16 -16 39 -16t39 15q22 22 22 52q0 31 -20 49q-17 15 -39 15q-25 0 -41 -16
q-20 -20 -20 -50zM516 544h-340v100h340v-100z" />
    <glyph glyph-name="Abreve" unicode="&#x102;" horiz-adv-x="737" 
d="M458 83h-184l-18 -83h-256l231 667h268l238 -667h-257zM385 369q-8 34 -13 75h-9q-1 -36 -11 -75l-33 -128h97zM437 878h106q-5 -64 -48 -105q-49 -49 -135 -49t-135 49q-43 41 -48 105h106q4 -25 24 -41q20 -15 53 -15q32 0 53 15q20 16 24 41z" />
    <glyph glyph-name="abreve" unicode="&#x103;" horiz-adv-x="639" 
d="M369 411l5 3q-8 21 -8 40v13h225v-467h-224l1 16q2 21 9 43h-7q-58 -72 -140 -72q-78 0 -132 55q-70 72 -70 189q0 120 73 193q56 56 138 56q79 0 130 -69zM254 234q0 -29 20 -49q16 -16 39 -16t39 15q22 22 22 52q0 31 -20 49q-17 15 -39 15q-25 0 -41 -16
q-20 -20 -20 -50zM427 695h106q-5 -64 -48 -105q-49 -49 -135 -49t-135 49q-43 41 -48 105h106q4 -25 24 -41q20 -15 53 -15q32 0 53 15q20 16 24 41z" />
    <glyph glyph-name="Aogonek" unicode="&#x104;" horiz-adv-x="737" 
d="M458 83h-184l-18 -83h-256l231 667h268l238 -667h-167q-27 -22 -37 -34q-16 -17 -16 -41q0 -16 10 -25q9 -9 31 -9q34 0 60 25l-24 -95q-37 -23 -94 -23q-51 0 -78 25q-26 24 -26 63q0 38 33 73q21 21 51 41zM385 369q-8 34 -13 75h-9q-1 -36 -11 -75l-33 -128h97z" />
    <glyph glyph-name="aogonek" unicode="&#x105;" horiz-adv-x="639" 
d="M369 411l5 3q-8 21 -8 40v13h225v-467h-60q-20 -16 -33 -31q-15 -18 -15 -36q0 -16 10 -24t28 -8q30 0 54 23l-22 -87q-36 -21 -85 -21q-45 0 -71 23q-24 22 -24 58t30 66q17 17 46 37h-82l1 16q2 21 9 43h-7q-25 -30 -55 -48q-42 -24 -88 -24q-75 0 -129 55
q-70 72 -70 189q0 120 73 193q56 56 138 56q79 0 130 -69zM254 234q0 -29 20 -49q16 -16 39 -16t39 15q22 22 22 52q0 31 -20 49q-17 15 -39 15q-25 0 -41 -16q-20 -20 -20 -50z" />
    <glyph glyph-name="Cacute" unicode="&#x106;" horiz-adv-x="591" 
d="M555 261l-7 -249q-71 -27 -168 -27q-149 0 -246 97q-97 95 -97 246t100 253q101 101 252 101q82 0 159 -26l7 -254q-66 66 -141 66q-59 0 -97 -41q-35 -38 -35 -95q0 -58 39 -96q40 -38 99 -38q78 0 135 63zM299 779l116 146l117 -73l-146 -128z" />
    <glyph glyph-name="cacute" unicode="&#x107;" horiz-adv-x="444" 
d="M416 204l-9 -193q-48 -24 -115 -24q-126 0 -197 69q-67 65 -67 171q0 114 72 186q67 67 181 67q68 0 132 -24v-190q-41 37 -85 37q-32 0 -50 -18q-19 -21 -19 -49q0 -30 19 -49q20 -20 48 -20q50 0 90 37zM193 596l116 146l117 -73l-146 -128z" />
    <glyph glyph-name="Ccircumflex" unicode="&#x108;" horiz-adv-x="591" 
d="M555 261l-7 -249q-71 -27 -168 -27q-149 0 -246 97q-97 95 -97 246t100 253q101 101 252 101q82 0 159 -26l7 -254q-66 66 -141 66q-59 0 -97 -41q-35 -38 -35 -95q0 -58 39 -96q40 -38 99 -38q78 0 135 63zM498 716l-116 70l-119 -72l-72 88l196 114l185 -115z" />
    <glyph glyph-name="ccircumflex" unicode="&#x109;" horiz-adv-x="444" 
d="M416 204l-9 -193q-48 -24 -115 -24q-126 0 -197 69q-67 65 -67 171q0 114 72 186q67 67 181 67q68 0 132 -24v-190q-41 37 -85 37q-32 0 -50 -18q-19 -21 -19 -49q0 -30 19 -49q20 -20 48 -20q50 0 90 37zM383 516l-103 72l-99 -72l-74 79l177 129l169 -127z" />
    <glyph glyph-name="Cdotaccent" unicode="&#x10a;" horiz-adv-x="591" 
d="M555 261l-7 -249q-71 -27 -168 -27q-149 0 -246 97q-97 95 -97 246t100 253q101 101 252 101q82 0 159 -26l7 -254q-66 66 -141 66q-59 0 -97 -41q-35 -38 -35 -95q0 -58 39 -96q40 -38 99 -38q78 0 135 63zM280 809q0 40 26.5 66.5t66.5 26.5t66.5 -26.5t26.5 -66.5
t-26.5 -66.5t-66.5 -26.5t-66.5 26.5t-26.5 66.5z" />
    <glyph glyph-name="cdotaccent" unicode="&#x10b;" horiz-adv-x="444" 
d="M416 204l-9 -193q-48 -24 -115 -24q-126 0 -197 69q-67 65 -67 171q0 114 72 186q67 67 181 67q68 0 132 -24v-190q-41 37 -85 37q-32 0 -50 -18q-19 -21 -19 -49q0 -30 19 -49q20 -20 48 -20q50 0 90 37zM181 626q0 40 26.5 66.5t66.5 26.5t66.5 -26.5t26.5 -66.5
t-26.5 -66.5t-66.5 -26.5t-66.5 26.5t-26.5 66.5z" />
    <glyph glyph-name="Ccaron" unicode="&#x10c;" horiz-adv-x="591" 
d="M555 261l-7 -249q-71 -27 -168 -27q-149 0 -246 97q-97 95 -97 246t100 253q101 101 252 101q82 0 159 -26l7 -254q-66 66 -141 66q-59 0 -97 -41q-35 -38 -35 -95q0 -58 39 -96q40 -38 99 -38q78 0 135 63zM392 844l120 70l70 -85l-194 -115l-187 114l72 88z" />
    <glyph glyph-name="ccaron" unicode="&#x10d;" horiz-adv-x="444" 
d="M416 204l-9 -193q-48 -24 -115 -24q-126 0 -197 69q-67 65 -67 171q0 114 72 186q67 67 181 67q68 0 132 -24v-190q-41 37 -85 37q-32 0 -50 -18q-19 -21 -19 -49q0 -30 19 -49q20 -20 48 -20q50 0 90 37zM285 652l103 72l70 -81l-177 -127l-169 129l74 79z" />
    <glyph glyph-name="Dcaron" unicode="&#x10e;" horiz-adv-x="745" 
d="M384 0h-317v667h257q193 0 295 -101q90 -90 90 -241q0 -145 -86 -231q-92 -94 -239 -94zM307 463v-259h18q68 0 103 31q39 34 39 96q0 63 -39 100q-34 32 -95 32h-26zM332 844l120 70l70 -85l-194 -115l-187 114l72 88z" />
    <glyph glyph-name="dcaron" unicode="&#x10f;" horiz-adv-x="844" 
d="M362 473v256h227v-729h-220v21q0 18 7 53l-7 1q-20 -39 -52 -61q-40 -27 -97 -27q-73 0 -123 52q-69 69 -69 193q0 123 72 195q53 53 126 53q49 0 88 -26q24 -16 50 -49h7q-9 41 -9 68zM371 237q0 36 -23 59q-15 15 -38 15q-25 0 -39 -14q-22 -20 -22 -56q0 -35 23 -58
q16 -16 39 -16t38 14q22 19 22 56zM864 667l-91 -191h-137l55 191h173z" />
    <glyph glyph-name="Dcroat" unicode="&#x110;" horiz-adv-x="773" 
d="M412 0h-317v272h-75v132h75v263h257q194 0 295 -101q90 -90 90 -239q0 -146 -86 -233q-92 -94 -239 -94zM325 469v-65h94v-132h-94v-74h28q68 0 103 31q39 35 39 102q0 69 -39 106q-34 32 -95 32h-36z" />
    <glyph glyph-name="dcroat" unicode="&#x111;" horiz-adv-x="647" 
d="M362 473v65h-149v120h149v71h227v-71h88v-120h-88v-538h-220v21q0 18 7 53l-7 1q-20 -39 -52 -61q-40 -27 -97 -27q-73 0 -123 52q-69 69 -69 193q0 123 72 195q53 53 126 53q49 0 88 -26q24 -16 50 -49h7q-9 41 -9 68zM371 237q0 36 -23 59q-15 15 -38 15q-25 0 -39 -14
q-22 -20 -22 -56q0 -35 23 -58q16 -16 39 -16t38 14q22 19 22 56z" />
    <glyph glyph-name="Emacron" unicode="&#x112;" horiz-adv-x="560" 
d="M523 0h-456v667h450v-183h-208v-62h189v-175h-189v-64h214v-183zM472 746h-364v104h364v-104z" />
    <glyph glyph-name="emacron" unicode="&#x113;" horiz-adv-x="613" 
d="M585 196h-331q-2 -47 17 -68q11 -13 34 -13q19 0 34 13q9 8 15 27h222q-14 -43 -47 -80q-38 -43 -87.5 -65.5t-126.5 -22.5q-144 0 -221 77q-66 66 -66 163q0 106 70 176q79 77 208 77q125 0 201 -74q37 -35 57.5 -84.5t20.5 -99.5v-26zM256 293h107q-2 30 -20 47
q-13 13 -36 13q-19 0 -33 -12q-18 -16 -18 -48zM480 544h-340v100h340v-100z" />
    <glyph glyph-name="Edotaccent" unicode="&#x116;" horiz-adv-x="560" 
d="M523 0h-456v667h450v-183h-208v-62h189v-175h-189v-64h214v-183zM197 809q0 40 26.5 66.5t66.5 26.5t66.5 -26.5t26.5 -66.5t-26.5 -66.5t-66.5 -26.5t-66.5 26.5t-26.5 66.5z" />
    <glyph glyph-name="edotaccent" unicode="&#x117;" horiz-adv-x="613" 
d="M585 196h-331q-2 -47 17 -68q11 -13 34 -13q19 0 34 13q9 8 15 27h222q-14 -43 -47 -80q-38 -43 -87.5 -65.5t-126.5 -22.5q-144 0 -221 77q-66 66 -66 163q0 106 70 176q79 77 208 77q125 0 201 -74q37 -35 57.5 -84.5t20.5 -99.5v-26zM256 293h107q-2 30 -20 47
q-13 13 -36 13q-19 0 -33 -12q-18 -16 -18 -48zM213 626q0 40 26.5 66.5t66.5 26.5t66.5 -26.5t26.5 -66.5t-26.5 -66.5t-66.5 -26.5t-66.5 26.5t-26.5 66.5z" />
    <glyph glyph-name="Eogonek" unicode="&#x118;" horiz-adv-x="560" 
d="M517 667v-183h-208v-62h189v-175h-189v-64h214v-183h-60q-27 -22 -37 -34q-16 -17 -16 -41q0 -16 10 -25q9 -9 31 -9q34 0 60 25l-24 -95q-37 -23 -94 -23q-51 0 -78 25q-26 24 -26 63q0 38 33 73q21 21 51 41h-306v667h450z" />
    <glyph glyph-name="eogonek" unicode="&#x119;" horiz-adv-x="613" 
d="M585 196h-331q0 -50 17 -68q11 -13 34 -13q19 0 34 13q9 8 15 27h222q-13 -49 -51 -89q-23 -24 -71 -55q-48 -32 -60 -44q-21 -21 -21 -43q0 -17 10 -25t28 -8q30 0 54 23l-22 -87q-36 -21 -85 -21q-46 0 -71 23q-24 21 -24 58q0 32 29 66q18 21 36 34q-156 0 -234 77
q-66 66 -66 163q0 106 70 176q79 77 208 77q125 0 201 -74q37 -35 57.5 -84.5t20.5 -99.5v-26zM256 293h107q-2 30 -20 47q-13 13 -36 13q-19 0 -33 -12q-18 -16 -18 -48z" />
    <glyph glyph-name="Ecaron" unicode="&#x11a;" horiz-adv-x="560" 
d="M523 0h-456v667h450v-183h-208v-62h189v-175h-189v-64h214v-183zM297 844l120 70l70 -85l-194 -115l-187 114l72 88z" />
    <glyph glyph-name="ecaron" unicode="&#x11b;" horiz-adv-x="613" 
d="M585 196h-331q-2 -47 17 -68q11 -13 34 -13q19 0 34 13q9 8 15 27h222q-14 -43 -47 -80q-38 -43 -87.5 -65.5t-126.5 -22.5q-144 0 -221 77q-66 66 -66 163q0 106 70 176q79 77 208 77q125 0 201 -74q37 -35 57.5 -84.5t20.5 -99.5v-26zM256 293h107q-2 30 -20 47
q-13 13 -36 13q-19 0 -33 -12q-18 -16 -18 -48zM310 652l103 72l70 -81l-177 -127l-169 129l74 79z" />
    <glyph glyph-name="Gcircumflex" unicode="&#x11c;" horiz-adv-x="804" 
d="M393 230v158h375v-15q0 -82 -17 -152t-70 -127q-49 -52 -124 -80.5t-159 -28.5q-173 0 -275 110q-86 93 -86 237q0 151 92 245q101 105 280 105q108 0 196 -47q83 -45 128 -123l-226 -84q-32 51 -92 51q-51 0 -85 -31q-49 -45 -49 -126q0 -77 44 -119q32 -30 79 -30
q78 0 99 57h-110zM528 716l-116 70l-119 -72l-72 88l196 114l185 -115z" />
    <glyph glyph-name="gcircumflex" unicode="&#x11d;" horiz-adv-x="635" 
d="M587 467v-440q0 -104 -65 -170q-85 -86 -239 -86q-109 0 -195 30l-40 14l51 158q25 -21 66 -39q44 -18 83 -18q57 0 88 31q27 27 31 75l4 46h-5q-17 -35 -49 -55q-33 -21 -83 -21q-81 0 -137 57q-69 71 -69 186q0 53 20 106t54 86q55 53 132 53q48 0 79 -21
q29 -20 53 -57h5q-5 17 -5 36v29h221zM249 234q0 -27 17 -45q19 -22 49 -22q23 0 39 15q19 18 19 48q0 36 -18 53q-19 17 -43 17q-25 0 -44 -19t-19 -47zM418 516l-103 72l-99 -72l-74 79l177 129l169 -127z" />
    <glyph glyph-name="Gbreve" unicode="&#x11e;" horiz-adv-x="804" 
d="M393 230v158h375v-15q0 -82 -17 -152t-70 -127q-49 -52 -124 -80.5t-159 -28.5q-173 0 -275 110q-86 93 -86 237q0 151 92 245q101 105 280 105q108 0 196 -47q83 -45 128 -123l-226 -84q-32 51 -92 51q-51 0 -85 -31q-49 -45 -49 -126q0 -77 44 -119q32 -30 79 -30
q78 0 99 57h-110zM487 878h106q-5 -64 -48 -105q-49 -49 -135 -49t-135 49q-43 41 -48 105h106q4 -25 24 -41q20 -15 53 -15q32 0 53 15q20 16 24 41z" />
    <glyph glyph-name="gbreve" unicode="&#x11f;" horiz-adv-x="635" 
d="M587 467v-440q0 -104 -65 -170q-85 -86 -239 -86q-109 0 -195 30l-40 14l51 158q25 -21 66 -39q44 -18 83 -18q57 0 88 31q27 27 31 75l4 46h-5q-17 -35 -49 -55q-33 -21 -83 -21q-81 0 -137 57q-69 71 -69 186q0 53 20 106t54 86q55 53 132 53q48 0 79 -21
q29 -20 53 -57h5q-5 17 -5 36v29h221zM249 234q0 -27 17 -45q19 -22 49 -22q23 0 39 15q19 18 19 48q0 36 -18 53q-19 17 -43 17q-25 0 -44 -19t-19 -47zM392 695h106q-5 -64 -48 -105q-49 -49 -135 -49t-135 49q-43 41 -48 105h106q4 -25 24 -41q20 -15 53 -15q32 0 53 15
q20 16 24 41z" />
    <glyph glyph-name="Gdotaccent" unicode="&#x120;" horiz-adv-x="804" 
d="M393 230v158h375v-15q0 -82 -17 -152t-70 -127q-49 -52 -124 -80.5t-159 -28.5q-173 0 -275 110q-86 93 -86 237q0 151 92 245q101 105 280 105q108 0 196 -47q83 -45 128 -123l-226 -84q-32 51 -92 51q-51 0 -85 -31q-49 -45 -49 -126q0 -77 44 -119q32 -30 79 -30
q78 0 99 57h-110zM330 809q0 40 26.5 66.5t66.5 26.5t66.5 -26.5t26.5 -66.5t-26.5 -66.5t-66.5 -26.5t-66.5 26.5t-26.5 66.5z" />
    <glyph glyph-name="gdotaccent" unicode="&#x121;" horiz-adv-x="635" 
d="M587 467v-440q0 -104 -65 -170q-85 -86 -239 -86q-109 0 -195 30l-40 14l51 158q25 -21 66 -39q44 -18 83 -18q57 0 88 31q27 27 31 75l4 46h-5q-17 -35 -49 -55q-33 -21 -83 -21q-81 0 -137 57q-69 71 -69 186q0 53 20 106t54 86q55 53 132 53q48 0 79 -21
q29 -20 53 -57h5q-5 17 -5 36v29h221zM249 234q0 -27 17 -45q19 -22 49 -22q23 0 39 15q19 18 19 48q0 36 -18 53q-19 17 -43 17q-25 0 -44 -19t-19 -47zM200 626q0 40 26.5 66.5t66.5 26.5t66.5 -26.5t26.5 -66.5t-26.5 -66.5t-66.5 -26.5t-66.5 26.5t-26.5 66.5z" />
    <glyph glyph-name="Gcommaaccent" unicode="&#x122;" horiz-adv-x="804" 
d="M393 230v158h375v-15q0 -82 -17 -152t-70 -127q-49 -52 -124 -80.5t-159 -28.5q-173 0 -275 110q-86 93 -86 237q0 151 92 245q101 105 280 105q108 0 196 -47q83 -45 128 -123l-226 -84q-32 51 -92 51q-51 0 -85 -31q-49 -45 -49 -126q0 -77 44 -119q32 -30 79 -30
q78 0 99 57h-110zM508 -55l-91 -191h-137l55 191h173z" />
    <glyph glyph-name="gcommaaccent" unicode="&#x123;" horiz-adv-x="635" 
d="M587 467v-440q0 -104 -65 -170q-85 -86 -239 -86q-109 0 -195 30l-40 14l51 158q25 -21 66 -39q44 -18 83 -18q57 0 88 31q27 27 31 75l4 46h-5q-17 -35 -49 -55q-33 -21 -83 -21q-81 0 -137 57q-69 71 -69 186q0 53 20 106t54 86q55 53 132 53q48 0 79 -21
q29 -20 53 -57h5q-5 17 -5 36v29h221zM249 234q0 -27 17 -45q19 -22 49 -22q23 0 39 15q19 18 19 48q0 36 -18 53q-19 17 -43 17q-25 0 -44 -19t-19 -47zM204 533l91 191h137l-55 -191h-173z" />
    <glyph glyph-name="Hcircumflex" unicode="&#x124;" horiz-adv-x="748" 
d="M300 0h-233v667h233v-226h148v226h233v-667h-233v232h-148v-232zM492 716l-116 70l-119 -72l-72 88l196 114l185 -115z" />
    <glyph glyph-name="hcircumflex" unicode="&#x125;" horiz-adv-x="625" 
d="M275 0h-227v729h227v-262q0 -39 -7 -74l3 -2q32 41 61 61q42 28 92 28q61 0 103 -40q50 -48 50 -141v-299h-222v253q0 22 -12 34q-10 10 -24 10q-19 0 -32 -13q-12 -11 -12 -34v-250zM263 756l-103 72l-99 -72l-74 79l177 129l169 -127z" />
    <glyph glyph-name="Hbar" unicode="&#x126;" horiz-adv-x="748" 
d="M300 0h-233v482h-60v142h60v43h233v-43h148v43h233v-43h60v-142h-60v-482h-233v232h-148v-232zM448 482h-148v-74h148v74z" />
    <glyph glyph-name="hbar" unicode="&#x127;" horiz-adv-x="635" 
d="M285 0h-227v538h-88v120h88v71h227v-71h149v-120h-149v-71q0 -39 -7 -74l3 -2q32 41 61 61q42 28 92 28q61 0 103 -40q50 -48 50 -141v-299h-222v253q0 22 -12 34q-10 10 -24 10q-19 0 -32 -13q-12 -11 -12 -34v-250z" />
    <glyph glyph-name="Imacron" unicode="&#x12a;" horiz-adv-x="376" 
d="M309 0h-242v667h242v-667zM370 746h-364v104h364v-104z" />
    <glyph glyph-name="imacron" unicode="&#x12b;" horiz-adv-x="323" 
d="M275 0h-227v467h227v-467zM332 544h-340v100h340v-100z" />
    <glyph glyph-name="Iogonek" unicode="&#x12e;" horiz-adv-x="376" 
d="M309 667v-667q-27 -22 -37 -34q-16 -17 -16 -41q0 -16 10 -25q9 -9 31 -9q34 0 60 25l-24 -95q-37 -23 -94 -23q-51 0 -78 25q-26 24 -26 63q0 38 33 73q21 21 51 41h-152v667h242z" />
    <glyph glyph-name="iogonek" unicode="&#x12f;" horiz-adv-x="323" 
d="M48 467h227v-467q-20 -16 -33 -31q-15 -18 -15 -36q0 -16 10 -24t28 -8q30 0 54 23l-22 -87q-36 -21 -85 -21q-45 0 -71 23q-24 22 -24 58t30 66q17 17 46 37h-145v467zM287 613q0 -43 -29 -74q-34 -36 -97 -36t-97 36q-29 31 -29 74t29 74q34 36 97 36t97 -36
q29 -31 29 -74z" />
    <glyph glyph-name="Idotaccent" unicode="&#x130;" horiz-adv-x="376" 
d="M309 0h-242v667h242v-667zM85 809q0 40 26.5 66.5t66.5 26.5t66.5 -26.5t26.5 -66.5t-26.5 -66.5t-66.5 -26.5t-66.5 26.5t-26.5 66.5z" />
    <glyph glyph-name="dotlessi" unicode="&#x131;" horiz-adv-x="323" 
d="M275 0h-227v467h227v-467z" />
    <glyph glyph-name="Jcircumflex" unicode="&#x134;" horiz-adv-x="482" 
d="M178 255v412h238v-465q0 -87 -60 -149q-65 -68 -167 -68q-96 0 -172 54l-27 19l88 206l5 -17q8 -29 22 -41q12 -12 31 -12q18 0 28 12q14 16 14 49zM408 716l-116 70l-119 -72l-72 88l196 114l185 -115z" />
    <glyph glyph-name="jcircumflex" unicode="&#x135;" horiz-adv-x="323" 
d="M275 -229h-227v696h227v-696zM265 516l-103 72l-99 -72l-74 79l177 129l169 -127z" />
    <glyph glyph-name="Kcommaaccent" unicode="&#x136;" horiz-adv-x="740" 
d="M299 0h-232v667h232v-207q0 -46 -5 -84h5q12 33 35 75l115 216h262l-208 -327l230 -340h-280l-122 214q-13 21 -32 64h-5q5 -29 5 -63v-215zM467 -55l-91 -191h-137l55 191h173z" />
    <glyph glyph-name="kcommaaccent" unicode="&#x137;" horiz-adv-x="646" 
d="M275 0h-227v729h227v-434h6l1 3l88 169h266l-172 -227l180 -240h-268l-97 172h-4v-172zM427 -50l-91 -191h-137l55 191h173z" />
    <glyph glyph-name="Lacute" unicode="&#x139;" horiz-adv-x="527" 
d="M513 0h-446v667h242v-452h204v-215zM94 779l116 146l117 -73l-146 -128z" />
    <glyph glyph-name="lacute" unicode="&#x13a;" horiz-adv-x="323" 
d="M275 0h-227v729h227v-729zM48 826l116 146l117 -73l-146 -128z" />
    <glyph glyph-name="Lcommaaccent" unicode="&#x13b;" horiz-adv-x="527" 
d="M513 0h-446v667h242v-452h204v-215zM384 -55l-91 -191h-137l55 191h173z" />
    <glyph glyph-name="lcommaaccent" unicode="&#x13c;" horiz-adv-x="323" 
d="M275 0h-227v729h227v-729zM251 -50l-91 -191h-137l55 191h173z" />
    <glyph glyph-name="Lcaron" unicode="&#x13d;" horiz-adv-x="554" 
d="M513 0h-446v667h242v-452h204v-215zM584 667l-91 -191h-137l55 191h173z" />
    <glyph glyph-name="lcaron" unicode="&#x13e;" horiz-adv-x="524" 
d="M275 0h-227v729h227v-729zM544 667l-91 -191h-137l55 191h173z" />
    <glyph glyph-name="Ldot" unicode="&#x13f;" horiz-adv-x="527" 
d="M513 0h-446v667h242v-452h204v-215zM360 364q0 40 26.5 66.5t66.5 26.5t66.5 -26.5t26.5 -66.5t-26.5 -66.5t-66.5 -26.5t-66.5 26.5t-26.5 66.5z" />
    <glyph glyph-name="ldot" unicode="&#x140;" horiz-adv-x="493" 
d="M275 0h-227v729h227v-729zM314 364q0 40 26.5 66.5t66.5 26.5t66.5 -26.5t26.5 -66.5t-26.5 -66.5t-66.5 -26.5t-66.5 26.5t-26.5 66.5z" />
    <glyph glyph-name="Lslash" unicode="&#x141;" horiz-adv-x="556" 
d="M542 0h-446v230l-86 -55v162l86 55v275h242v-184l114 73v-162l-114 -73v-106h204v-215z" />
    <glyph glyph-name="lslash" unicode="&#x142;" horiz-adv-x="451" 
d="M339 729v-213l102 68v-136l-102 -68v-380h-227v285l-102 -68v136l102 68v308h227z" />
    <glyph glyph-name="Nacute" unicode="&#x143;" horiz-adv-x="801" 
d="M298 0h-231v667h231l155 -252q40 -65 63 -118h7q-21 88 -21 158v212h232v-667h-232l-166 263q-22 35 -46 87h-7q15 -77 15 -123v-227zM334 779l116 146l117 -73l-146 -128z" />
    <glyph glyph-name="nacute" unicode="&#x144;" horiz-adv-x="629" 
d="M275 0h-227v467h223v-24q0 -21 -9 -48l5 -1q30 39 63 61q38 25 85 25q68 0 114 -42q52 -50 52 -138v-300h-227v254q0 26 -10 36q-9 10 -26 10q-18 0 -29 -11q-14 -14 -14 -46v-243zM224 596l116 146l117 -73l-146 -128z" />
    <glyph glyph-name="Ncommaaccent" unicode="&#x145;" horiz-adv-x="801" 
d="M298 0h-231v667h231l155 -252q40 -65 63 -118h7q-21 88 -21 158v212h232v-667h-232l-166 263q-22 35 -46 87h-7q15 -77 15 -123v-227zM487 -55l-91 -191h-137l55 191h173z" />
    <glyph glyph-name="ncommaaccent" unicode="&#x146;" horiz-adv-x="629" 
d="M275 0h-227v467h223v-24q0 -21 -9 -48l5 -1q30 39 63 61q38 25 85 25q68 0 114 -42q52 -50 52 -138v-300h-227v254q0 26 -10 36q-9 10 -26 10q-18 0 -29 -11q-14 -14 -14 -46v-243zM415 -50l-91 -191h-137l55 191h173z" />
    <glyph glyph-name="Ncaron" unicode="&#x147;" horiz-adv-x="801" 
d="M298 0h-231v667h231l155 -252q40 -65 63 -118h7q-21 88 -21 158v212h232v-667h-232l-166 263q-22 35 -46 87h-7q15 -77 15 -123v-227zM402 844l120 70l70 -85l-194 -115l-187 114l72 88z" />
    <glyph glyph-name="ncaron" unicode="&#x148;" horiz-adv-x="629" 
d="M275 0h-227v467h223v-24q0 -21 -9 -48l5 -1q30 39 63 61q38 25 85 25q68 0 114 -42q52 -50 52 -138v-300h-227v254q0 26 -10 36q-9 10 -26 10q-18 0 -29 -11q-14 -14 -14 -46v-243zM320 652l103 72l70 -81l-177 -127l-169 129l74 79z" />
    <glyph glyph-name="Omacron" unicode="&#x14c;" horiz-adv-x="814" 
d="M777 334q0 -147 -93 -242q-105 -107 -277 -107t-277 107q-93 95 -93 242q0 146 93 241q105 107 277 107t277 -107q93 -95 93 -241zM407 467q-55 0 -87 -34q-38 -40 -38 -100q0 -61 38 -99q34 -34 87 -34t87 34q38 38 38 99q0 64 -38 100q-34 34 -87 34zM592 746h-364v104
h364v-104z" />
    <glyph glyph-name="omacron" unicode="&#x14d;" horiz-adv-x="626" 
d="M598 234q0 -99 -67 -168q-77 -79 -218 -79t-218 79q-67 69 -67 168t67 167q77 79 218 79t218 -79q67 -68 67 -167zM313 300q-28 0 -44 -16q-20 -18 -20 -50q0 -33 20 -51q16 -16 44 -16t44 16q20 18 20 51q0 32 -20 50q-16 16 -44 16zM483 544h-340v100h340v-100z" />
    <glyph glyph-name="Obreve" unicode="&#x14e;" horiz-adv-x="814" 
d="M777 334q0 -147 -93 -242q-105 -107 -277 -107t-277 107q-93 95 -93 242q0 146 93 241q105 107 277 107t277 -107q93 -95 93 -241zM407 467q-55 0 -87 -34q-38 -40 -38 -100q0 -61 38 -99q34 -34 87 -34t87 34q38 38 38 99q0 64 -38 100q-34 34 -87 34zM487 878h106
q-5 -64 -48 -105q-49 -49 -135 -49t-135 49q-43 41 -48 105h106q4 -25 24 -41q20 -15 53 -15q32 0 53 15q20 16 24 41z" />
    <glyph glyph-name="obreve" unicode="&#x14f;" horiz-adv-x="626" 
d="M598 234q0 -99 -67 -168q-77 -79 -218 -79t-218 79q-67 69 -67 168t67 167q77 79 218 79t218 -79q67 -68 67 -167zM313 300q-28 0 -44 -16q-20 -18 -20 -50q0 -33 20 -51q16 -16 44 -16t44 16q20 18 20 51q0 32 -20 50q-16 16 -44 16zM390 695h106q-5 -64 -48 -105
q-49 -49 -135 -49t-135 49q-43 41 -48 105h106q4 -25 24 -41q20 -15 53 -15q32 0 53 15q20 16 24 41z" />
    <glyph glyph-name="Ohungarumlaut" unicode="&#x150;" horiz-adv-x="814" 
d="M777 334q0 -147 -93 -242q-105 -107 -277 -107t-277 107q-93 95 -93 242q0 146 93 241q105 107 277 107t277 -107q93 -95 93 -241zM407 467q-55 0 -87 -34q-38 -40 -38 -100q0 -61 38 -99q34 -34 87 -34t87 34q38 38 38 99q0 64 -38 100q-34 34 -87 34zM214 779l100 146
l112 -73l-133 -128zM418 779l100 146l111 -73l-132 -128z" />
    <glyph glyph-name="ohungarumlaut" unicode="&#x151;" horiz-adv-x="626" 
d="M598 234q0 -99 -67 -168q-77 -79 -218 -79t-218 79q-67 69 -67 168t67 167q77 79 218 79t218 -79q67 -68 67 -167zM313 300q-28 0 -44 -16q-20 -18 -20 -50q0 -33 20 -51q16 -16 44 -16t44 16q20 18 20 51q0 32 -20 50q-16 16 -44 16zM113 596l100 146l112 -73l-133 -128
zM317 596l100 146l111 -73l-132 -128z" />
    <glyph glyph-name="OE" unicode="&#x152;" horiz-adv-x="1039" 
d="M548 0v84q-41 -49 -81 -71q-49 -28 -120 -28q-119 0 -204 85q-106 106 -106 263q0 74 27 147t79 123q83 79 212 79q68 0 117 -29q44 -25 76 -79v93h447v-183h-206v-62h188v-175h-188v-64h214v-183h-455zM289 329q0 -53 30 -88q33 -39 90 -39q50 0 83 31q39 37 39 105
q0 63 -36 97q-33 30 -83 30q-55 0 -89 -38q-34 -37 -34 -98z" />
    <glyph glyph-name="oe" unicode="&#x153;" horiz-adv-x="933" 
d="M674 157h221q-29 -84 -100 -128q-68 -42 -165 -42q-106 0 -166 64q-70 -64 -182 -64q-118 0 -191 78q-63 69 -63 164q0 106 74 177q77 74 194 74q101 0 172 -66q70 67 173 67q110 0 183 -69q81 -75 81 -201v-11h-331v-4q0 -48 16 -64q14 -14 41 -14q22 0 33 12
q10 10 10 27zM578 297h106q0 33 -18 50q-12 12 -34 12q-23 0 -37 -14q-17 -17 -17 -48zM313 300q-28 0 -44 -16q-20 -18 -20 -50q0 -33 20 -51q16 -16 44 -16t44 16q20 18 20 51q0 32 -20 50q-16 16 -44 16z" />
    <glyph glyph-name="Racute" unicode="&#x154;" horiz-adv-x="711" 
d="M303 0h-236v667h301q64 0 113.5 -14t90.5 -55q63 -63 63 -164q0 -74 -37 -119q-33 -41 -92 -53v-6q23 -12 35 -31l150 -225h-279l-96 195l-4 7q-3 7 -5 14l-4 -2v-214zM303 484v-114h28q34 0 51 15t17 41t-13 40q-16 18 -41 18h-42zM244 779l116 146l117 -73l-146 -128z
" />
    <glyph glyph-name="racute" unicode="&#x155;" horiz-adv-x="443" 
d="M275 0h-227v467h229v-29q0 -16 -6 -31h4q21 37 57 57q38 21 104 21v-237q-41 26 -71 26q-37 0 -62 -22q-28 -24 -28 -69v-183zM144 596l116 146l117 -73l-146 -128z" />
    <glyph glyph-name="Rcommaaccent" unicode="&#x156;" horiz-adv-x="711" 
d="M303 0h-236v667h301q64 0 113.5 -14t90.5 -55q63 -63 63 -164q0 -74 -37 -119q-33 -41 -92 -53v-6q23 -12 35 -31l150 -225h-279l-96 195l-4 7q-3 7 -5 14l-4 -2v-214zM303 484v-114h28q34 0 51 15t17 41t-13 40q-16 18 -41 18h-42zM457 -55l-91 -191h-137l55 191h173z
" />
    <glyph glyph-name="rcommaaccent" unicode="&#x157;" horiz-adv-x="443" 
d="M275 0h-227v467h229v-29q0 -16 -6 -31h4q21 37 57 57q38 21 104 21v-237q-41 26 -71 26q-37 0 -62 -22q-28 -24 -28 -69v-183zM367 -50l-91 -191h-137l55 191h173z" />
    <glyph glyph-name="Rcaron" unicode="&#x158;" horiz-adv-x="711" 
d="M303 0h-236v667h301q64 0 113.5 -14t90.5 -55q63 -63 63 -164q0 -74 -37 -119q-33 -41 -92 -53v-6q23 -12 35 -31l150 -225h-279l-96 195l-4 7q-3 7 -5 14l-4 -2v-214zM303 484v-114h28q34 0 51 15t17 41t-13 40q-16 18 -41 18h-42zM332 844l120 70l70 -85l-194 -115
l-187 114l72 88z" />
    <glyph glyph-name="rcaron" unicode="&#x159;" horiz-adv-x="443" 
d="M275 0h-227v467h229v-29q0 -16 -6 -31h4q21 37 57 57q38 21 104 21v-237q-41 26 -71 26q-37 0 -62 -22q-28 -24 -28 -69v-183zM239 652l103 72l70 -81l-177 -127l-169 129l74 79z" />
    <glyph glyph-name="Sacute" unicode="&#x15a;" horiz-adv-x="618" 
d="M559 624l-65 -170q-72 50 -136 50q-30 0 -46 -12q-12 -9 -12 -24q0 -9 2 -14t11 -11t26 -10l77 -17q73 -16 114 -57q51 -50 51 -132q0 -94 -60 -157q-83 -85 -235 -85q-47 0 -94 9.5t-69 17.5t-64 25l-22 9l73 188l26 -20q64 -49 135 -49q37 0 52 12q13 11 13 30
q0 15 -8 23t-46 16l-59 11q-74 14 -116 57q-48 49 -48 123q0 94 65 159q84 86 232 86q107 0 203 -58zM259 779l116 146l117 -73l-146 -128z" />
    <glyph glyph-name="sacute" unicode="&#x15b;" horiz-adv-x="487" 
d="M454 440l-55 -131q-20 15 -47 27q-31 14 -58 14q-15 0 -25 -7q-9 -7 -9 -18q0 -8 7 -15q2 -2 27 -8l46 -10q63 -14 92 -44q33 -35 33 -87q0 -68 -47 -113q-62 -61 -177 -61q-92 0 -185 38l-33 14l58 142l32 -20q51 -32 93 -32q19 0 31 8q9 6 9 18q0 11 -9 19q-9 6 -32 10
l-33 5q-53 9 -83 39q-36 35 -36 89q0 75 66 120q62 43 159 43q91 0 176 -40zM179 596l116 146l117 -73l-146 -128z" />
    <glyph glyph-name="Scircumflex" unicode="&#x15c;" horiz-adv-x="618" 
d="M559 624l-65 -170q-72 50 -136 50q-30 0 -46 -12q-12 -9 -12 -24q0 -9 2 -14t11 -11t26 -10l77 -17q73 -16 114 -57q51 -50 51 -132q0 -94 -60 -157q-83 -85 -235 -85q-47 0 -94 9.5t-69 17.5t-64 25l-22 9l73 188l26 -20q64 -49 135 -49q37 0 52 12q13 11 13 30
q0 15 -8 23t-46 16l-59 11q-74 14 -116 57q-48 49 -48 123q0 94 65 159q84 86 232 86q107 0 203 -58zM463 716l-116 70l-119 -72l-72 88l196 114l185 -115z" />
    <glyph glyph-name="scircumflex" unicode="&#x15d;" horiz-adv-x="487" 
d="M454 440l-55 -131q-20 15 -47 27q-31 14 -58 14q-15 0 -25 -7q-9 -7 -9 -18q0 -8 7 -15q2 -2 27 -8l46 -10q63 -14 92 -44q33 -35 33 -87q0 -68 -47 -113q-62 -61 -177 -61q-92 0 -185 38l-33 14l58 142l32 -20q51 -32 93 -32q19 0 31 8q9 6 9 18q0 11 -9 19q-9 6 -32 10
l-33 5q-53 9 -83 39q-36 35 -36 89q0 75 66 120q62 43 159 43q91 0 176 -40zM378 516l-103 72l-99 -72l-74 79l177 129l169 -127z" />
    <glyph glyph-name="Scedilla" unicode="&#x15e;" horiz-adv-x="618" 
d="M559 624l-65 -170q-72 50 -136 50q-30 0 -46 -12q-12 -9 -12 -24q0 -9 2 -14t11 -11t26 -10l77 -17q73 -16 114 -57q51 -50 51 -132q0 -94 -60 -157q-83 -85 -235 -85q-47 0 -94 9.5t-69 17.5t-64 25l-22 9l73 188l26 -20q64 -49 135 -49q37 0 52 12q13 11 13 30
q0 15 -8 23t-46 16l-59 11q-74 14 -116 57q-48 49 -48 123q0 94 65 159q84 86 232 86q107 0 203 -58zM435 -125l-138 -143l-110 78l132 147z" />
    <glyph glyph-name="scedilla" unicode="&#x15f;" horiz-adv-x="487" 
d="M454 440l-55 -131q-20 15 -47 27q-31 14 -58 14q-15 0 -25 -7q-9 -7 -9 -18q0 -8 7 -15q2 -2 27 -8l46 -10q63 -14 92 -44q33 -35 33 -87q0 -68 -47 -113q-62 -61 -177 -61q-92 0 -185 38l-33 14l58 142l32 -20q51 -32 93 -32q19 0 31 8q9 6 9 18q0 11 -9 19q-9 6 -32 10
l-33 5q-53 9 -83 39q-36 35 -36 89q0 75 66 120q62 43 159 43q91 0 176 -40zM344 -121l-126 -129l-100 70l120 135z" />
    <glyph glyph-name="Scaron" unicode="&#x160;" horiz-adv-x="618" 
d="M559 624l-65 -170q-72 50 -136 50q-30 0 -46 -12q-12 -9 -12 -24q0 -9 2 -14t11 -11t26 -10l77 -17q73 -16 114 -57q51 -50 51 -132q0 -94 -60 -157q-83 -85 -235 -85q-47 0 -94 9.5t-69 17.5t-64 25l-22 9l73 188l26 -20q64 -49 135 -49q37 0 52 12q13 11 13 30
q0 15 -8 23t-46 16l-59 11q-74 14 -116 57q-48 49 -48 123q0 94 65 159q84 86 232 86q107 0 203 -58zM357 844l120 70l70 -85l-194 -115l-187 114l72 88z" />
    <glyph glyph-name="scaron" unicode="&#x161;" horiz-adv-x="487" 
d="M454 440l-55 -131q-20 15 -47 27q-31 14 -58 14q-15 0 -25 -7q-9 -7 -9 -18q0 -8 7 -15q2 -2 27 -8l46 -10q63 -14 92 -44q33 -35 33 -87q0 -68 -47 -113q-62 -61 -177 -61q-92 0 -185 38l-33 14l58 142l32 -20q51 -32 93 -32q19 0 31 8q9 6 9 18q0 11 -9 19q-9 6 -32 10
l-33 5q-53 9 -83 39q-36 35 -36 89q0 75 66 120q62 43 159 43q91 0 176 -40zM280 652l103 72l70 -81l-177 -127l-169 129l74 79z" />
    <glyph glyph-name="Tcedilla" unicode="&#x162;" horiz-adv-x="524" 
d="M381 0h-238v456l-136 -6v217h510v-217l-136 6v-456zM385 -125l-138 -143l-110 78l132 147z" />
    <glyph glyph-name="tcedilla" unicode="&#x163;" horiz-adv-x="367" 
d="M292 0h-227v292l-57 -4v179l57 -4v170h227v-170l77 4v-179l-77 4v-292zM288 -121l-126 -129l-100 70l120 135z" />
    <glyph glyph-name="Tcaron" unicode="&#x164;" horiz-adv-x="524" 
d="M143 0h238v456l136 -6v217h-510v-217l136 6v-456zM263 844l120 70l70 -85l-194 -115l-187 114l72 88z" />
    <glyph glyph-name="tcaron" unicode="&#x165;" horiz-adv-x="544" 
d="M292 0h-227v292l-57 -4v179l57 -4v170h227v-170l77 4v-179l-77 4v-292zM564 697l-91 -191h-137l55 191h173z" />
    <glyph glyph-name="Utilde" unicode="&#x168;" horiz-adv-x="751" 
d="M67 241v426h240v-387q0 -46 21 -68q17 -18 48 -18q33 0 49 16q18 18 18 70v387h241v-409q0 -118 -70 -190q-81 -83 -238 -83q-166 0 -248 88q-61 66 -61 168zM385 738l-43 17q-28 10 -35 10q-15 0 -24 -9q-12 -12 -22 -32l-82 52q27 43 66 69q33 22 72 22q26 0 54 -14
l23 -12q28 -14 40 -14q14 0 22 8q11 8 19 22l7 11l89 -44q-15 -28 -41 -56q-40 -42 -92 -42q-24 0 -53 12z" />
    <glyph glyph-name="utilde" unicode="&#x169;" horiz-adv-x="628" 
d="M48 191v276h227v-253q0 -26 11 -37q9 -10 27 -10t28 10q12 12 12 37v253h227v-269q0 -77 -54 -133q-75 -78 -213 -78q-135 0 -210 75q-55 55 -55 129zM324 555l-43 17q-27 10 -35 10q-15 0 -24 -9q-12 -12 -22 -32l-82 52q29 46 64 69q32 22 72 22q29 0 56 -14l23 -12
q28 -14 40 -14q14 0 22 8q11 8 19 22l7 11l89 -44q-15 -28 -41 -56q-40 -42 -92 -42q-21 0 -53 12z" />
    <glyph glyph-name="Umacron" unicode="&#x16a;" horiz-adv-x="751" 
d="M67 241v426h240v-387q0 -46 21 -68q17 -18 48 -18q33 0 49 16q18 18 18 70v387h241v-409q0 -118 -70 -190q-81 -83 -238 -83q-166 0 -248 88q-61 66 -61 168zM562 746h-364v104h364v-104z" />
    <glyph glyph-name="umacron" unicode="&#x16b;" horiz-adv-x="628" 
d="M48 191v276h227v-253q0 -26 11 -37q9 -10 27 -10t28 10q12 12 12 37v253h227v-269q0 -77 -54 -133q-75 -78 -213 -78q-135 0 -210 75q-55 55 -55 129zM484 544h-340v100h340v-100z" />
    <glyph glyph-name="Ubreve" unicode="&#x16c;" horiz-adv-x="751" 
d="M67 241v426h240v-387q0 -46 21 -68q17 -18 48 -18q33 0 49 16q18 18 18 70v387h241v-409q0 -118 -70 -190q-81 -83 -238 -83q-166 0 -248 88q-61 66 -61 168zM457 878h106q-5 -64 -48 -105q-49 -49 -135 -49t-135 49q-43 41 -48 105h106q4 -25 24 -41q20 -15 53 -15
q32 0 53 15q20 16 24 41z" />
    <glyph glyph-name="ubreve" unicode="&#x16d;" horiz-adv-x="628" 
d="M48 191v276h227v-253q0 -26 11 -37q9 -10 27 -10t28 10q12 12 12 37v253h227v-269q0 -77 -54 -133q-75 -78 -213 -78q-135 0 -210 75q-55 55 -55 129zM391 695h106q-5 -64 -48 -105q-49 -49 -135 -49t-135 49q-43 41 -48 105h106q4 -25 24 -41q20 -15 53 -15q32 0 53 15
q20 16 24 41z" />
    <glyph glyph-name="Uring" unicode="&#x16e;" horiz-adv-x="751" 
d="M67 241v426h240v-387q0 -46 21 -68q17 -18 48 -18q33 0 49 16q18 18 18 70v387h241v-409q0 -118 -70 -190q-81 -83 -238 -83q-166 0 -248 88q-61 66 -61 168zM517 822q0 -48 -38 -77q-36 -27 -99 -27t-99 27q-38 29 -38 77q0 47 38 76q36 27 99 27t99 -27q38 -29 38 -76z
M380 857q-22 0 -35 -8q-15 -9 -15 -27q0 -19 15 -28q13 -8 35 -8t35 8q15 10 15 27q0 18 -15 28q-13 8 -35 8z" />
    <glyph glyph-name="uring" unicode="&#x16f;" horiz-adv-x="628" 
d="M48 191v276h227v-253q0 -26 11 -37q9 -10 27 -10t28 10q12 12 12 37v253h227v-269q0 -77 -54 -133q-75 -78 -213 -78q-135 0 -210 75q-55 55 -55 129zM451 645q0 -48 -38 -77q-36 -27 -99 -27t-99 27q-38 29 -38 77q0 47 38 76q36 27 99 27t99 -27q38 -29 38 -76z
M314 680q-22 0 -35 -8q-15 -9 -15 -27q0 -19 15 -28q13 -8 35 -8t35 8q15 10 15 27q0 18 -15 28q-13 8 -35 8z" />
    <glyph glyph-name="Uhungarumlaut" unicode="&#x170;" horiz-adv-x="751" 
d="M67 241v426h240v-387q0 -46 21 -68q17 -18 48 -18q33 0 49 16q18 18 18 70v387h241v-409q0 -118 -70 -190q-81 -83 -238 -83q-166 0 -248 88q-61 66 -61 168zM184 779l100 146l112 -73l-133 -128zM388 779l100 146l111 -73l-132 -128z" />
    <glyph glyph-name="uhungarumlaut" unicode="&#x171;" horiz-adv-x="628" 
d="M48 191v276h227v-253q0 -26 11 -37q9 -10 27 -10t28 10q12 12 12 37v253h227v-269q0 -77 -54 -133q-75 -78 -213 -78q-135 0 -210 75q-55 55 -55 129zM114 596l100 146l112 -73l-133 -128zM318 596l100 146l111 -73l-132 -128z" />
    <glyph glyph-name="Uogonek" unicode="&#x172;" horiz-adv-x="751" 
d="M67 241v426h240v-387q0 -47 20 -68q17 -18 48 -18q32 0 48 17q20 21 20 69v387h241v-409q0 -52 -11.5 -91t-44.5 -83q-21 -28 -96 -103q-30 -30 -30 -53q0 -14 12 -24q11 -8 32 -8q28 0 52 23l-22 -87q-32 -21 -69 -21q-44 0 -72 28q-22 24 -22 53q0 37 29 66
q22 22 58 43q-63 -16 -130 -16q-160 0 -242 88q-61 66 -61 168z" />
    <glyph glyph-name="uogonek" unicode="&#x173;" horiz-adv-x="628" 
d="M48 203v264h227v-253q0 -26 11 -37q9 -10 27 -10t28 10q12 12 12 37v253h227v-257q0 -82 -50 -139q-26 -30 -76 -60q-45 -29 -60 -44q-21 -21 -21 -43q0 -17 10 -25t28 -8q30 0 54 23l-22 -87q-36 -21 -85 -21q-46 0 -71 23q-24 21 -24 58q0 32 29 66q18 21 36 34
q-137 0 -211 62q-69 58 -69 154z" />
    <glyph glyph-name="Ydieresis" unicode="&#x178;" horiz-adv-x="685" 
d="M225 287l-232 380h274l57 -122q11 -26 18 -53h7q3 14 18 53l52 122h273l-228 -380v-287h-239v287zM146 811q0 38 26 64t64 26t64.5 -26t26.5 -64t-26.5 -64.5t-64.5 -26.5t-64 26.5t-26 64.5zM373 811q0 38 26 64t64 26t64.5 -26t26.5 -64t-26.5 -64.5t-64.5 -26.5
t-64 26.5t-26 64.5z" />
    <glyph glyph-name="Zacute" unicode="&#x179;" horiz-adv-x="705" 
d="M71 465v202h621l-253 -412q-15 -25 -37 -49l2 -4l46 4h212v-206h-649l247 399q31 48 53 72l-2 4q-27 -10 -48 -10h-192zM264 779l116 146l117 -73l-146 -128z" />
    <glyph glyph-name="zacute" unicode="&#x17a;" horiz-adv-x="549" 
d="M516 177v-177h-495v31l145 220q13 20 41 43v4q-19 -7 -41 -7h-122v176h483v-24l-151 -225q-14 -21 -37 -41v-6q18 6 36 6h141zM177 596l116 146l117 -73l-146 -128z" />
    <glyph glyph-name="Zdotaccent" unicode="&#x17b;" horiz-adv-x="705" 
d="M71 465v202h621l-253 -412q-15 -25 -37 -49l2 -4l46 4h212v-206h-649l247 399q31 48 53 72l-2 4q-27 -10 -48 -10h-192zM277 809q0 40 26.5 66.5t66.5 26.5t66.5 -26.5t26.5 -66.5t-26.5 -66.5t-66.5 -26.5t-66.5 26.5t-26.5 66.5z" />
    <glyph glyph-name="zdotaccent" unicode="&#x17c;" horiz-adv-x="549" 
d="M516 177v-177h-495v31l145 220q13 20 41 43v4q-19 -7 -41 -7h-122v176h483v-24l-151 -225q-14 -21 -37 -41v-6q18 6 36 6h141zM187 626q0 40 26.5 66.5t66.5 26.5t66.5 -26.5t26.5 -66.5t-26.5 -66.5t-66.5 -26.5t-66.5 26.5t-26.5 66.5z" />
    <glyph glyph-name="Zcaron" unicode="&#x17d;" horiz-adv-x="705" 
d="M71 465v202h621l-253 -412q-15 -25 -37 -49l2 -4l46 4h212v-206h-649l247 399q31 48 53 72l-2 4q-27 -10 -48 -10h-192zM377 844l120 70l70 -85l-194 -115l-187 114l72 88z" />
    <glyph glyph-name="zcaron" unicode="&#x17e;" horiz-adv-x="549" 
d="M516 177v-177h-495v31l145 220q13 20 41 43v4q-19 -7 -41 -7h-122v176h483v-24l-151 -225q-14 -21 -37 -41v-6q18 6 36 6h141zM290 652l103 72l70 -81l-177 -127l-169 129l74 79z" />
    <glyph glyph-name="uni018F" unicode="&#x18f;" horiz-adv-x="785" 
d="M266 427l-213 37q40 106 132 165q85 53 206 53q165 0 260 -93q97 -95 97 -254q0 -155 -95 -252q-96 -98 -273 -98q-163 0 -251 92q-92 97 -92 285v24h466q-5 55 -39 87q-31 31 -86 31q-44 0 -73 -23q-27 -21 -39 -54zM503 258h-253q5 -47 37 -74q31 -25 88 -25
q53 0 85 24q36 26 43 75z" />
    <glyph glyph-name="florin" unicode="&#x192;" horiz-adv-x="707" 
d="M474 321l-48 -292q-20 -112 -68 -160q-62 -62 -202 -62q-38 0 -64 6l27 169h12q46 0 65 14q20 15 28 57l47 268h-60l22 124h60l22 132q10 66 55 111q52 52 140 52q62 0 112 -22l-28 -167q-19 12 -40 12q-22 0 -32 -12q-10 -9 -14 -32l-12 -74h69l-22 -124h-69z" />
    <glyph glyph-name="uni01CF" unicode="&#x1cf;" horiz-adv-x="376" 
d="M309 0h-242v667h242v-667zM190 844l120 70l70 -85l-194 -115l-187 114l72 88z" />
    <glyph glyph-name="uni01D0" unicode="&#x1d0;" horiz-adv-x="323" 
d="M275 0h-227v467h227v-467zM161 652l103 72l70 -81l-177 -127l-169 129l74 79z" />
    <glyph glyph-name="uni01DD" unicode="&#x1dd;" horiz-adv-x="613" 
d="M28 271h331q0 47 -17 66q-14 15 -41 15q-24 0 -39 -15q-12 -12 -18 -31l-200 38q32 63 97 100q65 36 161 36q141 0 217 -76q66 -66 66 -164q0 -106 -70 -176q-79 -77 -208 -77q-125 0 -201 74q-37 35 -57.5 84.5t-20.5 99.5v26zM357 174h-107q2 -30 20 -47q13 -13 36 -13
q19 0 33 12q18 16 18 48z" />
    <glyph glyph-name="Gcaron" unicode="&#x1e6;" horiz-adv-x="804" 
d="M393 230v158h375v-15q0 -82 -17 -152t-70 -127q-49 -52 -124 -80.5t-159 -28.5q-173 0 -275 110q-86 93 -86 237q0 151 92 245q101 105 280 105q108 0 196 -47q83 -45 128 -123l-226 -84q-32 51 -92 51q-51 0 -85 -31q-49 -45 -49 -126q0 -77 44 -119q32 -30 79 -30
q78 0 99 57h-110zM412 844l120 70l70 -85l-194 -115l-187 114l72 88z" />
    <glyph glyph-name="gcaron" unicode="&#x1e7;" horiz-adv-x="635" 
d="M587 467v-440q0 -104 -65 -170q-85 -86 -239 -86q-109 0 -195 30l-40 14l51 158q25 -21 66 -39q44 -18 83 -18q57 0 88 31q27 27 31 75l4 46h-5q-17 -35 -49 -55q-33 -21 -83 -21q-81 0 -137 57q-69 71 -69 186q0 53 20 106t54 86q55 53 132 53q48 0 79 -21
q29 -20 53 -57h5q-5 17 -5 36v29h221zM249 234q0 -27 17 -45q19 -22 49 -22q23 0 39 15q19 18 19 48q0 36 -18 53q-19 17 -43 17q-25 0 -44 -19t-19 -47zM315 652l103 72l70 -81l-177 -127l-169 129l74 79z" />
    <glyph glyph-name="AEacute" unicode="&#x1fc;" horiz-adv-x="947" 
d="M261 0h-254l232 667h469l61 -183h-199l21 -62h200l61 -175h-197l22 -64h200l64 -183h-455l-22 83h-182zM423 241l-40 147q-8 30 -7 56h-7q-1 -31 -10 -67l-35 -136h99zM357 779l116 146l117 -73l-146 -128z" />
    <glyph glyph-name="aeacute" unicode="&#x1fd;" horiz-adv-x="1004" 
d="M742 157h223q-26 -84 -106 -130q-69 -40 -160 -40q-73 0 -131 22q-51 18 -88 58q-41 -34 -92 -55q-61 -25 -139 -25q-119 0 -180 63q-41 43 -41 103q0 61 40 101q55 57 171 57q68 0 138 -22q2 38 -21 61q-25 26 -92 26q-91 0 -217 -45v113q130 36 229 36q77 0 123 -20
q46 -19 81 -62q36 35 81 55q58 27 130 27q139 0 216 -81q69 -71 69 -192v-8h-332v-6q0 -43 17 -60q13 -13 38 -13q20 0 30 10t13 27zM646 296h108q-2 29 -20 46q-16 14 -35 14q-22 0 -34 -12q-19 -17 -19 -48zM323 201q-45 0 -67 -15q-19 -13 -19 -33q0 -25 24 -37
q21 -10 61 -10q45 0 75 15q30 14 30 36q0 23 -34 34q-30 10 -70 10zM386 596l116 146l117 -73l-146 -128z" />
    <glyph glyph-name="Scommaaccent" unicode="&#x218;" horiz-adv-x="618" 
d="M559 624l-65 -170q-72 50 -136 50q-30 0 -46 -12q-12 -9 -12 -24q0 -9 2 -14t11 -11t26 -10l77 -17q73 -16 114 -57q51 -50 51 -132q0 -94 -60 -157q-83 -85 -235 -85q-47 0 -94 9.5t-69 17.5t-64 25l-22 9l73 188l26 -20q64 -49 135 -49q37 0 52 12q13 11 13 30
q0 15 -8 23t-46 16l-59 11q-74 14 -116 57q-48 49 -48 123q0 94 65 159q84 86 232 86q107 0 203 -58zM407 -55l-91 -191h-137l55 191h173z" />
    <glyph glyph-name="scommaaccent" unicode="&#x219;" horiz-adv-x="487" 
d="M454 440l-55 -131q-20 15 -47 27q-31 14 -58 14q-15 0 -25 -7q-9 -7 -9 -18q0 -8 7 -15q2 -2 27 -8l46 -10q63 -14 92 -44q33 -35 33 -87q0 -68 -47 -113q-62 -61 -177 -61q-92 0 -185 38l-33 14l58 142l32 -20q51 -32 93 -32q19 0 31 8q9 6 9 18q0 11 -9 19q-9 6 -32 10
l-33 5q-53 9 -83 39q-36 35 -36 89q0 75 66 120q62 43 159 43q91 0 176 -40zM347 -50l-91 -191h-137l55 191h173z" />
    <glyph glyph-name="Tcommaaccent" unicode="&#x21a;" horiz-adv-x="524" 
d="M381 0h-238v456l-136 -6v217h510v-217l-136 6v-456zM347 -50l-91 -191h-137l55 191h173z" />
    <glyph glyph-name="tcommaaccent" unicode="&#x21b;" horiz-adv-x="367" 
d="M292 0h-227v292l-57 -4v179l57 -4v170h227v-170l77 4v-179l-77 4v-292zM273 -50l-91 -191h-137l55 191h173z" />
    <glyph glyph-name="uni0228" unicode="&#x228;" horiz-adv-x="560" 
d="M523 0h-456v667h450v-183h-208v-62h189v-175h-189v-64h214v-183zM413 -125l-138 -143l-110 78l132 147z" />
    <glyph glyph-name="uni0229" unicode="&#x229;" horiz-adv-x="613" 
d="M585 196h-331q-2 -47 17 -68q11 -13 34 -13q19 0 34 13q9 8 15 27h222q-14 -43 -47 -80q-38 -43 -87.5 -65.5t-126.5 -22.5q-144 0 -221 77q-66 66 -66 163q0 106 70 176q79 77 208 77q125 0 201 -74q37 -35 57.5 -84.5t20.5 -99.5v-26zM256 293h107q-2 30 -20 47
q-13 13 -36 13q-19 0 -33 -12q-18 -16 -18 -48zM419 -121l-126 -129l-100 70l120 135z" />
    <glyph glyph-name="uni0237" unicode="&#x237;" horiz-adv-x="323" 
d="M275 -229h-227v696h227v-696z" />
    <glyph glyph-name="uni0259" unicode="&#x259;" horiz-adv-x="613" 
d="M28 271h331q0 47 -17 66q-14 15 -41 15q-24 0 -39 -15q-12 -12 -18 -31l-200 38q32 63 97 100q65 36 161 36q141 0 217 -76q66 -66 66 -164q0 -106 -70 -176q-79 -77 -208 -77q-125 0 -201 74q-37 35 -57.5 84.5t-20.5 99.5v26zM357 174h-107q2 -30 20 -47q13 -13 36 -13
q19 0 33 12q18 16 18 48z" />
    <glyph glyph-name="afii57929" unicode="&#x2bc;" 
d="M364 667l-91 -191h-137l55 191h173z" />
    <glyph glyph-name="circumflex" unicode="&#x2c6;" 
d="M353 516l-103 72l-99 -72l-74 79l177 129l169 -127z" />
    <glyph glyph-name="caron" unicode="&#x2c7;" 
d="M250 652l103 72l70 -81l-177 -127l-169 129l74 79z" />
    <glyph glyph-name="uni02C9" unicode="&#x2c9;" 
d="M420 544h-340v100h340v-100z" />
    <glyph glyph-name="breve" unicode="&#x2d8;" 
d="M327 695h106q-5 -64 -48 -105q-49 -49 -135 -49t-135 49q-43 41 -48 105h106q4 -25 24 -41q20 -15 53 -15q32 0 53 15q20 16 24 41z" />
    <glyph glyph-name="dotaccent" unicode="&#x2d9;" 
d="M157 626q0 40 26.5 66.5t66.5 26.5t66.5 -26.5t26.5 -66.5t-26.5 -66.5t-66.5 -26.5t-66.5 26.5t-26.5 66.5z" />
    <glyph glyph-name="ring" unicode="&#x2da;" 
d="M387 645q0 -48 -38 -77q-36 -27 -99 -27t-99 27q-38 29 -38 77q0 47 38 76q36 27 99 27t99 -27q38 -29 38 -76zM250 680q-22 0 -35 -8q-15 -9 -15 -27q0 -19 15 -28q13 -8 35 -8t35 8q15 10 15 27q0 18 -15 28q-13 8 -35 8z" />
    <glyph glyph-name="ogonek" unicode="&#x2db;" 
d="M340 0q-20 -16 -33 -31q-15 -18 -15 -36q0 -16 10 -24t28 -8q30 0 54 23l-22 -87q-36 -21 -85 -21q-45 0 -71 23q-24 22 -24 58t30 66q17 17 46 37h82z" />
    <glyph glyph-name="tilde" unicode="&#x2dc;" 
d="M260 555l-43 17q-28 10 -35 10q-15 0 -24 -9q-12 -12 -22 -32l-82 52q29 46 64 69q32 22 72 22q29 0 56 -14l23 -12q28 -14 40 -14q14 0 22 8q11 8 19 22l7 11l89 -44q-15 -28 -41 -56q-40 -42 -92 -42q-21 0 -53 12z" />
    <glyph glyph-name="hungarumlaut" unicode="&#x2dd;" 
d="M24 596l100 146l112 -73l-133 -128zM228 596l100 146l111 -73l-132 -128z" />
    <glyph glyph-name="acutecomb" unicode="&#x301;" horiz-adv-x="2" 
d="M-361 596l116 146l117 -73l-146 -128z" />
    <glyph glyph-name="uni0394" unicode="&#x394;" horiz-adv-x="667" 
d="M650 0h-634l245 667h141zM332 508l-130 -390h260z" />
    <glyph glyph-name="uni0394" unicode="&#x2206;" horiz-adv-x="667" 
d="M650 0h-634l245 667h141zM332 508l-130 -390h260z" />
    <glyph glyph-name="uni03A9" unicode="&#x3a9;" horiz-adv-x="667" 
d="M369 0v104q65 32 98 92q36 67 36 150q0 53 -17.5 102t-48.5 78q-41 40 -104 40t-104 -40q-31 -29 -48.5 -78t-17.5 -102q0 -86 36 -150q33 -60 98 -92v-104h-269v117h135q-58 30 -93 86q-42 68 -42 159q0 146 92 236q86 85 213 85t213 -85q92 -90 92 -237q0 -90 -42 -158
q-35 -56 -93 -86h135v-117h-269z" />
    <glyph glyph-name="uni03A9" unicode="&#x2126;" horiz-adv-x="667" 
d="M369 0v104q65 32 98 92q36 67 36 150q0 53 -17.5 102t-48.5 78q-41 40 -104 40t-104 -40q-31 -29 -48.5 -78t-17.5 -102q0 -86 36 -150q33 -60 98 -92v-104h-269v117h135q-58 30 -93 86q-42 68 -42 159q0 146 92 236q86 85 213 85t213 -85q92 -90 92 -237q0 -90 -42 -158
q-35 -56 -93 -86h135v-117h-269z" />
    <glyph glyph-name="pi" unicode="&#x3c0;" horiz-adv-x="766" 
d="M342 0h-226v313h-78v154h690v-154h-78v-313h-226v313h-82v-313z" />
    <glyph glyph-name="afii10023" unicode="&#x401;" horiz-adv-x="560" 
d="M523 0h-456v667h450v-183h-208v-62h189v-175h-189v-64h214v-183zM90 811q0 38 26 64t64 26t64.5 -26t26.5 -64t-26.5 -64.5t-64.5 -26.5t-64 26.5t-26 64.5zM317 811q0 38 26 64t64 26t64.5 -26t26.5 -64t-26.5 -64.5t-64.5 -26.5t-64 26.5t-26 64.5z" />
    <glyph glyph-name="afii10051" unicode="&#x402;" horiz-adv-x="776" 
d="M143 0v456l-136 -6v217h618v-211l-249 6v-86q69 23 140 23q115 0 175 -61q55 -55 55 -146q0 -100 -59 -155q-56 -53 -168 -53q-56 0 -108 16l31 143q14 -12 34 -12q21 0 31 15q10 13 10 37q0 27 -16 41q-18 15 -50 15q-31 0 -75 -14v-225h-233z" />
    <glyph glyph-name="afii10052" unicode="&#x403;" horiz-adv-x="548" 
d="M309 0h-242v667h451v-190h-209v-477zM194 779l116 146l117 -73l-146 -128z" />
    <glyph glyph-name="afii10053" unicode="&#x404;" horiz-adv-x="660" 
d="M610 248l-7 -216q-96 -47 -210 -47q-167 0 -259 91q-98 97 -98 258q0 157 91 250q96 98 259 98q114 0 217 -50l7 -221q-32 34 -68 54q-51 30 -110 30q-54 0 -91 -20q-39 -21 -55 -65h217v-146h-217q12 -48 53 -71q35 -21 90 -21q57 0 104 21q42 20 77 55z" />
    <glyph glyph-name="afii10054" unicode="&#x405;" horiz-adv-x="618" 
d="M559 624l-65 -170q-72 50 -136 50q-30 0 -46 -12q-12 -9 -12 -24q0 -9 2 -14t11 -11t26 -10l77 -17q73 -16 114 -57q51 -50 51 -132q0 -94 -60 -157q-83 -85 -235 -85q-47 0 -94 9.5t-69 17.5t-64 25l-22 9l73 188l26 -20q64 -49 135 -49q37 0 52 12q13 11 13 30
q0 15 -8 23t-46 16l-59 11q-74 14 -116 57q-48 49 -48 123q0 94 65 159q84 86 232 86q107 0 203 -58z" />
    <glyph glyph-name="afii10055" unicode="&#x406;" horiz-adv-x="376" 
d="M309 0h-242v667h242v-667z" />
    <glyph glyph-name="afii10056" unicode="&#x407;" horiz-adv-x="406" 
d="M324 0h-242v667h242v-667zM306 902q34 0 59.5 -23.5t25.5 -67.5t-25.5 -67.5t-59.5 -23.5t-59.5 23.5t-25.5 67.5t25.5 67.5t59.5 23.5zM100 902q34 0 59.5 -23.5t25.5 -67.5t-25.5 -67.5t-59.5 -23.5t-59.5 23.5t-25.5 67.5t25.5 67.5t59.5 23.5z" />
    <glyph glyph-name="afii10057" unicode="&#x408;" horiz-adv-x="482" 
d="M178 255v412h238v-465q0 -87 -60 -149q-65 -68 -167 -68q-96 0 -172 54l-27 19l88 206l5 -17q8 -29 22 -41q12 -12 31 -12q18 0 28 12q14 16 14 49z" />
    <glyph glyph-name="afii10058" unicode="&#x409;" horiz-adv-x="1091" 
d="M489 0v457h-140v-201q0 -138 -63 -205q-59 -62 -180 -62q-47 0 -101 8v188q15 -4 40 -4q45 0 66 20q28 27 28 101v365h579v-247h116q111 0 172 -63q55 -55 55 -146q0 -98 -60 -152q-66 -59 -202 -59h-310zM718 160h46q34 0 50 11q21 14 21 46q0 29 -19 43q-15 11 -47 11
h-51v-111z" />
    <glyph glyph-name="afii10059" unicode="&#x40a;" horiz-adv-x="1064" 
d="M448 0v257h-148v-257h-233v667h233v-247h148v247h233v-247h126q111 0 172 -63q55 -55 55 -146q0 -98 -60 -152q-66 -59 -202 -59h-324zM681 160h65q32 0 48 14q14 13 14 37t-17 36q-14 10 -45 10h-65v-97z" />
    <glyph glyph-name="afii10060" unicode="&#x40b;" horiz-adv-x="806" 
d="M148 0v456l-141 -6v217h623v-217l-249 6v-81q63 12 126 12q137 0 200 -61q49 -49 49 -146v-180h-233v129q0 41 -18 58q-17 15 -60 15q-34 0 -64 -6v-196h-233z" />
    <glyph glyph-name="afii10061" unicode="&#x40c;" horiz-adv-x="740" 
d="M299 0h-232v667h232v-207q0 -46 -5 -84h5q12 33 35 75l115 216h262l-208 -327l230 -340h-280l-122 214q-13 21 -32 64h-5q5 -29 5 -63v-215zM294 779l116 146l117 -73l-146 -128z" />
    <glyph glyph-name="afii10062" unicode="&#x40e;" horiz-adv-x="702" 
d="M5 667h255l78 -186q13 -28 18 -58h7q5 33 16 62l68 182h250l-307 -667h-252l98 201zM435 896l132 -53q-28 -59 -86 -88q-50 -25 -126 -25q-78 0 -127 25q-56 28 -85 88l132 53q7 -26 25 -41q20 -15 56 -15t54 15t25 41z" />
    <glyph glyph-name="afii10145" unicode="&#x40f;" horiz-adv-x="748" 
d="M67 0v667h233v-463h148v463h233v-667h-204v-149h-206v149h-204z" />
    <glyph glyph-name="afii10017" unicode="&#x410;" horiz-adv-x="737" 
d="M458 83h-184l-18 -83h-256l231 667h268l238 -667h-257zM385 369q-8 34 -13 75h-9q-1 -36 -11 -75l-33 -128h97z" />
    <glyph glyph-name="afii10018" unicode="&#x411;" horiz-adv-x="666" 
d="M67 0v667h511v-190h-287v-73h90q130 0 193 -60q55 -53 55 -138q0 -97 -67 -153q-65 -53 -194 -53h-301zM291 160h46q31 0 47 11q19 13 19 39q0 27 -19 40q-14 10 -47 10h-46v-100z" />
    <glyph glyph-name="afii10019" unicode="&#x412;" horiz-adv-x="677" 
d="M67 0v667h291q140 0 199 -56q51 -48 51 -131q0 -57 -28 -91q-22 -28 -58 -41l-1 -6q38 -10 70 -40q49 -46 49 -113q0 -95 -72 -146q-61 -43 -176 -43h-325zM291 507v-96h38q31 0 46 15q13 13 13 35t-15 35q-14 11 -44 11h-38zM291 271v-110h49q33 0 51 11q23 15 23 45
q0 25 -18 40q-17 14 -53 14h-52z" />
    <glyph glyph-name="afii10020" unicode="&#x413;" horiz-adv-x="548" 
d="M309 0h-242v667h451v-190h-209v-477z" />
    <glyph glyph-name="afii10021" unicode="&#x414;" horiz-adv-x="798" 
d="M143 667h555v-479h80v-321h-204v133h-360v-133h-204v321q55 6 90 43q43 46 43 174v262zM348 475v-90q0 -36 -1 -55t-6.5 -46t-16.5 -49q-14 -27 -37 -47h185v287h-124z" />
    <glyph glyph-name="afii10022" unicode="&#x415;" horiz-adv-x="560" 
d="M523 0h-456v667h450v-183h-208v-62h189v-175h-189v-64h214v-183z" />
    <glyph glyph-name="afii10024" unicode="&#x416;" horiz-adv-x="1048" 
d="M410 0v215q0 34 5 63h-5q-10 -25 -30 -64l-107 -214h-271l216 340l-205 327h260l104 -216q25 -57 33 -75h5q-5 37 -5 84v207h228v-207q0 -46 -5 -84h5q7 17 14 32.5t10 22.5t5.5 12.5t3.5 7.5l102 216h260l-203 -327l216 -340h-271l-107 214q-20 39 -30 64h-5
q5 -29 5 -63v-215h-228z" />
    <glyph glyph-name="afii10025" unicode="&#x417;" horiz-adv-x="648" 
d="M128 441l-73 168q65 35 121 52q66 21 143 21q120 0 187 -44q81 -52 81 -153q0 -55 -28 -92q-25 -32 -62 -46v-3q48 -14 78 -48q36 -39 36 -100q0 -111 -98 -169q-73 -42 -201 -42q-95 0 -166 22q-62 19 -116 50l81 180q38 -35 75 -51q42 -19 89 -19q36 0 58 11
q23 11 23 35q0 23 -22 33q-16 7 -58 7h-88v167h80q42 0 54 5q27 8 27 33q0 24 -25 35q-21 9 -51 9q-42 0 -81 -18q-31 -13 -64 -43z" />
    <glyph glyph-name="afii10026" unicode="&#x418;" horiz-adv-x="768" 
d="M67 667h230v-237q0 -53 -12 -123h9q26 69 44 100l146 260h217v-667h-230v227q0 57 12 123h-9q-21 -60 -44 -100l-146 -250h-217v667z" />
    <glyph glyph-name="afii10027" unicode="&#x419;" horiz-adv-x="768" 
d="M67 667h230v-237q0 -53 -12 -123h9q26 69 44 100l146 260h217v-667h-230v227q0 57 12 123h-9q-21 -60 -44 -100l-146 -250h-217v667zM463 896l132 -53q-28 -59 -86 -88q-50 -25 -126 -25q-78 0 -127 25q-56 28 -85 88l132 53q7 -26 25 -41q20 -15 56 -15t54 15t25 41z
" />
    <glyph glyph-name="afii10028" unicode="&#x41a;" horiz-adv-x="740" 
d="M299 0h-232v667h232v-207q0 -46 -5 -84h5q12 33 35 75l115 216h262l-208 -327l230 -340h-280l-122 214q-13 21 -32 64h-5q5 -29 5 -63v-215z" />
    <glyph glyph-name="afii10029" unicode="&#x41b;" horiz-adv-x="789" 
d="M139 667h583v-667h-233v457h-140v-201q0 -138 -64 -205q-60 -62 -179 -62q-53 0 -101 8v188q15 -4 40 -4q45 0 66 20q28 27 28 101v365z" />
    <glyph glyph-name="afii10030" unicode="&#x41c;" horiz-adv-x="983" 
d="M275 0h-235l108 667h249l78 -273q11 -37 15 -77h6q1 36 13 77l78 273h247l109 -667h-233l-30 299q-4 46 -4 66h-4q-6 -32 -13 -56l-99 -309h-142l-89 292q-12 41 -13 73h-7q0 -39 -1 -52z" />
    <glyph glyph-name="afii10031" unicode="&#x41d;" horiz-adv-x="748" 
d="M300 0h-233v667h233v-226h148v226h233v-667h-233v232h-148v-232z" />
    <glyph glyph-name="afii10032" unicode="&#x41e;" horiz-adv-x="814" 
d="M777 334q0 -147 -93 -242q-105 -107 -277 -107t-277 107q-93 95 -93 242q0 146 93 241q105 107 277 107t277 -107q93 -95 93 -241zM407 467q-55 0 -87 -34q-38 -40 -38 -100q0 -61 38 -99q34 -34 87 -34t87 34q38 38 38 99q0 64 -38 100q-34 34 -87 34z" />
    <glyph glyph-name="afii10033" unicode="&#x41f;" horiz-adv-x="748" 
d="M300 0h-233v667h614v-667h-233v457h-148v-457z" />
    <glyph glyph-name="afii10034" unicode="&#x420;" horiz-adv-x="667" 
d="M303 0h-236v667h320q128 0 195 -65q68 -66 68 -177q0 -109 -66 -168q-60 -56 -164 -56h-117v-201zM303 484v-115h41q36 0 54 18q16 14 16 41t-18 41q-18 15 -49 15h-44z" />
    <glyph glyph-name="afii10035" unicode="&#x421;" horiz-adv-x="591" 
d="M555 261l-7 -249q-71 -27 -168 -27q-149 0 -246 97q-97 95 -97 246t100 253q101 101 252 101q82 0 159 -26l7 -254q-66 66 -141 66q-59 0 -97 -41q-35 -38 -35 -95q0 -58 39 -96q40 -38 99 -38q78 0 135 63z" />
    <glyph glyph-name="afii10036" unicode="&#x422;" horiz-adv-x="524" 
d="M381 0h-238v456l-136 -6v217h510v-217l-136 6v-456z" />
    <glyph glyph-name="afii10037" unicode="&#x423;" horiz-adv-x="702" 
d="M5 667h255l78 -186q13 -28 18 -58h7q5 33 16 62l68 182h250l-307 -667h-252l98 201z" />
    <glyph glyph-name="afii10038" unicode="&#x424;" horiz-adv-x="945" 
d="M356 0v97q-169 0 -250 83q-69 71 -69 194q0 119 70 189q46 46 114.5 65.5t134.5 19.5v96h233v-96q167 -2 249 -85q70 -71 70 -188q0 -122 -69 -195q-78 -83 -250 -83v-97h-233zM568 466v-188h4q61 0 87 25q25 23 25 70q0 48 -26 71q-24 22 -90 22zM377 466q-66 0 -90 -22
q-26 -23 -26 -71q0 -47 25 -70q26 -25 87 -25h4v188z" />
    <glyph glyph-name="afii10039" unicode="&#x425;" horiz-adv-x="742" 
d="M233 355l-210 312h274l55 -105q8 -15 15 -45h5q6 25 16 45l51 105h274l-209 -312l238 -355h-276l-81 151q-4 7 -9 32h-7q-6 -23 -14 -37l-79 -146h-276z" />
    <glyph glyph-name="afii10040" unicode="&#x426;" horiz-adv-x="801" 
d="M67 0v667h233v-463h148v463h233v-463h95v-337h-206v133h-503z" />
    <glyph glyph-name="afii10041" unicode="&#x427;" horiz-adv-x="725" 
d="M425 0v233q-63 -12 -130 -12q-142 0 -199 59q-28 29 -37 64t-9 84v239h233v-180q0 -41 17 -57t54 -16q40 0 71 6v247h233v-667h-233z" />
    <glyph glyph-name="afii10042" unicode="&#x428;" horiz-adv-x="1064" 
d="M67 0v667h230v-463h120v463h230v-463h120v463h230v-667h-930z" />
    <glyph glyph-name="afii10043" unicode="&#x429;" horiz-adv-x="1117" 
d="M886 0h-819v667h230v-463h120v463h230v-463h120v463h230v-463h95v-337h-206v133z" />
    <glyph glyph-name="afii10044" unicode="&#x42a;" horiz-adv-x="746" 
d="M140 0v457h-120v210h353v-247h116q111 0 172 -63q55 -55 55 -146q0 -98 -60 -152q-66 -59 -202 -59h-314zM373 160h46q33 0 50 11q21 14 21 46q0 29 -19 43q-15 11 -47 11h-51v-111z" />
    <glyph glyph-name="afii10045" unicode="&#x42b;" horiz-adv-x="986" 
d="M67 0v667h233v-247h112q111 0 172 -63q55 -55 55 -146q0 -98 -60 -152q-66 -59 -202 -59h-310zM300 160h46q34 0 50 11q21 14 21 46q0 29 -19 43q-15 11 -47 11h-51v-111zM919 0h-233v667h233v-667z" />
    <glyph glyph-name="afii10046" unicode="&#x42c;" horiz-adv-x="673" 
d="M67 0v667h233v-247h116q111 0 172 -63q55 -55 55 -146q0 -98 -60 -152q-66 -59 -202 -59h-314zM300 160h46q34 0 50 11q21 14 21 46q0 29 -19 43q-15 11 -47 11h-51v-111z" />
    <glyph glyph-name="afii10047" unicode="&#x42d;" horiz-adv-x="660" 
d="M57 32l-7 216q35 -35 77 -55q44 -21 98 -21q59 0 96 21q40 23 53 71h-217v146h217q-16 44 -55 65q-36 20 -92 20q-58 0 -109 -30q-33 -18 -68 -54l7 221q106 50 217 50q163 0 259 -98q91 -93 91 -248q0 -165 -98 -260q-93 -91 -260 -91q-111 0 -209 47z" />
    <glyph glyph-name="afii10048" unicode="&#x42e;" horiz-adv-x="1125" 
d="M300 441h80q26 105 109 169q94 72 228 72q177 0 280 -107q91 -94 91 -241q0 -151 -91 -246q-98 -103 -279 -103q-142 0 -227 66q-87 66 -112 181h-79v-232h-233v667h233v-226zM720 467q-54 0 -86 -34q-37 -39 -37 -100q0 -62 37 -99q34 -34 86 -34q54 0 86 34
q37 37 37 99q0 63 -37 100q-34 34 -86 34z" />
    <glyph glyph-name="afii10049" unicode="&#x42f;" horiz-adv-x="696" 
d="M40 0l128 199q15 24 37 42v5q-60 8 -100 50q-46 48 -46 135q0 104 61 165q71 71 218 71h291v-667h-233v193h-4l-86 -193h-266zM396 367v117h-34q-38 0 -57 -18q-16 -16 -16 -41q0 -28 21 -44q20 -14 52 -14h34z" />
    <glyph glyph-name="afii10065" unicode="&#x430;" horiz-adv-x="639" 
d="M369 411l5 3q-8 21 -8 40v13h225v-467h-224l1 16q2 21 9 43h-7q-58 -72 -140 -72q-78 0 -132 55q-70 72 -70 189q0 120 73 193q56 56 138 56q79 0 130 -69zM254 234q0 -29 20 -49q16 -16 39 -16t39 15q22 22 22 52q0 31 -20 49q-17 15 -39 15q-25 0 -41 -16
q-20 -20 -20 -50z" />
    <glyph glyph-name="afii10066" unicode="&#x431;" horiz-adv-x="639" 
d="M197 378h3q22 41 63 64q43 24 112 24q105 0 172 -64q64 -61 64 -160q0 -107 -69 -178q-76 -77 -212 -77q-137 0 -212 77q-84 88 -84 245q0 83 24 157.5t71 120.5q44 42 116 67q29 10 73 19.5t55 12.5q33 8 47 22q13 13 16 32h164q-12 -74 -64 -126q-45 -44 -120 -66
l-62 -18q-84 -24 -115 -55q-37 -37 -42 -97zM326 300q-27 0 -44 -17q-20 -20 -20 -50q0 -29 20 -49q17 -17 44 -17t44 17q20 20 20 49q0 30 -20 50q-17 17 -44 17z" />
    <glyph glyph-name="afii10067" unicode="&#x432;" horiz-adv-x="593" 
d="M48 467h346q70 0 110 -29q42 -31 42 -88q0 -49 -30 -78q-20 -20 -53 -30q48 -6 77 -35t29 -78q0 -55 -32 -87q-40 -42 -130 -42h-359v467zM265 277h31q23 0 36 11q12 11 12 32q0 19 -11 29t-38 10h-30v-82zM265 108h36q20 0 33 10t13 30q0 22 -12 32q-11 10 -35 10h-35
v-82z" />
    <glyph glyph-name="afii10068" unicode="&#x433;" horiz-adv-x="453" 
d="M48 0v467h385v-176h-158v-291h-227z" />
    <glyph glyph-name="afii10069" unicode="&#x434;" horiz-adv-x="681" 
d="M118 467h482v-317h67v-281h-172v131h-313v-131h-172v281h5q38 0 65 25q38 34 38 134v158zM383 150v167h-72v-43q0 -54 -16 -84q-12 -24 -36 -40h124z" />
    <glyph glyph-name="afii10070" unicode="&#x435;" horiz-adv-x="613" 
d="M585 196h-331q-2 -47 17 -68q11 -13 34 -13q19 0 34 13q9 8 15 27h222q-14 -43 -47 -80q-38 -43 -87.5 -65.5t-126.5 -22.5q-144 0 -221 77q-66 66 -66 163q0 106 70 176q79 77 208 77q125 0 201 -74q37 -35 57.5 -84.5t20.5 -99.5v-26zM256 293h107q-2 30 -20 47
q-13 13 -36 13q-19 0 -33 -12q-18 -16 -18 -48z" />
    <glyph glyph-name="afii10072" unicode="&#x436;" horiz-adv-x="910" 
d="M347 0v185h-3l-95 -185h-247l162 238l-149 229h244l85 -192h3v192h216v-192h3l85 192h244l-149 -229l162 -238h-247l-95 185h-3v-185h-216z" />
    <glyph glyph-name="afii10073" unicode="&#x437;" horiz-adv-x="526" 
d="M88 296l-51 132q40 21 91 35q62 17 122 17q100 0 156 -30q72 -39 72 -114q0 -41 -28 -71q-15 -15 -36 -23v-4q33 -8 56 -31q28 -30 28 -72q0 -79 -75 -119q-56 -29 -163 -29q-83 0 -148 19q-46 13 -92 38l60 140q34 -26 69 -40q36 -14 73 -14q36 0 50 7q18 8 18 26
q0 15 -20 22q-12 4 -49 4h-64v100h58q30 0 45 4q22 5 22 23q0 17 -19 25q-17 6 -41 6q-39 0 -74 -16q-33 -15 -60 -35z" />
    <glyph glyph-name="afii10074" unicode="&#x438;" horiz-adv-x="653" 
d="M48 467h220v-156q0 -31 -10 -79l6 -1q13 32 21 46l105 190h215v-467h-220v159q0 31 10 79l-6 1q-8 -22 -21 -46l-105 -193h-215v467z" />
    <glyph glyph-name="afii10075" unicode="&#x439;" horiz-adv-x="653" 
d="M48 467h220v-156q0 -31 -10 -79l6 -1q13 32 21 46l105 190h215v-467h-220v159q0 31 10 79l-6 1q-8 -22 -21 -46l-105 -193h-215v467zM396 681l133 -46q-23 -63 -77 -90q-44 -23 -123 -23t-123 23q-54 27 -77 90l133 46q5 -30 22 -44q15 -13 45 -13t45 13q17 14 22 44z
" />
    <glyph glyph-name="afii10076" unicode="&#x43a;" horiz-adv-x="648" 
d="M48 0v467h227v-190h2l99 190h255l-156 -225l171 -242h-261l-108 185h-2v-185h-227z" />
    <glyph glyph-name="afii10077" unicode="&#x43b;" horiz-adv-x="654" 
d="M606 467v-467h-227v301h-81v-98q0 -111 -52 -163q-51 -51 -159 -51q-47 0 -83 8v162q48 -8 74 16q21 21 21 69v223h507z" />
    <glyph glyph-name="afii10078" unicode="&#x43c;" horiz-adv-x="836" 
d="M20 0l88 467h236l64 -201q7 -22 11 -53h4q2 32 9 54l60 200h236l88 -467h-214l-26 171q-7 50 -8 63h-4q-4 -30 -13 -59l-58 -175h-146l-59 175q-8 24 -13 59h-4q-3 -35 -8 -63l-29 -171h-214z" />
    <glyph glyph-name="afii10079" unicode="&#x43d;" horiz-adv-x="632" 
d="M48 0v467h227v-149h82v149h227v-467h-227v160h-82v-160h-227z" />
    <glyph glyph-name="afii10080" unicode="&#x43e;" horiz-adv-x="626" 
d="M598 234q0 -99 -67 -168q-77 -79 -218 -79t-218 79q-67 69 -67 168t67 167q77 79 218 79t218 -79q67 -68 67 -167zM313 300q-28 0 -44 -16q-20 -18 -20 -50q0 -33 20 -51q16 -16 44 -16t44 16q20 18 20 51q0 32 -20 50q-16 16 -44 16z" />
    <glyph glyph-name="afii10081" unicode="&#x43f;" horiz-adv-x="630" 
d="M48 0v467h534v-467h-227v291h-80v-291h-227z" />
    <glyph glyph-name="afii10082" unicode="&#x440;" horiz-adv-x="637" 
d="M276 -229h-228v696h217v-26q0 -25 -6 -41l-1 -3l7 -2q20 33 48 55q42 30 95 30q80 0 133 -53q68 -68 68 -191q0 -115 -73 -193q-53 -56 -124 -56q-52 0 -92 27q-32 22 -48 50h-7q11 -44 11 -91v-202zM265 231q0 -36 20 -56q14 -15 39 -15q24 0 40 15q23 21 23 56
q0 33 -22 55q-17 17 -42 17q-21 0 -37 -14q-21 -20 -21 -58z" />
    <glyph glyph-name="afii10083" unicode="&#x441;" horiz-adv-x="444" 
d="M416 204l-9 -193q-48 -24 -115 -24q-126 0 -197 69q-67 65 -67 171q0 114 72 186q67 67 181 67q68 0 132 -24v-190q-41 37 -85 37q-32 0 -50 -18q-19 -21 -19 -49q0 -30 19 -49q20 -20 48 -20q50 0 90 37z" />
    <glyph glyph-name="afii10084" unicode="&#x442;" horiz-adv-x="457" 
d="M115 0v291l-105 -4v180h437v-180l-105 4v-291h-227z" />
    <glyph glyph-name="afii10085" unicode="&#x443;" horiz-adv-x="601" 
d="M191 47l-201 420h245l56 -192q9 -30 10 -61h6q2 33 10 64l54 189h240l-317 -696h-241z" />
    <glyph glyph-name="afii10086" unicode="&#x444;" horiz-adv-x="812" 
d="M298 -229v222q-137 3 -207 75q-63 65 -63 165q0 105 63 168q69 70 207 73v203h216v-203q138 -3 207 -73q63 -65 63 -166q0 -102 -63 -167q-70 -72 -207 -75v-222h-216zM319 315h-3q-46 0 -68 -22t-22 -59q0 -47 29 -67q21 -15 61 -15h3v163zM493 315v-163h3q40 0 61 15
q29 20 29 67q0 37 -22 59t-68 22h-3z" />
    <glyph glyph-name="afii10087" unicode="&#x445;" horiz-adv-x="646" 
d="M195 243l-178 224h262l34 -66q7 -13 10 -30h6q3 11 11 30l34 66h261l-177 -224l190 -243h-268l-42 76q-7 11 -10 27h-5q-3 -15 -9 -27l-41 -76h-275z" />
    <glyph glyph-name="afii10088" unicode="&#x446;" horiz-adv-x="671" 
d="M48 0v467h227v-301h80v301h227v-301h69v-297h-177v131h-426z" />
    <glyph glyph-name="afii10089" unicode="&#x447;" horiz-adv-x="616" 
d="M341 0v141q-49 -10 -101 -10q-119 0 -166 48q-40 40 -40 118v170h227v-125q0 -28 12 -40q11 -11 36 -11q17 0 32 6v170h227v-467h-227z" />
    <glyph glyph-name="afii10090" unicode="&#x448;" horiz-adv-x="890" 
d="M630 467h212v-467h-794v467h212v-301h79v301h212v-301h79v301z" />
    <glyph glyph-name="afii10091" unicode="&#x449;" horiz-adv-x="941" 
d="M744 0h-696v467h212v-301h79v301h212v-301h79v301h212v-301h79v-297h-177v131z" />
    <glyph glyph-name="afii10092" unicode="&#x44a;" horiz-adv-x="671" 
d="M346 315h108q103 0 150 -45q42 -40 42 -110q0 -73 -40 -113q-47 -47 -141 -47h-346v291h-99v176h326v-152zM346 110h26q29 0 43 13q13 13 13 36q0 20 -11 31q-13 13 -42 13h-29v-93z" />
    <glyph glyph-name="afii10093" unicode="&#x44b;" horiz-adv-x="868" 
d="M593 0v467h227v-467h-227zM275 315h96q103 0 150 -45q42 -40 42 -113q0 -70 -40 -110q-47 -47 -141 -47h-334v467h227v-152zM275 110h26q29 0 43 13q13 13 13 36q0 20 -11 31q-13 13 -42 13h-29v-93z" />
    <glyph glyph-name="afii10094" unicode="&#x44c;" horiz-adv-x="600" 
d="M275 315h108q103 0 150 -45q42 -40 42 -110q0 -73 -40 -113q-47 -47 -141 -47h-346v467h227v-152zM275 110h26q29 0 43 13q13 13 13 36q0 20 -11 31q-13 13 -42 13h-29v-93z" />
    <glyph glyph-name="afii10095" unicode="&#x44d;" horiz-adv-x="527" 
d="M57 17l-7 160q26 -25 57 -37q30 -13 72 -13q38 0 63 11q29 13 39 41h-166v110h166q-13 27 -36 38q-25 13 -65 13q-38 0 -76 -19q-28 -13 -54 -36l7 160q83 35 166 35q133 0 207 -70q69 -66 69 -175q0 -112 -72 -181q-71 -67 -209 -67q-88 0 -161 30z" />
    <glyph glyph-name="afii10096" unicode="&#x44e;" horiz-adv-x="911" 
d="M272 313h74q26 74 87 116q72 51 174 51q132 0 209 -77q67 -65 67 -169q0 -101 -67 -168q-77 -79 -222 -79q-112 0 -176 50q-61 47 -78 128h-68v-165h-224v467h224v-154zM598 300q-28 0 -44 -16q-20 -18 -20 -50q0 -33 20 -51q16 -16 44 -16t44 16q20 18 20 51
q0 32 -20 50q-16 16 -44 16z" />
    <glyph glyph-name="afii10097" unicode="&#x44f;" horiz-adv-x="609" 
d="M28 0l109 153q-47 10 -75 48t-28 96q0 79 47 124q48 46 140 46h340v-467h-227v138h-6l-77 -138h-223zM334 250v95h-29q-28 0 -40 -10q-15 -12 -15 -37t15 -37q14 -11 40 -11h29z" />
    <glyph glyph-name="afii10071" unicode="&#x451;" horiz-adv-x="613" 
d="M585 196h-331q-2 -47 17 -68q11 -13 34 -13q19 0 34 13q9 8 15 27h222q-14 -43 -47 -80q-38 -43 -87.5 -65.5t-126.5 -22.5q-144 0 -221 77q-66 66 -66 163q0 106 70 176q79 77 208 77q125 0 201 -74q37 -35 57.5 -84.5t20.5 -99.5v-26zM256 293h107q-2 30 -20 47
q-13 13 -36 13q-19 0 -33 -12q-18 -16 -18 -48zM99 622q0 38 26 64.5t64 26.5t64.5 -26.5t26.5 -64.5t-26.5 -64.5t-64.5 -26.5t-64 26.5t-26 64.5zM316 622q0 38 26 64.5t64 26.5t64.5 -26.5t26.5 -64.5t-26.5 -64.5t-64.5 -26.5t-64 26.5t-26 64.5z" />
    <glyph glyph-name="afii10099" unicode="&#x452;" horiz-adv-x="635" 
d="M285 0h-227v498h-88v120h88v111h227v-111h149v-120h-149v-71q0 -39 -7 -74l3 -2q32 41 61 61q42 28 92 28q61 0 103 -40q50 -48 50 -141v-267q0 -59 -10 -100.5t-44 -73.5q-51 -48 -157 -48q-52 0 -99 10v175q17 -15 41 -15t37 13q12 12 12 44v216q0 22 -12 34
q-10 10 -25 10q-20 0 -33 -13q-12 -12 -12 -34v-210z" />
    <glyph glyph-name="afii10100" unicode="&#x453;" horiz-adv-x="453" 
d="M48 0v467h385v-176h-158v-291h-227zM160 596l116 146l117 -73l-146 -128z" />
    <glyph glyph-name="afii10101" unicode="&#x454;" horiz-adv-x="517" 
d="M477 177l-7 -160q-73 -30 -161 -30q-138 0 -209 67q-72 69 -72 181q0 109 69 175q74 70 207 70q84 0 166 -35l7 -160q-26 23 -54 36q-38 19 -76 19q-40 0 -65 -13q-23 -11 -36 -38h166v-110h-166q10 -28 39 -41q25 -11 63 -11q42 0 72 13q31 12 57 37z" />
    <glyph glyph-name="afii10102" unicode="&#x455;" horiz-adv-x="487" 
d="M454 440l-55 -131q-20 15 -47 27q-31 14 -58 14q-15 0 -25 -7q-9 -7 -9 -18q0 -8 7 -15q2 -2 27 -8l46 -10q63 -14 92 -44q33 -35 33 -87q0 -68 -47 -113q-62 -61 -177 -61q-92 0 -185 38l-33 14l58 142l32 -20q51 -32 93 -32q19 0 31 8q9 6 9 18q0 11 -9 19q-9 6 -32 10
l-33 5q-53 9 -83 39q-36 35 -36 89q0 75 66 120q62 43 159 43q91 0 176 -40z" />
    <glyph glyph-name="afii10103" unicode="&#x456;" horiz-adv-x="323" 
d="M275 0h-227v467h227v-467zM287 613q0 -43 -29 -74q-34 -36 -97 -36t-97 36q-29 31 -29 74t29 74q34 36 97 36t97 -36q29 -31 29 -74z" />
    <glyph glyph-name="afii10104" unicode="&#x457;" horiz-adv-x="392" 
d="M309 0h-227v467h227v-467zM295 723q34 0 59.5 -23.5t25.5 -67.5t-25.5 -67.5t-59.5 -23.5t-59.5 23.5t-25.5 67.5t25.5 67.5t59.5 23.5zM97 723q34 0 59.5 -23.5t25.5 -67.5t-25.5 -67.5t-59.5 -23.5t-59.5 23.5t-25.5 67.5t25.5 67.5t59.5 23.5z" />
    <glyph glyph-name="afii10105" unicode="&#x458;" horiz-adv-x="323" 
d="M275 -229h-227v696h227v-696zM287 613q0 -43 -29 -74q-34 -36 -97 -36t-97 36q-29 31 -29 74t29 74q34 36 97 36t97 -36q29 -31 29 -74z" />
    <glyph glyph-name="afii10106" unicode="&#x459;" horiz-adv-x="931" 
d="M606 315h108q103 0 150 -45q42 -40 42 -110q0 -73 -40 -113q-47 -47 -141 -47h-336v301h-85v-98q0 -111 -52 -163q-51 -51 -159 -51q-47 0 -83 8v162q48 -8 74 16q21 21 21 69v223h501v-152zM606 110h26q29 0 43 13q13 13 13 36q0 20 -11 31q-13 13 -42 13h-29v-93z" />
    <glyph glyph-name="afii10107" unicode="&#x45a;" horiz-adv-x="909" 
d="M584 315h108q103 0 150 -45q42 -40 42 -110q0 -73 -40 -113q-47 -47 -141 -47h-346v199h-82v-199h-227v467h227v-152h82v152h227v-152zM584 110h26q30 0 43 13q13 11 13 32q0 20 -11 31q-13 13 -42 13h-29v-89z" />
    <glyph glyph-name="afii10108" unicode="&#x45b;" horiz-adv-x="635" 
d="M285 0h-227v498h-88v120h88v111h227v-111h149v-120h-149v-71q0 -39 -7 -74l3 -2q32 41 61 61q42 28 92 28q61 0 103 -40q50 -48 50 -141v-259h-222v213q0 22 -12 34q-10 10 -24 10q-19 0 -32 -13q-12 -11 -12 -34v-210z" />
    <glyph glyph-name="afii10109" unicode="&#x45c;" horiz-adv-x="648" 
d="M48 0v467h227v-190h2l99 190h255l-156 -225l171 -242h-261l-108 185h-2v-185h-227zM254 596l116 146l117 -73l-146 -128z" />
    <glyph glyph-name="afii10110" unicode="&#x45e;" horiz-adv-x="601" 
d="M191 47l-201 420h245l56 -192q9 -30 10 -61h6q2 33 10 64l54 189h240l-317 -696h-241zM379 681l133 -46q-23 -63 -77 -90q-44 -23 -123 -23t-123 23q-54 27 -77 90l133 46q5 -30 22 -44q15 -13 45 -13t45 13q17 14 22 44z" />
    <glyph glyph-name="afii10193" unicode="&#x45f;" horiz-adv-x="630" 
d="M48 0v467h227v-301h80v301h227v-467h-179v-140h-176v140h-179z" />
    <glyph glyph-name="afii10146" unicode="&#x462;" horiz-adv-x="739" 
d="M133 0v487l-113 -6v145h113v118h233v-118h170v-145l-170 6v-83h123q111 0 168 -58q52 -52 52 -137q0 -104 -71 -159q-65 -50 -191 -50h-314zM366 160h46q34 0 50 11q21 15 21 42q0 29 -19 43q-15 11 -47 11h-51v-107z" />
    <glyph glyph-name="afii10194" unicode="&#x463;" horiz-adv-x="656" 
d="M458 0h-355v351l-88 -6v122h88v200h227v-200h149v-122l-149 6v-60h114q30 0 48.5 -1.5t48.5 -11.5t50 -30q40 -40 40 -101q0 -67 -43 -107t-130 -40zM330 108h31q25 0 39 9q15 10 15 31q0 22 -11 33q-11 12 -38 12h-36v-85z" />
    <glyph glyph-name="afii10147" unicode="&#x472;" horiz-adv-x="812" 
d="M775 334q0 -147 -92 -242q-105 -107 -277 -107t-277 107q-92 95 -92 242t92 241q105 107 277 107t277 -107q92 -94 92 -241zM290 395h231q-9 42 -42 65q-31 20 -75 20q-47 0 -76 -23q-29 -22 -38 -62zM525 287h-239q5 -48 40 -75q31 -25 78 -25q49 0 79 24q34 27 42 76z
" />
    <glyph glyph-name="afii10195" unicode="&#x473;" horiz-adv-x="626" 
d="M598 233q0 -99 -67 -167q-77 -79 -218 -79t-218 79q-67 68 -67 167t67 168q77 79 218 79t218 -79q67 -69 67 -168zM241 274h146q-7 27 -24 41q-18 15 -50 15q-29 0 -49 -16q-18 -14 -23 -40zM387 196h-146q3 -29 22 -44q18 -15 51 -15t51 17q18 16 22 42z" />
    <glyph glyph-name="afii10148" unicode="&#x474;" horiz-adv-x="725" 
d="M259 0l-259 667h253l93 -314q10 -34 15 -89h6q2 46 14 89l91 314h253l-258 -667h-208z" />
    <glyph glyph-name="afii10196" unicode="&#x475;" horiz-adv-x="596" 
d="M196 0l-206 467h245l51 -173q5 -20 9 -47h7q0 20 8 47l52 173h244l-203 -467h-207z" />
    <glyph glyph-name="afii10050" unicode="&#x490;" horiz-adv-x="588" 
d="M309 0h-242v667h281v146h210v-336h-249v-477z" />
    <glyph glyph-name="afii10098" unicode="&#x491;" horiz-adv-x="523" 
d="M48 0v467h278v137h177v-313h-228v-291h-227z" />
    <glyph glyph-name="uni0492" unicode="&#x492;" horiz-adv-x="602" 
d="M349 217v-217h-242v217h-102v175h102v275h465v-190h-223v-85h160v-175h-160z" />
    <glyph glyph-name="uni0493" unicode="&#x493;" horiz-adv-x="514" 
d="M89 0v118h-84v124h84v225h395v-176h-168v-49h110v-124h-110v-118h-227z" />
    <glyph glyph-name="uni0494" unicode="&#x494;" horiz-adv-x="700" 
d="M67 667h466v-190h-233v-101q71 23 142 23q112 0 173 -61q55 -57 55 -146q0 -100 -59 -155q-56 -53 -168 -53q-56 0 -108 16l31 143q14 -12 34 -12q21 0 31 15q10 13 10 37q0 27 -16 41q-17 15 -51 15q-28 0 -74 -14v-225h-233v667z" />
    <glyph glyph-name="uni0495" unicode="&#x495;" horiz-adv-x="584" 
d="M48 0v467h395v-176h-168v-49h35q67 0 115 -12t84 -49q55 -56 55 -152q0 -112 -59 -171q-66 -66 -219 -66h-13v124q35 0 55 20q26 24 26 80q0 48 -24 70q-20 18 -55 18v-104h-227z" />
    <glyph glyph-name="uni0496" unicode="&#x496;" horiz-adv-x="1041" 
d="M410 0v215q0 34 5 63h-5q-10 -25 -30 -64l-107 -214h-271l216 340l-205 327h260l104 -216q25 -57 33 -75h5q-5 37 -5 84v207h228v-207q0 -46 -5 -84h5q32 73 33 75l106 216h250l-197 -327l91 -136h110v-337h-206v133h-43l-114 214q-14 27 -30 64h-5q5 -29 5 -63v-215
h-228z" />
    <glyph glyph-name="uni0497" unicode="&#x497;" horiz-adv-x="913" 
d="M347 0v185l-98 -185h-247l162 238l-149 229h244l88 -192v192h216v-192l88 192h231l-132 -221l58 -80h90v-297h-172v131h-49l-114 185v-185h-216z" />
    <glyph glyph-name="uni0498" unicode="&#x498;" horiz-adv-x="648" 
d="M128 436l-73 168q61 32 109 48q75 25 155 25q118 0 187 -43q81 -53 81 -149q0 -56 -28 -92q-23 -29 -62 -49q43 -11 73 -42q41 -43 41 -105q0 -82 -55 -137q-59 -59 -154 -62v-147h-206v149q-83 12 -166 62l81 180q38 -35 75 -51q42 -19 88 -19q37 0 59 11q23 12 23 34
q0 19 -21 29q-17 7 -59 7h-88v167h80q42 0 54 5q27 8 27 32q0 19 -25 31q-21 9 -50 9q-77 0 -146 -61z" />
    <glyph glyph-name="uni0499" unicode="&#x499;" horiz-adv-x="526" 
d="M88 294l-51 134q46 22 91 35q58 17 128 17q95 0 150 -30q72 -39 72 -112q0 -39 -24 -67q-15 -18 -40 -29v-4q36 -9 56 -31q28 -30 28 -71q0 -57 -44 -98q-43 -41 -104 -44v-134h-176v134q-72 6 -154 50l60 140q34 -28 69 -42q32 -14 73 -14q33 0 50 7q18 8 18 24
q0 17 -20 23q-12 4 -49 4h-64v105h58q30 0 45 4q22 5 22 21t-19 23q-18 6 -42 6q-33 0 -73 -16q-31 -14 -60 -35z" />
    <glyph glyph-name="uni049A" unicode="&#x49a;" horiz-adv-x="719" 
d="M299 0h-232v667h232v-207q0 -46 -5 -84h5q12 33 35 75l115 216h256l-202 -327l94 -136h112v-337h-206v133h-50l-122 214q-13 21 -32 64h-5q5 -29 5 -63v-215z" />
    <glyph glyph-name="uni049B" unicode="&#x49b;" horiz-adv-x="644" 
d="M48 0v467h227v-190l101 190h242l-143 -225l64 -76h90v-297h-172v131h-60l-122 185v-185h-227z" />
    <glyph glyph-name="uni049C" unicode="&#x49c;" horiz-adv-x="887" 
d="M299 254v-254h-232v667h232v-265h50v141h121v-159q11 32 35 75l115 208h254l-208 -327l214 -340h-264l-114 214q-3 7 -9 17.5t-11.5 21.5t-11.5 25v-119h-121v95h-50z" />
    <glyph glyph-name="uni049D" unicode="&#x49d;" horiz-adv-x="770" 
d="M270 181v-181h-222v467h222v-186h37v95h108v-99h2l99 190h243l-156 -225l165 -242h-249l-102 185h-2v-107h-108v103h-37z" />
    <glyph glyph-name="uni04A0" unicode="&#x4a0;" horiz-adv-x="856" 
d="M415 0h-232v477h-173v190h405v-207q0 -46 -5 -84h5q12 33 35 75l115 216h262l-208 -327l230 -340h-280l-122 214q-13 21 -32 64h-5q5 -29 5 -63v-215z" />
    <glyph glyph-name="uni04A1" unicode="&#x4a1;" horiz-adv-x="752" 
d="M152 0v291h-132v176h359v-190h2l99 190h255l-156 -225l171 -242h-261l-108 185h-2v-185h-227z" />
    <glyph glyph-name="uni04A2" unicode="&#x4a2;" horiz-adv-x="801" 
d="M300 0h-233v667h233v-226h148v226h233v-463h95v-337h-206v133h-122v232h-148v-232z" />
    <glyph glyph-name="uni04A3" unicode="&#x4a3;" horiz-adv-x="673" 
d="M48 0v467h227v-149h82v149h227v-301h69v-297h-177v131h-119v160h-82v-160h-227z" />
    <glyph glyph-name="uni04A4" unicode="&#x4a4;" horiz-adv-x="892" 
d="M300 0h-233v667h233v-226h148v226h429v-190h-196v-477h-233v232h-148v-232z" />
    <glyph glyph-name="uni04A5" unicode="&#x4a5;" horiz-adv-x="742" 
d="M48 0v467h227v-149h82v149h365v-176h-138v-291h-227v160h-82v-160h-227z" />
    <glyph glyph-name="uni04AA" unicode="&#x4aa;" horiz-adv-x="591" 
d="M555 266l-7 -246q-5 -2 -21.5 -8t-26.5 -9v-152h-206v149q-100 9 -169 76q-88 88 -88 245q0 161 100 259q99 97 255 97q80 0 156 -26l7 -254q-66 66 -141 66q-59 0 -97 -41q-35 -38 -35 -89q0 -53 39 -92q38 -38 97 -38q78 0 137 63z" />
    <glyph glyph-name="uni04AB" unicode="&#x4ab;" horiz-adv-x="444" 
d="M416 204l-9 -188q-20 -10 -39 -15v-141h-176v137q-70 14 -114 70q-50 65 -50 157q0 117 72 189q67 67 179 67q68 0 134 -24v-190q-41 37 -85 37q-32 0 -50 -18q-19 -21 -19 -49q0 -30 19 -49q20 -20 48 -20q50 0 90 37z" />
    <glyph glyph-name="uni04AE" unicode="&#x4ae;" horiz-adv-x="685" 
d="M225 287l-232 380h274l57 -122q11 -26 18 -53h7q3 14 18 53l52 122h273l-228 -380v-287h-239v287z" />
    <glyph glyph-name="uni04AF" unicode="&#x4af;" horiz-adv-x="601" 
d="M-10 467h240l56 -202q11 -40 15 -61h6q4 24 15 64l54 199h235l-196 -454v-242h-227v242z" />
    <glyph glyph-name="uni04B0" unicode="&#x4b0;" horiz-adv-x="685" 
d="M225 0v127h-180v168h180v19l-232 353h274l57 -122q11 -26 18 -53h7q3 14 18 53l52 122h273l-228 -353v-19h180v-168h-180v-127h-239z" />
    <glyph glyph-name="uni04B1" unicode="&#x4b1;" horiz-adv-x="601" 
d="M-10 467h240l57 -186q11 -37 14 -59h6q2 19 14 62l55 183h235l-196 -412v-17h137v-138h-137v-129h-227v129h-137v138h137v17z" />
    <glyph glyph-name="uni04B2" unicode="&#x4b2;" horiz-adv-x="729" 
d="M233 355l-210 312h274l55 -105q8 -15 15 -45h5q6 25 16 45l51 105h274l-209 -312l101 -151h114v-337h-206v133h-51l-73 143q-10 22 -13 40h-7q-6 -23 -14 -37l-79 -146h-276z" />
    <glyph glyph-name="uni04B3" unicode="&#x4b3;" horiz-adv-x="645" 
d="M195 243l-178 224h262l34 -66q7 -13 10 -30h6q3 11 11 30l34 66h261l-174 -221l70 -80h95v-297h-172v131h-58l-45 61q-14 19 -23 42h-5q-4 -17 -14 -36l-36 -67h-275z" />
    <glyph glyph-name="uni04B6" unicode="&#x4b6;" horiz-adv-x="778" 
d="M547 0h-122v233q-63 -12 -130 -12q-142 0 -199 59q-28 29 -37 64t-9 84v239h233v-180q0 -41 17 -57t54 -16q40 0 71 6v247h233v-463h95v-337h-206v133z" />
    <glyph glyph-name="uni04B7" unicode="&#x4b7;" horiz-adv-x="657" 
d="M460 0h-119v141q-49 -10 -101 -10q-119 0 -166 48q-40 40 -40 118v170h227v-125q0 -28 12 -40q11 -11 36 -11q17 0 32 6v170h227v-301h69v-297h-177v131z" />
    <glyph glyph-name="uni04B8" unicode="&#x4b8;" horiz-adv-x="813" 
d="M513 407v260h233v-667h-233v246q-24 -8 -50 -11v-109h-112v97q-27 0 -69 -2t-97.5 13t-86.5 46q-48 48 -48 148v239h228v-192q0 -41 17 -57q21 -20 56 -18v143h112v-145q27 0 50 9z" />
    <glyph glyph-name="uni04B9" unicode="&#x4b9;" horiz-adv-x="710" 
d="M435 286v181h227v-467h-227v154q-19 -9 -37 -10v-76h-104v63q-161 -9 -218 48q-42 42 -42 118v170h210v-140q0 -27 14 -40t36 -11v100h104v-98q18 0 37 8z" />
    <glyph glyph-name="uni04BA" unicode="&#x4ba;" horiz-adv-x="725" 
d="M300 667v-233q63 12 126 12q137 0 200 -61q49 -49 49 -146v-239h-233v180q0 41 -18 58q-17 15 -60 15q-34 0 -64 -6v-247h-233v667h233z" />
    <glyph glyph-name="uni04BB" unicode="&#x4bb;" horiz-adv-x="625" 
d="M275 0h-227v729h227v-262q0 -39 -7 -74l3 -2q32 41 61 61q42 28 92 28q61 0 103 -40q50 -48 50 -141v-299h-222v253q0 22 -12 34q-10 10 -24 10q-19 0 -32 -13q-12 -11 -12 -34v-250z" />
    <glyph glyph-name="uni04C0" unicode="&#x4c0;" horiz-adv-x="376" 
d="M309 0h-242v667h242v-667z" />
    <glyph glyph-name="uni04C1" unicode="&#x4c1;" horiz-adv-x="1048" 
d="M410 0v215q0 34 5 63h-5q-10 -25 -30 -64l-107 -214h-271l216 340l-205 327h260l104 -216q25 -57 33 -75h5q-5 37 -5 84v207h228v-207q0 -46 -5 -84h5q7 17 14 32.5t10 22.5t5.5 12.5t3.5 7.5l102 216h260l-203 -327l216 -340h-271l-107 214q-20 39 -30 64h-5
q5 -29 5 -63v-215h-228zM602 896l132 -53q-28 -59 -86 -88q-50 -25 -126 -25q-78 0 -127 25q-56 28 -85 88l132 53q7 -26 25 -41q20 -15 56 -15t54 15t25 41z" />
    <glyph glyph-name="uni04C2" unicode="&#x4c2;" horiz-adv-x="910" 
d="M347 0v185h-3l-95 -185h-247l162 238l-149 229h244l85 -192h3v192h216v-192h3l85 192h244l-149 -229l162 -238h-247l-95 185h-3v-185h-216zM524 681l133 -46q-23 -63 -77 -90q-44 -23 -123 -23t-123 23q-54 27 -77 90l133 46q5 -30 22 -44q15 -13 45 -13t45 13
q17 14 22 44z" />
    <glyph glyph-name="uni04C3" unicode="&#x4c3;" horiz-adv-x="702" 
d="M299 0h-232v667h232v-207q0 -46 -5 -84h5q16 40 40 90l101 201h247l-165 -280q66 -9 107 -50q50 -49 50 -130q0 -111 -60 -171q-51 -51 -145 -51q-68 0 -130 25l32 147q15 -25 37 -25q17 0 27 15t10 40q0 28 -17 45q-15 15 -44 15q-30 0 -54 -14q-13 -7 -36 -28v-205z
" />
    <glyph glyph-name="uni04C4" unicode="&#x4c4;" horiz-adv-x="610" 
d="M48 0v467h227v-190h2l99 190h219l-143 -241q62 -12 101 -64q36 -49 36 -127q0 -115 -60 -177q-65 -66 -222 -66h-13v124h3q32 0 52 20q26 27 26 86q0 52 -24 76q-22 22 -69 22h-7v-120h-227z" />
    <glyph glyph-name="uni04C7" unicode="&#x4c7;" horiz-adv-x="748" 
d="M300 0h-233v667h233v-226h148v226h233v-712q0 -96 -48 -141q-47 -44 -154 -44q-64 0 -109 11v146q13 -11 35 -11t32 12q11 13 11 46v258h-148v-232z" />
    <glyph glyph-name="uni04C8" unicode="&#x4c8;" horiz-adv-x="632" 
d="M48 0v467h227v-149h82v149h227v-532q0 -84 -45 -126q-42 -39 -142 -39q-61 0 -117 12v145q16 -7 32 -7q24 0 34 11q11 11 11 39v190h-82v-160h-227z" />
    <glyph glyph-name="uni04D0" unicode="&#x4d0;" horiz-adv-x="737" 
d="M458 83h-184l-18 -83h-256l231 667h268l238 -667h-257zM385 369q-8 34 -13 75h-9q-1 -36 -11 -75l-33 -128h97zM450 896l132 -53q-28 -59 -86 -88q-50 -25 -126 -25q-78 0 -127 25q-56 28 -85 88l132 53q7 -26 25 -41q20 -15 56 -15t54 15t25 41z" />
    <glyph glyph-name="uni04D1" unicode="&#x4d1;" horiz-adv-x="639" 
d="M369 411l5 3q-8 21 -8 40v13h225v-467h-224l1 16q2 21 9 43h-7q-58 -72 -140 -72q-78 0 -132 55q-70 72 -70 189q0 120 73 193q56 56 138 56q79 0 130 -69zM254 234q0 -29 20 -49q16 -16 39 -16t39 15q22 22 22 52q0 31 -20 49q-17 15 -39 15q-25 0 -41 -16
q-20 -20 -20 -50zM417 681l133 -46q-23 -63 -77 -90q-44 -23 -123 -23t-123 23q-54 27 -77 90l133 46q5 -30 22 -44q15 -13 45 -13t45 13q17 14 22 44z" />
    <glyph glyph-name="uni04D2" unicode="&#x4d2;" horiz-adv-x="737" 
d="M458 83h-184l-18 -83h-256l231 667h268l238 -667h-257zM385 369q-8 34 -13 75h-9q-1 -36 -11 -75l-33 -128h97zM164 811q0 38 26 64t64 26t64.5 -26t26.5 -64t-26.5 -64.5t-64.5 -26.5t-64 26.5t-26 64.5zM391 811q0 38 26 64t64 26t64.5 -26t26.5 -64t-26.5 -64.5
t-64.5 -26.5t-64 26.5t-26 64.5z" />
    <glyph glyph-name="uni04D3" unicode="&#x4d3;" horiz-adv-x="639" 
d="M369 411l5 3q-8 21 -8 40v13h225v-467h-224l1 16q2 21 9 43h-7q-58 -72 -140 -72q-78 0 -132 55q-70 72 -70 189q0 120 73 193q56 56 138 56q79 0 130 -69zM254 234q0 -29 20 -49q16 -16 39 -16t39 15q22 22 22 52q0 31 -20 49q-17 15 -39 15q-25 0 -41 -16
q-20 -20 -20 -50zM146 622q0 38 26 64.5t64 26.5t64.5 -26.5t26.5 -64.5t-26.5 -64.5t-64.5 -26.5t-64 26.5t-26 64.5zM363 622q0 38 26 64.5t64 26.5t64.5 -26.5t26.5 -64.5t-26.5 -64.5t-64.5 -26.5t-64 26.5t-26 64.5z" />
    <glyph glyph-name="uni04D4" unicode="&#x4d4;" horiz-adv-x="947" 
d="M261 0h-254l232 667h469l61 -183h-199l21 -62h200l61 -175h-197l22 -64h200l64 -183h-455l-22 83h-182zM423 241l-40 147q-8 30 -7 56h-7q-1 -31 -10 -67l-35 -136h99z" />
    <glyph glyph-name="uni04D5" unicode="&#x4d5;" horiz-adv-x="1004" 
d="M742 157h223q-26 -84 -106 -130q-69 -40 -160 -40q-73 0 -131 22q-51 18 -88 58q-41 -34 -92 -55q-61 -25 -139 -25q-119 0 -180 63q-41 43 -41 103q0 61 40 101q55 57 171 57q68 0 138 -22q2 38 -21 61q-25 26 -92 26q-91 0 -217 -45v113q130 36 229 36q77 0 123 -20
q46 -19 81 -62q36 35 81 55q58 27 130 27q139 0 216 -81q69 -71 69 -192v-8h-332v-6q0 -43 17 -60q13 -13 38 -13q20 0 30 10t13 27zM646 296h108q-2 29 -20 46q-16 14 -35 14q-22 0 -34 -12q-19 -17 -19 -48zM323 201q-45 0 -67 -15q-19 -13 -19 -33q0 -25 24 -37
q21 -10 61 -10q45 0 75 15q30 14 30 36q0 23 -34 34q-30 10 -70 10z" />
    <glyph glyph-name="uni04D6" unicode="&#x4d6;" horiz-adv-x="560" 
d="M523 0h-456v667h450v-183h-208v-62h189v-175h-189v-64h214v-183zM370 896l132 -53q-28 -59 -86 -88q-50 -25 -126 -25q-78 0 -127 25q-56 28 -85 88l132 53q7 -26 25 -41q20 -15 56 -15t54 15t25 41z" />
    <glyph glyph-name="uni04D7" unicode="&#x4d7;" horiz-adv-x="613" 
d="M585 196h-331q-2 -47 17 -68q11 -13 34 -13q19 0 34 13q9 8 15 27h222q-14 -43 -47 -80q-38 -43 -87.5 -65.5t-126.5 -22.5q-144 0 -221 77q-66 66 -66 163q0 106 70 176q79 77 208 77q125 0 201 -74q37 -35 57.5 -84.5t20.5 -99.5v-26zM256 293h107q-2 30 -20 47
q-13 13 -36 13q-19 0 -33 -12q-18 -16 -18 -48zM382 681l133 -46q-23 -63 -77 -90q-44 -23 -123 -23t-123 23q-54 27 -77 90l133 46q5 -30 22 -44q15 -13 45 -13t45 13q17 14 22 44z" />
    <glyph glyph-name="uni04D8" unicode="&#x4d8;" horiz-adv-x="785" 
d="M266 427l-213 37q40 106 132 165q85 53 206 53q165 0 260 -93q97 -95 97 -254q0 -155 -95 -252q-96 -98 -273 -98q-163 0 -251 92q-92 97 -92 285v24h466q-5 55 -39 87q-31 31 -86 31q-44 0 -73 -23q-27 -21 -39 -54zM503 258h-253q5 -47 37 -74q31 -25 88 -25
q53 0 85 24q36 26 43 75z" />
    <glyph glyph-name="afii10846" unicode="&#x4d9;" horiz-adv-x="613" 
d="M28 271h331q0 47 -17 66q-14 15 -41 15q-24 0 -39 -15q-12 -12 -18 -31l-200 38q32 63 97 100q65 36 161 36q141 0 217 -76q66 -66 66 -164q0 -106 -70 -176q-79 -77 -208 -77q-125 0 -201 74q-37 35 -57.5 84.5t-20.5 99.5v26zM357 174h-107q2 -30 20 -47q13 -13 36 -13
q19 0 33 12q18 16 18 48z" />
    <glyph glyph-name="uni04DA" unicode="&#x4da;" horiz-adv-x="785" 
d="M266 427l-213 37q40 106 132 165q85 53 206 53q165 0 260 -93q97 -95 97 -254q0 -155 -95 -252q-96 -98 -273 -98q-163 0 -251 92q-92 97 -92 285v24h466q-5 55 -39 87q-31 31 -86 31q-44 0 -73 -23q-27 -21 -39 -54zM503 258h-253q5 -47 37 -74q31 -25 88 -25
q53 0 85 24q36 26 43 75zM176 811q0 38 26 64t64 26t64.5 -26t26.5 -64t-26.5 -64.5t-64.5 -26.5t-64 26.5t-26 64.5zM403 811q0 38 26 64t64 26t64.5 -26t26.5 -64t-26.5 -64.5t-64.5 -26.5t-64 26.5t-26 64.5z" />
    <glyph glyph-name="uni04DB" unicode="&#x4db;" horiz-adv-x="613" 
d="M28 271h331q0 47 -17 66q-14 15 -41 15q-24 0 -39 -15q-12 -12 -18 -31l-200 38q32 63 97 100q65 36 161 36q141 0 217 -76q66 -66 66 -164q0 -106 -70 -176q-79 -77 -208 -77q-125 0 -201 74q-37 35 -57.5 84.5t-20.5 99.5v26zM357 174h-107q2 -30 20 -47q13 -13 36 -13
q19 0 33 12q18 16 18 48zM106 622q0 38 26 64.5t64 26.5t64.5 -26.5t26.5 -64.5t-26.5 -64.5t-64.5 -26.5t-64 26.5t-26 64.5zM323 622q0 38 26 64.5t64 26.5t64.5 -26.5t26.5 -64.5t-26.5 -64.5t-64.5 -26.5t-64 26.5t-26 64.5z" />
    <glyph glyph-name="uni04DC" unicode="&#x4dc;" horiz-adv-x="1048" 
d="M410 0v215q0 34 5 63h-5q-10 -25 -30 -64l-107 -214h-271l216 340l-205 327h260l104 -216q25 -57 33 -75h5q-5 37 -5 84v207h228v-207q0 -46 -5 -84h5q7 17 14 32.5t10 22.5t5.5 12.5t3.5 7.5l102 216h260l-203 -327l216 -340h-271l-107 214q-20 39 -30 64h-5
q5 -29 5 -63v-215h-228zM301 811q0 38 26 64t64 26t64.5 -26t26.5 -64t-26.5 -64.5t-64.5 -26.5t-64 26.5t-26 64.5zM528 811q0 38 26 64t64 26t64.5 -26t26.5 -64t-26.5 -64.5t-64.5 -26.5t-64 26.5t-26 64.5z" />
    <glyph glyph-name="uni04DD" unicode="&#x4dd;" horiz-adv-x="910" 
d="M347 0v185h-3l-95 -185h-247l162 238l-149 229h244l85 -192h3v192h216v-192h3l85 192h244l-149 -229l162 -238h-247l-95 185h-3v-185h-216zM256 622q0 38 26 64.5t64 26.5t64.5 -26.5t26.5 -64.5t-26.5 -64.5t-64.5 -26.5t-64 26.5t-26 64.5zM473 622q0 38 26 64.5
t64 26.5t64.5 -26.5t26.5 -64.5t-26.5 -64.5t-64.5 -26.5t-64 26.5t-26 64.5z" />
    <glyph glyph-name="uni04DE" unicode="&#x4de;" horiz-adv-x="648" 
d="M128 441l-73 168q65 35 121 52q66 21 143 21q120 0 187 -44q81 -52 81 -153q0 -55 -28 -92q-25 -32 -62 -46v-3q48 -14 78 -48q36 -39 36 -100q0 -111 -98 -169q-73 -42 -201 -42q-95 0 -166 22q-62 19 -116 50l81 180q38 -35 75 -51q42 -19 89 -19q36 0 58 11
q23 11 23 35q0 23 -22 33q-16 7 -58 7h-88v167h80q42 0 54 5q27 8 27 33q0 24 -25 35q-21 9 -51 9q-42 0 -81 -18q-31 -13 -64 -43zM101 811q0 38 26 64t64 26t64.5 -26t26.5 -64t-26.5 -64.5t-64.5 -26.5t-64 26.5t-26 64.5zM328 811q0 38 26 64t64 26t64.5 -26t26.5 -64
t-26.5 -64.5t-64.5 -26.5t-64 26.5t-26 64.5z" />
    <glyph glyph-name="uni04DF" unicode="&#x4df;" horiz-adv-x="526" 
d="M88 296l-51 132q40 21 91 35q62 17 122 17q100 0 156 -30q72 -39 72 -114q0 -41 -28 -71q-15 -15 -36 -23v-4q33 -8 56 -31q28 -30 28 -72q0 -79 -75 -119q-56 -29 -163 -29q-83 0 -148 19q-46 13 -92 38l60 140q34 -26 69 -40q36 -14 73 -14q36 0 50 7q18 8 18 26
q0 15 -20 22q-12 4 -49 4h-64v100h58q30 0 45 4q22 5 22 23q0 17 -19 25q-17 6 -41 6q-39 0 -74 -16q-33 -15 -60 -35zM66 622q0 38 26 64.5t64 26.5t64.5 -26.5t26.5 -64.5t-26.5 -64.5t-64.5 -26.5t-64 26.5t-26 64.5zM283 622q0 38 26 64.5t64 26.5t64.5 -26.5
t26.5 -64.5t-26.5 -64.5t-64.5 -26.5t-64 26.5t-26 64.5z" />
    <glyph glyph-name="uni04E2" unicode="&#x4e2;" horiz-adv-x="768" 
d="M67 667h230v-237q0 -53 -12 -123h9q26 69 44 100l146 260h217v-667h-230v227q0 57 12 123h-9q-21 -60 -44 -100l-146 -250h-217v667zM566 746h-364v104h364v-104z" />
    <glyph glyph-name="uni04E3" unicode="&#x4e3;" horiz-adv-x="653" 
d="M48 467h220v-156q0 -31 -10 -79l6 -1q13 32 21 46l105 190h215v-467h-220v159q0 31 10 79l-6 1q-8 -22 -21 -46l-105 -193h-215v467zM496 544h-340v100h340v-100z" />
    <glyph glyph-name="uni04E4" unicode="&#x4e4;" horiz-adv-x="768" 
d="M67 667h230v-237q0 -53 -12 -123h9q26 69 44 100l146 260h217v-667h-230v227q0 57 12 123h-9q-21 -60 -44 -100l-146 -250h-217v667zM180 811q0 38 26 64t64 26t64.5 -26t26.5 -64t-26.5 -64.5t-64.5 -26.5t-64 26.5t-26 64.5zM407 811q0 38 26 64t64 26t64.5 -26
t26.5 -64t-26.5 -64.5t-64.5 -26.5t-64 26.5t-26 64.5z" />
    <glyph glyph-name="uni04E5" unicode="&#x4e5;" horiz-adv-x="653" 
d="M48 467h220v-156q0 -31 -10 -79l6 -1q13 32 21 46l105 190h215v-467h-220v159q0 31 10 79l-6 1q-8 -22 -21 -46l-105 -193h-215v467zM127 622q0 38 26 64.5t64 26.5t64.5 -26.5t26.5 -64.5t-26.5 -64.5t-64.5 -26.5t-64 26.5t-26 64.5zM344 622q0 38 26 64.5t64 26.5
t64.5 -26.5t26.5 -64.5t-26.5 -64.5t-64.5 -26.5t-64 26.5t-26 64.5z" />
    <glyph glyph-name="uni04E6" unicode="&#x4e6;" horiz-adv-x="814" 
d="M777 334q0 -147 -93 -242q-105 -107 -277 -107t-277 107q-93 95 -93 242q0 146 93 241q105 107 277 107t277 -107q93 -95 93 -241zM407 467q-55 0 -87 -34q-38 -40 -38 -100q0 -61 38 -99q34 -34 87 -34t87 34q38 38 38 99q0 64 -38 100q-34 34 -87 34zM203 811
q0 38 26 64t64 26t64.5 -26t26.5 -64t-26.5 -64.5t-64.5 -26.5t-64 26.5t-26 64.5zM430 811q0 38 26 64t64 26t64.5 -26t26.5 -64t-26.5 -64.5t-64.5 -26.5t-64 26.5t-26 64.5z" />
    <glyph glyph-name="uni04E7" unicode="&#x4e7;" horiz-adv-x="626" 
d="M598 234q0 -99 -67 -168q-77 -79 -218 -79t-218 79q-67 69 -67 168t67 167q77 79 218 79t218 -79q67 -68 67 -167zM313 300q-28 0 -44 -16q-20 -18 -20 -50q0 -33 20 -51q16 -16 44 -16t44 16q20 18 20 51q0 32 -20 50q-16 16 -44 16zM114 622q0 38 26 64.5t64 26.5
t64.5 -26.5t26.5 -64.5t-26.5 -64.5t-64.5 -26.5t-64 26.5t-26 64.5zM331 622q0 38 26 64.5t64 26.5t64.5 -26.5t26.5 -64.5t-26.5 -64.5t-64.5 -26.5t-64 26.5t-26 64.5z" />
    <glyph glyph-name="uni04E8" unicode="&#x4e8;" horiz-adv-x="812" 
d="M775 334q0 -147 -92 -242q-105 -107 -277 -107t-277 107q-92 95 -92 242t92 241q105 107 277 107t277 -107q92 -94 92 -241zM290 395h231q-9 42 -42 65q-31 20 -75 20q-47 0 -76 -23q-29 -22 -38 -62zM525 287h-239q5 -48 40 -75q31 -25 78 -25q49 0 79 24q34 27 42 76z
" />
    <glyph glyph-name="uni04E9" unicode="&#x4e9;" horiz-adv-x="626" 
d="M598 233q0 -99 -67 -167q-77 -79 -218 -79t-218 79q-67 68 -67 167t67 168q77 79 218 79t218 -79q67 -69 67 -168zM241 274h146q-7 27 -24 41q-18 15 -50 15q-29 0 -49 -16q-18 -14 -23 -40zM387 196h-146q3 -29 22 -44q18 -15 51 -15t51 17q18 16 22 42z" />
    <glyph glyph-name="uni04EA" unicode="&#x4ea;" horiz-adv-x="812" 
d="M775 334q0 -147 -92 -242q-105 -107 -277 -107t-277 107q-92 95 -92 242t92 241q105 107 277 107t277 -107q92 -94 92 -241zM290 395h231q-9 42 -42 65q-31 20 -75 20q-47 0 -76 -23q-29 -22 -38 -62zM525 287h-239q5 -48 40 -75q31 -25 78 -25q49 0 79 24q34 27 42 76z
M202 811q0 38 26 64t64 26t64.5 -26t26.5 -64t-26.5 -64.5t-64.5 -26.5t-64 26.5t-26 64.5zM429 811q0 38 26 64t64 26t64.5 -26t26.5 -64t-26.5 -64.5t-64.5 -26.5t-64 26.5t-26 64.5z" />
    <glyph glyph-name="uni04EB" unicode="&#x4eb;" horiz-adv-x="626" 
d="M598 233q0 -99 -67 -167q-77 -79 -218 -79t-218 79q-67 68 -67 167t67 168q77 79 218 79t218 -79q67 -69 67 -168zM241 274h146q-7 27 -24 41q-18 15 -50 15q-29 0 -49 -16q-18 -14 -23 -40zM387 196h-146q3 -29 22 -44q18 -15 51 -15t51 17q18 16 22 42zM114 622
q0 38 26 64.5t64 26.5t64.5 -26.5t26.5 -64.5t-26.5 -64.5t-64.5 -26.5t-64 26.5t-26 64.5zM331 622q0 38 26 64.5t64 26.5t64.5 -26.5t26.5 -64.5t-26.5 -64.5t-64.5 -26.5t-64 26.5t-26 64.5z" />
    <glyph glyph-name="uni04EE" unicode="&#x4ee;" horiz-adv-x="702" 
d="M5 667h255l78 -186q13 -28 18 -58h7q5 33 16 62l68 182h250l-307 -667h-252l98 201zM537 746h-364v104h364v-104z" />
    <glyph glyph-name="uni04EF" unicode="&#x4ef;" horiz-adv-x="601" 
d="M191 47l-201 420h245l56 -192q9 -30 10 -61h6q2 33 10 64l54 189h240l-317 -696h-241zM470 544h-340v100h340v-100z" />
    <glyph glyph-name="uni04F0" unicode="&#x4f0;" horiz-adv-x="702" 
d="M5 667h255l78 -186q13 -28 18 -58h7q5 33 16 62l68 182h250l-307 -667h-252l98 201zM150 811q0 38 26 64t64 26t64.5 -26t26.5 -64t-26.5 -64.5t-64.5 -26.5t-64 26.5t-26 64.5zM377 811q0 38 26 64t64 26t64.5 -26t26.5 -64t-26.5 -64.5t-64.5 -26.5t-64 26.5t-26 64.5z
" />
    <glyph glyph-name="uni04F1" unicode="&#x4f1;" horiz-adv-x="601" 
d="M191 47l-201 420h245l56 -192q9 -30 10 -61h6q2 33 10 64l54 189h240l-317 -696h-241zM115 622q0 38 26 64.5t64 26.5t64.5 -26.5t26.5 -64.5t-26.5 -64.5t-64.5 -26.5t-64 26.5t-26 64.5zM332 622q0 38 26 64.5t64 26.5t64.5 -26.5t26.5 -64.5t-26.5 -64.5t-64.5 -26.5
t-64 26.5t-26 64.5z" />
    <glyph glyph-name="uni04F2" unicode="&#x4f2;" horiz-adv-x="702" 
d="M5 667h255l78 -186q13 -28 18 -58h7q5 33 16 62l68 182h250l-307 -667h-252l98 201zM154 779l100 146l112 -73l-133 -128zM358 779l100 146l111 -73l-132 -128z" />
    <glyph glyph-name="uni04F3" unicode="&#x4f3;" horiz-adv-x="601" 
d="M191 47l-201 420h245l56 -192q9 -30 10 -61h6q2 33 10 64l54 189h240l-317 -696h-241zM124 596l100 146l112 -73l-133 -128zM328 596l100 146l111 -73l-132 -128z" />
    <glyph glyph-name="uni04F4" unicode="&#x4f4;" horiz-adv-x="725" 
d="M425 0v233q-63 -12 -130 -12q-142 0 -199 59q-28 29 -37 64t-9 84v239h233v-180q0 -41 17 -57t54 -16q40 0 71 6v247h233v-667h-233zM156 811q0 38 26 64t64 26t64.5 -26t26.5 -64t-26.5 -64.5t-64.5 -26.5t-64 26.5t-26 64.5zM383 811q0 38 26 64t64 26t64.5 -26
t26.5 -64t-26.5 -64.5t-64.5 -26.5t-64 26.5t-26 64.5z" />
    <glyph glyph-name="uni04F5" unicode="&#x4f5;" horiz-adv-x="616" 
d="M341 0v141q-49 -10 -101 -10q-119 0 -166 48q-40 40 -40 118v170h227v-125q0 -28 12 -40q11 -11 36 -11q17 0 32 6v170h227v-467h-227zM111 622q0 38 26 64.5t64 26.5t64.5 -26.5t26.5 -64.5t-26.5 -64.5t-64.5 -26.5t-64 26.5t-26 64.5zM328 622q0 38 26 64.5t64 26.5
t64.5 -26.5t26.5 -64.5t-26.5 -64.5t-64.5 -26.5t-64 26.5t-26 64.5z" />
    <glyph glyph-name="uni04F8" unicode="&#x4f8;" horiz-adv-x="986" 
d="M67 0v667h233v-247h112q111 0 172 -63q55 -55 55 -146q0 -98 -60 -152q-66 -59 -202 -59h-310zM300 160h46q34 0 50 11q21 14 21 46q0 29 -19 43q-15 11 -47 11h-51v-111zM919 0h-233v667h233v-667zM289 811q0 38 26 64t64 26t64.5 -26t26.5 -64t-26.5 -64.5t-64.5 -26.5
t-64 26.5t-26 64.5zM516 811q0 38 26 64t64 26t64.5 -26t26.5 -64t-26.5 -64.5t-64.5 -26.5t-64 26.5t-26 64.5z" />
    <glyph glyph-name="uni04F9" unicode="&#x4f9;" horiz-adv-x="868" 
d="M593 0v467h227v-467h-227zM275 315h96q103 0 150 -45q42 -40 42 -113q0 -70 -40 -110q-47 -47 -141 -47h-334v467h227v-152zM275 110h26q29 0 43 13q13 13 13 36q0 20 -11 31q-13 13 -42 13h-29v-93zM235 622q0 38 26 64.5t64 26.5t64.5 -26.5t26.5 -64.5t-26.5 -64.5
t-64.5 -26.5t-64 26.5t-26 64.5zM452 622q0 38 26 64.5t64 26.5t64.5 -26.5t26.5 -64.5t-26.5 -64.5t-64.5 -26.5t-64 26.5t-26 64.5z" />
    <glyph glyph-name="uni1E9E" unicode="&#x1e9e;" horiz-adv-x="677" 
d="M67 0v416q0 129 79 201q72 65 198 65q93 0 156 -36q53 -31 81 -83q22 -41 23 -89l-83 -102q44 -15 70 -40q49 -46 49 -123q0 -104 -75 -163q-58 -46 -203 -46h-18v157q32 0 47 12q23 18 23 60q0 31 -20 48q-17 14 -50 14v102l44 60q0 23 -12.5 35t-33.5 12q-51 0 -51 -56
v-444h-224z" />
    <glyph glyph-name="uni2010" unicode="&#x2010;" horiz-adv-x="415" 
d="M365 175h-315v180h315v-180z" />
    <glyph glyph-name="uni2011" unicode="&#x2011;" horiz-adv-x="415" 
d="M365 175h-315v180h315v-180z" />
    <glyph glyph-name="figuredash" unicode="&#x2012;" horiz-adv-x="574" 
d="M70 266v150h434v-150h-434z" />
    <glyph glyph-name="endash" unicode="&#x2013;" horiz-adv-x="574" 
d="M70 190v150h434v-150h-434z" />
    <glyph glyph-name="emdash" unicode="&#x2014;" horiz-adv-x="933" 
d="M863 190h-793v150h793v-150z" />
    <glyph glyph-name="afii00208" unicode="&#x2015;" horiz-adv-x="933" 
d="M863 190h-793v150h793v-150z" />
    <glyph glyph-name="quoteleft" unicode="&#x2018;" horiz-adv-x="436" 
d="M47 337l157 330h178l-107 -330h-228z" />
    <glyph glyph-name="quoteright" unicode="&#x2019;" horiz-adv-x="436" 
d="M389 667l-158 -330h-178l107 330h229z" />
    <glyph glyph-name="quotesinglbase" unicode="&#x201a;" horiz-adv-x="426" 
d="M379 170l-148 -330h-178l107 330h219z" />
    <glyph glyph-name="quotedblleft" unicode="&#x201c;" horiz-adv-x="702" 
d="M323 337l148 330h178l-107 -330h-219zM47 337l147 330h178l-107 -330h-218z" />
    <glyph glyph-name="quotedblright" unicode="&#x201d;" horiz-adv-x="702" 
d="M379 667l-148 -330h-178l107 330h219zM656 667l-148 -330h-178l107 330h219z" />
    <glyph glyph-name="quotedblbase" unicode="&#x201e;" horiz-adv-x="702" 
d="M379 170l-148 -330h-178l107 330h219zM656 170l-148 -330h-178l107 330h219z" />
    <glyph glyph-name="dagger" unicode="&#x2020;" horiz-adv-x="707" 
d="M454 -193h-201v560h-171v175h171v187h201v-187h171v-175h-171v-560z" />
    <glyph glyph-name="daggerdbl" unicode="&#x2021;" horiz-adv-x="707" 
d="M253 211v176h-164v175h164v167h201v-167h164v-175h-164v-176h164v-174h-164v-230h-201v230h-164v174h164z" />
    <glyph glyph-name="bullet" unicode="&#x2022;" horiz-adv-x="1000" 
d="M637 340q0 -59 -40 -99q-41 -41 -97 -41t-97 41q-40 40 -40 99t40 99q41 41 97 41t97 -41q40 -40 40 -99z" />
    <glyph glyph-name="ellipsis" unicode="&#x2026;" horiz-adv-x="1102" 
d="M787 98q0 43 31 74q38 38 101 38q62 0 100 -38q31 -31 31 -74q0 -42 -31 -73q-38 -38 -100 -38q-63 0 -101 38q-31 31 -31 73zM420 98q0 43 31 74q38 38 101 38q62 0 100 -38q31 -31 31 -74q0 -42 -31 -73q-38 -38 -100 -38q-63 0 -101 38q-31 31 -31 73zM52 98
q0 43 31 74q38 38 101 38q62 0 100 -38q31 -31 31 -74q0 -42 -31 -73q-38 -38 -100 -38q-63 0 -101 38q-31 31 -31 73z" />
    <glyph glyph-name="perthousand" unicode="&#x2030;" horiz-adv-x="1515" 
d="M446 493q0 -75 -51 -126q-58 -58 -161 -58q-102 0 -160 58q-51 51 -51 126t51 126q58 58 160 58q103 0 161 -58q51 -51 51 -126zM196 494q0 -23 13 -36q10 -10 27 -10t27 10q14 14 14 39q0 24 -12 36q-9 11 -28 11q-16 0 -27 -11q-14 -14 -14 -39zM264 0l387 667h110
l-388 -667h-109zM1004 173q0 -75 -51 -126q-58 -58 -161 -58q-102 0 -160 58q-51 51 -51 126t51 126q58 58 160 58q103 0 161 -58q51 -51 51 -126zM754 174q0 -23 13 -36q10 -10 27 -10t27 10q14 14 14 39q0 24 -12 36q-9 11 -28 11q-16 0 -27 -11q-14 -14 -14 -39z
M1491 173q0 -75 -51 -126q-58 -58 -161 -58q-102 0 -160 58q-51 51 -51 126t51 126q58 58 160 58q103 0 161 -58q51 -51 51 -126zM1241 174q0 -23 13 -36q10 -10 27 -10t27 10q14 14 14 39q0 24 -12 36q-9 11 -28 11q-16 0 -27 -11q-14 -14 -14 -39z" />
    <glyph glyph-name="guilsinglleft" unicode="&#x2039;" horiz-adv-x="326" 
d="M276 70l-92 -65l-151 227l159 225l92 -64l-113 -161z" />
    <glyph glyph-name="guilsinglright" unicode="&#x203a;" horiz-adv-x="326" 
d="M50 70l105 162l-113 161l92 64l159 -225l-151 -227z" />
    <glyph glyph-name="fraction" unicode="&#x2044;" horiz-adv-x="197" 
d="M-150 0l387 667h110l-388 -667h-109z" />
    <glyph glyph-name="Euro" unicode="&#x20ac;" horiz-adv-x="707" 
d="M640 234l-7 -202q-77 -47 -196 -47q-138 0 -221 59q-88 64 -122 173h-93l36 90h40v43h-76l36 90h57q28 109 121 177q55 40 109 52.5t120 12.5q119 0 221 -50l-63 -159q-68 39 -137 39q-49 0 -85 -22q-30 -18 -43 -50h255l-36 -90h-240v-43h235l-36 -90h-182
q17 -32 52 -49q33 -15 85 -15q54 0 92 19q44 21 78 62z" />
    <glyph glyph-name="uni20B4" unicode="&#x20b4;" horiz-adv-x="707" 
d="M167 513l-62 123q106 46 243 46q117 0 174 -33q65 -38 65 -110q0 -43 -24 -72h72v-102h-151l-76 -71h227v-102h-297q-13 -16 -13 -36q0 -22 18 -33q20 -12 60 -12q73 0 152 33l61 -121q-112 -44 -253 -44q-131 0 -189 33q-70 39 -70 110q0 39 24 70h-56v102h135l76 71
h-211v102h281q16 15 16 34q0 21 -16 32q-19 13 -54 13q-64 0 -132 -33z" />
    <glyph glyph-name="uni20B6" unicode="&#x20b6;" horiz-adv-x="707" 
d="M104 667h316q126 0 195 -62q68 -62 68 -158t-66 -152q-61 -50 -164 -50h-117v-62h180v-102h-180v-81h-232v81h-82v102h82v62h-82v130h82v292zM336 490v-115h41q35 0 54 18q16 15 16 41q0 29 -18 42q-18 14 -49 14h-44z" />
    <glyph glyph-name="uni20B6" unicode="&#x20cf;" horiz-adv-x="707" 
d="M104 667h316q126 0 195 -62q68 -62 68 -158t-66 -152q-61 -50 -164 -50h-117v-62h180v-102h-180v-81h-232v81h-82v102h82v62h-82v130h82v292zM336 490v-115h41q35 0 54 18q16 15 16 41q0 29 -18 42q-18 14 -49 14h-44z" />
    <glyph glyph-name="uni20B6" unicode="&#x20ce;" horiz-adv-x="707" 
d="M104 667h316q126 0 195 -62q68 -62 68 -158t-66 -152q-61 -50 -164 -50h-117v-62h180v-102h-180v-81h-232v81h-82v102h82v62h-82v130h82v292zM336 490v-115h41q35 0 54 18q16 15 16 41q0 29 -18 42q-18 14 -49 14h-44z" />
    <glyph glyph-name="uni20B6" unicode="&#x20cd;" horiz-adv-x="707" 
d="M104 667h316q126 0 195 -62q68 -62 68 -158t-66 -152q-61 -50 -164 -50h-117v-62h180v-102h-180v-81h-232v81h-82v102h82v62h-82v130h82v292zM336 490v-115h41q35 0 54 18q16 15 16 41q0 29 -18 42q-18 14 -49 14h-44z" />
    <glyph glyph-name="uni20B6" unicode="&#x20cc;" horiz-adv-x="707" 
d="M104 667h316q126 0 195 -62q68 -62 68 -158t-66 -152q-61 -50 -164 -50h-117v-62h180v-102h-180v-81h-232v81h-82v102h82v62h-82v130h82v292zM336 490v-115h41q35 0 54 18q16 15 16 41q0 29 -18 42q-18 14 -49 14h-44z" />
    <glyph glyph-name="uni20B6" unicode="&#x20cb;" horiz-adv-x="707" 
d="M104 667h316q126 0 195 -62q68 -62 68 -158t-66 -152q-61 -50 -164 -50h-117v-62h180v-102h-180v-81h-232v81h-82v102h82v62h-82v130h82v292zM336 490v-115h41q35 0 54 18q16 15 16 41q0 29 -18 42q-18 14 -49 14h-44z" />
    <glyph glyph-name="uni20B6" unicode="&#x20ca;" horiz-adv-x="707" 
d="M104 667h316q126 0 195 -62q68 -62 68 -158t-66 -152q-61 -50 -164 -50h-117v-62h180v-102h-180v-81h-232v81h-82v102h82v62h-82v130h82v292zM336 490v-115h41q35 0 54 18q16 15 16 41q0 29 -18 42q-18 14 -49 14h-44z" />
    <glyph glyph-name="uni20B6" unicode="&#x20c9;" horiz-adv-x="707" 
d="M104 667h316q126 0 195 -62q68 -62 68 -158t-66 -152q-61 -50 -164 -50h-117v-62h180v-102h-180v-81h-232v81h-82v102h82v62h-82v130h82v292zM336 490v-115h41q35 0 54 18q16 15 16 41q0 29 -18 42q-18 14 -49 14h-44z" />
    <glyph glyph-name="uni20B6" unicode="&#x20c8;" horiz-adv-x="707" 
d="M104 667h316q126 0 195 -62q68 -62 68 -158t-66 -152q-61 -50 -164 -50h-117v-62h180v-102h-180v-81h-232v81h-82v102h82v62h-82v130h82v292zM336 490v-115h41q35 0 54 18q16 15 16 41q0 29 -18 42q-18 14 -49 14h-44z" />
    <glyph glyph-name="uni20B6" unicode="&#x20c7;" horiz-adv-x="707" 
d="M104 667h316q126 0 195 -62q68 -62 68 -158t-66 -152q-61 -50 -164 -50h-117v-62h180v-102h-180v-81h-232v81h-82v102h82v62h-82v130h82v292zM336 490v-115h41q35 0 54 18q16 15 16 41q0 29 -18 42q-18 14 -49 14h-44z" />
    <glyph glyph-name="uni20B6" unicode="&#x20c6;" horiz-adv-x="707" 
d="M104 667h316q126 0 195 -62q68 -62 68 -158t-66 -152q-61 -50 -164 -50h-117v-62h180v-102h-180v-81h-232v81h-82v102h82v62h-82v130h82v292zM336 490v-115h41q35 0 54 18q16 15 16 41q0 29 -18 42q-18 14 -49 14h-44z" />
    <glyph glyph-name="uni20B6" unicode="&#x20c5;" horiz-adv-x="707" 
d="M104 667h316q126 0 195 -62q68 -62 68 -158t-66 -152q-61 -50 -164 -50h-117v-62h180v-102h-180v-81h-232v81h-82v102h82v62h-82v130h82v292zM336 490v-115h41q35 0 54 18q16 15 16 41q0 29 -18 42q-18 14 -49 14h-44z" />
    <glyph glyph-name="uni20B6" unicode="&#x20c4;" horiz-adv-x="707" 
d="M104 667h316q126 0 195 -62q68 -62 68 -158t-66 -152q-61 -50 -164 -50h-117v-62h180v-102h-180v-81h-232v81h-82v102h82v62h-82v130h82v292zM336 490v-115h41q35 0 54 18q16 15 16 41q0 29 -18 42q-18 14 -49 14h-44z" />
    <glyph glyph-name="uni20B6" unicode="&#x20c3;" horiz-adv-x="707" 
d="M104 667h316q126 0 195 -62q68 -62 68 -158t-66 -152q-61 -50 -164 -50h-117v-62h180v-102h-180v-81h-232v81h-82v102h82v62h-82v130h82v292zM336 490v-115h41q35 0 54 18q16 15 16 41q0 29 -18 42q-18 14 -49 14h-44z" />
    <glyph glyph-name="uni20B6" unicode="&#x20c2;" horiz-adv-x="707" 
d="M104 667h316q126 0 195 -62q68 -62 68 -158t-66 -152q-61 -50 -164 -50h-117v-62h180v-102h-180v-81h-232v81h-82v102h82v62h-82v130h82v292zM336 490v-115h41q35 0 54 18q16 15 16 41q0 29 -18 42q-18 14 -49 14h-44z" />
    <glyph glyph-name="uni20B6" unicode="&#x20c1;" horiz-adv-x="707" 
d="M104 667h316q126 0 195 -62q68 -62 68 -158t-66 -152q-61 -50 -164 -50h-117v-62h180v-102h-180v-81h-232v81h-82v102h82v62h-82v130h82v292zM336 490v-115h41q35 0 54 18q16 15 16 41q0 29 -18 42q-18 14 -49 14h-44z" />
    <glyph glyph-name="uni20B6" unicode="&#x20c0;" horiz-adv-x="707" 
d="M104 667h316q126 0 195 -62q68 -62 68 -158t-66 -152q-61 -50 -164 -50h-117v-62h180v-102h-180v-81h-232v81h-82v102h82v62h-82v130h82v292zM336 490v-115h41q35 0 54 18q16 15 16 41q0 29 -18 42q-18 14 -49 14h-44z" />
    <glyph glyph-name="uni20B6" unicode="&#x20bf;" horiz-adv-x="707" 
d="M104 667h316q126 0 195 -62q68 -62 68 -158t-66 -152q-61 -50 -164 -50h-117v-62h180v-102h-180v-81h-232v81h-82v102h82v62h-82v130h82v292zM336 490v-115h41q35 0 54 18q16 15 16 41q0 29 -18 42q-18 14 -49 14h-44z" />
    <glyph glyph-name="uni20B6" unicode="&#x20be;" horiz-adv-x="707" 
d="M104 667h316q126 0 195 -62q68 -62 68 -158t-66 -152q-61 -50 -164 -50h-117v-62h180v-102h-180v-81h-232v81h-82v102h82v62h-82v130h82v292zM336 490v-115h41q35 0 54 18q16 15 16 41q0 29 -18 42q-18 14 -49 14h-44z" />
    <glyph glyph-name="uni20B6" unicode="&#x20bd;" horiz-adv-x="707" 
d="M104 667h316q126 0 195 -62q68 -62 68 -158t-66 -152q-61 -50 -164 -50h-117v-62h180v-102h-180v-81h-232v81h-82v102h82v62h-82v130h82v292zM336 490v-115h41q35 0 54 18q16 15 16 41q0 29 -18 42q-18 14 -49 14h-44z" />
    <glyph glyph-name="uni20B6" unicode="&#x20bc;" horiz-adv-x="707" 
d="M104 667h316q126 0 195 -62q68 -62 68 -158t-66 -152q-61 -50 -164 -50h-117v-62h180v-102h-180v-81h-232v81h-82v102h82v62h-82v130h82v292zM336 490v-115h41q35 0 54 18q16 15 16 41q0 29 -18 42q-18 14 -49 14h-44z" />
    <glyph glyph-name="uni20B6" unicode="&#x20bb;" horiz-adv-x="707" 
d="M104 667h316q126 0 195 -62q68 -62 68 -158t-66 -152q-61 -50 -164 -50h-117v-62h180v-102h-180v-81h-232v81h-82v102h82v62h-82v130h82v292zM336 490v-115h41q35 0 54 18q16 15 16 41q0 29 -18 42q-18 14 -49 14h-44z" />
    <glyph glyph-name="uni20B6" unicode="&#x20ba;" horiz-adv-x="707" 
d="M104 667h316q126 0 195 -62q68 -62 68 -158t-66 -152q-61 -50 -164 -50h-117v-62h180v-102h-180v-81h-232v81h-82v102h82v62h-82v130h82v292zM336 490v-115h41q35 0 54 18q16 15 16 41q0 29 -18 42q-18 14 -49 14h-44z" />
    <glyph glyph-name="uni20B6" unicode="&#x20b9;" horiz-adv-x="707" 
d="M104 667h316q126 0 195 -62q68 -62 68 -158t-66 -152q-61 -50 -164 -50h-117v-62h180v-102h-180v-81h-232v81h-82v102h82v62h-82v130h82v292zM336 490v-115h41q35 0 54 18q16 15 16 41q0 29 -18 42q-18 14 -49 14h-44z" />
    <glyph glyph-name="uni20B6" unicode="&#x20b7;" horiz-adv-x="707" 
d="M104 667h316q126 0 195 -62q68 -62 68 -158t-66 -152q-61 -50 -164 -50h-117v-62h180v-102h-180v-81h-232v81h-82v102h82v62h-82v130h82v292zM336 490v-115h41q35 0 54 18q16 15 16 41q0 29 -18 42q-18 14 -49 14h-44z" />
    <glyph glyph-name="uni20B8" unicode="&#x20b8;" horiz-adv-x="707" 
d="M473 0h-238v319l-136 -6v187h508v-187l-134 6v-319zM607 546h-508v121h508v-121z" />
    <glyph glyph-name="afii61352" unicode="&#x2116;" horiz-adv-x="1159" 
d="M298 0h-231v667h231l155 -252q40 -65 63 -118h7q-21 88 -21 158v212h232v-667h-232l-166 263q-22 35 -46 87h-7q15 -77 15 -123v-227zM1117 165h-315v126h315v-126zM1143 510q0 -63 -45 -108q-50 -50 -138 -50q-89 0 -138 49q-46 46 -46 110q0 60 43 105q49 51 141 51
q89 0 140 -51q43 -43 43 -106zM959 558q-22 0 -33 -11q-14 -13 -14 -38q0 -24 14 -37q12 -11 33 -11t33 11q14 14 14 37q0 26 -14 38q-12 11 -33 11z" />
    <glyph glyph-name="uni2117" unicode="&#x2117;" horiz-adv-x="760" 
d="M363 159h-142v359h183q80 0 117 -37q33 -33 33 -92q0 -62 -35 -93q-31 -27 -98 -27h-58v-110zM363 418v-59h21q16 0 24 6q10 8 10 24q0 13 -9 22q-8 7 -23 7h-23zM380 609q-107 0 -186 -79q-81 -82 -81 -197t81 -197q79 -79 186 -79t186 79q81 82 81 197t-81 197
q-79 79 -186 79zM727 334q0 -143 -103 -247q-101 -102 -244 -102t-244 102q-103 104 -103 247q0 142 103 246q101 102 244 102t244 -102q103 -104 103 -246z" />
    <glyph glyph-name="trademark" unicode="&#x2122;" horiz-adv-x="828" 
d="M216 287h-144v251l-75 -4v133h293v-133l-74 4v-251zM445 287h-143l60 380h150l46 -170l45 170h149l61 -380h-142l-17 171l-52 -171h-91l-50 167z" />
    <glyph glyph-name="partialdiff" unicode="&#x2202;" horiz-adv-x="549" 
d="M81 567l17 110q85 -6 167.5 -35t140.5 -84q63 -59 89 -136t26 -147q0 -137 -76 -218q-65 -69 -175 -69q-105 0 -172 64q-70 69 -70 169q0 96 67 161q58 57 145 57q71 0 123 -40q-34 80 -106 120q-73 41 -176 48zM275 110q40 0 68 27q34 34 34 82q0 52 -35 82
q-27 24 -71 24q-42 0 -70 -25q-35 -32 -35 -81q0 -47 32 -79q30 -30 77 -30z" />
    <glyph glyph-name="product" unicode="&#x220f;" horiz-adv-x="749" 
d="M40 624v126h669v-126h-82v-748h82v-126h-301v126h73v748h-212v-748h71v-126h-300v126h83v748h-83z" />
    <glyph glyph-name="summation" unicode="&#x2211;" horiz-adv-x="667" 
d="M21 750h599v-247h-117l-13 121h-307l250 -357l-250 -391h316l8 124h122v-250h-608v130l243 387l-243 353v130z" />
    <glyph glyph-name="minus" unicode="&#x2212;" 
d="M33 280v120h434v-120h-434z" />
    <glyph glyph-name="uni2215" unicode="&#x2215;" horiz-adv-x="726" 
d="M-26 -193l519 922h173l-520 -922h-172z" />
    <glyph glyph-name="uni2219" unicode="&#x2219;" horiz-adv-x="303" 
d="M303 340q0 -50 -39 -86q-45 -42 -112 -42q-69 0 -113 42q-39 36 -39 86t39 86q44 42 113 42q67 0 112 -42q39 -36 39 -86z" />
    <glyph glyph-name="radical" unicode="&#x221a;" horiz-adv-x="667" 
d="M375 827h292v-117h-179l-165 -710h-172l-57 271h-94v116h202l18 -84q13 -64 13 -133v-13h11l1 19q5 75 16 141q11 63 26 130z" />
    <glyph glyph-name="infinity" unicode="&#x221e;" horiz-adv-x="667" 
d="M488 176q-51 0 -93 27q-28 18 -58 51q-27 -31 -60 -51q-44 -27 -96 -27q-78 0 -124 51q-40 44 -40 111q0 71 47 118q46 46 115 46q51 0 93 -27q31 -20 58 -52q28 33 60 52q44 27 96 27q78 0 124 -51q40 -44 40 -111q0 -71 -47 -118q-46 -46 -115 -46zM466 386
q-20 0 -40 -16q-16 -14 -29 -31q11 -16 28 -30q20 -16 41 -16q22 0 36 14t14 33t-13 32q-14 14 -37 14zM200 386q-23 0 -37 -14q-13 -13 -13 -32t14 -33t36 -14q21 0 41 16q17 14 28 30q-13 17 -29 31q-20 16 -40 16z" />
    <glyph glyph-name="integral" unicode="&#x222b;" 
d="M317 563v-570q0 -58 -1.5 -83.5t-12 -58.5t-33.5 -55q-47 -46 -132 -46q-42 0 -92 10l24 116q25 -10 55 -10q27 0 41 13q17 17 17 58v576q0 45 1.5 70.5t11.5 59t29 55.5q46 52 135 52q40 0 94 -10l-24 -116q-32 10 -57 10q-26 0 -39 -13q-17 -16 -17 -58z" />
    <glyph glyph-name="approxequal" unicode="&#x2248;" horiz-adv-x="501" 
d="M265 368l-39 13q-62 20 -75 20q-26 0 -45 -17q-16 -14 -28 -44l-71 47l8 17q32 69 55 90q34 32 85 32q38 0 86 -18l43 -16q39 -15 67 -15q23 0 38 11q18 13 31 40l74 -43q-22 -58 -58 -94q-40 -40 -95 -40q-23 0 -76 17zM265 164l-39 13q-62 20 -75 20q-26 0 -45 -17
q-16 -14 -28 -44l-71 47l8 17q32 69 55 90q34 32 85 32q38 0 86 -18l43 -16q39 -15 67 -15q23 0 38 11q18 13 31 40l74 -43q-22 -58 -58 -94q-40 -40 -95 -40q-23 0 -76 17z" />
    <glyph glyph-name="notequal" unicode="&#x2260;" 
d="M34 471h228l55 108h102l-54 -108h102v-116h-155l-34 -67h189v-117h-241l-49 -95h-102l47 95h-88v117h141l34 67h-175v116z" />
    <glyph glyph-name="lessequal" unicode="&#x2264;" 
d="M33 462l434 207v-121l-297 -141l296 -141l1 -121l-434 208v109zM33 117h434v-117h-434v117z" />
    <glyph glyph-name="greaterequal" unicode="&#x2265;" 
d="M467 353l-434 -208v121l297 141l-296 141l-1 121l434 -207v-109zM467 0h-434v117h434v-117z" />
    <glyph glyph-name="dotmath" unicode="&#x22c5;" horiz-adv-x="303" 
d="M303 340q0 -50 -39 -86q-45 -42 -112 -42q-69 0 -113 42q-39 36 -39 86t39 86q44 42 113 42q67 0 112 -42q39 -36 39 -86z" />
    <glyph glyph-name="lozenge" unicode="&#x25ca;" horiz-adv-x="667" 
d="M74 334l259 359l260 -359l-260 -360zM441 334l-108 148l-107 -148l107 -148z" />
    <glyph glyph-name="openbullet" unicode="&#x25e6;" 
d="M252 363q-66 0 -111 45t-45 108q0 62 45 106q46 45 108 45q64 0 110 -44q45 -43 45 -107q0 -63 -45 -108t-107 -45zM180 515q0 -28 20.5 -48t49.5 -20t49.5 20t20.5 48t-20.5 48t-49.5 20t-49.5 -20t-20.5 -48z" />
    <glyph glyph-name="uniF400" unicode="&#xf400;" horiz-adv-x="2" 
d="M-361 596l116 146l117 -73l-146 -128z" />
    <glyph glyph-name="uniF401" unicode="&#xf401;" horiz-adv-x="2" 
d="M-411 776l116 146l117 -73l-146 -128z" />
    <glyph glyph-name="uniF406" unicode="&#xf406;" 
d="M327 878h106q-5 -64 -48 -105q-49 -49 -135 -49t-135 49q-43 41 -48 105h106q4 -25 24 -41q20 -15 53 -15q32 0 53 15q20 16 24 41z" />
    <glyph glyph-name="uniF407" unicode="&#xf407;" 
d="M395 -125l-138 -143l-110 78l132 147z" />
    <glyph glyph-name="uniF408" unicode="&#xf408;" 
d="M368 716l-116 70l-119 -72l-72 88l196 114l185 -115z" />
    <glyph glyph-name="uniF409" unicode="&#xf409;" 
d="M367 -55l-91 -191h-137l55 191h173z" />
    <glyph glyph-name="uniF40A" unicode="&#xf40a;" 
d="M364 667l-91 -191h-137l55 191h173z" />
    <glyph glyph-name="uniF40B" unicode="&#xf40b;" 
d="M157 809q0 40 26.5 66.5t66.5 26.5t66.5 -26.5t26.5 -66.5t-26.5 -66.5t-66.5 -26.5t-66.5 26.5t-26.5 66.5z" />
    <glyph glyph-name="uniF40C" unicode="&#xf40c;" 
d="M387 822q0 -48 -38 -77q-36 -27 -99 -27t-99 27q-38 29 -38 77q0 47 38 76q36 27 99 27t99 -27q38 -29 38 -76zM250 857q-22 0 -35 -8q-15 -9 -15 -27q0 -19 15 -28q13 -8 35 -8t35 8q15 10 15 27q0 18 -15 28q-13 8 -35 8z" />
    <glyph glyph-name="uniF40D" unicode="&#xf40d;" 
d="M260 738l-43 17q-28 10 -35 10q-15 0 -24 -9q-12 -12 -22 -32l-82 52q27 43 66 69q33 22 72 22q26 0 54 -14l23 -12q28 -14 40 -14q14 0 22 8q11 8 19 22l7 11l89 -44q-15 -28 -41 -56q-40 -42 -92 -42q-24 0 -53 12z" />
    <glyph glyph-name="uniF40E" unicode="&#xf40e;" 
d="M346 0q-27 -22 -37 -34q-16 -17 -16 -41q0 -16 10 -25q9 -9 31 -9q34 0 60 25l-24 -95q-37 -23 -94 -23q-51 0 -78 25q-26 24 -26 63q0 38 33 73q21 21 51 41h90z" />
    <glyph glyph-name="uniF4C6" unicode="&#xf4c6;" horiz-adv-x="725" 
d="M425 667h233v-712q0 -96 -48 -141q-46 -44 -153 -44q-65 0 -110 11v146q13 -11 35 -11t32 12q11 13 11 46v259q-63 -12 -130 -12q-142 0 -199 59q-28 29 -37 64t-9 84v239h233v-180q0 -41 17 -57t54 -16q40 0 71 6v247z" />
    <glyph glyph-name="uniF4C7" unicode="&#xf4c7;" horiz-adv-x="616" 
d="M341 467h227v-532q0 -84 -45 -126q-42 -39 -142 -39q-61 0 -117 12v145q16 -7 32 -7q24 0 34 11q11 11 11 39v171q-49 -10 -101 -10q-119 0 -166 48q-40 40 -40 118v170h227v-125q0 -28 12 -40q11 -11 36 -11q17 0 32 6v170z" />
    <glyph glyph-name="uniF4CC" unicode="&#xf4cc;" horiz-adv-x="702" 
d="M5 667h255l78 -186q13 -28 18 -58h7q5 33 16 62l68 182h250l-307 -667h-252l98 201zM264 779l116 146l117 -73l-146 -128z" />
    <glyph glyph-name="uniF4CD" unicode="&#xf4cd;" horiz-adv-x="601" 
d="M191 47l-201 420h245l56 -192q9 -30 10 -61h6q2 33 10 64l54 189h240l-317 -696h-241zM214 596l116 146l117 -73l-146 -128z" />
    <glyph glyph-name="dollar.fitted" unicode="&#xf5f5;" horiz-adv-x="589" 
d="M21 81l68 175q40 -35 84 -57q55 -27 107 -27q39 0 59 12q17 11 17 29q0 14 -10 24q-11 11 -39 16l-61 10q-106 17 -155 67q-47 49 -47 126q0 87 59 144q50 50 128 64v109h132v-103q81 -4 170 -52l-67 -167q-36 29 -75 43q-38 13 -78 13q-34 0 -49 -13q-13 -11 -13 -28
q0 -13 9 -22q11 -10 93 -20q114 -14 165 -67q49 -50 49 -128q0 -90 -57 -150q-56 -60 -147 -71v-123h-132v121q-63 5 -116 26q-52 20 -94 49z" />
    <glyph glyph-name="Euro.fitted" unicode="&#xf5f6;" horiz-adv-x="721" 
d="M659 234l-7 -202q-77 -47 -196 -47q-138 0 -221 59q-88 64 -122 173h-93l36 90h40v43h-76l36 90h57q28 109 121 177q55 40 109 52.5t120 12.5q119 0 221 -50l-63 -159q-68 39 -137 39q-49 0 -85 -22q-30 -18 -43 -50h255l-36 -90h-240v-43h235l-36 -90h-182
q17 -32 52 -49q33 -15 85 -15q54 0 92 19q44 21 78 62z" />
    <glyph glyph-name="cent.fitted" unicode="&#xf5f7;" horiz-adv-x="429" 
d="M309 10h-104v102q-67 9 -116 54q-73 68 -73 180q0 95 63 163q51 54 126 69v92h104v-90q43 -3 82 -17l5 -186q-49 35 -86 35q-30 0 -49 -19q-17 -17 -17 -44q0 -34 21 -51q20 -17 46 -17q40 0 86 37l-3 -187q-42 -14 -85 -20v-101z" />
    <glyph glyph-name="sterling.fitted" unicode="&#xf5f8;" horiz-adv-x="619" 
d="M460 162h126q0 -83 -48 -133q-41 -43 -112 -43q-63 0 -113 20l-41 16q-39 16 -71 16q-29 0 -45 -15q-11 -10 -14 -23h-113q1 65 38 113q33 45 90 63q5 14 5 35q0 20 -3 32h-120v110h83q-35 57 -35 111q0 87 62 149q69 69 184 69q112 0 174 -64q26 -27 39 -63t15 -57.5
t2 -57.5v-12h-154v8q0 51 -15 72q-18 25 -52 25q-31 0 -49 -18q-20 -18 -20 -51q0 -23 17 -59q16 -34 19 -52h127v-110h-118q1 -7 1 -20q0 -31 -12 -61l14 -6q71 -31 98 -31q19 0 29 10t12 27z" />
    <glyph glyph-name="yen.fitted" unicode="&#xf5f9;" horiz-adv-x="725" 
d="M149 454l-122 213h273l65 -182l61 182h272l-120 -213h91v-118h-157l-28 -49v-36h185v-118h-185v-133h-239v133h-189v118h189v36l-28 49h-161v118h93z" />
    <glyph glyph-name="florin.fitted" unicode="&#xf5fa;" horiz-adv-x="558" 
d="M396 321l-48 -292q-20 -112 -68 -160q-62 -62 -202 -62q-38 0 -64 6l27 169h12q46 0 65 14q20 15 28 57l47 268h-60l22 124h60l22 132q10 66 55 111q52 52 140 52q62 0 112 -22l-28 -167q-19 12 -40 12q-22 0 -32 -12q-10 -9 -14 -32l-12 -74h69l-22 -124h-69z" />
    <glyph glyph-name="uni20B4.fitted" unicode="&#xf5fb;" horiz-adv-x="613" 
d="M120 513l-62 123q106 46 243 46q117 0 174 -33q65 -38 65 -110q0 -43 -24 -72h72v-102h-151l-76 -71h227v-102h-297q-13 -16 -13 -36q0 -22 18 -33q20 -12 60 -12q73 0 152 33l61 -121q-112 -44 -253 -44q-131 0 -189 33q-70 39 -70 110q0 39 24 70h-56v102h135l76 71
h-211v102h281q16 15 16 34q0 21 -16 32q-19 13 -54 13q-64 0 -132 -33z" />
    <glyph glyph-name="uni20B6.fitted" unicode="&#xf5fc;" horiz-adv-x="702" 
d="M107 667h316q126 0 195 -62q68 -62 68 -158t-66 -152q-61 -50 -164 -50h-117v-62h180v-102h-180v-81h-232v81h-82v102h82v62h-82v130h82v292zM339 490v-115h41q35 0 54 18q16 15 16 41q0 29 -18 42q-18 14 -49 14h-44z" />
    <glyph glyph-name="uni20B8.fitted" unicode="&#xf5fd;" horiz-adv-x="552" 
d="M396 0h-238v319l-136 -6v187h508v-187l-134 6v-319zM530 546h-508v121h508v-121z" />
    <glyph glyph-name="uniF639" unicode="&#xf639;" horiz-adv-x="700" 
d="M667 334q0 -67 -22 -139.5t-76 -125.5q-86 -84 -219 -84t-219 84q-54 53 -76 125.5t-22 139.5q0 66 22 138.5t76 125.5q86 84 219 84t219 -84q54 -53 76 -125.5t22 -138.5zM350 484q-25 0 -43 -17q-43 -39 -43 -130q0 -90 43 -129q18 -17 43 -17q22 0 42 17q43 38 43 129
t-43 130q-20 17 -42 17z" />
    <glyph glyph-name="uniF63A" unicode="&#xf63a;" horiz-adv-x="725" 
d="M686 205v-205h-661l274 243q56 49 94 94q45 54 45 95q0 22 -16 37q-15 15 -40 15q-28 0 -43 -20q-16 -20 -16 -64h-236q-1 57 17 108.5t48 85.5q39 43 102 65.5t135 22.5q145 0 227 -84q62 -64 62 -152q0 -99 -70 -165q-58 -55 -165 -93v-7q80 16 141 19z" />
    <glyph glyph-name="uniF63B" unicode="&#xf63b;" horiz-adv-x="679" 
d="M535 353q40 -12 69 -41q41 -41 41 -108q0 -85 -58 -141q-78 -78 -243 -78q-172 0 -251 81q-64 64 -65 164h244q0 -38 23 -59q17 -17 46 -17t47 18t18 45q0 26 -16 45q-28 30 -78 17v138q33 -8 54 10q16 13 16 41q0 20 -14 33q-11 11 -32 11q-18 0 -30 -12
q-15 -15 -13 -39h-238q3 114 96 175q70 46 189 46q146 0 222 -72q55 -52 55 -123q0 -58 -32 -94q-23 -24 -50 -35v-5z" />
    <glyph glyph-name="uniF63C" unicode="&#xf63c;" horiz-adv-x="693" 
d="M571 133l6 -133h-229l8 133l-338 -7v175l273 366h286v-359l84 6v-188zM296 308h61v96q0 26 10 58l-6 4q-10 -21 -30 -47l-63 -81q-16 -22 -29 -32l2 -5q27 7 55 7z" />
    <glyph glyph-name="uniF63D" unicode="&#xf63d;" horiz-adv-x="654" 
d="M67 273l58 394h453v-186h-285q-4 -42 -21 -77h6q33 35 104 35q46 0 95 -15.5t83 -47.5q60 -57 60 -147t-70 -157q-91 -87 -248 -87q-72 0 -159 20q-52 12 -109 34l27 181q109 -56 197 -56q48 0 79 13q41 18 41 53q0 37 -42 56q-37 16 -95 16q-89 0 -174 -29z" />
    <glyph glyph-name="uniF63E" unicode="&#xf63e;" horiz-adv-x="691" 
d="M290 667h317l-213 -187l1 -6q29 10 58 10q87 0 143 -57q64 -66 64 -172q0 -104 -70 -177q-89 -93 -240 -93q-154 0 -245 93q-77 79 -77 200q0 120 105 228zM261 256q0 -32 21 -54q24 -26 61 -26q33 0 58 22t25 60q0 40 -29 66q-25 22 -55 22q-31 0 -53 -20
q-28 -23 -28 -70z" />
    <glyph glyph-name="uniF63F" unicode="&#xf63f;" horiz-adv-x="701" 
d="M690 667l-379 -667h-268l256 430q11 19 24 31l-1 6q-23 -5 -76 -7l-203 -7v214h647z" />
    <glyph glyph-name="uniF640" unicode="&#xf640;" horiz-adv-x="676" 
d="M518 348l1 -7q51 -9 83 -42q40 -42 40 -109q0 -69 -49 -121q-77 -84 -250 -84q-179 0 -260 85q-49 52 -49 117q0 70 46 114q29 29 75 40v7q-43 14 -67 40q-33 36 -33 97q0 85 78 141q79 56 206 56q152 0 230 -76q53 -53 53 -125q0 -55 -32 -91q-29 -32 -72 -42zM339 514
q-21 0 -37 -16q-14 -14 -14 -34q0 -25 14 -39q15 -16 37 -16q21 0 37 16q14 15 14 39q0 20 -14 34q-16 16 -37 16zM274 211q0 -28 18 -46q19 -19 48 -19t48 19q18 18 18 46q0 33 -18 51q-19 19 -48 19t-48 -19q-18 -18 -18 -51z" />
    <glyph glyph-name="uniF641" unicode="&#xf641;" horiz-adv-x="695" 
d="M405 0h-322l175 155q13 11 33 23v4q-20 -2 -37 -2q-99 0 -161 65q-62 66 -62 172q0 105 70 177q85 88 242 88q161 0 253 -93q70 -71 70 -185q0 -131 -99 -234zM271 406q0 -38 23 -61q24 -24 58 -24q33 0 56 23t23 62q0 36 -24 58t-56 22q-34 0 -56 -23q-24 -26 -24 -57z
" />
    <glyph glyph-name="uniF6BA" unicode="&#xf6ba;" horiz-adv-x="415" 
d="M365 251h-315v180h315v-180z" />
    <glyph glyph-name="uniF6BB" unicode="&#xf6bb;" horiz-adv-x="574" 
d="M70 266v150h434v-150h-434z" />
    <glyph glyph-name="uniF6BC" unicode="&#xf6bc;" horiz-adv-x="933" 
d="M863 266h-793v150h793v-150z" />
    <glyph glyph-name="uniF6C3" unicode="&#xf6c3;" 
d="M367 -50l-91 -191h-137l55 191h173z" />
    <glyph glyph-name="uniF6C9" unicode="&#xf6c9;" 
d="M134 779l116 146l117 -73l-146 -128z" />
    <glyph glyph-name="uniF6CA" unicode="&#xf6ca;" 
d="M252 844l120 70l70 -85l-194 -115l-187 114l72 88z" />
    <glyph glyph-name="uniF6CB" unicode="&#xf6cb;" 
d="M46 811q0 38 26 64t64 26t64.5 -26t26.5 -64t-26.5 -64.5t-64.5 -26.5t-64 26.5t-26 64.5zM273 811q0 38 26 64t64 26t64.5 -26t26.5 -64t-26.5 -64.5t-64.5 -26.5t-64 26.5t-26 64.5z" />
    <glyph glyph-name="uniF6CE" unicode="&#xf6ce;" 
d="M134 852l117 73l115 -146l-86 -55z" />
    <glyph glyph-name="uniF6CF" unicode="&#xf6cf;" 
d="M24 779l100 146l112 -73l-133 -128zM228 779l100 146l111 -73l-132 -128z" />
    <glyph glyph-name="uniF6D0" unicode="&#xf6d0;" 
d="M432 746h-364v104h364v-104z" />
    <glyph glyph-name="uniF6D1" unicode="&#xf6d1;" 
d="M330 896l132 -53q-28 -59 -86 -88q-50 -25 -126 -25q-78 0 -127 25q-56 28 -85 88l132 53q7 -26 25 -41q20 -15 56 -15t54 15t25 41z" />
    <glyph glyph-name="uniF6D4" unicode="&#xf6d4;" 
d="M317 681l133 -46q-23 -63 -77 -90q-44 -23 -123 -23t-123 23q-54 27 -77 90l133 46q5 -30 22 -44q15 -13 45 -13t45 13q17 14 22 44z" />
    <glyph glyph-name="uniF6DC" unicode="&#xf6dc;" horiz-adv-x="415" 
d="M368 0h-240v452l-103 -8v223h343v-667z" />
    <glyph glyph-name="uniF6DE" unicode="&#xf6de;" horiz-adv-x="699" 
d="M647 190h-595v150h595v-150z" />
    <glyph glyph-name="nbspace" horiz-adv-x="233" 
 />
    <glyph glyph-name="hyphenminus" horiz-adv-x="415" 
d="M365 175h-315v180h315v-180z" />
    <glyph glyph-name="dotlessi1" horiz-adv-x="323" 
d="M275 0h-227v467h227v-467z" />
    </font>
</defs>
</svg>
