<?xml version="1.0" standalone="no"?>
<!DOCTYPE svg PUBLIC "-//W3C//DTD SVG 1.1//EN" "http://www.w3.org/Graphics/SVG/1.1/DTD/svg11.dtd" >
<svg xmlns="http://www.w3.org/2000/svg" xmlns:xlink="http://www.w3.org/1999/xlink" version="1.1">
<metadata>
Created by FontForge 20170731 at Fri Mar 29 22:16:09 2013
 By Aleksey,,,
Copyright (c) 1995 ParaGraph Intl., (c) 1998 ParaType Inc., ParaType Ltd. All rights reserved.
</metadata>
<defs>
<font id="FuturaPT-DemiObl" horiz-adv-x="500" >
  <font-face 
    font-family="Futura PT Demi Italic"
    font-weight="400"
    font-style="italic"
    font-stretch="normal"
    units-per-em="1000"
    panose-1="2 11 7 2 2 2 4 9 3 3"
    ascent="763"
    descent="-237"
    x-height="433"
    cap-height="667"
    bbox="-316 -270 1162 980"
    underline-thickness="50"
    underline-position="-200"
    slope="-7"
    unicode-range="U+0020-FB02"
  />
<missing-glyph horiz-adv-x="233" 
 />
    <glyph glyph-name="afii10017.var.accented" unicode="&#x410;`" horiz-adv-x="672" 
d="M533 0l-42 140h-269l-76 -140h-144l373 667h98l197 -667h-137zM276 246h190l-64 240zM401 728l-49 50l157 142l81 -70z" />
    <glyph glyph-name="afii10022.var.accented" unicode="&#x415;`" horiz-adv-x="496" 
d="M528 667l-14 -112h-240l-18 -149h230l-14 -112h-230l-22 -182h240l-14 -112h-240h-130l82 667h370zM313 728l-49 50l157 142l81 -70z" />
    <glyph glyph-name="afii10026.var.accented" unicode="&#x418;`" horiz-adv-x="736" 
d="M156 667h130l-54 -440l424 440h88l-82 -667h-130l54 443l-422 -443h-90zM435 728l-49 50l157 142l81 -70z" />
    <glyph glyph-name="afii10032.var.accented" unicode="&#x41e;`" horiz-adv-x="806" 
d="M484 682q142 0 231 -86q88 -84 88 -222q0 -80 -28.5 -154t-78.5 -126q-105 -109 -278 -109q-154 0 -245 93q-88 90 -88 221q0 81 31 154.5t84 123.5t127.5 77.5t156.5 27.5zM425 103q96 0 164 66q36 36 57.5 87.5t21.5 107.5q0 86 -53 141q-56 58 -152 58q-98 0 -166 -64
q-77 -72 -77 -190q0 -90 53 -145q58 -61 152 -61zM468 728l-49 50l157 142l81 -70z" />
    <glyph glyph-name="afii10037.var.accented" unicode="&#x423;`" horiz-adv-x="606" 
d="M84 667h140l132 -327l180 327h150l-391 -667h-142l122 200zM368 728l-49 50l157 142l81 -70z" />
    <glyph glyph-name="afii10045.var.accented" unicode="&#x42b;`" horiz-adv-x="800" 
d="M676 667h130l-82 -667h-130zM76 0l82 667h130l-32 -261h90q107 0 166 -55q50 -48 50 -128q0 -100 -62 -160q-64 -63 -197 -63h-98h-129zM242 294l-22 -182h76q62 0 92 19q40 26 40 75q0 46 -34 69q-29 19 -86 19h-66zM465 728l-49 50l157 142l81 -70z" />
    <glyph glyph-name="afii10047.var.accented" unicode="&#x42d;`" horiz-adv-x="614" 
d="M47 24l19 152q64 -73 169 -73q99 0 156 46q58 45 76 130h-299l14 112h297q-1 77 -52 126q-49 47 -133 47q-107 0 -190 -75l19 152q92 41 183 41q154 0 234 -88q71 -78 71 -216q0 -184 -114 -300q-93 -93 -266 -93q-106 0 -184 39zM326 728l-49 50l157 142l81 -70z" />
    <glyph glyph-name="afii10048.var.accented" unicode="&#x42e;`" horiz-adv-x="1019" 
d="M256 409h86q31 125 127 199q95 74 232 74q146 0 234 -90q81 -84 81 -214q0 -83 -27 -159t-80 -131q-99 -103 -259 -103q-155 0 -242 93q-83 89 -79 219h-87l-36 -297h-130l82 667h130zM648 103q93 0 157 61q76 73 76 200q0 94 -57 150q-52 49 -130 49q-99 0 -163 -64
q-76 -76 -76 -190q0 -98 61 -155q53 -51 132 -51zM574 728l-49 50l157 142l81 -70z" />
    <glyph glyph-name="afii10049.var.accented" unicode="&#x42f;`" horiz-adv-x="568" 
d="M574 667l-82 -667h-130l32 258h-16l-202 -258h-164l231 270q-54 14 -89 53q-38 44 -38 112q0 105 69 169q67 63 196 63h193zM431 561h-40q-76 0 -107 -30q-32 -30 -32 -81q0 -43 31 -67q29 -23 93 -23h30zM349 728l-49 50l157 142l81 -70z" />
    <glyph glyph-name="afii10023.var.accented" unicode="&#x401;`" horiz-adv-x="496" 
d="M528 667l-14 -112h-240l-18 -149h230l-14 -112h-230l-22 -182h240l-14 -112h-370l82 667h370zM299 741l-35 37l134 142l61 -54zM143 815q0 28 20 48t50 20q23 0 37 -14q15 -15 15 -38q0 -29 -21 -50q-20 -19 -46 -19q-24 0 -40 16q-15 15 -15 37zM454 814q0 29 20 49
t48 20q24 0 38 -14q16 -15 16 -39q0 -29 -21 -49q-21 -19 -46 -19q-24 0 -40 16q-15 15 -15 36z" />
    <glyph glyph-name="afii10065.var.accented" unicode="&#x430;`" horiz-adv-x="572" 
d="M438 377l7 56h122l-53 -433h-122l7 56q-21 -28 -55 -49q-36 -21 -81 -21q-87 0 -142 55q-58 58 -58 153q0 115 67 185q66 68 171 68q47 0 86 -21q32 -17 51 -49zM318 339q-50 0 -85 -31q-43 -40 -43 -100q0 -55 33 -86q30 -28 80 -28q51 0 86 31q43 39 43 104
q0 45 -30 77q-31 33 -84 33zM440 700l81 -56l-166 -134l-51 40z" />
    <glyph glyph-name="afii10070.var.accented" unicode="&#x435;`" horiz-adv-x="526" 
d="M393 141l105 -25q-33 -67 -92 -101q-52 -29 -130 -29q-105 0 -161 60q-52 54 -52 140q0 57 19.5 109.5t55.5 87.5q64 64 173 64q95 0 148 -50q56 -54 56 -157q0 -31 -2 -44h-324q-7 -55 25 -87q26 -27 71 -27q41 0 66 14q25 16 42 45zM203 274h205q-2 39 -27 63
q-26 24 -68 24t-74 -28q-26 -24 -36 -59zM417 700l81 -56l-166 -134l-51 40z" />
    <glyph glyph-name="afii10074.var.accented" unicode="&#x438;`" horiz-adv-x="560" 
d="M111 433h122l-33 -267l233 267h122l-53 -433h-122l33 267l-233 -267h-122zM434 700l81 -56l-166 -134l-51 40z" />
    <glyph glyph-name="afii10080.var.accented" unicode="&#x43e;`" horiz-adv-x="572" 
d="M336 447q109 0 171 -62q56 -58 56 -144q0 -108 -77 -182q-77 -73 -199 -73q-107 0 -167 60q-57 55 -57 147q0 52 20.5 100t54.5 81q75 73 198 73zM299 94q57 0 95 38q41 41 41 97q0 50 -32 80t-79 30q-54 0 -92 -35q-43 -40 -43 -103q0 -46 30 -76q31 -31 80 -31z
M440 700l81 -56l-166 -134l-51 40z" />
    <glyph glyph-name="afii10085.var.accented" unicode="&#x443;`" horiz-adv-x="538" 
d="M21 -229l195 294l-161 368h138l104 -246l150 246h142l-430 -662h-138zM423 700l81 -56l-166 -134l-51 40z" />
    <glyph glyph-name="afii10093.var.accented" unicode="&#x44b;`" horiz-adv-x="650" 
d="M523 433h122l-53 -433h-122zM112 433h121l-19 -154h78q78 0 117 -37q33 -32 33 -87q0 -71 -41 -110q-46 -45 -161 -45h-64h-118zM192 96h56q34 0 49 11q18 13 18 37q0 22 -16 31q-13 8 -40 8h-57zM479 700l81 -56l-166 -134l-51 40z" />
    <glyph glyph-name="afii10095.var.accented" unicode="&#x44d;`" horiz-adv-x="436" 
d="M35 11l15 116q44 -42 118 -42q50 0 81 22q32 21 41 68h-179l11 88h179q-6 42 -35 64q-30 24 -77 24q-64 0 -114 -37l13 106q69 27 127 27q45 0 89.5 -16t72.5 -46q50 -52 50 -143q0 -124 -74 -196q-63 -61 -176 -61q-80 0 -142 26zM328 700l81 -56l-166 -134l-51 40z" />
    <glyph glyph-name="afii10096.var.accented" unicode="&#x44e;`" horiz-adv-x="753" 
d="M213 270h56q22 76 79 122q69 55 171 55q106 0 169 -63q56 -56 56 -144q0 -109 -77 -183q-72 -71 -199 -71q-100 0 -156 57q-48 48 -55 123h-57l-20 -166h-122l53 433h122zM482 94q56 0 93 37q41 41 41 100q0 48 -32 78t-79 30q-49 0 -85 -35q-42 -40 -42 -100
q0 -48 29 -79q31 -31 75 -31zM530 700l81 -56l-166 -134l-51 40z" />
    <glyph glyph-name="afii10097.var.accented" unicode="&#x44f;`" horiz-adv-x="460" 
d="M20 0l148 162q-38 10 -61 34q-28 29 -28 79q0 67 41 108q22 23 56 34.5t57.5 13.5t60.5 2h161l-53 -433h-122l19 152h-8l-125 -152h-146zM309 240l12 97h-53q-30 0 -46 -13q-18 -14 -18 -40q0 -21 15 -32q16 -12 45 -12h45zM384 700l81 -56l-166 -134l-51 40z" />
    <glyph glyph-name="afii10071.var.accented" unicode="&#x451;`" horiz-adv-x="526" 
d="M393 141l105 -25q-33 -67 -92 -101q-52 -29 -130 -29q-105 0 -161 60q-52 54 -52 140q0 57 19.5 109.5t55.5 87.5q64 64 173 64q95 0 148 -50q56 -54 56 -157q0 -31 -2 -44h-324q-7 -55 25 -87q26 -27 71 -27q41 0 66 14q25 16 42 45zM203 274h205q-2 39 -27 63
q-26 24 -68 24t-74 -28q-26 -24 -36 -59zM342 700l67 -51l-153 -134l-40 35zM96 590q0 28 20 48t50 20q23 0 39 -17q13 -14 13 -37q0 -29 -18 -47q-21 -21 -50 -21q-24 0 -38 14q-16 16 -16 40zM402 590q0 28 20 48t49 20q24 0 40 -17q13 -14 13 -37q0 -28 -19 -47
q-20 -21 -50 -21q-24 0 -38 14q-15 13 -15 40z" />
    <glyph glyph-name="fi" unicode="fi" horiz-adv-x="523" 
d="M334 329h-112l-40 -329h-122l40 329h-46l13 104h46l14 108q13 97 56 142q54 58 159 58q100 0 152 -50q55 -51 42 -153l-3 -26h-122l3 19q10 60 -19 83q-20 17 -55 17q-37 0 -61 -22q-22 -21 -30 -74l-14 -102h112zM401 433h122l-53 -433h-122z" />
    <glyph glyph-name="fl" unicode="fl" horiz-adv-x="524" 
d="M334 329h-112l-40 -329h-122l40 329h-46l13 104h46l14 108q12 95 54 140q55 60 161 60q96 0 148 -48q49 -45 49 -125q0 -22 -11 -105l-58 -463h-122l60 489q7 63 7 68q0 40 -24 58q-20 16 -55 16q-36 0 -58 -21q-12 -11 -19 -29t-8.5 -27.5t-4.5 -33.5l-11 -87h112z" />
    <glyph glyph-name=".notdef" horiz-adv-x="233" 
 />
    <glyph glyph-name=".null" horiz-adv-x="0" 
 />
    <glyph glyph-name="nonmarkingreturn" horiz-adv-x="333" 
 />
    <glyph glyph-name="space" unicode=" " horiz-adv-x="233" 
 />
    <glyph glyph-name="exclam" unicode="!" horiz-adv-x="253" 
d="M214 203h-124l57 464h124zM56 54q0 37 26 63t63 26q30 0 50 -20q19 -19 19 -50q0 -39 -25 -62q-24 -24 -62 -24q-32 0 -52 20q-19 19 -19 47z" />
    <glyph glyph-name="quotedbl" unicode="&#x22;" horiz-adv-x="388" 
d="M254 667l-56 -268h-84l10 268h130zM428 667l-56 -268h-84l10 268h130z" />
    <glyph glyph-name="numbersign" unicode="#" horiz-adv-x="586" 
d="M403 0h-122l53 186h-94l-53 -186h-122l53 186h-102l30 104h102l28 101h-102l30 104h102l49 172h122l-49 -172h94l49 172h122l-49 -172h102l-30 -104h-102l-28 -101h102l-30 -104h-102zM364 290l28 101h-94l-28 -101h94z" />
    <glyph glyph-name="dollar" unicode="$" horiz-adv-x="568" 
d="M338 765h82l-12 -100q43 -5 81 -26q36 -20 63 -49l-76 -84q-21 23 -43 36q-29 18 -60 18q-39 0 -65 -20q-26 -23 -26 -55q0 -30 25 -47q17 -13 59 -31l36 -16q62 -29 89 -58q39 -42 39 -112q0 -102 -66 -163q-58 -54 -138 -56l-15 -112h-82l15 110q-57 8 -105 39
q-49 33 -76 80l84 77q26 -41 55 -61q38 -27 83 -27q51 0 79 23q33 25 33 71q0 32 -25 54q-14 12 -64 36l-34 16q-54 26 -80 53q-39 40 -39 102q0 91 56 147q45 45 115 55z" />
    <glyph glyph-name="percent" unicode="%" horiz-adv-x="777" 
d="M269 675q74 0 119 -43q44 -40 44 -109q0 -66 -43 -114q-47 -50 -133 -50q-79 0 -122 43q-41 41 -41 104q0 70 47 119q48 50 129 50zM256 431q41 0 66 25q26 26 26 69q0 36 -21 57t-59 21q-39 0 -63 -24q-27 -27 -27 -69q0 -36 22 -58q21 -21 56 -21zM164 3l482 686
l49 -30l-481 -687zM602 306q76 0 119 -43q44 -44 44 -109q0 -68 -43 -114q-47 -50 -133 -50q-79 0 -122 43q-41 41 -41 104q0 70 47 119q48 50 129 50zM589 62q41 0 66 25q26 26 26 69q0 36 -21 57t-59 21q-39 0 -63 -24q-27 -27 -27 -69q0 -36 22 -58q21 -21 56 -21z" />
    <glyph glyph-name="ampersand" unicode="&#x26;" horiz-adv-x="712" 
d="M610 313l67 -75q-48 -54 -89 -85l116 -153h-161l-56 75q-43 -41 -90 -63q-59 -27 -133 -27q-92 0 -142 51q-48 48 -48 124q0 88 59 145q33 31 109 64l17 7q-51 58 -51 125q0 80 53 131q51 50 138 50q83 0 132 -47q43 -42 43 -108q0 -63 -35 -103q-24 -27 -69 -51l-36 -19
l91 -122q34 27 85 81zM424 157l-105 141q-48 -17 -80 -49q-33 -33 -33 -75q0 -31 21 -52q23 -23 67 -23q34 0 72 18q30 13 58 40zM353 463l24 -36l33 21q22 14 39 35q17 23 17 50q0 24 -15 39q-16 16 -45 16q-35 0 -56 -21q-18 -18 -18 -46q0 -27 21 -58z" />
    <glyph glyph-name="quotesingle" unicode="'" horiz-adv-x="214" 
d="M254 667l-56 -268h-84l10 268h130z" />
    <glyph glyph-name="parenleft" unicode="(" horiz-adv-x="339" 
d="M258 -127l-103 -53q-29 69 -44 142q-17 85 -17 169q0 213 92 428q45 101 94 181l91 -53q-56 -103 -90 -195q-66 -180 -66 -352q0 -91 12 -151q10 -57 31 -116z" />
    <glyph glyph-name="parenright" unicode=")" horiz-adv-x="339" 
d="M150 687l103 53q31 -76 43 -137q19 -91 19 -186q0 -191 -68 -374q-44 -117 -111 -223l-90 53q55 101 91 212q58 180 58 337q0 81 -13 149q-10 57 -32 116z" />
    <glyph glyph-name="asterisk" unicode="*" horiz-adv-x="573" 
d="M228 657l100 -45l7 117h88l-23 -116l112 44l18 -82l-116 -28l63 -88l-76 -53l-50 97l-74 -97l-63 53l85 87l-110 27z" />
    <glyph glyph-name="plus" unicode="+" 
d="M74 283v112h156v156h122v-156h156v-112h-156v-156h-122v156h-156z" />
    <glyph glyph-name="comma" unicode="," horiz-adv-x="328" 
d="M-12 -131l139 269l110 -13l-173 -265z" />
    <glyph glyph-name="hyphen" unicode="-" horiz-adv-x="360" 
d="M71 174l14 112h260l-14 -112h-260z" />
    <glyph glyph-name="period" unicode="." horiz-adv-x="254" 
d="M56 54q0 37 26 63t63 26q30 0 50 -20q19 -19 19 -50q0 -39 -25 -62q-24 -24 -62 -24q-32 0 -52 20q-19 19 -19 47z" />
    <glyph glyph-name="slash" unicode="/" horiz-adv-x="653" 
d="M-30 -170l636 929l87 -40l-635 -929z" />
    <glyph glyph-name="zero" unicode="0" horiz-adv-x="568" 
d="M287 -15q-96 0 -152 56q-78 77 -78 228q0 100 34 192t93 148q77 73 176 73q89 0 148 -59q75 -74 75 -218q0 -99 -29.5 -193t-91.5 -157q-40 -40 -79.5 -55t-95.5 -15zM355 570q-48 0 -84 -36q-39 -39 -60.5 -116t-21.5 -149q0 -105 43 -147q25 -25 63 -25q43 0 77 34
q34 36 56.5 113t22.5 149q0 117 -41 157q-20 20 -55 20z" />
    <glyph glyph-name="one" unicode="1" horiz-adv-x="568" 
d="M228 0l68 555h-96l14 112h226l-82 -667h-130z" />
    <glyph glyph-name="two" unicode="2" horiz-adv-x="568" 
d="M18 0l221 223q93 93 131 139q54 63 54 119q0 43 -28 67q-25 22 -67 22q-45 0 -73 -28q-31 -31 -36 -83h-134q8 87 63 148q67 75 189 75q107 0 166 -60q51 -52 51 -129q0 -74 -44 -138q-33 -47 -108 -118l-130 -125h241l-14 -112h-482z" />
    <glyph glyph-name="three" unicode="3" horiz-adv-x="568" 
d="M234 493h-122q13 79 61 128q58 61 159 61q105 0 159 -56q47 -47 47 -121q0 -54 -30 -96q-26 -36 -66 -53q35 -14 59 -48q25 -36 25 -86q0 -101 -60 -166q-64 -71 -189 -71q-108 0 -166 56q-60 59 -65 151h130q3 -45 33 -72q26 -23 71 -23q54 0 85 32q31 33 31 87
q0 47 -32 71q-26 20 -73 20h-11l11 94h18q49 0 75 25q28 28 28 73q0 37 -25 60q-22 21 -60 21q-43 0 -66 -25q-22 -22 -27 -62z" />
    <glyph glyph-name="four" unicode="4" horiz-adv-x="568" 
d="M551 667l-54 -437h78l-13 -104h-78l-15 -126h-122l15 126h-326l8 58l390 483h117zM203 230h172l31 258z" />
    <glyph glyph-name="five" unicode="5" horiz-adv-x="568" 
d="M554 667l-14 -112h-222l-37 -105q26 4 47 4q95 0 150 -57q54 -56 54 -150q0 -110 -64 -181q-73 -81 -207 -81q-75 0 -137 27q-49 22 -89 58l56 112q30 -37 67 -59q44 -26 95 -26q70 0 109 39t39 98q0 62 -38 95q-36 31 -101 31q-70 0 -138 -43l122 350h308z" />
    <glyph glyph-name="six" unicode="6" horiz-adv-x="568" 
d="M388 685l101 -57l-176 -196q8 1 28 1q110 0 172 -64q53 -57 53 -135q0 -55 -22 -106.5t-58 -82.5q-68 -60 -191 -60q-117 0 -182 65q-59 59 -59 146q0 78 37 140q15 26 83 105zM302 89q60 0 98 41q33 36 33 91q0 52 -33 84q-31 30 -82 30q-61 0 -96 -37q-37 -39 -37 -99
q0 -48 32 -80q31 -30 85 -30z" />
    <glyph glyph-name="seven" unicode="7" horiz-adv-x="568" 
d="M56 29l371 526h-310l14 112h514l-486 -687z" />
    <glyph glyph-name="eight" unicode="8" horiz-adv-x="568" 
d="M438 348q42 -13 69 -48q30 -40 30 -94q0 -97 -59 -156q-64 -65 -184 -65q-115 0 -175 61q-48 50 -48 121q0 84 53 135q36 35 88 46q-36 21 -57 52q-23 33 -23 81q0 88 56 142q61 59 167 59q89 0 142 -45q57 -47 57 -127q0 -61 -33 -104q-31 -41 -83 -58zM334 402
q45 0 72 24q30 28 30 79q0 41 -28 64q-23 19 -60 19q-42 0 -69 -27q-30 -30 -30 -77q0 -37 24 -60q23 -22 61 -22zM296 87q51 0 79 28q33 33 33 87q0 46 -32 71q-29 22 -66 22q-48 0 -78 -33q-30 -32 -30 -82q0 -42 25 -67q25 -26 69 -26z" />
    <glyph glyph-name="nine" unicode="9" horiz-adv-x="568" 
d="M254 -18l-100 56l170 193q-16 -3 -33 -3q-87 0 -149 60q-59 57 -59 145q0 105 72 176q73 73 196 73q118 0 185 -67q57 -57 57 -144q0 -67 -38 -134q-26 -45 -95 -124zM342 578q-51 0 -87 -36q-40 -40 -40 -101q0 -47 31 -78q33 -31 87 -31t93 37q37 37 37 96q0 50 -31 80
q-36 33 -90 33z" />
    <glyph glyph-name="colon" unicode=":" horiz-adv-x="253" 
d="M56 53q0 37 26 63t63 26q30 0 50 -20q19 -19 19 -50q0 -39 -25 -62q-24 -24 -62 -24q-32 0 -52 20q-19 19 -19 47zM92 358q0 37 26 63t63 26q30 0 50 -20q19 -19 19 -50q0 -39 -25 -62q-24 -24 -62 -24q-32 0 -52 20q-19 19 -19 47z" />
    <glyph glyph-name="semicolon" unicode=";" horiz-adv-x="328" 
d="M-12 -131l139 269l110 -13l-173 -265zM127 358q0 37 26 63t63 26q30 0 50 -20q19 -19 19 -50q0 -39 -25 -62q-24 -24 -62 -24q-32 0 -52 20q-19 19 -19 47z" />
    <glyph glyph-name="less" unicode="&#x3c;" 
d="M216 334l306 -150v-120l-434 218v104l434 218v-120z" />
    <glyph glyph-name="equal" unicode="=" 
d="M75 372v106h434v-106h-434zM75 200v106h434v-106h-434z" />
    <glyph glyph-name="greater" unicode="&#x3e;" 
d="M367 334l-306 150v120l434 -218v-104l-434 -218v120z" />
    <glyph glyph-name="question" unicode="?" horiz-adv-x="491" 
d="M308 203h-124l24 196q19 -4 40 -4q64 0 97 30q35 30 35 80q0 33 -22 53q-18 16 -49 16q-37 0 -56 -23q-17 -20 -21 -60h-130q11 82 58 133q54 58 155 58q94 0 146 -50q49 -48 49 -123q0 -87 -52 -141q-54 -56 -137 -60zM150 52q0 37 26 63t63 26q30 0 50 -20
q19 -19 19 -50q0 -39 -25 -62q-24 -24 -62 -24q-32 0 -52 20q-19 19 -19 47z" />
    <glyph glyph-name="at" unicode="@" horiz-adv-x="739" 
d="M525 450l13 42h84l-65 -203q-9 -27 -9 -41q0 -13 6 -19q8 -8 23 -8q25 0 49 24q25 27 39 73t14 85q0 90 -68 148q-62 52 -149 52q-130 0 -216 -89q-40 -41 -66 -101t-26 -120q0 -101 64 -167q63 -63 187 -63q94 0 183 33l9 -76q-99 -32 -203 -32q-159 0 -245 88
q-76 78 -76 204q0 85 32 159.5t85 127.5q111 111 273 111q129 0 210 -77q80 -76 80 -195q0 -58 -18.5 -114.5t-55.5 -92.5q-48 -46 -117 -46q-37 0 -57 20q-15 15 -18 36q-22 -29 -50 -46q-32 -18 -71 -18q-57 0 -93 36q-38 36 -38 97q0 97 70 169q53 56 124 56q68 0 96 -53
zM388 230q38 0 66 29q15 17 26 44.5t11 51.5q0 28 -16 44t-43 16q-34 0 -62 -27q-41 -41 -41 -95q0 -33 19 -50q14 -13 40 -13z" />
    <glyph glyph-name="A" unicode="A" horiz-adv-x="672" 
d="M533 0l-42 140h-269l-76 -140h-144l373 667h98l197 -667h-137zM276 246h190l-64 240z" />
    <glyph glyph-name="B" unicode="B" horiz-adv-x="571" 
d="M158 667h165q112 0 162 -49q43 -42 43 -114q0 -57 -28 -97q-24 -36 -65 -51q48 -16 79 -49q36 -40 36 -99q0 -88 -54 -144q-61 -64 -200 -64h-220zM275 561l-21 -171h28q68 0 97 30q25 27 25 63q0 39 -29 61q-23 17 -68 17h-32zM242 290l-23 -184h56q88 0 117 28
q26 24 26 68q0 37 -22 59q-30 29 -106 29h-48z" />
    <glyph glyph-name="C" unicode="C" horiz-adv-x="607" 
d="M585 176l-19 -152q-75 -39 -165 -39q-143 0 -227 82q-89 85 -89 224q0 90 29.5 165t77.5 124q102 102 274 102q96 0 176 -41l-18 -150q-63 73 -170 73q-102 0 -167 -69q-67 -72 -67 -185q0 -90 56 -150q55 -58 144 -58q110 0 165 74z" />
    <glyph glyph-name="D" unicode="D" horiz-adv-x="673" 
d="M158 667h174q167 0 255 -85q83 -79 83 -218q0 -168 -98 -263q-102 -101 -316 -101h-52h-128zM274 555l-54 -443h44q146 0 211 72q61 67 61 177q0 90 -58 142t-164 52h-40z" />
    <glyph glyph-name="E" unicode="E" horiz-adv-x="496" 
d="M528 667l-14 -112h-240l-18 -149h230l-14 -112h-230l-22 -182h240l-14 -112h-240h-130l82 667h370z" />
    <glyph glyph-name="F" unicode="F" horiz-adv-x="466" 
d="M512 667l-14 -112h-224l-18 -149h210l-14 -112h-210l-36 -294h-130l82 667h354z" />
    <glyph glyph-name="G" unicode="G" horiz-adv-x="766" 
d="M446 245l14 112h306q-17 -184 -113 -280q-92 -92 -243 -92q-144 0 -234 87q-91 87 -91 229q0 85 31 157t82 121q107 103 272 103q102 0 177 -47q61 -38 100 -104l-117 -67q-25 46 -67 71q-46 29 -108 29q-98 0 -163 -65q-34 -34 -53.5 -85.5t-19.5 -105.5q0 -92 58 -150
q55 -55 143 -55q84 0 136 45q42 36 62 97h-172z" />
    <glyph glyph-name="H" unicode="H" horiz-adv-x="694" 
d="M288 667l-32 -258h282l32 258h130l-82 -667h-130l36 297h-282l-36 -297h-130l82 667h130z" />
    <glyph glyph-name="I" unicode="I" horiz-adv-x="282" 
d="M158 667h130l-82 -667h-130z" />
    <glyph glyph-name="J" unicode="J" horiz-adv-x="390" 
d="M266 667h130l-55 -447q-6 -49 -11 -75.5t-19.5 -58.5t-38.5 -54q-50 -47 -136 -47q-59 0 -99 20q-30 15 -57 42l90 95q20 -36 62 -36q29 0 48 19q3 3 6 7.5t5.5 8.5t4.5 10t3.5 10t3.5 12t2.5 11.5t2 13t2 12.5t2 13.5t1.5 13.5z" />
    <glyph glyph-name="K" unicode="K" horiz-adv-x="617" 
d="M288 667l-34 -266l273 266h151l-319 -311l253 -356h-156l-192 289l-25 -24l-33 -265h-130l82 667h130z" />
    <glyph glyph-name="L" unicode="L" horiz-adv-x="426" 
d="M158 667h130l-68 -555h206l-14 -112h-205h-131z" />
    <glyph glyph-name="M" unicode="M" horiz-adv-x="870" 
d="M42 0l207 667h94l124 -424l238 424h94l29 -667h-130l-10 411l-232 -411h-40l-122 411l-118 -411h-134z" />
    <glyph glyph-name="N" unicode="N" horiz-adv-x="778" 
d="M206 0h-130l82 667h92l349 -445l55 445h130l-82 -667h-92l-349 447z" />
    <glyph glyph-name="O" unicode="O" horiz-adv-x="806" 
d="M484 682q142 0 231 -86q88 -84 88 -222q0 -80 -28.5 -154t-78.5 -126q-105 -109 -278 -109q-154 0 -245 93q-88 90 -88 221q0 81 31 154.5t84 123.5t127.5 77.5t156.5 27.5zM425 103q96 0 164 66q36 36 57.5 87.5t21.5 107.5q0 86 -53 141q-56 58 -152 58q-98 0 -166 -64
q-77 -72 -77 -190q0 -90 53 -145q58 -61 152 -61z" />
    <glyph glyph-name="P" unicode="P" horiz-adv-x="535" 
d="M158 667h180q121 0 179 -54q54 -50 54 -142q0 -106 -63 -166q-61 -58 -183 -58h-89l-30 -247h-130zM274 555l-24 -196h55q68 0 100 28t32 79q0 48 -36 71q-29 18 -81 18h-46z" />
    <glyph glyph-name="Q" unicode="Q" horiz-adv-x="806" 
d="M651 -26l-48 59q-78 -48 -193 -48q-147 0 -235 88q-90 90 -90 225q0 79 28.5 153t80.5 126q104 105 278 105q155 0 246 -91q85 -87 85 -226q0 -88 -35 -161q-32 -66 -85 -108l94 -109zM537 268l67 -79q64 67 64 167q0 98 -63 156q-57 52 -143 52q-102 0 -169 -69
q-73 -73 -73 -181q0 -89 53 -147q59 -64 153 -64q53 0 99 24l-119 130z" />
    <glyph glyph-name="R" unicode="R" horiz-adv-x="576" 
d="M158 667h193q110 0 166 -58q47 -49 47 -128q0 -91 -55 -144q-48 -46 -123 -58l170 -279h-156l-145 268h-16l-33 -268h-130zM275 561l-25 -201h46q69 0 104 35q29 29 29 76q0 42 -27 65q-29 25 -86 25h-41z" />
    <glyph glyph-name="S" unicode="S" horiz-adv-x="534" 
d="M546 604l-79 -89q-38 57 -107 57q-46 0 -71 -23q-26 -23 -26 -56q0 -32 28 -51q12 -8 63 -30l45 -19q51 -22 83 -56q41 -44 41 -107q0 -114 -71 -182q-65 -63 -182 -63q-79 0 -137 38q-47 31 -85 88l95 81q20 -39 47 -61q33 -28 84 -28q57 0 87 33q25 27 25 69
q0 36 -30 61q-10 8 -19.5 13t-26 11.5t-22.5 8.5l-38 16q-56 24 -81 49q-41 40 -41 110q0 87 57 144q64 64 181 64q111 0 180 -78z" />
    <glyph glyph-name="T" unicode="T" horiz-adv-x="442" 
d="M504 555h-150l-68 -555h-130l68 555h-150l14 112h430z" />
    <glyph glyph-name="U" unicode="U" horiz-adv-x="686" 
d="M156 667h130l-45 -369q-7 -70 -7 -74q0 -58 34 -90q34 -31 91 -31q56 0 94 28q22 17 35.5 45.5t17.5 49t9 64.5l47 377h130l-48 -391q-7 -54 -12 -82t-22.5 -69.5t-44.5 -69.5q-69 -70 -207 -70q-132 0 -198 67q-55 56 -55 154q0 47 9 113z" />
    <glyph glyph-name="V" unicode="V" horiz-adv-x="644" 
d="M84 667h140l123 -448l233 448h144l-366 -667h-74z" />
    <glyph glyph-name="W" unicode="W" horiz-adv-x="978" 
d="M537 423l-209 -423h-92l-152 667h136l93 -454l220 454h72l97 -454l216 454h140l-335 -667h-92z" />
    <glyph glyph-name="X" unicode="X" horiz-adv-x="634" 
d="M8 0l279 352l-160 315h150l91 -207l149 207h156l-244 -315l185 -352h-150l-116 244l-184 -244h-156z" />
    <glyph glyph-name="Y" unicode="Y" horiz-adv-x="590" 
d="M227 0l37 305l-184 362h148l114 -232l172 232h160l-280 -362l-37 -305h-130z" />
    <glyph glyph-name="Z" unicode="Z" horiz-adv-x="584" 
d="M644 667l-392 -555h308l-14 -112h-524l392 555h-273l14 112h489z" />
    <glyph glyph-name="bracketleft" unicode="[" horiz-adv-x="350" 
d="M378 625h-94l-85 -701h94l-13 -104h-210l111 909h210z" />
    <glyph glyph-name="backslash" unicode="\" horiz-adv-x="673" 
d="M655 -170l-87 -40l-402 929l87 40z" />
    <glyph glyph-name="bracketright" unicode="]" horiz-adv-x="350" 
d="M43 -76h94l86 701h-94l13 104h210l-112 -909h-210z" />
    <glyph glyph-name="asciicircum" unicode="^" 
d="M292 577l-115 -241h-127l162 331h160l162 -331h-127z" />
    <glyph glyph-name="underscore" unicode="_" 
d="M0 -158v104h500v-104h-500z" />
    <glyph glyph-name="grave" unicode="`" 
d="M307 510l-134 134l95 56l100 -150z" />
    <glyph glyph-name="a" unicode="a" horiz-adv-x="572" 
d="M438 377l7 56h122l-53 -433h-122l7 56q-21 -28 -55 -49q-36 -21 -81 -21q-87 0 -142 55q-58 58 -58 153q0 115 67 185q66 68 171 68q47 0 86 -21q32 -17 51 -49zM318 339q-50 0 -85 -31q-43 -40 -43 -100q0 -55 33 -86q30 -28 80 -28q51 0 86 31q43 39 43 104
q0 45 -30 77q-31 33 -84 33z" />
    <glyph glyph-name="b" unicode="b" horiz-adv-x="572" 
d="M270 729l-44 -352q20 30 54 48q39 22 91 22q83 0 133 -48q59 -56 59 -152q0 -124 -75 -199q-62 -62 -165 -62q-58 0 -92 21q-30 19 -44 49l-7 -56h-122l90 729h122zM326 339q-59 0 -95 -37q-37 -38 -37 -95q0 -52 30 -82q31 -31 83 -31q55 0 90 35q39 38 39 106
q0 45 -30 74q-31 30 -80 30z" />
    <glyph glyph-name="c" unicode="c" horiz-adv-x="420" 
d="M438 421l-15 -120q-40 38 -103 38q-56 0 -90 -34q-40 -39 -40 -99q0 -49 30 -79q31 -33 82 -33q58 0 100 38l-14 -119q-47 -27 -114 -27q-99 0 -158 61q-54 56 -54 146q0 110 70 182q71 72 186 72q66 0 120 -26z" />
    <glyph glyph-name="d" unicode="d" horiz-adv-x="570" 
d="M438 377l44 352h122l-90 -729h-122l7 56q-1 -2 -7.5 -10t-20 -20t-26.5 -20q-37 -20 -88 -20q-82 0 -134 52q-60 60 -60 161q0 115 68 183q28 29 71.5 47t87.5 18q48 0 90 -20q35 -18 58 -50zM316 339q-54 0 -87 -33q-39 -38 -39 -96q0 -57 34 -88q30 -28 79 -28
q55 0 90 35q40 40 40 100q0 49 -32 79q-34 31 -85 31z" />
    <glyph glyph-name="e" unicode="e" horiz-adv-x="526" 
d="M393 141l105 -25q-33 -67 -92 -101q-52 -29 -130 -29q-105 0 -161 60q-52 54 -52 140q0 57 19.5 109.5t55.5 87.5q64 64 173 64q95 0 148 -50q56 -54 56 -157q0 -31 -2 -44h-324q-7 -55 25 -87q26 -27 71 -27q41 0 66 14q25 16 42 45zM203 274h205q-2 39 -27 63
q-26 24 -68 24t-74 -28q-26 -24 -36 -59z" />
    <glyph glyph-name="f" unicode="f" horiz-adv-x="290" 
d="M334 329h-112l-40 -329h-122l40 329h-46l13 104h46l14 107q14 111 57 155q44 46 114 46q46 0 86 -15l-14 -111q-26 18 -50 18t-41 -15q-23 -21 -34 -105l-10 -80h112z" />
    <glyph glyph-name="g" unicode="g" horiz-adv-x="564" 
d="M430 377l7 56h122l-51 -413q-5 -41 -8.5 -62.5t-18.5 -61t-39 -63.5q-61 -63 -186 -63q-108 0 -162 58q-45 47 -53 121h128q4 -33 25 -53q22 -22 66 -22q53 0 84 29q30 29 39 94l8 61q-23 -33 -54 -51q-35 -21 -81 -21q-89 0 -142 53q-57 57 -57 155q0 120 78 193
q62 60 154 60q55 0 91 -21q32 -19 50 -49zM312 339q-54 0 -87 -31q-42 -38 -42 -104q0 -48 32 -80q30 -30 76 -30q59 0 93 32q42 40 42 105q0 49 -33 80q-32 28 -81 28z" />
    <glyph glyph-name="h" unicode="h" horiz-adv-x="536" 
d="M58 0l90 729h122l-44 -352q19 30 53 50q36 20 84 20q76 0 116 -40q34 -35 34 -95q0 -14 -8 -74l-29 -238h-122l25 201q6 54 6 69q0 37 -20 55t-52 18q-43 0 -69 -26q-29 -29 -37 -96l-27 -221h-122z" />
    <glyph glyph-name="i" unicode="i" horiz-adv-x="238" 
d="M111 433h122l-53 -433h-122zM121 607q0 33 24 57q24 25 58 25q28 0 46 -18q19 -19 19 -47q0 -32 -24 -56q-25 -25 -58 -25q-26 0 -46 18q-19 19 -19 46z" />
    <glyph glyph-name="j" unicode="j" horiz-adv-x="238" 
d="M111 433h122l-81 -662h-122zM121 607q0 33 24 57q24 25 58 25q28 0 46 -18q19 -19 19 -47q0 -32 -24 -56q-25 -25 -58 -25q-26 0 -46 18q-19 19 -19 46z" />
    <glyph glyph-name="k" unicode="k" horiz-adv-x="503" 
d="M148 729h122l-55 -446l180 150h149l-231 -192l187 -241h-146l-127 178l-28 -22l-19 -156h-122z" />
    <glyph glyph-name="l" unicode="l" horiz-adv-x="236" 
d="M148 729h122l-90 -729h-122z" />
    <glyph glyph-name="m" unicode="m" horiz-adv-x="787" 
d="M58 0l53 433h122l-6 -49q22 27 52 43q36 20 78 20q47 0 81 -23q32 -21 46 -56q18 34 51 55q37 24 86 24q71 0 110 -36q35 -33 35 -101q0 -28 -5 -71l-29 -239h-122l25 206q6 46 6 63q0 41 -19 58q-18 16 -46 16q-32 0 -54 -22q-32 -32 -41 -110l-25 -211h-122l25 201
q0 3 2 18t3 28.5t1 21.5q0 39 -17 57q-17 17 -46 17q-36 0 -59 -25q-29 -32 -38 -112l-25 -206h-122z" />
    <glyph glyph-name="n" unicode="n" horiz-adv-x="536" 
d="M58 0l53 433h122l-7 -56q19 30 53 50q36 20 84 20q76 0 116 -40q34 -35 34 -95q0 -14 -8 -74l-29 -238h-122l25 201q6 54 6 69q0 37 -20 55q-18 18 -53 18q-42 0 -68 -26q-28 -30 -37 -96l-27 -221h-122z" />
    <glyph glyph-name="o" unicode="o" horiz-adv-x="572" 
d="M336 447q109 0 171 -62q56 -58 56 -144q0 -108 -77 -182q-77 -73 -199 -73q-107 0 -167 60q-57 55 -57 147q0 52 20.5 100t54.5 81q75 73 198 73zM299 94q57 0 95 38q41 41 41 97q0 50 -32 80t-79 30q-54 0 -92 -35q-43 -40 -43 -103q0 -46 30 -76q31 -31 80 -31z" />
    <glyph glyph-name="p" unicode="p" horiz-adv-x="572" 
d="M187 56l-35 -285h-122l81 662h122l-7 -56q27 32 64 51q38 19 80 19q86 0 136 -48q57 -55 57 -153q0 -124 -74 -198q-62 -62 -157 -62q-62 0 -101 25q-25 15 -44 45zM326 339q-55 0 -91 -36q-41 -40 -41 -97q0 -48 27 -78q29 -34 86 -34q54 0 89 35q40 40 40 103
q0 49 -32 79q-30 28 -78 28z" />
    <glyph glyph-name="q" unicode="q" horiz-adv-x="573" 
d="M439 377l7 56h122l-81 -662h-122l35 282q-23 -34 -56 -49q-36 -18 -86 -18q-88 0 -140 55q-55 57 -55 152q0 55 20.5 106.5t54.5 85.5q62 62 158 62q54 0 91 -20q33 -17 52 -50zM325 339q-58 0 -94 -36q-40 -42 -40 -102q0 -44 29 -75q32 -32 81 -32q52 0 88 33
q44 41 44 105q0 47 -32 79q-29 28 -76 28z" />
    <glyph glyph-name="r" unicode="r" horiz-adv-x="360" 
d="M58 0l53 433h122l-8 -62q21 37 54 57q31 19 76 19q30 0 57 -10l-36 -109q-22 11 -47 11q-46 0 -76 -30q-40 -40 -50 -125l-23 -184h-122z" />
    <glyph glyph-name="s" unicode="s" horiz-adv-x="400" 
d="M399 403l-63 -75q-14 14 -31 22q-19 9 -41 9q-28 0 -41 -14q-9 -11 -9 -26q0 -14 9 -22t35 -16l37 -12q42 -14 67 -39q30 -31 30 -82q0 -66 -45 -111q-51 -51 -142 -51q-58 0 -102 21q-34 17 -66 51l73 74q16 -23 40 -36q26 -14 50 -14q31 0 47 13q17 14 17 38
q0 16 -11 27q-10 9 -43 21l-30 12q-36 14 -57 35q-29 29 -29 74q0 62 43 103q44 42 123 42q50 0 85 -14q25 -9 54 -30z" />
    <glyph glyph-name="t" unicode="t" horiz-adv-x="270" 
d="M304 329h-84l-40 -329h-122l40 329h-48l13 104h48l18 148h122l-18 -148h84z" />
    <glyph glyph-name="u" unicode="u" horiz-adv-x="537" 
d="M112 433h122l-26 -216q-5 -44 -5 -52q0 -35 18 -53q20 -22 61 -22t67 24q24 23 33 91l28 228h122l-29 -239q-8 -67 -28.5 -110t-65.5 -69q-51 -29 -129 -29q-91 0 -143 37q-58 43 -58 119q0 22 6 68z" />
    <glyph glyph-name="v" unicode="v" horiz-adv-x="504" 
d="M55 433h132l84 -244l144 244h140l-274 -433h-58z" />
    <glyph glyph-name="w" unicode="w" horiz-adv-x="792" 
d="M427 253l-146 -253h-60l-166 433h133l83 -250l146 250h57l85 -250l145 250h139l-272 -433h-60z" />
    <glyph glyph-name="x" unicode="x" horiz-adv-x="558" 
d="M2 0l229 236l-145 197h147l77 -112l104 112h159l-193 -197l176 -236h-149l-105 151l-139 -151h-161z" />
    <glyph glyph-name="y" unicode="y" horiz-adv-x="538" 
d="M21 -229l195 294l-161 368h138l104 -246l150 246h142l-430 -662h-138z" />
    <glyph glyph-name="z" unicode="z" horiz-adv-x="484" 
d="M525 433l-286 -329h229l-13 -104h-443l286 329h-208l13 104h422z" />
    <glyph glyph-name="braceleft" unicode="{" horiz-adv-x="502" 
d="M359 556l-19 -157q-6 -54 -26 -82q-17 -25 -50 -43q28 -14 39 -43q9 -21 9 -48q0 -20 -4 -44l-17 -137q-4 -32 -4 -35q0 -22 17 -32q16 -9 64 -9h18l-13 -104q-30 -2 -64 -2q-85 0 -118 33q-25 24 -25 67q0 13 6 59l20 155q2 20 2 28q0 24 -8 36q-12 20 -39 24l13 104
q28 6 40 18q7 7 14.5 26.5t9.5 33.5l24 189q10 68 39 97q39 39 135 39q34 0 64 -2l-13 -104h-18q-61 0 -78 -15q-14 -13 -18 -52z" />
    <glyph glyph-name="bar" unicode="|" horiz-adv-x="377" 
d="M158 -250v1000h122v-1000h-122z" />
    <glyph glyph-name="braceright" unicode="}" horiz-adv-x="502" 
d="M202 -13l18 153q7 55 21 81q18 33 55 53q-19 9 -32 30q-15 22 -15 60q0 36 11 122.5t11 94.5q0 21 -10 30q-12 12 -51 12h-38l13 104q30 2 59 2q90 0 122 -32q26 -26 26 -73q0 -21 -13 -116t-13 -119q0 -33 16 -49q14 -13 32 -14l-13 -104q-26 -5 -40 -19
q-20 -19 -25 -68l-21 -172q-10 -73 -40 -103q-39 -40 -134 -40q-35 0 -65 2l13 104h33q46 0 61 12q16 13 19 49z" />
    <glyph glyph-name="asciitilde" unicode="~" 
d="M467 370l66 -40q-24 -45 -58 -81q-47 -50 -110 -50q-40 0 -89 21l-31 13q-43 18 -66 18q-28 0 -49 -18q-18 -15 -33 -45l-65 40q28 57 64 95q43 45 101 45q36 0 84 -19l33 -13q51 -20 72 -20q28 0 47 14q18 13 34 40z" />
    <glyph glyph-name="uni00A0" unicode="&#xa0;" horiz-adv-x="233" 
 />
    <glyph glyph-name="exclamdown" unicode="&#xa1;" horiz-adv-x="252" 
d="M101 234h124l-57 -464h-124zM101 361q0 37 26 63t63 26q30 0 50 -20q19 -19 19 -50q0 -39 -25 -62q-24 -24 -62 -24q-32 0 -52 20q-19 19 -19 47z" />
    <glyph glyph-name="cent" unicode="&#xa2;" horiz-adv-x="568" 
d="M512 540l-15 -120q-40 38 -103 38q-56 0 -90 -34q-40 -39 -40 -99q0 -49 30 -79q31 -33 82 -33q58 0 100 38l-14 -119q-40 -22 -84 -24l-11 -95h-82l12 97q-69 12 -116 67q-45 54 -45 135q0 110 70 182q60 60 145 70l11 91h82l-11 -93q41 -2 79 -22z" />
    <glyph glyph-name="sterling" unicode="&#xa3;" horiz-adv-x="568" 
d="M182 246h-112l11 88h65q-23 58 -23 118q0 100 62 162q66 68 192 68q102 0 159 -55q58 -56 58 -157q0 -20 -1 -30h-133q1 6 1 21q0 55 -28 82q-25 25 -69 25q-48 0 -78 -30q-34 -34 -34 -92q0 -31 27 -112h148l-11 -88h-120q1 -8 1 -24q0 -49 -18 -92q9 -3 35.5 -13.5
t37.5 -14.5t28.5 -8.5t30.5 -4.5q27 0 45 17q14 12 25 37l86 -19q-16 -59 -52 -98q-38 -41 -103 -41q-50 0 -110 22l-35 13q-41 16 -72 16q-55 0 -69 -45l-92 17q15 45 42 77q38 45 91 53q18 32 18 70q0 17 -3 38z" />
    <glyph glyph-name="currency" unicode="&#xa4;" horiz-adv-x="667" 
d="M136 682l103 -103q57 45 136 45q92 0 146 -45l103 103l66 -66l-103 -103q45 -57 45 -139t-45 -139l103 -103l-66 -66l-103 103q-59 -45 -141 -45t-141 45l-103 -103l-66 66l103 103q-45 57 -45 139t45 139l-103 103zM380 232q61 0 102 41q38 38 38 101q0 65 -40 103
q-41 39 -100 39q-60 0 -101 -40q-39 -39 -39 -102q0 -60 38 -100q40 -42 102 -42z" />
    <glyph glyph-name="yen" unicode="&#xa5;" horiz-adv-x="568" 
d="M508 667h144l-155 -213h88l-11 -90h-142l-44 -63h178l-11 -90h-178l-26 -211h-120l26 211h-178l11 90h178l-28 63h-142l11 90h88l-103 213h144l106 -234z" />
    <glyph glyph-name="brokenbar" unicode="&#xa6;" horiz-adv-x="377" 
d="M158 390v360h122v-360h-122zM158 -250v360h122v-360h-122z" />
    <glyph glyph-name="section" unicode="&#xa7;" horiz-adv-x="567" 
d="M90 10h122q0 -38 17 -61q18 -25 52 -25q32 0 52 20t20 50t-29 53q-16 12 -63 34l-34 16q-57 26 -85 63q-34 44 -34 106q0 61 38 110q37 47 93 63q-29 18 -46 42q-23 32 -23 73q0 73 50 123q52 52 140 52t135 -45q50 -48 50 -131v-4h-120v4q0 35 -17 55q-17 21 -51 21
q-32 0 -51 -19q-18 -18 -18 -43q0 -26 23 -44q17 -14 63 -34l41 -19q44 -20 76 -52q44 -45 44 -116q0 -77 -34 -123q-31 -43 -87 -63q29 -18 43 -47q15 -29 15 -67q0 -80 -50 -130q-52 -52 -145 -52q-87 0 -135 49q-52 54 -52 141zM316 193q41 0 66 27q23 26 23 67
q0 39 -26 61q-22 19 -54 19q-44 0 -68 -29q-20 -24 -20 -67q0 -37 23 -58q20 -20 56 -20z" />
    <glyph glyph-name="dieresis" unicode="&#xa8;" 
d="M354 578q0 32 24 56t58 24q28 0 46 -20q16 -18 16 -44q0 -30 -22 -54q-23 -26 -59 -26q-27 0 -44 17q-19 19 -19 47zM146 578q0 32 24 56t58 24q28 0 46 -20q16 -18 16 -44q0 -30 -22 -54q-23 -26 -59 -26q-27 0 -44 17q-19 19 -19 47z" />
    <glyph glyph-name="copyright" unicode="&#xa9;" horiz-adv-x="760" 
d="M552 516v-109q-24 24 -40 34q-30 19 -66 19q-54 0 -87 -31q-40 -37 -40 -99q0 -52 33 -88t93 -36q39 0 68 18q17 10 39 34v-109q-49 -25 -119 -25q-96 0 -155 60q-55 57 -55 142q0 97 59 156q60 60 158 60q63 0 112 -26zM768 333q0 -151 -103 -250q-101 -98 -244 -98
t-244 98q-103 101 -103 251q0 151 103 250q101 98 244 98t244 -98q103 -101 103 -251zM421 620q-108 0 -187 -74q-40 -39 -65 -94.5t-25 -117.5q0 -127 90 -213q79 -74 187 -74t187 74q90 86 90 213q0 62 -25 117.5t-65 94.5q-79 74 -187 74z" />
    <glyph glyph-name="ordfeminine" unicode="&#xaa;" horiz-adv-x="343" 
d="M314 625l4 34h74l-33 -264h-74l5 35q-14 -21 -33 -31q-22 -13 -54 -13q-52 0 -84 33q-34 34 -34 90q0 67 46 115q43 43 103 43q28 0 46 -9q22 -10 34 -33zM239 600q-32 0 -53 -21q-24 -22 -24 -60q0 -27 18 -47q18 -19 49 -19t54 19q27 23 27 60q0 30 -18 48
q-20 20 -53 20zM70 291l7 56h277l-7 -56h-277z" />
    <glyph glyph-name="guillemotleft" unicode="&#xab;" horiz-adv-x="514" 
d="M173 217l102 -162l-76 -50l-132 214l184 214l64 -52zM369 217l102 -162l-76 -50l-132 214l184 214l64 -52z" />
    <glyph glyph-name="logicalnot" unicode="&#xac;" 
d="M486 0h-122v157h-312v112h434v-269z" />
    <glyph glyph-name="uni00AD" unicode="&#xad;" horiz-adv-x="360" 
d="M71 174l14 112h260l-14 -112h-260z" />
    <glyph glyph-name="registered" unicode="&#xae;" horiz-adv-x="760" 
d="M421 682q145 0 245 -99q102 -102 102 -251q0 -143 -94 -242q-99 -105 -253 -105q-149 0 -249 101q-98 98 -98 248q0 155 107 255q97 93 240 93zM421 620q-113 0 -192 -80q-85 -85 -85 -205q0 -62 23 -117t59 -91t88 -58t107 -22q110 0 191 79q86 83 86 205q0 124 -86 210
q-79 79 -191 79zM304 527h118q65 0 97 -32q30 -30 30 -83q0 -45 -26 -72q-23 -25 -64 -31l121 -156h-89l-111 143v-143h-76v374zM380 461v-103h30q31 0 46 15q14 14 14 38q0 26 -14 38q-13 12 -43 12h-33z" />
    <glyph glyph-name="macron" unicode="&#xaf;" 
d="M136 539l10 80h364l-10 -80h-364z" />
    <glyph glyph-name="degree" unicode="&#xb0;" horiz-adv-x="503" 
d="M314 363q-64 0 -109 45t-45 108q0 62 45 106.5t109 44.5t109.5 -44.5t45.5 -106.5q0 -63 -45.5 -108t-109.5 -45zM314 591q-31 0 -53.5 -22t-22.5 -53q0 -32 22 -54t54 -22t54.5 22t22.5 53q0 32 -22.5 54t-54.5 22z" />
    <glyph glyph-name="plusminus" unicode="&#xb1;" 
d="M65 355v112h156v156h122v-156h156v-112h-156v-156h-122v156h-156zM65 52v112h434v-112h-434z" />
    <glyph glyph-name="twosuperior" unicode="&#xb2;" horiz-adv-x="380" 
d="M57 267l164 162q51 51 60 62q25 32 25 61q0 26 -17 40q-14 12 -41 12q-30 0 -45 -18q-16 -18 -18 -44h-84q7 55 41 90q40 44 110 44q67 0 106 -39q32 -32 32 -80q0 -45 -28 -85q-19 -27 -62 -68l-70 -65h136l-9 -72h-300z" />
    <glyph glyph-name="threesuperior" unicode="&#xb3;" horiz-adv-x="380" 
d="M192 558h-78q9 50 41 82q36 36 101 36q66 0 100 -36q27 -30 27 -73q0 -37 -20 -61q-17 -21 -43 -28q22 -10 35 -26q19 -24 19 -60q0 -56 -35 -93q-40 -41 -117 -41q-71 0 -110 39q-36 36 -36 90h84q2 -27 18 -42t47 -15q29 0 48 18q18 18 18 45q0 28 -21 42
q-15 10 -47 10h-12l8 66h9q37 0 52 11q20 14 20 42q0 22 -13 33q-13 13 -39 13q-24 0 -39 -15q-13 -13 -17 -37z" />
    <glyph glyph-name="acute" unicode="&#xb4;" 
d="M404 700l81 -56l-166 -134l-51 40z" />
    <glyph glyph-name="mu" unicode="&#xb5;" horiz-adv-x="560" 
d="M152 -230h-122l81 663h122l-22 -186q-5 -40 -5 -61q0 -47 23 -74q24 -28 67 -28q45 0 72 28q30 31 40 121l25 200h122l-53 -433h-122l6 54q-17 -33 -42 -50q-25 -18 -62 -18q-39 0 -65 26q-21 21 -29 54z" />
    <glyph glyph-name="mu" unicode="&#x3bc;" horiz-adv-x="560" 
d="M152 -230h-122l81 663h122l-22 -186q-5 -40 -5 -61q0 -47 23 -74q24 -28 67 -28q45 0 72 28q30 31 40 121l25 200h122l-53 -433h-122l6 54q-17 -33 -42 -50q-25 -18 -62 -18q-39 0 -65 26q-21 21 -29 54z" />
    <glyph glyph-name="paragraph" unicode="&#xb6;" horiz-adv-x="656" 
d="M313 -93h-104l50 413h-7q-74 0 -119 38q-47 39 -47 115q0 84 47 134q33 36 80.5 48t119.5 12h333l-12 -94h-70l-81 -666h-104l81 666h-86z" />
    <glyph glyph-name="periodcentered" unicode="&#xb7;" horiz-adv-x="202" 
d="M43 325q0 42 31 73t73 31q37 0 60 -23q22 -22 22 -57q0 -45 -29 -75q-28 -29 -73 -29q-40 0 -62 23q-22 24 -22 57z" />
    <glyph glyph-name="cedilla" unicode="&#xb8;" 
d="M260 -46l88 -44l-142 -146l-64 36z" />
    <glyph glyph-name="onesuperior" unicode="&#xb9;" horiz-adv-x="380" 
d="M199 267l40 328h-80l9 72h164l-49 -400h-84z" />
    <glyph glyph-name="ordmasculine" unicode="&#xba;" horiz-adv-x="333" 
d="M221 386q-66 0 -103 36q-38 36 -38 96q0 61 42 105q43 44 115 44q64 0 105 -41q35 -36 35 -93q0 -64 -42 -105q-43 -42 -114 -42zM232 600q-35 0 -56 -22q-20 -23 -20 -57q0 -30 17 -48q17 -20 49 -20q39 0 60 24q19 22 19 54q0 35 -22 53q-17 16 -47 16zM72 347h274
l-6 -56h-274z" />
    <glyph glyph-name="guillemotright" unicode="&#xbb;" horiz-adv-x="514" 
d="M199 221l-102 162l76 50l132 -214l-184 -214l-64 52zM395 221l-102 162l76 50l132 -214l-184 -214l-64 52z" />
    <glyph glyph-name="onequarter" unicode="&#xbc;" horiz-adv-x="862" 
d="M199 267l40 328h-80l9 72h164l-49 -400h-84zM226 3l482 686l49 -30l-481 -687zM833 400l-31 -256h47l-9 -68h-47l-9 -76h-80l9 76h-199l5 35l234 289h80zM627 144h95l17 145z" />
    <glyph glyph-name="onehalf" unicode="&#xbd;" horiz-adv-x="861" 
d="M199 267l40 328h-80l9 72h164l-49 -400h-84zM186 3l482 686l49 -30l-481 -687zM504 0l164 162q51 51 60 62q25 32 25 61q0 26 -17 40q-14 12 -41 12q-30 0 -45 -18q-16 -18 -18 -44h-84q7 55 41 90q40 44 110 44q67 0 106 -39q32 -32 32 -80q0 -45 -28 -85
q-19 -27 -62 -68l-70 -65h136l-9 -72h-300z" />
    <glyph glyph-name="threequarters" unicode="&#xbe;" horiz-adv-x="860" 
d="M192 558h-78q9 50 41 82q36 36 101 36q66 0 100 -36q27 -30 27 -73q0 -37 -20 -61q-17 -21 -43 -28q22 -10 35 -26q19 -24 19 -59q0 -59 -35 -94q-40 -41 -117 -41q-71 0 -110 39q-36 36 -36 90h84q2 -27 18 -42t47 -15q29 0 48 18q18 18 18 45q0 28 -21 42
q-15 10 -47 10h-12l8 66h9q37 0 52 11q20 14 20 42q0 22 -13 33q-13 13 -39 13q-24 0 -39 -15q-13 -13 -17 -37zM236 3l482 686l49 -30l-481 -687zM625 144h95l17 145zM831 400l-31 -256h47l-9 -68h-47l-9 -76h-80l9 76h-199l5 35l234 289h80z" />
    <glyph glyph-name="questiondown" unicode="&#xbf;" horiz-adv-x="492" 
d="M246 237h124l-24 -196q-19 4 -44 4q-61 0 -96 -32q-32 -30 -32 -74q0 -36 21 -55q20 -18 52 -18q40 0 60 27q15 20 15 56h130q-6 -80 -54 -133q-53 -58 -156 -58q-94 0 -146 49q-53 49 -53 129q0 86 51 139q8 9 21.5 19.5t47 24t70.5 13.5zM246 361q0 37 26 63t63 26
q30 0 50 -20q19 -19 19 -50q0 -39 -25 -62q-24 -24 -62 -24q-32 0 -52 20q-19 19 -19 47z" />
    <glyph glyph-name="Agrave" unicode="&#xc0;" horiz-adv-x="672" 
d="M533 0l-42 140h-269l-76 -140h-144l373 667h98l197 -667h-137zM276 246h190l-64 240zM449 728l-159 122l99 70l123 -142z" />
    <glyph glyph-name="Aacute" unicode="&#xc1;" horiz-adv-x="672" 
d="M533 0l-42 140h-269l-76 -140h-144l373 667h98l197 -667h-137zM276 246h190l-64 240zM401 728l-49 50l157 142l81 -70z" />
    <glyph glyph-name="Acircumflex" unicode="&#xc2;" horiz-adv-x="672" 
d="M533 0l-42 140h-269l-76 -140h-144l373 667h98l197 -667h-137zM276 246h190l-64 240zM439 820l-131 -88l-54 64l196 134l164 -134l-66 -64z" />
    <glyph glyph-name="Atilde" unicode="&#xc3;" horiz-adv-x="672" 
d="M533 0l-42 140h-269l-76 -140h-144l373 667h98l197 -667h-137zM276 246h190l-64 240zM573 869l62 -48q-26 -38 -53 -61q-33 -28 -70 -28q-28 0 -74 19l-33 14q-40 16 -50 16q-20 0 -37 -16q-14 -14 -19 -24l-64 48q23 36 47 55q39 34 82 34q25 0 68 -19l38 -16
q33 -14 50 -14q19 0 34 14q10 10 19 26z" />
    <glyph glyph-name="Adieresis" unicode="&#xc4;" horiz-adv-x="672" 
d="M533 0l-42 140h-269l-76 -140h-144l373 667h98l197 -667h-137zM276 246h190l-64 240zM470 800q0 36 23 59q23 24 57 24q28 0 46 -18t18 -45q0 -34 -24 -58q-23 -23 -55 -23q-30 0 -48 18q-17 17 -17 43zM246 800q0 36 23 59q23 24 57 24q28 0 46 -18t18 -45
q0 -34 -24 -58q-23 -23 -55 -23q-30 0 -48 18q-17 17 -17 43z" />
    <glyph glyph-name="Aring" unicode="&#xc5;" horiz-adv-x="672" 
d="M533 0l-42 140h-269l-76 -140h-144l373 667h98l197 -667h-137zM276 246h190l-64 240zM337 808q0 44 32 78q33 34 79 34q39 0 64 -25t25 -65q0 -44 -33 -77q-33 -31 -76 -31t-66 25q-25 25 -25 61zM397 815q0 -14 8 -22q10 -12 28 -12q20 0 32 14t12 33q0 14 -10 24
q-9 9 -25 9q-18 0 -31 -13q-14 -13 -14 -33z" />
    <glyph glyph-name="AE" unicode="&#xc6;" horiz-adv-x="920" 
d="M533 0l-42 140h-269l-76 -140h-140l371 667h352l30 -112h-245l42 -149h241l32 -112h-242l51 -182h246l30 -112h-381zM276 246h190l-62 240z" />
    <glyph glyph-name="Ccedilla" unicode="&#xc7;" horiz-adv-x="607" 
d="M585 176l-19 -152q-75 -39 -165 -39q-143 0 -227 82q-89 85 -89 224q0 90 29.5 165t77.5 124q102 102 274 102q96 0 176 -41l-18 -150q-63 73 -170 73q-102 0 -167 -69q-67 -72 -67 -185q0 -90 56 -150q55 -58 144 -58q110 0 165 74zM374 -46l96 -44l-150 -154l-70 36z
" />
    <glyph glyph-name="Egrave" unicode="&#xc8;" horiz-adv-x="496" 
d="M528 667l-14 -112h-240l-18 -149h230l-14 -112h-230l-22 -182h240l-14 -112h-240h-130l82 667h370zM378 728l-159 122l99 70l123 -142z" />
    <glyph glyph-name="Eacute" unicode="&#xc9;" horiz-adv-x="496" 
d="M528 667l-14 -112h-240l-18 -149h230l-14 -112h-230l-22 -182h240l-14 -112h-240h-130l82 667h370zM335 728l-49 50l157 142l81 -70z" />
    <glyph glyph-name="Ecircumflex" unicode="&#xca;" horiz-adv-x="496" 
d="M528 667l-14 -112h-240l-18 -149h230l-14 -112h-230l-22 -182h240l-14 -112h-240h-130l82 667h370zM363 820l-131 -88l-54 64l196 134l164 -134l-66 -64z" />
    <glyph glyph-name="Edieresis" unicode="&#xcb;" horiz-adv-x="496" 
d="M528 667l-14 -112h-240l-18 -149h230l-14 -112h-230l-22 -182h240l-14 -112h-240h-130l82 667h370zM400 800q0 36 23 59q23 24 57 24q28 0 46 -18t18 -45q0 -34 -24 -58q-23 -23 -55 -23q-30 0 -48 18q-17 17 -17 43zM176 800q0 36 23 59q23 24 57 24q28 0 46 -18t18 -45
q0 -34 -24 -58q-23 -23 -55 -23q-30 0 -48 18q-17 17 -17 43z" />
    <glyph glyph-name="Igrave" unicode="&#xcc;" horiz-adv-x="282" 
d="M158 667h130l-82 -667h-130zM247 728l-154 114l95 68l119 -134z" />
    <glyph glyph-name="Iacute" unicode="&#xcd;" horiz-adv-x="282" 
d="M158 667h130l-82 -667h-130zM318 910l77 -68l-182 -114l-48 48z" />
    <glyph glyph-name="Icircumflex" unicode="&#xce;" horiz-adv-x="282" 
d="M158 667h130l-82 -667h-130zM242 822l-102 -80l-47 54l161 124l131 -124l-61 -54z" />
    <glyph glyph-name="Idieresis" unicode="&#xcf;" horiz-adv-x="282" 
d="M158 667h130l-82 -667h-130zM255 798q0 40 27 67q18 18 41 18t37 -20q13 -17 13 -42q0 -38 -25 -63q-19 -19 -42 -19q-20 0 -34 16q-17 18 -17 43zM105 798q0 40 27 67q18 18 41 18t37 -20q13 -17 13 -42q0 -38 -25 -63q-19 -19 -42 -19q-20 0 -34 16q-17 18 -17 43z" />
    <glyph glyph-name="Eth" unicode="&#xd0;" horiz-adv-x="673" 
d="M332 667q167 0 255 -85q83 -79 83 -218q0 -168 -98 -263q-102 -101 -316 -101h-50h-130l39 316h-86l12 100h86l31 251h174zM274 555l-17 -139h122l-12 -100h-122l-25 -204h44q146 0 211 72q61 67 61 177q0 90 -58 142t-164 52h-40z" />
    <glyph glyph-name="Ntilde" unicode="&#xd1;" horiz-adv-x="778" 
d="M206 0h-130l82 667h92l349 -445l55 445h130l-82 -667h-92l-349 447zM627 869l62 -48q-26 -38 -53 -61q-33 -28 -70 -28q-28 0 -74 19l-33 14q-40 16 -50 16q-20 0 -37 -16q-14 -14 -19 -24l-64 48q23 36 47 55q39 34 82 34q25 0 68 -19l38 -16q33 -14 50 -14q19 0 34 14
q10 10 19 26z" />
    <glyph glyph-name="Ograve" unicode="&#xd2;" horiz-adv-x="806" 
d="M484 682q142 0 231 -86q88 -84 88 -222q0 -80 -28.5 -154t-78.5 -126q-105 -109 -278 -109q-154 0 -245 93q-88 90 -88 221q0 81 31 154.5t84 123.5t127.5 77.5t156.5 27.5zM425 103q96 0 164 66q36 36 57.5 87.5t21.5 107.5q0 86 -53 141q-56 58 -152 58q-98 0 -166 -64
q-77 -72 -77 -190q0 -90 53 -145q58 -61 152 -61zM513 728l-159 122l99 70l123 -142z" />
    <glyph glyph-name="Oacute" unicode="&#xd3;" horiz-adv-x="806" 
d="M484 682q142 0 231 -86q88 -84 88 -222q0 -80 -28.5 -154t-78.5 -126q-105 -109 -278 -109q-154 0 -245 93q-88 90 -88 221q0 81 31 154.5t84 123.5t127.5 77.5t156.5 27.5zM425 103q96 0 164 66q36 36 57.5 87.5t21.5 107.5q0 86 -53 141q-56 58 -152 58q-98 0 -166 -64
q-77 -72 -77 -190q0 -90 53 -145q58 -61 152 -61zM465 728l-49 50l157 142l81 -70z" />
    <glyph glyph-name="Ocircumflex" unicode="&#xd4;" horiz-adv-x="806" 
d="M484 682q142 0 231 -86q88 -84 88 -222q0 -80 -28.5 -154t-78.5 -126q-105 -109 -278 -109q-154 0 -245 93q-88 90 -88 221q0 81 31 154.5t84 123.5t127.5 77.5t156.5 27.5zM425 103q96 0 164 66q36 36 57.5 87.5t21.5 107.5q0 86 -53 141q-56 58 -152 58q-98 0 -166 -64
q-77 -72 -77 -190q0 -90 53 -145q58 -61 152 -61zM503 820l-131 -88l-54 64l196 134l164 -134l-66 -64z" />
    <glyph glyph-name="Otilde" unicode="&#xd5;" horiz-adv-x="806" 
d="M484 682q142 0 231 -86q88 -84 88 -222q0 -80 -28.5 -154t-78.5 -126q-105 -109 -278 -109q-154 0 -245 93q-88 90 -88 221q0 81 31 154.5t84 123.5t127.5 77.5t156.5 27.5zM425 103q96 0 164 66q36 36 57.5 87.5t21.5 107.5q0 86 -53 141q-56 58 -152 58q-98 0 -166 -64
q-77 -72 -77 -190q0 -90 53 -145q58 -61 152 -61zM617 869l62 -48q-26 -38 -53 -61q-33 -28 -70 -28q-28 0 -74 19l-33 14q-40 16 -50 16q-20 0 -37 -16q-14 -14 -19 -24l-64 48q23 36 47 55q39 34 82 34q25 0 68 -19l38 -16q33 -14 50 -14q19 0 34 14q10 10 19 26z" />
    <glyph glyph-name="Odieresis" unicode="&#xd6;" horiz-adv-x="806" 
d="M484 682q142 0 231 -86q88 -84 88 -222q0 -80 -28.5 -154t-78.5 -126q-105 -109 -278 -109q-154 0 -245 93q-88 90 -88 221q0 81 31 154.5t84 123.5t127.5 77.5t156.5 27.5zM425 103q96 0 164 66q36 36 57.5 87.5t21.5 107.5q0 86 -53 141q-56 58 -152 58q-98 0 -166 -64
q-77 -72 -77 -190q0 -90 53 -145q58 -61 152 -61zM520 800q0 36 23 59q23 24 57 24q28 0 46 -18t18 -45q0 -34 -24 -58q-23 -23 -55 -23q-30 0 -48 18q-17 17 -17 43zM296 800q0 36 23 59q23 24 57 24q28 0 46 -18t18 -45q0 -34 -24 -58q-23 -23 -55 -23q-30 0 -48 18
q-17 17 -17 43z" />
    <glyph glyph-name="multiply" unicode="&#xd7;" 
d="M84 215l124 124l-124 124l82 82l124 -124l124 124l82 -82l-124 -124l124 -124l-82 -82l-124 124l-124 -124z" />
    <glyph glyph-name="Oslash" unicode="&#xd8;" horiz-adv-x="840" 
d="M45 31l105 94q-51 78 -51 179q0 164 115 273q112 105 274 105q123 0 216 -65l103 91l64 -73l-101 -90q47 -82 47 -174q0 -78 -28.5 -151.5t-78.5 -125.5q-105 -109 -278 -109q-125 0 -216 68l-107 -95zM664 451l-350 -311q60 -37 125 -37q96 0 164 66q79 76 79 195
q0 45 -18 87zM253 216l350 311q-58 36 -126 36q-98 0 -166 -64q-77 -75 -77 -190q0 -52 19 -93z" />
    <glyph glyph-name="Ugrave" unicode="&#xd9;" horiz-adv-x="686" 
d="M156 667h130l-45 -369q-7 -70 -7 -74q0 -58 34 -90q34 -31 91 -31q56 0 94 28q22 17 35.5 45.5t17.5 49t9 64.5l47 377h130l-48 -391q-7 -54 -12 -82t-22.5 -69.5t-44.5 -69.5q-69 -70 -207 -70q-132 0 -198 67q-55 56 -55 154q0 47 9 113zM457 728l-159 122l99 70
l123 -142z" />
    <glyph glyph-name="Uacute" unicode="&#xda;" horiz-adv-x="686" 
d="M156 667h130l-45 -369q-7 -70 -7 -74q0 -58 34 -90q34 -31 91 -31q56 0 94 28q22 17 35.5 45.5t17.5 49t9 64.5l47 377h130l-48 -391q-7 -54 -12 -82t-22.5 -69.5t-44.5 -69.5q-69 -70 -207 -70q-132 0 -198 67q-55 56 -55 154q0 47 9 113zM409 728l-49 50l157 142
l81 -70z" />
    <glyph glyph-name="Ucircumflex" unicode="&#xdb;" horiz-adv-x="686" 
d="M156 667h130l-45 -369q-7 -70 -7 -74q0 -58 34 -90q34 -31 91 -31q56 0 94 28q22 17 35.5 45.5t17.5 49t9 64.5l47 377h130l-48 -391q-7 -54 -12 -82t-22.5 -69.5t-44.5 -69.5q-69 -70 -207 -70q-132 0 -198 67q-55 56 -55 154q0 47 9 113zM443 820l-131 -88l-54 64
l196 134l164 -134l-66 -64z" />
    <glyph glyph-name="Udieresis" unicode="&#xdc;" horiz-adv-x="686" 
d="M156 667h130l-45 -369q-7 -70 -7 -74q0 -58 34 -90q34 -31 91 -31q56 0 94 28q22 17 35.5 45.5t17.5 49t9 64.5l47 377h130l-48 -391q-7 -54 -12 -82t-22.5 -69.5t-44.5 -69.5q-69 -70 -207 -70q-132 0 -198 67q-55 56 -55 154q0 47 9 113zM480 800q0 36 23 59
q23 24 57 24q28 0 46 -18t18 -45q0 -34 -24 -58q-23 -23 -55 -23q-30 0 -48 18q-17 17 -17 43zM256 800q0 36 23 59q23 24 57 24q28 0 46 -18t18 -45q0 -34 -24 -58q-23 -23 -55 -23q-30 0 -48 18q-17 17 -17 43z" />
    <glyph glyph-name="Yacute" unicode="&#xdd;" horiz-adv-x="590" 
d="M227 0l37 305l-184 362h148l114 -232l172 232h160l-280 -362l-37 -305h-130zM360 728l-49 50l157 142l81 -70z" />
    <glyph glyph-name="Thorn" unicode="&#xde;" horiz-adv-x="534" 
d="M158 667h130l-11 -90h60q140 0 191 -77q31 -45 31 -124q0 -104 -61 -161q-62 -58 -187 -58h-86l-19 -157h-130zM263 465l-24 -196h55q68 0 100 28t32 78q0 49 -36 72q-29 18 -81 18h-46z" />
    <glyph glyph-name="germandbls" unicode="&#xdf;" horiz-adv-x="570" 
d="M180 0h-122l63 506q15 120 69 175q60 60 161 60q96 0 151 -53q48 -46 48 -124q0 -52 -26 -90q-28 -43 -76 -61q50 -20 78 -58q35 -44 35 -115q0 -107 -74 -178q-79 -76 -222 -76h-9l14 108q75 -1 121 45q41 43 41 104q0 48 -28 76q-34 33 -99 33h-5l13 104q54 -2 87 30
q29 27 29 68q0 38 -24 59q-22 20 -59 20q-40 0 -67 -25q-29 -27 -38 -103z" />
    <glyph glyph-name="agrave" unicode="&#xe0;" horiz-adv-x="572" 
d="M438 377l7 56h122l-53 -433h-122l7 56q-21 -28 -55 -49q-36 -21 -81 -21q-87 0 -142 55q-58 58 -58 153q0 115 67 185q66 68 171 68q47 0 86 -21q32 -17 51 -49zM318 339q-50 0 -85 -31q-43 -40 -43 -100q0 -55 33 -86q30 -28 80 -28q51 0 86 31q43 39 43 104
q0 45 -30 77q-31 33 -84 33zM352 510l-134 134l95 56l100 -150z" />
    <glyph glyph-name="aacute" unicode="&#xe1;" horiz-adv-x="572" 
d="M438 377l7 56h122l-53 -433h-122l7 56q-21 -28 -55 -49q-36 -21 -81 -21q-87 0 -142 55q-58 58 -58 153q0 115 67 185q66 68 171 68q47 0 86 -21q32 -17 51 -49zM318 339q-50 0 -85 -31q-43 -40 -43 -100q0 -55 33 -86q30 -28 80 -28q51 0 86 31q43 39 43 104
q0 45 -30 77q-31 33 -84 33zM429 700l81 -56l-166 -134l-51 40z" />
    <glyph glyph-name="acircumflex" unicode="&#xe2;" horiz-adv-x="572" 
d="M438 377l7 56h122l-53 -433h-122l7 56q-21 -28 -55 -49q-36 -21 -81 -21q-87 0 -142 55q-58 58 -58 153q0 115 67 185q66 68 171 68q47 0 86 -21q32 -17 51 -49zM318 339q-50 0 -85 -31q-43 -40 -43 -100q0 -55 33 -86q30 -28 80 -28q51 0 86 31q43 39 43 104
q0 45 -30 77q-31 33 -84 33zM351 602l-121 -92l-55 60l187 138l153 -138l-65 -60z" />
    <glyph glyph-name="atilde" unicode="&#xe3;" horiz-adv-x="572" 
d="M438 377l7 56h122l-53 -433h-122l7 56q-21 -28 -55 -49q-36 -21 -81 -21q-87 0 -142 55q-58 58 -58 153q0 115 67 185q66 68 171 68q47 0 86 -21q32 -17 51 -49zM318 339q-50 0 -85 -31q-43 -40 -43 -100q0 -55 33 -86q30 -28 80 -28q51 0 86 31q43 39 43 104
q0 45 -30 77q-31 33 -84 33zM487 647l54 -48q-23 -36 -44 -54q-30 -27 -69 -27q-32 0 -70 18l-32 14q-32 14 -49 14q-33 0 -60 -41l-55 48q16 27 41 50q34 31 83 31q27 0 63 -15l36 -15q36 -16 52 -16q31 0 50 41z" />
    <glyph glyph-name="adieresis" unicode="&#xe4;" horiz-adv-x="572" 
d="M438 377l7 56h122l-53 -433h-122l7 56q-21 -28 -55 -49q-36 -21 -81 -21q-87 0 -142 55q-58 58 -58 153q0 115 67 185q66 68 171 68q47 0 86 -21q32 -17 51 -49zM318 339q-50 0 -85 -31q-43 -40 -43 -100q0 -55 33 -86q30 -28 80 -28q51 0 86 31q43 39 43 104
q0 45 -30 77q-31 33 -84 33zM394 578q0 32 24 56t58 24q28 0 46 -20q16 -18 16 -44q0 -30 -22 -54q-23 -26 -59 -26q-27 0 -44 17q-19 19 -19 47zM186 578q0 32 24 56t58 24q28 0 46 -20q16 -18 16 -44q0 -30 -22 -54q-23 -26 -59 -26q-27 0 -44 17q-19 19 -19 47z" />
    <glyph glyph-name="aring" unicode="&#xe5;" horiz-adv-x="572" 
d="M438 377l7 56h122l-53 -433h-122l7 56q-21 -28 -55 -49q-36 -21 -81 -21q-87 0 -142 55q-58 58 -58 153q0 115 67 185q66 68 171 68q47 0 86 -21q32 -17 51 -49zM318 339q-50 0 -85 -31q-43 -40 -43 -100q0 -55 33 -86q30 -28 80 -28q51 0 86 31q43 39 43 104
q0 45 -30 77q-31 33 -84 33zM239 589q0 42 29 73q30 32 77 32q34 0 57 -22q26 -26 26 -65q0 -44 -30 -74q-27 -27 -69 -27q-41 0 -66 25q-24 24 -24 58zM295 595q0 -13 8 -23q8 -11 26 -11q21 0 32 13q12 12 12 30q0 15 -10 25t-25 10q-17 0 -29 -11q-14 -13 -14 -33z" />
    <glyph glyph-name="ae" unicode="&#xe6;" horiz-adv-x="810" 
d="M435 374q23 29 59 49q45 24 106 24q94 0 145 -51q66 -64 52 -200h-322q0 -58 32 -88q26 -26 78 -26q36 0 61 19q22 16 30 38l110 -18q-25 -63 -73 -97q-52 -38 -135 -38q-71 0 -112 23q-32 15 -61 48q-27 -35 -68 -53q-43 -18 -108 -18q-95 0 -141 45q-37 36 -37 94
q0 77 61 116q47 30 128 30q71 0 124 -30v21q0 49 -31 71q-23 18 -74 18q-57 0 -118 -23l12 97q65 22 131 22q51 0 92 -19q40 -18 59 -54zM171 126q0 -23 20 -37q25 -17 64 -17q38 0 63 14q30 17 30 47q0 26 -26 40q-22 12 -60 12q-42 0 -65 -14q-26 -16 -26 -45zM487 274
h205q-4 44 -33 68q-23 19 -63 19q-47 0 -75 -27q-24 -24 -34 -60z" />
    <glyph glyph-name="ccedilla" unicode="&#xe7;" horiz-adv-x="420" 
d="M438 421l-15 -120q-40 38 -103 38q-56 0 -90 -34q-40 -39 -40 -99q0 -49 30 -79q31 -33 82 -33q58 0 100 38l-14 -119q-47 -27 -114 -27q-99 0 -158 61q-54 56 -54 146q0 110 70 182q71 72 186 72q66 0 120 -26zM240 -46l88 -44l-142 -146l-64 36z" />
    <glyph glyph-name="egrave" unicode="&#xe8;" horiz-adv-x="526" 
d="M393 141l105 -25q-33 -67 -92 -101q-52 -29 -130 -29q-105 0 -161 60q-52 54 -52 140q0 57 19.5 109.5t55.5 87.5q64 64 173 64q95 0 148 -50q56 -54 56 -157q0 -31 -2 -44h-324q-7 -55 25 -87q26 -27 71 -27q41 0 66 14q25 16 42 45zM203 274h205q-2 39 -27 63
q-26 24 -68 24t-74 -28q-26 -24 -36 -59zM327 510l-134 134l95 56l100 -150z" />
    <glyph glyph-name="eacute" unicode="&#xe9;" horiz-adv-x="526" 
d="M393 141l105 -25q-33 -67 -92 -101q-52 -29 -130 -29q-105 0 -161 60q-52 54 -52 140q0 57 19.5 109.5t55.5 87.5q64 64 173 64q95 0 148 -50q56 -54 56 -157q0 -31 -2 -44h-324q-7 -55 25 -87q26 -27 71 -27q41 0 66 14q25 16 42 45zM203 274h205q-2 39 -27 63
q-26 24 -68 24t-74 -28q-26 -24 -36 -59zM414 700l81 -56l-166 -134l-51 40z" />
    <glyph glyph-name="ecircumflex" unicode="&#xea;" horiz-adv-x="526" 
d="M393 141l105 -25q-33 -67 -92 -101q-52 -29 -130 -29q-105 0 -161 60q-52 54 -52 140q0 57 19.5 109.5t55.5 87.5q64 64 173 64q95 0 148 -50q56 -54 56 -157q0 -31 -2 -44h-324q-7 -55 25 -87q26 -27 71 -27q41 0 66 14q25 16 42 45zM203 274h205q-2 39 -27 63
q-26 24 -68 24t-74 -28q-26 -24 -36 -59zM326 602l-121 -92l-55 60l187 138l153 -138l-65 -60z" />
    <glyph glyph-name="edieresis" unicode="&#xeb;" horiz-adv-x="526" 
d="M393 141l105 -25q-33 -67 -92 -101q-52 -29 -130 -29q-105 0 -161 60q-52 54 -52 140q0 57 19.5 109.5t55.5 87.5q64 64 173 64q95 0 148 -50q56 -54 56 -157q0 -31 -2 -44h-324q-7 -55 25 -87q26 -27 71 -27q41 0 66 14q25 16 42 45zM203 274h205q-2 39 -27 63
q-26 24 -68 24t-74 -28q-26 -24 -36 -59zM354 578q0 32 24 56t58 24q28 0 46 -20q16 -18 16 -44q0 -30 -22 -54q-23 -26 -59 -26q-27 0 -44 17q-19 19 -19 47zM146 578q0 32 24 56t58 24q28 0 46 -20q16 -18 16 -44q0 -30 -22 -54q-23 -26 -59 -26q-27 0 -44 17
q-19 19 -19 47z" />
    <glyph glyph-name="igrave" unicode="&#xec;" horiz-adv-x="238" 
d="M111 433h122l-53 -433h-122zM174 501l-90 168l104 32l54 -177z" />
    <glyph glyph-name="iacute" unicode="&#xed;" horiz-adv-x="238" 
d="M111 433h122l-53 -433h-122zM222 701l96 -32l-130 -168l-64 23z" />
    <glyph glyph-name="icircumflex" unicode="&#xee;" horiz-adv-x="238" 
d="M111 433h122l-53 -433h-122zM193 602l-98 -78l-50 56l160 128l128 -128l-62 -56z" />
    <glyph glyph-name="idieresis" unicode="&#xef;" horiz-adv-x="238" 
d="M111 433h122l-53 -433h-122zM217 578q0 32 24 56t58 24q28 0 46 -20q16 -18 16 -44q0 -30 -22 -54q-23 -26 -59 -26q-27 0 -44 17q-19 19 -19 47zM9 578q0 32 24 56t58 24q28 0 46 -20q16 -18 16 -44q0 -30 -22 -54q-23 -26 -59 -26q-27 0 -44 17q-19 19 -19 47z" />
    <glyph glyph-name="eth" unicode="&#xf0;" horiz-adv-x="548" 
d="M139 588l45 94q131 -11 220 -66l146 46l24 -68l-110 -32q38 -44 59 -104q24 -69 24 -138q0 -179 -88 -266q-70 -68 -184 -68q-96 0 -152 54q-61 57 -61 150q0 109 68 179q64 64 164 64q82 0 127 -50q-14 94 -82 140l-205 -73l-20 62l151 50q-63 26 -126 26zM310 329
q-55 0 -86 -35q-35 -38 -35 -102q0 -44 29 -73q27 -25 70 -25q51 0 82 33q37 39 37 105q0 46 -30 73q-26 24 -67 24z" />
    <glyph glyph-name="ntilde" unicode="&#xf1;" horiz-adv-x="536" 
d="M58 0l53 433h122l-7 -56q19 30 53 50q36 20 84 20q76 0 116 -40q34 -35 34 -95q0 -14 -8 -74l-29 -238h-122l25 201q6 54 6 69q0 37 -20 55q-18 18 -53 18q-42 0 -68 -26q-28 -30 -37 -96l-27 -221h-122zM477 647l54 -48q-23 -36 -44 -54q-30 -27 -69 -27q-32 0 -70 18
l-32 14q-32 14 -49 14q-33 0 -60 -41l-55 48q16 27 41 50q34 31 83 31q27 0 63 -15l36 -15q36 -16 52 -16q31 0 50 41z" />
    <glyph glyph-name="ograve" unicode="&#xf2;" horiz-adv-x="572" 
d="M336 447q109 0 171 -62q56 -58 56 -144q0 -108 -77 -182q-77 -73 -199 -73q-107 0 -167 60q-57 55 -57 147q0 52 20.5 100t54.5 81q75 73 198 73zM299 94q57 0 95 38q41 41 41 97q0 50 -32 80t-79 30q-54 0 -92 -35q-43 -40 -43 -103q0 -46 30 -76q31 -31 80 -31z
M357 510l-134 134l95 56l100 -150z" />
    <glyph glyph-name="oacute" unicode="&#xf3;" horiz-adv-x="572" 
d="M336 447q109 0 171 -62q56 -58 56 -144q0 -108 -77 -182q-77 -73 -199 -73q-107 0 -167 60q-57 55 -57 147q0 52 20.5 100t54.5 81q75 73 198 73zM299 94q57 0 95 38q41 41 41 97q0 50 -32 80t-79 30q-54 0 -92 -35q-43 -40 -43 -103q0 -46 30 -76q31 -31 80 -31z
M424 700l81 -56l-166 -134l-51 40z" />
    <glyph glyph-name="ocircumflex" unicode="&#xf4;" horiz-adv-x="572" 
d="M336 447q109 0 171 -62q56 -58 56 -144q0 -108 -77 -182q-77 -73 -199 -73q-107 0 -167 60q-57 55 -57 147q0 52 20.5 100t54.5 81q75 73 198 73zM299 94q57 0 95 38q41 41 41 97q0 50 -32 80t-79 30q-54 0 -92 -35q-43 -40 -43 -103q0 -46 30 -76q31 -31 80 -31z
M360 602l-121 -92l-55 60l187 138l153 -138l-65 -60z" />
    <glyph glyph-name="otilde" unicode="&#xf5;" horiz-adv-x="572" 
d="M336 447q109 0 171 -62q56 -58 56 -144q0 -108 -77 -182q-77 -73 -199 -73q-107 0 -167 60q-57 55 -57 147q0 52 20.5 100t54.5 81q75 73 198 73zM299 94q57 0 95 38q41 41 41 97q0 50 -32 80t-79 30q-54 0 -92 -35q-43 -40 -43 -103q0 -46 30 -76q31 -31 80 -31z
M477 647l54 -48q-23 -36 -44 -54q-30 -27 -69 -27q-32 0 -70 18l-32 14q-32 14 -49 14q-33 0 -60 -41l-55 48q16 27 41 50q34 31 83 31q27 0 63 -15l36 -15q36 -16 52 -16q31 0 50 41z" />
    <glyph glyph-name="odieresis" unicode="&#xf6;" horiz-adv-x="572" 
d="M336 447q109 0 171 -62q56 -58 56 -144q0 -108 -77 -182q-77 -73 -199 -73q-107 0 -167 60q-57 55 -57 147q0 52 20.5 100t54.5 81q75 73 198 73zM299 94q57 0 95 38q41 41 41 97q0 50 -32 80t-79 30q-54 0 -92 -35q-43 -40 -43 -103q0 -46 30 -76q31 -31 80 -31z
M374 578q0 32 24 56t58 24q28 0 46 -20q16 -18 16 -44q0 -30 -22 -54q-23 -26 -59 -26q-27 0 -44 17q-19 19 -19 47zM166 578q0 32 24 56t58 24q28 0 46 -20q16 -18 16 -44q0 -30 -22 -54q-23 -26 -59 -26q-27 0 -44 17q-19 19 -19 47z" />
    <glyph glyph-name="divide" unicode="&#xf7;" 
d="M221 511q0 29 21 50t50 21t50 -21t21 -50t-21 -50t-50 -21t-50 21t-21 50zM221 167q0 29 21 50t50 21t50 -21t21 -50t-21 -50t-50 -21t-50 21t-21 50zM75 283v112h434v-112h-434z" />
    <glyph glyph-name="oslash" unicode="&#xf8;" horiz-adv-x="588" 
d="M34 8l73 65q-35 52 -35 118q0 110 75 183t194 73q82 0 147 -39l78 69l44 -51l-74 -66q36 -54 36 -121q0 -106 -77 -180q-74 -73 -191 -73q-82 0 -146 37l-75 -67zM436 271l-183 -163q30 -14 55 -14q57 0 95 38q41 39 41 97q0 23 -8 42zM207 160l185 164q-27 15 -59 15
q-54 0 -92 -35q-43 -41 -43 -101q0 -23 9 -43z" />
    <glyph glyph-name="ugrave" unicode="&#xf9;" horiz-adv-x="537" 
d="M112 433h122l-26 -216q-5 -44 -5 -52q0 -35 18 -53q20 -22 61 -22t67 24q24 23 33 91l28 228h122l-29 -239q-8 -67 -28.5 -110t-65.5 -69q-51 -29 -129 -29q-91 0 -143 37q-58 43 -58 119q0 22 6 68zM325 510l-134 134l95 56l100 -150z" />
    <glyph glyph-name="uacute" unicode="&#xfa;" horiz-adv-x="537" 
d="M112 433h122l-26 -216q-5 -44 -5 -52q0 -35 18 -53q20 -22 61 -22t67 24q24 23 33 91l28 228h122l-29 -239q-8 -67 -28.5 -110t-65.5 -69q-51 -29 -129 -29q-91 0 -143 37q-58 43 -58 119q0 22 6 68zM422 700l81 -56l-166 -134l-51 40z" />
    <glyph glyph-name="ucircumflex" unicode="&#xfb;" horiz-adv-x="537" 
d="M112 433h122l-26 -216q-5 -44 -5 -52q0 -35 18 -53q20 -22 61 -22t67 24q24 23 33 91l28 228h122l-29 -239q-8 -67 -28.5 -110t-65.5 -69q-51 -29 -129 -29q-91 0 -143 37q-58 43 -58 119q0 22 6 68zM344 602l-121 -92l-55 60l187 138l153 -138l-65 -60z" />
    <glyph glyph-name="udieresis" unicode="&#xfc;" horiz-adv-x="537" 
d="M112 433h122l-26 -216q-5 -44 -5 -52q0 -35 18 -53q20 -22 61 -22t67 24q24 23 33 91l28 228h122l-29 -239q-8 -67 -28.5 -110t-65.5 -69q-51 -29 -129 -29q-91 0 -143 37q-58 43 -58 119q0 22 6 68zM372 578q0 32 24 56t58 24q28 0 46 -20q16 -18 16 -44q0 -30 -22 -54
q-23 -26 -59 -26q-27 0 -44 17q-19 19 -19 47zM164 578q0 32 24 56t58 24q28 0 46 -20q16 -18 16 -44q0 -30 -22 -54q-23 -26 -59 -26q-27 0 -44 17q-19 19 -19 47z" />
    <glyph glyph-name="yacute" unicode="&#xfd;" horiz-adv-x="538" 
d="M21 -229l195 294l-161 368h138l104 -246l150 246h142l-430 -662h-138zM410 700l81 -56l-166 -134l-51 40z" />
    <glyph glyph-name="thorn" unicode="&#xfe;" horiz-adv-x="572" 
d="M187 56l-35 -285h-122l117 958h122l-43 -352q27 32 64 51q38 19 80 19q86 0 136 -48q57 -55 57 -153q0 -124 -74 -198q-62 -62 -157 -62q-62 0 -101 25q-25 15 -44 45zM326 339q-55 0 -91 -36q-41 -40 -41 -97q0 -48 27 -78q29 -34 86 -34q54 0 89 35q40 40 40 103
q0 49 -32 79q-30 28 -78 28z" />
    <glyph glyph-name="ydieresis" unicode="&#xff;" horiz-adv-x="538" 
d="M21 -229l195 294l-161 368h138l104 -246l150 246h142l-430 -662h-138zM374 578q0 32 24 56t58 24q28 0 46 -20q16 -18 16 -44q0 -30 -22 -54q-23 -26 -59 -26q-27 0 -44 17q-19 19 -19 47zM166 578q0 32 24 56t58 24q28 0 46 -20q16 -18 16 -44q0 -30 -22 -54
q-23 -26 -59 -26q-27 0 -44 17q-19 19 -19 47z" />
    <glyph glyph-name="Amacron" unicode="&#x100;" horiz-adv-x="672" 
d="M533 0l-42 140h-269l-76 -140h-144l373 667h98l197 -667h-137zM276 246h190l-64 240zM242 745l11 86h366l-11 -86h-366z" />
    <glyph glyph-name="amacron" unicode="&#x101;" horiz-adv-x="572" 
d="M438 377l7 56h122l-53 -433h-122l7 56q-21 -28 -55 -49q-36 -21 -81 -21q-87 0 -142 55q-58 58 -58 153q0 115 67 185q66 68 171 68q47 0 86 -21q32 -17 51 -49zM318 339q-50 0 -85 -31q-43 -40 -43 -100q0 -55 33 -86q30 -28 80 -28q51 0 86 31q43 39 43 104
q0 45 -30 77q-31 33 -84 33zM156 539l10 80h364l-10 -80h-364z" />
    <glyph glyph-name="Abreve" unicode="&#x102;" horiz-adv-x="672" 
d="M533 0l-42 140h-269l-76 -140h-144l373 667h98l197 -667h-137zM276 246h190l-64 240zM515 870h92q-12 -62 -47 -99q-44 -45 -129 -45q-83 0 -123 40q-41 39 -41 104h88q2 -25 17 -40q18 -20 57 -20q35 0 57 17t29 43z" />
    <glyph glyph-name="abreve" unicode="&#x103;" horiz-adv-x="572" 
d="M438 377l7 56h122l-53 -433h-122l7 56q-21 -28 -55 -49q-36 -21 -81 -21q-87 0 -142 55q-58 58 -58 153q0 115 67 185q66 68 171 68q47 0 86 -21q32 -17 51 -49zM318 339q-50 0 -85 -31q-43 -40 -43 -100q0 -55 33 -86q30 -28 80 -28q51 0 86 31q43 39 43 104
q0 45 -30 77q-31 33 -84 33zM426 650h88q-9 -56 -49 -94q-48 -47 -126 -47q-72 0 -113 41q-39 40 -40 100h80q4 -27 21 -44q19 -19 54 -19t57 18q20 17 28 45z" />
    <glyph glyph-name="Aogonek" unicode="&#x104;" horiz-adv-x="672" 
d="M670 0h-65q-23 -16 -42 -37q-25 -28 -25 -50q0 -16 11 -24t28 -8q21 0 45 12l-22 -69q-30 -17 -64 -17q-37 0 -62 20q-24 21 -24 56t26 68q21 28 57 49l-42 140h-269l-76 -140h-144l373 667h98zM276 246h190l-64 240z" />
    <glyph glyph-name="aogonek" unicode="&#x105;" horiz-adv-x="572" 
d="M438 377l7 56h122l-53 -433h-40q-18 -14 -37 -38q-16 -22 -16 -45q0 -15 11 -25q10 -9 29 -9q22 0 49 12l-23 -67q-33 -17 -63 -17q-38 0 -59 18q-25 20 -25 53q0 37 26 71q20 26 50 47h-24l7 56q-55 -70 -136 -70q-87 0 -142 55q-58 58 -58 153q0 115 67 185
q66 68 171 68q47 0 86 -21q32 -17 51 -49zM318 339q-50 0 -85 -31q-43 -40 -43 -100q0 -55 33 -86q30 -28 80 -28q51 0 86 31q43 39 43 104q0 45 -30 77q-31 33 -84 33z" />
    <glyph glyph-name="Cacute" unicode="&#x106;" horiz-adv-x="607" 
d="M585 176l-19 -152q-75 -39 -165 -39q-143 0 -227 82q-89 85 -89 224q0 90 29.5 165t77.5 124q102 102 274 102q96 0 176 -41l-18 -150q-63 73 -170 73q-102 0 -167 -69q-67 -72 -67 -185q0 -90 56 -150q55 -58 144 -58q110 0 165 74zM455 728l-49 50l157 142l81 -70z" />
    <glyph glyph-name="cacute" unicode="&#x107;" horiz-adv-x="420" 
d="M438 421l-15 -120q-40 38 -103 38q-56 0 -90 -34q-40 -39 -40 -99q0 -49 30 -79q31 -33 82 -33q58 0 100 38l-14 -119q-47 -27 -114 -27q-99 0 -158 61q-54 56 -54 146q0 110 70 182q71 72 186 72q66 0 120 -26zM414 700l81 -56l-166 -134l-51 40z" />
    <glyph glyph-name="Ccircumflex" unicode="&#x108;" horiz-adv-x="607" 
d="M585 176l-19 -152q-75 -39 -165 -39q-143 0 -227 82q-89 85 -89 224q0 90 29.5 165t77.5 124q102 102 274 102q96 0 176 -41l-18 -150q-63 73 -170 73q-102 0 -167 -69q-67 -72 -67 -185q0 -90 56 -150q55 -58 144 -58q110 0 165 74zM483 820l-131 -88l-54 64l196 134
l164 -134l-66 -64z" />
    <glyph glyph-name="ccircumflex" unicode="&#x109;" horiz-adv-x="420" 
d="M438 421l-15 -120q-40 38 -103 38q-56 0 -90 -34q-40 -39 -40 -99q0 -49 30 -79q31 -33 82 -33q58 0 100 38l-14 -119q-47 -27 -114 -27q-99 0 -158 61q-54 56 -54 146q0 110 70 182q71 72 186 72q66 0 120 -26zM341 602l-121 -92l-55 60l187 138l153 -138l-65 -60z" />
    <glyph glyph-name="Cdotaccent" unicode="&#x10a;" horiz-adv-x="607" 
d="M585 176l-19 -152q-75 -39 -165 -39q-143 0 -227 82q-89 85 -89 224q0 90 29.5 165t77.5 124q102 102 274 102q96 0 176 -41l-18 -150q-63 73 -170 73q-102 0 -167 -69q-67 -72 -67 -185q0 -90 56 -150q55 -58 144 -58q110 0 165 74zM376 809q0 34 25 61q25 25 62 25
q33 0 52 -19t19 -50q0 -36 -26 -62q-25 -25 -59 -25q-31 0 -52 19q-21 21 -21 51z" />
    <glyph glyph-name="cdotaccent" unicode="&#x10b;" horiz-adv-x="420" 
d="M438 421l-15 -120q-40 38 -103 38q-56 0 -90 -34q-40 -39 -40 -99q0 -49 30 -79q31 -33 82 -33q58 0 100 38l-14 -119q-47 -27 -114 -27q-99 0 -158 61q-54 56 -54 146q0 110 70 182q71 72 186 72q66 0 120 -26zM243 582q0 36 24 60t59 24q32 0 52 -20q19 -21 19 -52
q0 -36 -23 -57q-25 -23 -59 -23q-33 0 -52 19q-20 20 -20 49z" />
    <glyph glyph-name="Ccaron" unicode="&#x10c;" horiz-adv-x="607" 
d="M585 176l-19 -152q-75 -39 -165 -39q-143 0 -227 82q-89 85 -89 224q0 90 29.5 165t77.5 124q102 102 274 102q96 0 176 -41l-18 -150q-63 73 -170 73q-102 0 -167 -69q-67 -72 -67 -185q0 -90 56 -150q55 -58 144 -58q110 0 165 74zM481 842l131 88l54 -64l-196 -134
l-164 134l66 64z" />
    <glyph glyph-name="ccaron" unicode="&#x10d;" horiz-adv-x="420" 
d="M438 421l-15 -120q-40 38 -103 38q-56 0 -90 -34q-40 -39 -40 -99q0 -49 30 -79q31 -33 82 -33q58 0 100 38l-14 -119q-47 -27 -114 -27q-99 0 -158 61q-54 56 -54 146q0 110 70 182q71 72 186 72q66 0 120 -26zM344 616l121 92l55 -60l-187 -138l-153 138l65 60z" />
    <glyph glyph-name="Dcaron" unicode="&#x10e;" horiz-adv-x="673" 
d="M158 667h174q167 0 255 -85q83 -79 83 -218q0 -168 -98 -263q-102 -101 -316 -101h-52h-128zM274 555l-54 -443h44q146 0 211 72q61 67 61 177q0 90 -58 142t-164 52h-40zM391 842l131 88l54 -64l-196 -134l-164 134l66 64z" />
    <glyph glyph-name="dcaron" unicode="&#x10f;" horiz-adv-x="730" 
d="M438 377l44 352h122l-90 -729h-122l7 56q-1 -2 -7.5 -10t-20 -20t-26.5 -20q-37 -20 -88 -20q-82 0 -134 52q-60 60 -60 161q0 115 68 183q28 29 71.5 47t87.5 18q48 0 90 -20q35 -18 58 -50zM316 339q-54 0 -87 -33q-39 -38 -39 -96q0 -57 34 -88q30 -28 79 -28
q55 0 90 35q40 40 40 100q0 49 -32 79q-34 31 -85 31zM610 478l106 212l114 -20l-136 -208z" />
    <glyph glyph-name="Dcroat" unicode="&#x110;" horiz-adv-x="673" 
d="M332 667q167 0 255 -85q83 -79 83 -218q0 -168 -98 -263q-102 -101 -316 -101h-50h-130l39 316h-86l12 100h86l31 251h174zM274 555l-17 -139h122l-12 -100h-122l-25 -204h44q146 0 211 72q61 67 61 177q0 90 -58 142t-164 52h-40z" />
    <glyph glyph-name="dcroat" unicode="&#x111;" horiz-adv-x="570" 
d="M438 377l24 182h-220l9 78h220l12 92h120l-12 -92h100l-9 -78h-100l-68 -559h-122l7 56q-1 -2 -7.5 -10t-20 -20t-26.5 -20q-37 -20 -88 -20q-82 0 -134 52q-60 60 -60 161q0 115 68 183q28 29 71.5 47t87.5 18q48 0 90 -20q35 -18 58 -50zM316 339q-54 0 -87 -33
q-39 -38 -39 -96q0 -57 34 -88q30 -28 79 -28q55 0 90 35q40 39 40 105q0 45 -32 74q-34 31 -85 31z" />
    <glyph glyph-name="Emacron" unicode="&#x112;" horiz-adv-x="496" 
d="M528 667l-14 -112h-240l-18 -149h230l-14 -112h-230l-22 -182h240l-14 -112h-240h-130l82 667h370zM166 745l11 86h366l-11 -86h-366z" />
    <glyph glyph-name="emacron" unicode="&#x113;" horiz-adv-x="526" 
d="M393 141l105 -25q-33 -67 -92 -101q-52 -29 -130 -29q-105 0 -161 60q-52 54 -52 140q0 57 19.5 109.5t55.5 87.5q64 64 173 64q95 0 148 -50q56 -54 56 -157q0 -31 -2 -44h-324q-7 -55 25 -87q26 -27 71 -27q41 0 66 14q25 16 42 45zM203 274h205q-2 39 -27 63
q-26 24 -68 24t-74 -28q-26 -24 -36 -59zM136 539l10 80h364l-10 -80h-364z" />
    <glyph glyph-name="Edotaccent" unicode="&#x116;" horiz-adv-x="496" 
d="M528 667l-14 -112h-240l-18 -149h230l-14 -112h-230l-22 -182h240l-14 -112h-240h-130l82 667h370zM281 809q0 34 25 61q25 25 62 25q33 0 52 -19t19 -50q0 -36 -26 -62q-25 -25 -59 -25q-31 0 -52 19q-21 21 -21 51z" />
    <glyph glyph-name="edotaccent" unicode="&#x117;" horiz-adv-x="526" 
d="M393 141l105 -25q-33 -67 -92 -101q-52 -29 -130 -29q-105 0 -161 60q-52 54 -52 140q0 57 19.5 109.5t55.5 87.5q64 64 173 64q95 0 148 -50q56 -54 56 -157q0 -31 -2 -44h-324q-7 -55 25 -87q26 -27 71 -27q41 0 66 14q25 16 42 45zM203 274h205q-2 39 -27 63
q-26 24 -68 24t-74 -28q-26 -24 -36 -59zM245 582q0 36 24 60t59 24q32 0 52 -20q19 -21 19 -52q0 -36 -23 -57q-25 -23 -59 -23q-33 0 -52 19q-20 20 -20 49z" />
    <glyph glyph-name="Eogonek" unicode="&#x118;" horiz-adv-x="496" 
d="M528 667l-14 -112h-240l-18 -149h230l-14 -112h-230l-22 -182h240l-14 -112h-40q-23 -16 -42 -37q-25 -28 -25 -50q0 -16 11 -24t28 -8q21 0 45 12l-22 -69q-30 -17 -64 -17q-37 0 -62 20q-24 21 -24 56t26 68q21 28 57 49h-258l82 667h370z" />
    <glyph glyph-name="eogonek" unicode="&#x119;" horiz-adv-x="526" 
d="M393 141l105 -25q-15 -39 -49 -68q-21 -19 -61 -45q-36 -25 -50 -45q-13 -20 -13 -39q0 -17 11 -27q10 -9 29 -9q22 0 49 12l-23 -67q-33 -17 -63 -17q-38 0 -59 18q-25 20 -25 53q0 37 26 71q15 20 36 36q-12 -3 -41 -3q-94 0 -150 60q-52 54 -52 143q0 55 19.5 107
t55.5 87q64 64 173 64q95 0 148 -50q56 -54 56 -157q0 -31 -2 -44h-324q-1 -6 -1 -16q0 -45 26 -71q26 -27 71 -27q41 0 66 14q25 16 42 45zM203 274h205q-2 39 -27 63q-26 24 -68 24t-74 -28q-26 -24 -36 -59z" />
    <glyph glyph-name="Ecaron" unicode="&#x11a;" horiz-adv-x="496" 
d="M528 667l-14 -112h-240l-18 -149h230l-14 -112h-230l-22 -182h240l-14 -112h-240h-130l82 667h370zM361 842l131 88l54 -64l-196 -134l-164 134l66 64z" />
    <glyph glyph-name="ecaron" unicode="&#x11b;" horiz-adv-x="526" 
d="M393 141l105 -25q-33 -67 -92 -101q-52 -29 -130 -29q-105 0 -161 60q-52 54 -52 140q0 57 19.5 109.5t55.5 87.5q64 64 173 64q95 0 148 -50q56 -54 56 -157q0 -31 -2 -44h-324q-7 -55 25 -87q26 -27 71 -27q41 0 66 14q25 16 42 45zM203 274h205q-2 39 -27 63
q-26 24 -68 24t-74 -28q-26 -24 -36 -59zM334 616l121 92l55 -60l-187 -138l-153 138l65 60z" />
    <glyph glyph-name="Gcircumflex" unicode="&#x11c;" horiz-adv-x="766" 
d="M446 245l14 112h306q-17 -184 -113 -280q-92 -92 -243 -92q-144 0 -234 87q-91 87 -91 229q0 85 31 157t82 121q107 103 272 103q102 0 177 -47q61 -38 100 -104l-117 -67q-25 46 -67 71q-46 29 -108 29q-98 0 -163 -65q-34 -34 -53.5 -85.5t-19.5 -105.5q0 -92 58 -150
q55 -55 143 -55q84 0 136 45q42 36 62 97h-172zM493 820l-131 -88l-54 64l196 134l164 -134l-66 -64z" />
    <glyph glyph-name="gcircumflex" unicode="&#x11d;" horiz-adv-x="564" 
d="M430 377l7 56h122l-51 -413q-5 -41 -8.5 -62.5t-18.5 -61t-39 -63.5q-61 -63 -186 -63q-108 0 -162 58q-45 47 -53 121h128q4 -33 25 -53q22 -22 66 -22q53 0 84 29q30 29 39 94l8 61q-23 -33 -54 -51q-35 -21 -81 -21q-89 0 -142 53q-57 57 -57 155q0 120 78 193
q62 60 154 60q55 0 91 -21q32 -19 50 -49zM312 339q-54 0 -87 -31q-42 -38 -42 -104q0 -48 32 -80q30 -30 76 -30q59 0 93 32q42 40 42 105q0 49 -33 80q-32 28 -81 28zM346 602l-121 -92l-55 60l187 138l153 -138l-65 -60z" />
    <glyph glyph-name="Gbreve" unicode="&#x11e;" horiz-adv-x="766" 
d="M446 245l14 112h306q-17 -184 -113 -280q-92 -92 -243 -92q-144 0 -234 87q-91 87 -91 229q0 85 31 157t82 121q107 103 272 103q102 0 177 -47q61 -38 100 -104l-117 -67q-25 46 -67 71q-46 29 -108 29q-98 0 -163 -65q-34 -34 -53.5 -85.5t-19.5 -105.5q0 -92 58 -150
q55 -55 143 -55q84 0 136 45q42 36 62 97h-172zM559 870h92q-12 -62 -47 -99q-44 -45 -129 -45q-83 0 -123 40q-41 39 -41 104h88q2 -25 17 -40q18 -20 57 -20q35 0 57 17t29 43z" />
    <glyph glyph-name="gbreve" unicode="&#x11f;" horiz-adv-x="564" 
d="M430 377l7 56h122l-51 -413q-5 -41 -8.5 -62.5t-18.5 -61t-39 -63.5q-61 -63 -186 -63q-108 0 -162 58q-45 47 -53 121h128q4 -33 25 -53q22 -22 66 -22q53 0 84 29q30 29 39 94l8 61q-23 -33 -54 -51q-35 -21 -81 -21q-89 0 -142 53q-57 57 -57 155q0 120 78 193
q62 60 154 60q55 0 91 -21q32 -19 50 -49zM312 339q-54 0 -87 -31q-42 -38 -42 -104q0 -48 32 -80q30 -30 76 -30q59 0 93 32q42 40 42 105q0 49 -33 80q-32 28 -81 28zM416 650h88q-9 -56 -49 -94q-48 -47 -126 -47q-72 0 -113 41q-39 40 -40 100h80q4 -27 21 -44
q19 -19 54 -19t57 18q20 17 28 45z" />
    <glyph glyph-name="Gdotaccent" unicode="&#x120;" horiz-adv-x="766" 
d="M446 245l14 112h306q-17 -184 -113 -280q-92 -92 -243 -92q-144 0 -234 87q-91 87 -91 229q0 85 31 157t82 121q107 103 272 103q102 0 177 -47q61 -38 100 -104l-117 -67q-25 46 -67 71q-46 29 -108 29q-98 0 -163 -65q-34 -34 -53.5 -85.5t-19.5 -105.5q0 -92 58 -150
q55 -55 143 -55q84 0 136 45q42 36 62 97h-172zM404 809q0 34 25 61q25 25 62 25q33 0 52 -19t19 -50q0 -36 -26 -62q-25 -25 -59 -25q-31 0 -52 19q-21 21 -21 51z" />
    <glyph glyph-name="gdotaccent" unicode="&#x121;" horiz-adv-x="564" 
d="M430 377l7 56h122l-51 -413q-5 -41 -8.5 -62.5t-18.5 -61t-39 -63.5q-61 -63 -186 -63q-108 0 -162 58q-45 47 -53 121h128q4 -33 25 -53q22 -22 66 -22q53 0 84 29q30 29 39 94l8 61q-23 -33 -54 -51q-35 -21 -81 -21q-89 0 -142 53q-57 57 -57 155q0 120 78 193
q62 60 154 60q55 0 91 -21q32 -19 50 -49zM312 339q-54 0 -87 -31q-42 -38 -42 -104q0 -48 32 -80q30 -30 76 -30q59 0 93 32q42 40 42 105q0 49 -33 80q-32 28 -81 28zM243 582q0 36 24 60t59 24q32 0 52 -20q19 -21 19 -52q0 -36 -23 -57q-25 -23 -59 -23q-33 0 -52 19
q-20 20 -20 49z" />
    <glyph glyph-name="Gcommaaccent" unicode="&#x122;" horiz-adv-x="766" 
d="M446 245l14 112h306q-17 -184 -113 -280q-92 -92 -243 -92q-144 0 -234 87q-91 87 -91 229q0 85 31 157t82 121q107 103 272 103q102 0 177 -47q61 -38 100 -104l-117 -67q-25 46 -67 71q-46 29 -108 29q-98 0 -163 -65q-34 -34 -53.5 -85.5t-19.5 -105.5q0 -92 58 -150
q55 -55 143 -55q84 0 136 45q42 36 62 97h-172zM260 -258l98 208l112 -16l-130 -204z" />
    <glyph glyph-name="gcommaaccent" unicode="&#x123;" horiz-adv-x="564" 
d="M430 377l7 56h122l-51 -413q-5 -41 -8.5 -62.5t-18.5 -61t-39 -63.5q-61 -63 -186 -63q-108 0 -162 58q-45 47 -53 121h128q4 -33 25 -53q22 -22 66 -22q53 0 84 29q30 29 39 94l8 61q-23 -33 -54 -51q-35 -21 -81 -21q-89 0 -142 53q-57 57 -57 155q0 120 78 193
q62 60 154 60q55 0 91 -21q32 -19 50 -49zM312 339q-54 0 -87 -31q-42 -38 -42 -104q0 -48 32 -80q30 -30 76 -30q59 0 93 32q42 40 42 105q0 49 -33 80q-32 28 -81 28zM445 690l-98 -208l-112 16l130 204z" />
    <glyph glyph-name="Hcircumflex" unicode="&#x124;" horiz-adv-x="694" 
d="M288 667l-32 -258h282l32 258h130l-82 -667h-130l36 297h-282l-36 -297h-130l82 667h130zM450 820l-131 -88l-54 64l196 134l164 -134l-66 -64z" />
    <glyph glyph-name="hcircumflex" unicode="&#x125;" horiz-adv-x="536" 
d="M58 0l90 729h122l-44 -352q19 30 53 50q36 20 84 20q76 0 116 -40q34 -35 34 -95q0 -14 -8 -74l-29 -238h-122l25 201q6 54 6 69q0 37 -20 55t-52 18q-43 0 -69 -26q-29 -29 -37 -96l-27 -221h-122zM221 852l-121 -92l-55 60l187 138l153 -138l-65 -60z" />
    <glyph glyph-name="Hbar" unicode="&#x126;" horiz-adv-x="694" 
d="M288 667l-7 -53h282l7 53h130l-7 -53h60l-11 -96h-60l-64 -518h-130l36 297h-282l-36 -297h-130l64 518h-60l11 96h60l7 53h130zM552 518h-282l-14 -109h282z" />
    <glyph glyph-name="hbar" unicode="&#x127;" horiz-adv-x="546" 
d="M69 0l69 559h-100l9 78h100l12 92h122l-12 -92h200l-9 -78h-200l-23 -182q19 30 53 50q36 20 83 20q78 0 116 -40q34 -35 34 -98q0 -20 -8 -80l-28 -229h-122l25 201q6 54 6 69q0 37 -20 55t-53 18q-42 0 -68 -26q-29 -29 -37 -96l-27 -221h-122z" />
    <glyph glyph-name="Imacron" unicode="&#x12a;" horiz-adv-x="282" 
d="M158 667h130l-82 -667h-130zM96 745l10 86h280l-10 -86h-280z" />
    <glyph glyph-name="imacron" unicode="&#x12b;" horiz-adv-x="238" 
d="M111 433h122l-53 -433h-122zM65 539l10 80h244l-10 -80h-244z" />
    <glyph glyph-name="Iogonek" unicode="&#x12e;" horiz-adv-x="282" 
d="M158 667h130l-82 -667q-23 -16 -42 -37q-25 -28 -25 -50q0 -16 11 -24t28 -8q21 0 45 12l-22 -69q-30 -17 -64 -17q-37 0 -62 20q-24 21 -24 56t26 68q21 28 57 49h-58z" />
    <glyph glyph-name="iogonek" unicode="&#x12f;" horiz-adv-x="238" 
d="M111 433h122l-53 -433q-18 -14 -37 -38q-16 -22 -16 -45q0 -15 11 -25q10 -9 29 -9q22 0 49 12l-23 -67q-33 -17 -63 -17q-38 0 -59 18q-25 20 -25 53q0 37 26 71q20 26 50 47h-64zM121 607q0 33 24 57q24 25 58 25q28 0 46 -18q19 -19 19 -47q0 -32 -24 -56
q-25 -25 -58 -25q-26 0 -46 18q-19 19 -19 46z" />
    <glyph glyph-name="Idotaccent" unicode="&#x130;" horiz-adv-x="282" 
d="M158 667h130l-82 -667h-130zM149 809q0 34 25 61q25 25 62 25q33 0 52 -19t19 -50q0 -36 -26 -62q-25 -25 -59 -25q-31 0 -52 19q-21 21 -21 51z" />
    <glyph glyph-name="dotlessi" unicode="&#x131;" horiz-adv-x="238" 
d="M111 433h122l-53 -433h-122z" />
    <glyph glyph-name="Jcircumflex" unicode="&#x134;" horiz-adv-x="390" 
d="M266 667h130l-55 -447q-6 -49 -11 -75.5t-19.5 -58.5t-38.5 -54q-50 -47 -136 -47q-59 0 -99 20q-30 15 -57 42l90 95q20 -36 62 -36q29 0 48 19q3 3 6 7.5t5.5 8.5t4.5 10t3.5 10t3.5 12t2.5 11.5t2 13t2 12.5t2 13.5t1.5 13.5zM343 820l-131 -88l-54 64l196 134
l164 -134l-66 -64z" />
    <glyph glyph-name="jcircumflex" unicode="&#x135;" horiz-adv-x="238" 
d="M111 433h122l-81 -662h-122zM193 602l-121 -92l-53 60l187 138l153 -138l-67 -60z" />
    <glyph glyph-name="Kcommaaccent" unicode="&#x136;" horiz-adv-x="617" 
d="M288 667l-34 -266l273 266h151l-319 -311l253 -356h-156l-192 289l-25 -24l-33 -265h-130l82 667h130zM170 -258l98 208l112 -16l-130 -204z" />
    <glyph glyph-name="kcommaaccent" unicode="&#x137;" horiz-adv-x="503" 
d="M148 729h122l-55 -446l180 150h149l-231 -192l187 -241h-146l-127 178l-28 -22l-19 -156h-122zM120 -258l98 208l112 -16l-130 -204z" />
    <glyph glyph-name="Lacute" unicode="&#x139;" horiz-adv-x="426" 
d="M158 667h130l-68 -555h206l-14 -112h-205h-131zM235 728l-49 50l157 142l81 -70z" />
    <glyph glyph-name="lacute" unicode="&#x13a;" horiz-adv-x="236" 
d="M148 729h122l-90 -729h-122zM273 980l81 -56l-166 -134l-51 40z" />
    <glyph glyph-name="Lcommaaccent" unicode="&#x13b;" horiz-adv-x="426" 
d="M158 667h130l-68 -555h206l-14 -112h-205h-131zM110 -258l98 208l112 -16l-130 -204z" />
    <glyph glyph-name="lcommaaccent" unicode="&#x13c;" horiz-adv-x="236" 
d="M148 729h122l-90 -729h-122zM-20 -258l98 208l112 -16l-130 -204z" />
    <glyph glyph-name="Lcaron" unicode="&#x13d;" horiz-adv-x="426" 
d="M158 667h130l-68 -555h206l-14 -112h-205h-131zM310 468l106 212l114 -20l-136 -208z" />
    <glyph glyph-name="lcaron" unicode="&#x13e;" horiz-adv-x="419" 
d="M148 729h122l-90 -729h-122zM280 478l106 212l114 -20l-136 -208z" />
    <glyph glyph-name="Ldot" unicode="&#x13f;" horiz-adv-x="426" 
d="M158 667h130l-68 -555h206l-14 -112h-205h-131zM307 326q0 34 25 61q25 25 62 25q33 0 52 -19t19 -50q0 -36 -26 -62q-25 -25 -59 -25q-31 0 -52 19q-21 21 -21 51z" />
    <glyph glyph-name="ldot" unicode="&#x140;" horiz-adv-x="407" 
d="M148 729h122l-90 -729h-122zM289 358q0 36 24 60t59 24q32 0 52 -20q19 -21 19 -52q0 -36 -23 -57q-25 -23 -59 -23q-33 0 -52 19q-20 20 -20 49z" />
    <glyph glyph-name="Lslash" unicode="&#x141;" horiz-adv-x="426" 
d="M158 667h130l-28 -226l110 65l-12 -100l-110 -65l-28 -229h206l-14 -112h-207h-129l34 278l-93 -55l13 100l92 55z" />
    <glyph glyph-name="lslash" unicode="&#x142;" horiz-adv-x="238" 
d="M147 729h122l-25 -209l80 54l-11 -90l-80 -54l-53 -430h-122l45 364l-81 -54l11 90l81 54z" />
    <glyph glyph-name="Nacute" unicode="&#x143;" horiz-adv-x="778" 
d="M206 0h-130l82 667h92l349 -445l55 445h130l-82 -667h-92l-349 447zM454 728l-49 50l157 142l81 -70z" />
    <glyph glyph-name="nacute" unicode="&#x144;" horiz-adv-x="536" 
d="M58 0l53 433h122l-7 -56q19 30 53 50q36 20 84 20q76 0 116 -40q34 -35 34 -95q0 -14 -8 -74l-29 -238h-122l25 201q6 54 6 69q0 37 -20 55q-18 18 -53 18q-42 0 -68 -26q-28 -30 -37 -96l-27 -221h-122zM401 700l81 -56l-166 -134l-51 40z" />
    <glyph glyph-name="Ncommaaccent" unicode="&#x145;" horiz-adv-x="778" 
d="M206 0h-130l82 667h92l349 -445l55 445h130l-82 -667h-92l-349 447zM295 -258l98 208l112 -16l-130 -204z" />
    <glyph glyph-name="ncommaaccent" unicode="&#x146;" horiz-adv-x="536" 
d="M58 0l53 433h122l-7 -56q19 30 53 50q36 20 84 20q76 0 116 -40q34 -35 34 -95q0 -14 -8 -74l-29 -238h-122l25 201q6 54 6 69q0 37 -20 55q-18 18 -53 18q-42 0 -68 -26q-28 -30 -37 -96l-27 -221h-122zM120 -258l98 208l112 -16l-130 -204z" />
    <glyph glyph-name="Ncaron" unicode="&#x147;" horiz-adv-x="778" 
d="M206 0h-130l82 667h92l349 -445l55 445h130l-82 -667h-92l-349 447zM490 842l131 88l54 -64l-196 -134l-164 134l66 64z" />
    <glyph glyph-name="ncaron" unicode="&#x148;" horiz-adv-x="536" 
d="M58 0l53 433h122l-7 -56q19 30 53 50q36 20 84 20q76 0 116 -40q34 -35 34 -95q0 -14 -8 -74l-29 -238h-122l25 201q6 54 6 69q0 37 -20 55q-18 18 -53 18q-42 0 -68 -26q-28 -30 -37 -96l-27 -221h-122zM364 616l121 92l55 -60l-187 -138l-153 138l65 60z" />
    <glyph glyph-name="Omacron" unicode="&#x14c;" horiz-adv-x="806" 
d="M484 682q142 0 231 -86q88 -84 88 -222q0 -80 -28.5 -154t-78.5 -126q-105 -109 -278 -109q-154 0 -245 93q-88 90 -88 221q0 81 31 154.5t84 123.5t127.5 77.5t156.5 27.5zM425 103q96 0 164 66q36 36 57.5 87.5t21.5 107.5q0 86 -53 141q-56 58 -152 58q-98 0 -166 -64
q-77 -72 -77 -190q0 -90 53 -145q58 -61 152 -61zM292 745l11 86h366l-11 -86h-366z" />
    <glyph glyph-name="omacron" unicode="&#x14d;" horiz-adv-x="572" 
d="M336 447q109 0 171 -62q56 -58 56 -144q0 -108 -77 -182q-77 -73 -199 -73q-107 0 -167 60q-57 55 -57 147q0 52 20.5 100t54.5 81q75 73 198 73zM299 94q57 0 95 38q41 41 41 97q0 50 -32 80t-79 30q-54 0 -92 -35q-43 -40 -43 -103q0 -46 30 -76q31 -31 80 -31z
M156 539l10 80h364l-10 -80h-364z" />
    <glyph glyph-name="Obreve" unicode="&#x14e;" horiz-adv-x="806" 
d="M484 682q142 0 231 -86q88 -84 88 -222q0 -80 -28.5 -154t-78.5 -126q-105 -109 -278 -109q-154 0 -245 93q-88 90 -88 221q0 81 31 154.5t84 123.5t127.5 77.5t156.5 27.5zM425 103q96 0 164 66q36 36 57.5 87.5t21.5 107.5q0 86 -53 141q-56 58 -152 58q-98 0 -166 -64
q-77 -72 -77 -190q0 -90 53 -145q58 -61 152 -61zM565 870h92q-12 -62 -47 -99q-44 -45 -129 -45q-83 0 -123 40q-41 39 -41 104h88q2 -25 17 -40q18 -20 57 -20q35 0 57 17t29 43z" />
    <glyph glyph-name="obreve" unicode="&#x14f;" horiz-adv-x="572" 
d="M336 447q109 0 171 -62q56 -58 56 -144q0 -108 -77 -182q-77 -73 -199 -73q-107 0 -167 60q-57 55 -57 147q0 52 20.5 100t54.5 81q75 73 198 73zM299 94q57 0 95 38q41 41 41 97q0 50 -32 80t-79 30q-54 0 -92 -35q-43 -40 -43 -103q0 -46 30 -76q31 -31 80 -31z
M426 650h88q-9 -56 -49 -94q-48 -47 -126 -47q-72 0 -113 41q-39 40 -40 100h80q4 -27 21 -44q19 -19 54 -19t57 18q20 17 28 45z" />
    <glyph glyph-name="Ohungarumlaut" unicode="&#x150;" horiz-adv-x="806" 
d="M484 682q142 0 231 -86q88 -84 88 -222q0 -80 -28.5 -154t-78.5 -126q-105 -109 -278 -109q-154 0 -245 93q-88 90 -88 221q0 81 31 154.5t84 123.5t127.5 77.5t156.5 27.5zM425 103q96 0 164 66q36 36 57.5 87.5t21.5 107.5q0 86 -53 141q-56 58 -152 58q-98 0 -166 -64
q-77 -72 -77 -190q0 -90 53 -145q58 -61 152 -61zM441 921l83 -59l-161 -134l-51 40zM641 920l83 -58l-161 -134l-51 40z" />
    <glyph glyph-name="ohungarumlaut" unicode="&#x151;" horiz-adv-x="572" 
d="M336 447q109 0 171 -62q56 -58 56 -144q0 -108 -77 -182q-77 -73 -199 -73q-107 0 -167 60q-57 55 -57 147q0 52 20.5 100t54.5 81q75 73 198 73zM299 94q57 0 95 38q41 41 41 97q0 50 -32 80t-79 30q-54 0 -92 -35q-43 -40 -43 -103q0 -46 30 -76q31 -31 80 -31z
M309 690l75 -58l-149 -134l-45 40zM497 689l75 -57l-149 -134l-45 40z" />
    <glyph glyph-name="OE" unicode="&#x152;" horiz-adv-x="1041" 
d="M1073 667l-14 -112h-234l-18 -149h224l-14 -112h-224l-22 -182h234l-14 -112h-234h-130l11 90q-32 -40 -84 -72q-62 -33 -159 -33q-139 0 -220 80q-90 88 -90 230q0 178 113 289q99 98 261 98q85 0 150 -30q59 -29 89 -75l11 90h364zM416 103q104 0 169 68q72 74 72 190
q0 92 -56 148q-55 55 -144 55q-102 0 -167 -65q-71 -73 -71 -193q0 -88 51 -144q55 -59 146 -59z" />
    <glyph glyph-name="oe" unicode="&#x153;" horiz-adv-x="882" 
d="M748 139l110 -18q-25 -63 -73 -97q-52 -38 -135 -38q-65 0 -112 23q-41 20 -69 61q-34 -39 -72 -60q-46 -24 -121 -24q-102 0 -159 61q-54 58 -54 150q0 112 71 183q67 67 183 67q59 0 107 -22q42 -19 74 -57q25 36 66 56q45 23 111 23q89 0 142 -51q66 -63 52 -200h-322
q0 -58 32 -88q26 -26 78 -26q36 0 61 19q22 16 30 38zM295 94q57 0 92 35q39 37 39 101q0 47 -32 79q-30 30 -78 30q-57 0 -90 -36q-36 -39 -36 -99q0 -46 28 -77q29 -33 77 -33zM560 274h205q-4 44 -33 68q-23 19 -63 19q-47 0 -75 -27q-24 -24 -34 -60z" />
    <glyph glyph-name="Racute" unicode="&#x154;" horiz-adv-x="576" 
d="M158 667h193q110 0 166 -58q47 -49 47 -128q0 -91 -55 -144q-48 -46 -123 -58l170 -279h-156l-145 268h-16l-33 -268h-130zM275 561l-25 -201h46q69 0 104 35q29 29 29 76q0 42 -27 65q-29 25 -86 25h-41zM352 728l-49 50l157 142l81 -70z" />
    <glyph glyph-name="racute" unicode="&#x155;" horiz-adv-x="360" 
d="M58 0l53 433h122l-8 -62q21 37 54 57q31 19 76 19q30 0 57 -10l-36 -109q-22 11 -47 11q-46 0 -76 -30q-40 -40 -50 -125l-23 -184h-122zM344 700l81 -56l-166 -134l-51 40z" />
    <glyph glyph-name="Rcommaaccent" unicode="&#x156;" horiz-adv-x="576" 
d="M158 667h193q110 0 166 -58q47 -49 47 -128q0 -91 -55 -144q-48 -46 -123 -58l170 -279h-156l-145 268h-16l-33 -268h-130zM275 561l-25 -201h46q69 0 104 35q29 29 29 76q0 42 -27 65q-29 25 -86 25h-41zM195 -258l98 208l112 -16l-130 -204z" />
    <glyph glyph-name="rcommaaccent" unicode="&#x157;" horiz-adv-x="360" 
d="M58 0l53 433h122l-8 -62q21 37 54 57q31 19 76 19q30 0 57 -10l-36 -109q-22 11 -47 11q-46 0 -76 -30q-40 -40 -50 -125l-23 -184h-122zM60 -258l98 208l112 -16l-130 -204z" />
    <glyph glyph-name="Rcaron" unicode="&#x158;" horiz-adv-x="576" 
d="M158 667h193q110 0 166 -58q47 -49 47 -128q0 -91 -55 -144q-48 -46 -123 -58l170 -279h-156l-145 268h-16l-33 -268h-130zM275 561l-25 -201h46q69 0 104 35q29 29 29 76q0 42 -27 65q-29 25 -86 25h-41zM361 842l131 88l54 -64l-196 -134l-164 134l66 64z" />
    <glyph glyph-name="rcaron" unicode="&#x159;" horiz-adv-x="360" 
d="M58 0l53 433h122l-8 -62q21 37 54 57q31 19 76 19q30 0 57 -10l-36 -109q-22 11 -47 11q-46 0 -76 -30q-40 -40 -50 -125l-23 -184h-122zM284 616l121 92l55 -60l-187 -138l-153 138l65 60z" />
    <glyph glyph-name="Sacute" unicode="&#x15a;" horiz-adv-x="534" 
d="M546 604l-79 -89q-38 57 -107 57q-46 0 -71 -23q-26 -23 -26 -56q0 -32 28 -51q12 -8 63 -30l45 -19q51 -22 83 -56q41 -44 41 -107q0 -114 -71 -182q-65 -63 -182 -63q-79 0 -137 38q-47 31 -85 88l95 81q20 -39 47 -61q33 -28 84 -28q57 0 87 33q25 27 25 69
q0 36 -30 61q-10 8 -19.5 13t-26 11.5t-22.5 8.5l-38 16q-56 24 -81 49q-41 40 -41 110q0 87 57 144q64 64 181 64q111 0 180 -78zM355 728l-49 50l157 142l81 -70z" />
    <glyph glyph-name="sacute" unicode="&#x15b;" horiz-adv-x="400" 
d="M399 403l-63 -75q-14 14 -31 22q-19 9 -41 9q-28 0 -41 -14q-9 -11 -9 -26q0 -14 9 -22t35 -16l37 -12q42 -14 67 -39q30 -31 30 -82q0 -66 -45 -111q-51 -51 -142 -51q-58 0 -102 21q-34 17 -66 51l73 74q16 -23 40 -36q26 -14 50 -14q31 0 47 13q17 14 17 38
q0 16 -11 27q-10 9 -43 21l-30 12q-36 14 -57 35q-29 29 -29 74q0 62 43 103q44 42 123 42q50 0 85 -14q25 -9 54 -30zM356 700l81 -56l-166 -134l-51 40z" />
    <glyph glyph-name="Scircumflex" unicode="&#x15c;" horiz-adv-x="534" 
d="M546 604l-79 -89q-38 57 -107 57q-46 0 -71 -23q-26 -23 -26 -56q0 -32 28 -51q12 -8 63 -30l45 -19q51 -22 83 -56q41 -44 41 -107q0 -114 -71 -182q-65 -63 -182 -63q-79 0 -137 38q-47 31 -85 88l95 81q20 -39 47 -61q33 -28 84 -28q57 0 87 33q25 27 25 69
q0 36 -30 61q-10 8 -19.5 13t-26 11.5t-22.5 8.5l-38 16q-56 24 -81 49q-41 40 -41 110q0 87 57 144q64 64 181 64q111 0 180 -78zM373 820l-131 -88l-54 64l196 134l164 -134l-66 -64z" />
    <glyph glyph-name="scircumflex" unicode="&#x15d;" horiz-adv-x="400" 
d="M399 403l-63 -75q-14 14 -31 22q-19 9 -41 9q-28 0 -41 -14q-9 -11 -9 -26q0 -14 9 -22t35 -16l37 -12q42 -14 67 -39q30 -31 30 -82q0 -66 -45 -111q-51 -51 -142 -51q-58 0 -102 21q-34 17 -66 51l73 74q16 -23 40 -36q26 -14 50 -14q31 0 47 13q17 14 17 38
q0 16 -11 27q-10 9 -43 21l-30 12q-36 14 -57 35q-29 29 -29 74q0 62 43 103q44 42 123 42q50 0 85 -14q25 -9 54 -30zM286 602l-121 -92l-55 60l187 138l153 -138l-65 -60z" />
    <glyph glyph-name="Scedilla" unicode="&#x15e;" horiz-adv-x="534" 
d="M546 604l-79 -89q-38 57 -107 57q-46 0 -71 -23q-26 -23 -26 -56q0 -32 28 -51q12 -8 63 -30l45 -19q51 -22 83 -56q41 -44 41 -107q0 -114 -71 -182q-65 -63 -182 -63q-79 0 -137 38q-47 31 -85 88l95 81q20 -39 47 -61q33 -28 84 -28q57 0 87 33q25 27 25 69
q0 36 -30 61q-10 8 -19.5 13t-26 11.5t-22.5 8.5l-38 16q-56 24 -81 49q-41 40 -41 110q0 87 57 144q64 64 181 64q111 0 180 -78zM264 -46l96 -44l-150 -154l-70 36z" />
    <glyph glyph-name="scedilla" unicode="&#x15f;" horiz-adv-x="400" 
d="M399 403l-63 -75q-14 14 -31 22q-19 9 -41 9q-28 0 -41 -14q-9 -11 -9 -26q0 -14 9 -22t35 -16l37 -12q42 -14 67 -39q30 -31 30 -82q0 -66 -45 -111q-51 -51 -142 -51q-58 0 -102 21q-34 17 -66 51l73 74q16 -23 40 -36q26 -14 50 -14q31 0 47 13q17 14 17 38
q0 16 -11 27q-10 9 -43 21l-30 12q-36 14 -57 35q-29 29 -29 74q0 62 43 103q44 42 123 42q50 0 85 -14q25 -9 54 -30zM180 -46l88 -44l-142 -146l-64 36z" />
    <glyph glyph-name="Scaron" unicode="&#x160;" horiz-adv-x="534" 
d="M546 604l-79 -89q-38 57 -107 57q-46 0 -71 -23q-26 -23 -26 -56q0 -32 28 -51q12 -8 63 -30l45 -19q51 -22 83 -56q41 -44 41 -107q0 -114 -71 -182q-65 -63 -182 -63q-79 0 -137 38q-47 31 -85 88l95 81q20 -39 47 -61q33 -28 84 -28q57 0 87 33q25 27 25 69
q0 36 -30 61q-10 8 -19.5 13t-26 11.5t-22.5 8.5l-38 16q-56 24 -81 49q-41 40 -41 110q0 87 57 144q64 64 181 64q111 0 180 -78zM371 842l131 88l54 -64l-196 -134l-164 134l66 64z" />
    <glyph glyph-name="scaron" unicode="&#x161;" horiz-adv-x="400" 
d="M399 403l-63 -75q-14 14 -31 22q-19 9 -41 9q-28 0 -41 -14q-9 -11 -9 -26q0 -14 9 -22t35 -16l37 -12q42 -14 67 -39q30 -31 30 -82q0 -66 -45 -111q-51 -51 -142 -51q-58 0 -102 21q-34 17 -66 51l73 74q16 -23 40 -36q26 -14 50 -14q31 0 47 13q17 14 17 38
q0 16 -11 27q-10 9 -43 21l-30 12q-36 14 -57 35q-29 29 -29 74q0 62 43 103q44 42 123 42q50 0 85 -14q25 -9 54 -30zM284 616l121 92l55 -60l-187 -138l-153 138l65 60z" />
    <glyph glyph-name="Tcedilla" unicode="&#x162;" horiz-adv-x="442" 
d="M504 555h-150l-68 -555h-130l68 555h-150l14 112h430zM204 -46l96 -44l-150 -154l-70 36z" />
    <glyph glyph-name="tcedilla" unicode="&#x163;" horiz-adv-x="270" 
d="M304 329h-84l-40 -329h-122l40 329h-48l13 104h48l18 148h122l-18 -148h84zM90 -46l88 -44l-142 -146l-64 36z" />
    <glyph glyph-name="Tcaron" unicode="&#x164;" horiz-adv-x="442" 
d="M504 555h-150l-68 -555h-130l68 555h-150l14 112h430zM322 842l131 88l54 -64l-196 -134l-164 134l66 64z" />
    <glyph glyph-name="tcaron" unicode="&#x165;" horiz-adv-x="390" 
d="M304 329h-84l-40 -329h-122l40 329h-48l13 104h48l18 148h122l-18 -148h84zM270 478l106 212l114 -20l-136 -208z" />
    <glyph glyph-name="Utilde" unicode="&#x168;" horiz-adv-x="686" 
d="M156 667h130l-45 -369q-7 -70 -7 -74q0 -58 34 -90q34 -31 91 -31q56 0 94 28q22 17 35.5 45.5t17.5 49t9 64.5l47 377h130l-48 -391q-7 -54 -12 -82t-22.5 -69.5t-44.5 -69.5q-69 -70 -207 -70q-132 0 -198 67q-55 56 -55 154q0 47 9 113zM580 869l62 -48
q-26 -38 -53 -61q-33 -28 -70 -28q-28 0 -74 19l-33 14q-40 16 -50 16q-20 0 -37 -16q-14 -14 -19 -24l-64 48q23 36 47 55q39 34 82 34q25 0 68 -19l38 -16q33 -14 50 -14q19 0 34 14q10 10 19 26z" />
    <glyph glyph-name="utilde" unicode="&#x169;" horiz-adv-x="537" 
d="M112 433h122l-26 -216q-5 -44 -5 -52q0 -35 18 -53q20 -22 61 -22t67 24q24 23 33 91l28 228h122l-29 -239q-8 -67 -28.5 -110t-65.5 -69q-51 -29 -129 -29q-91 0 -143 37q-58 43 -58 119q0 22 6 68zM475 647l54 -48q-23 -36 -44 -54q-30 -27 -69 -27q-32 0 -70 18
l-32 14q-32 14 -49 14q-33 0 -60 -41l-55 48q16 27 41 50q34 31 83 31q27 0 63 -15l36 -15q36 -16 52 -16q31 0 50 41z" />
    <glyph glyph-name="Umacron" unicode="&#x16a;" horiz-adv-x="686" 
d="M156 667h130l-45 -369q-7 -70 -7 -74q0 -58 34 -90q34 -31 91 -31q56 0 94 28q22 17 35.5 45.5t17.5 49t9 64.5l47 377h130l-48 -391q-7 -54 -12 -82t-22.5 -69.5t-44.5 -69.5q-69 -70 -207 -70q-132 0 -198 67q-55 56 -55 154q0 47 9 113zM248 745l11 86h366l-11 -86
h-366z" />
    <glyph glyph-name="umacron" unicode="&#x16b;" horiz-adv-x="537" 
d="M112 433h122l-26 -216q-5 -44 -5 -52q0 -35 18 -53q20 -22 61 -22t67 24q24 23 33 91l28 228h122l-29 -239q-8 -67 -28.5 -110t-65.5 -69q-51 -29 -129 -29q-91 0 -143 37q-58 43 -58 119q0 22 6 68zM154 539l10 80h364l-10 -80h-364z" />
    <glyph glyph-name="Ubreve" unicode="&#x16c;" horiz-adv-x="686" 
d="M156 667h130l-45 -369q-7 -70 -7 -74q0 -58 34 -90q34 -31 91 -31q56 0 94 28q22 17 35.5 45.5t17.5 49t9 64.5l47 377h130l-48 -391q-7 -54 -12 -82t-22.5 -69.5t-44.5 -69.5q-69 -70 -207 -70q-132 0 -198 67q-55 56 -55 154q0 47 9 113zM521 870h92q-12 -62 -47 -99
q-44 -45 -129 -45q-83 0 -123 40q-41 39 -41 104h88q2 -25 17 -40q18 -20 57 -20q35 0 57 17t29 43z" />
    <glyph glyph-name="ubreve" unicode="&#x16d;" horiz-adv-x="537" 
d="M112 433h122l-26 -216q-5 -44 -5 -52q0 -35 18 -53q20 -22 61 -22t67 24q24 23 33 91l28 228h122l-29 -239q-8 -67 -28.5 -110t-65.5 -69q-51 -29 -129 -29q-91 0 -143 37q-58 43 -58 119q0 22 6 68zM424 650h88q-9 -56 -49 -94q-48 -47 -126 -47q-72 0 -113 41
q-39 40 -40 100h80q4 -27 21 -44q19 -19 54 -19t57 18q20 17 28 45z" />
    <glyph glyph-name="Uring" unicode="&#x16e;" horiz-adv-x="686" 
d="M156 667h130l-45 -369q-7 -70 -7 -74q0 -58 34 -90q34 -31 91 -31q56 0 94 28q22 17 35.5 45.5t17.5 49t9 64.5l47 377h130l-48 -391q-7 -54 -12 -82t-22.5 -69.5t-44.5 -69.5q-69 -70 -207 -70q-132 0 -198 67q-55 56 -55 154q0 47 9 113zM337 808q0 44 32 78
q33 34 79 34q39 0 64 -25t25 -65q0 -44 -33 -77q-33 -31 -76 -31t-66 25q-25 25 -25 61zM397 815q0 -14 8 -22q10 -12 28 -12q20 0 32 14t12 33q0 14 -10 24q-9 9 -25 9q-18 0 -31 -13q-14 -13 -14 -33z" />
    <glyph glyph-name="uring" unicode="&#x16f;" horiz-adv-x="537" 
d="M112 433h122l-26 -216q-5 -44 -5 -52q0 -35 18 -53q20 -22 61 -22t67 24q24 23 33 91l28 228h122l-29 -239q-8 -67 -28.5 -110t-65.5 -69q-51 -29 -129 -29q-91 0 -143 37q-58 43 -58 119q0 22 6 68zM247 589q0 42 29 73q30 32 77 32q34 0 57 -22q26 -26 26 -65
q0 -44 -30 -74q-27 -27 -69 -27q-41 0 -66 25q-24 24 -24 58zM303 595q0 -13 8 -23q8 -11 26 -11q21 0 32 13q12 12 12 30q0 15 -10 25t-25 10q-17 0 -29 -11q-14 -13 -14 -33z" />
    <glyph glyph-name="Uhungarumlaut" unicode="&#x170;" horiz-adv-x="686" 
d="M156 667h130l-45 -369q-7 -70 -7 -74q0 -58 34 -90q34 -31 91 -31q56 0 94 28q22 17 35.5 45.5t17.5 49t9 64.5l47 377h130l-48 -391q-7 -54 -12 -82t-22.5 -69.5t-44.5 -69.5q-69 -70 -207 -70q-132 0 -198 67q-55 56 -55 154q0 47 9 113zM391 921l83 -59l-161 -134
l-51 40zM591 920l83 -58l-161 -134l-51 40z" />
    <glyph glyph-name="uhungarumlaut" unicode="&#x171;" horiz-adv-x="537" 
d="M112 433h122l-26 -216q-5 -44 -5 -52q0 -35 18 -53q20 -22 61 -22t67 24q24 23 33 91l28 228h122l-29 -239q-8 -67 -28.5 -110t-65.5 -69q-51 -29 -129 -29q-91 0 -143 37q-58 43 -58 119q0 22 6 68zM307 690l75 -58l-149 -134l-45 40zM495 689l75 -57l-149 -134l-45 40z
" />
    <glyph glyph-name="Uogonek" unicode="&#x172;" horiz-adv-x="686" 
d="M156 667h130l-45 -369q-7 -58 -7 -73q0 -60 34 -91t91 -31q56 0 94 28q22 17 35.5 45.5t17.5 49t9 64.5l47 377h130l-52 -423q-5 -41 -9 -63.5t-15.5 -51.5t-30.5 -52q-28 -33 -91 -69q-54 -29 -73 -45q-28 -24 -28 -50q0 -16 11 -24t28 -8q21 0 45 12l-22 -69
q-30 -17 -64 -17q-37 0 -62 20q-24 20 -24 56q0 29 19 58q15 23 44 45q-8 -1 -24 -1q-117 0 -184 67q-55 56 -55 150q0 54 9 117z" />
    <glyph glyph-name="uogonek" unicode="&#x173;" horiz-adv-x="538" 
d="M112 433h122l-26 -216q-5 -44 -5 -52q0 -35 18 -53q20 -22 61 -22t67 24q24 23 33 91l28 228h122l-32 -262q-5 -47 -21 -81q-9 -20 -25 -38t-27.5 -27t-32.5 -23q-37 -26 -49 -44q-13 -18 -13 -39q0 -17 11 -27q10 -9 29 -9q22 0 49 12l-23 -67q-33 -17 -63 -17
q-38 0 -59 18q-25 20 -25 53q0 34 20 63q17 25 42 44q-17 -3 -38 -3q-86 0 -138 37q-58 40 -58 119q0 22 6 68z" />
    <glyph glyph-name="Ydieresis" unicode="&#x178;" horiz-adv-x="590" 
d="M227 0l37 305l-184 362h148l114 -232l172 232h160l-280 -362l-37 -305h-130zM424 800q0 36 23 59q23 24 57 24q28 0 46 -18t18 -45q0 -34 -24 -58q-23 -23 -55 -23q-30 0 -48 18q-17 17 -17 43zM200 800q0 36 23 59q23 24 57 24q28 0 46 -18t18 -45q0 -34 -24 -58
q-23 -23 -55 -23q-30 0 -48 18q-17 17 -17 43z" />
    <glyph glyph-name="Zacute" unicode="&#x179;" horiz-adv-x="584" 
d="M644 667l-392 -555h308l-14 -112h-524l392 555h-273l14 112h489zM365 728l-49 50l157 142l81 -70z" />
    <glyph glyph-name="zacute" unicode="&#x17a;" horiz-adv-x="484" 
d="M525 433l-286 -329h229l-13 -104h-443l286 329h-208l13 104h422zM396 700l81 -56l-166 -134l-51 40z" />
    <glyph glyph-name="Zdotaccent" unicode="&#x17b;" horiz-adv-x="584" 
d="M644 667l-392 -555h308l-14 -112h-524l392 555h-273l14 112h489zM317 809q0 34 25 61q25 25 62 25q33 0 52 -19t19 -50q0 -36 -26 -62q-25 -25 -59 -25q-31 0 -52 19q-21 21 -21 51z" />
    <glyph glyph-name="zdotaccent" unicode="&#x17c;" horiz-adv-x="484" 
d="M525 433l-286 -329h229l-13 -104h-443l286 329h-208l13 104h422zM235 582q0 36 24 60t59 24q32 0 52 -20q19 -21 19 -52q0 -36 -23 -57q-25 -23 -59 -23q-33 0 -52 19q-20 20 -20 49z" />
    <glyph glyph-name="Zcaron" unicode="&#x17d;" horiz-adv-x="584" 
d="M644 667l-392 -555h308l-14 -112h-524l392 555h-273l14 112h489zM411 842l131 88l54 -64l-196 -134l-164 134l66 64z" />
    <glyph glyph-name="zcaron" unicode="&#x17e;" horiz-adv-x="484" 
d="M525 433l-286 -329h229l-13 -104h-443l286 329h-208l13 104h422zM324 616l121 92l55 -60l-187 -138l-153 138l65 60z" />
    <glyph glyph-name="uni018F" unicode="&#x18f;" horiz-adv-x="763" 
d="M88 377h538q-1 81 -56 136q-51 51 -136 51q-64 0 -113 -29q-41 -26 -69 -61l-114 61q56 67 117 102q77 45 185 45q148 0 232 -84q88 -88 88 -236q0 -180 -114 -290q-54 -51 -110 -69t-128 -18q-85 0 -145 23t-107 85q-41 54 -59 130.5t-9 153.5zM613 277h-390
q4 -81 54 -130q46 -44 126 -44q93 0 151 59q46 48 59 115z" />
    <glyph glyph-name="florin" unicode="&#x192;" horiz-adv-x="568" 
d="M272 347h-60l22 86h60l34 130q23 87 67 129q50 48 128 48q50 0 85 -19l-27 -107q-28 15 -54 15q-28 0 -47 -17q-19 -19 -30 -60l-32 -119h108l-22 -86h-108l-65 -266q-20 -79 -41 -125.5t-54 -77.5q-63 -58 -178 -58q-26 0 -49 4l27 112q17 -3 32 -3q51 0 82 26
q34 30 58 131z" />
    <glyph glyph-name="uni01CF" unicode="&#x1cf;" horiz-adv-x="282" 
d="M158 667h130l-82 -667h-130zM244 840l102 80l47 -54l-161 -124l-131 124l61 54z" />
    <glyph glyph-name="uni01D0" unicode="&#x1d0;" horiz-adv-x="238" 
d="M111 433h122l-53 -433h-122zM196 630l98 78l50 -56l-160 -128l-128 128l62 56z" />
    <glyph glyph-name="uni01DD" unicode="&#x1dd;" horiz-adv-x="525" 
d="M201 297l-115 19q30 59 81 93q57 38 138 38q96 0 154 -55q57 -55 57 -148q0 -119 -71 -191q-66 -67 -171 -67q-97 0 -150 54q-36 37 -50.5 94t-7.5 113h324q4 50 -25 79q-23 25 -69 25q-35 0 -60 -15q-24 -16 -35 -39zM381 169h-209q3 -46 32 -73q25 -24 65 -24
q48 0 77 27q28 28 35 70z" />
    <glyph glyph-name="Gcaron" unicode="&#x1e6;" horiz-adv-x="766" 
d="M446 245l14 112h306q-17 -184 -113 -280q-92 -92 -243 -92q-144 0 -234 87q-91 87 -91 229q0 85 31 157t82 121q107 103 272 103q102 0 177 -47q61 -38 100 -104l-117 -67q-25 46 -67 71q-46 29 -108 29q-98 0 -163 -65q-34 -34 -53.5 -85.5t-19.5 -105.5q0 -92 58 -150
q55 -55 143 -55q84 0 136 45q42 36 62 97h-172zM484 842l131 88l54 -64l-196 -134l-164 134l66 64z" />
    <glyph glyph-name="gcaron" unicode="&#x1e7;" horiz-adv-x="564" 
d="M430 377l7 56h122l-51 -413q-5 -41 -8.5 -62.5t-18.5 -61t-39 -63.5q-61 -63 -186 -63q-108 0 -162 58q-45 47 -53 121h128q4 -33 25 -53q22 -22 66 -22q53 0 84 29q30 29 39 94l8 61q-23 -33 -54 -51q-35 -21 -81 -21q-89 0 -142 53q-57 57 -57 155q0 120 78 193
q62 60 154 60q55 0 91 -21q32 -19 50 -49zM312 339q-54 0 -87 -31q-42 -38 -42 -104q0 -48 32 -80q30 -30 76 -30q59 0 93 32q42 40 42 105q0 49 -33 80q-32 28 -81 28zM334 616l121 92l55 -60l-187 -138l-153 138l65 60z" />
    <glyph glyph-name="AEacute" unicode="&#x1fc;" horiz-adv-x="920" 
d="M533 0l-42 140h-269l-76 -140h-140l371 667h352l30 -112h-245l42 -149h241l32 -112h-242l51 -182h246l30 -112h-381zM276 246h190l-62 240zM525 728l-49 50l157 142l81 -70z" />
    <glyph glyph-name="aeacute" unicode="&#x1fd;" horiz-adv-x="810" 
d="M435 374q23 29 59 49q45 24 106 24q94 0 145 -51q66 -64 52 -200h-322q0 -58 32 -88q26 -26 78 -26q36 0 61 19q22 16 30 38l110 -18q-25 -63 -73 -97q-52 -38 -135 -38q-71 0 -112 23q-32 15 -61 48q-27 -35 -68 -53q-43 -18 -108 -18q-95 0 -141 45q-37 36 -37 94
q0 77 61 116q47 30 128 30q71 0 124 -30v21q0 49 -31 71q-23 18 -74 18q-57 0 -118 -23l12 97q65 22 131 22q51 0 92 -19q40 -18 59 -54zM171 126q0 -23 20 -37q25 -17 64 -17q38 0 63 14q30 17 30 47q0 26 -26 40q-22 12 -60 12q-42 0 -65 -14q-26 -16 -26 -45zM487 274
h205q-4 44 -33 68q-23 19 -63 19q-47 0 -75 -27q-24 -24 -34 -60zM559 700l81 -56l-166 -134l-51 40z" />
    <glyph glyph-name="Scommaaccent" unicode="&#x218;" horiz-adv-x="534" 
d="M546 604l-79 -89q-38 57 -107 57q-46 0 -71 -23q-26 -23 -26 -56q0 -32 28 -51q12 -8 63 -30l45 -19q51 -22 83 -56q41 -44 41 -107q0 -114 -71 -182q-65 -63 -182 -63q-79 0 -137 38q-47 31 -85 88l95 81q20 -39 47 -61q33 -28 84 -28q57 0 87 33q25 27 25 69
q0 36 -30 61q-10 8 -19.5 13t-26 11.5t-22.5 8.5l-38 16q-56 24 -81 49q-41 40 -41 110q0 87 57 144q64 64 181 64q111 0 180 -78zM155 -258l98 208l112 -16l-130 -204z" />
    <glyph glyph-name="scommaaccent" unicode="&#x219;" horiz-adv-x="400" 
d="M399 403l-63 -75q-14 14 -31 22q-19 9 -41 9q-28 0 -41 -14q-9 -11 -9 -26q0 -14 9 -22t35 -16l37 -12q42 -14 67 -39q30 -31 30 -82q0 -66 -45 -111q-51 -51 -142 -51q-58 0 -102 21q-34 17 -66 51l73 74q16 -23 40 -36q26 -14 50 -14q31 0 47 13q17 14 17 38
q0 16 -11 27q-10 9 -43 21l-30 12q-36 14 -57 35q-29 29 -29 74q0 62 43 103q44 42 123 42q50 0 85 -14q25 -9 54 -30zM70 -258l98 208l112 -16l-130 -204z" />
    <glyph glyph-name="Tcommaaccent" unicode="&#x21a;" horiz-adv-x="442" 
d="M504 555h-150l-68 -555h-130l68 555h-150l14 112h430zM73 -258l98 208l112 -16l-130 -204z" />
    <glyph glyph-name="tcommaaccent" unicode="&#x21b;" horiz-adv-x="270" 
d="M304 329h-84l-40 -329h-122l40 329h-48l13 104h48l18 148h122l-18 -148h84zM-20 -258l98 208l112 -16l-130 -204z" />
    <glyph glyph-name="uni0228" unicode="&#x228;" horiz-adv-x="496" 
d="M528 667l-14 -112h-240l-18 -149h230l-14 -112h-230l-22 -182h240l-14 -112h-240h-130l82 667h370zM264 -46l96 -44l-150 -154l-70 36z" />
    <glyph glyph-name="uni0229" unicode="&#x229;" horiz-adv-x="526" 
d="M393 141l105 -25q-33 -67 -92 -101q-52 -29 -130 -29q-105 0 -161 60q-52 54 -52 140q0 57 19.5 109.5t55.5 87.5q64 64 173 64q95 0 148 -50q56 -54 56 -157q0 -31 -2 -44h-324q-7 -55 25 -87q26 -27 71 -27q41 0 66 14q25 16 42 45zM203 274h205q-2 39 -27 63
q-26 24 -68 24t-74 -28q-26 -24 -36 -59zM274 -46l88 -44l-142 -146l-64 36z" />
    <glyph glyph-name="uni0237" unicode="&#x237;" horiz-adv-x="238" 
d="M111 433h122l-81 -662h-122z" />
    <glyph glyph-name="uni0259" unicode="&#x259;" horiz-adv-x="525" 
d="M201 297l-115 19q30 59 81 93q57 38 138 38q96 0 154 -55q57 -55 57 -148q0 -119 -71 -191q-66 -67 -171 -67q-97 0 -150 54q-36 37 -50.5 94t-7.5 113h324q4 50 -25 79q-23 25 -69 25q-35 0 -60 -15q-24 -16 -35 -39zM381 169h-209q3 -46 32 -73q25 -24 65 -24
q48 0 77 27q28 28 35 70z" />
    <glyph glyph-name="afii57929" unicode="&#x2bc;" 
d="M160 478l106 212l114 -20l-136 -208z" />
    <glyph glyph-name="circumflex" unicode="&#x2c6;" 
d="M326 602l-121 -92l-55 60l187 138l153 -138l-65 -60z" />
    <glyph glyph-name="caron" unicode="&#x2c7;" 
d="M324 616l121 92l55 -60l-187 -138l-153 138l65 60z" />
    <glyph glyph-name="uni02C9" unicode="&#x2c9;" 
d="M136 539l10 80h364l-10 -80h-364z" />
    <glyph glyph-name="breve" unicode="&#x2d8;" 
d="M406 650h88q-9 -56 -49 -94q-48 -47 -126 -47q-72 0 -113 41q-39 40 -40 100h80q4 -27 21 -44q19 -19 54 -19t57 18q20 17 28 45z" />
    <glyph glyph-name="dotaccent" unicode="&#x2d9;" 
d="M245 582q0 36 24 60t59 24q32 0 52 -20q19 -21 19 -52q0 -36 -23 -57q-25 -23 -59 -23q-33 0 -52 19q-20 20 -20 49z" />
    <glyph glyph-name="ring" unicode="&#x2da;" 
d="M229 589q0 42 29 73q30 32 77 32q34 0 57 -22q26 -26 26 -65q0 -44 -30 -74q-27 -27 -69 -27q-41 0 -66 25q-24 24 -24 58zM285 595q0 -13 8 -23q8 -11 26 -11q21 0 32 13q12 12 12 30q0 15 -10 25t-25 10q-17 0 -29 -11q-14 -13 -14 -33z" />
    <glyph glyph-name="ogonek" unicode="&#x2db;" 
d="M280 0h58q-29 -18 -43 -33q-22 -22 -22 -49q0 -16 12 -24q9 -7 27 -7q25 0 50 12l-23 -67q-30 -17 -66 -17q-40 0 -62 22q-19 19 -19 49q0 40 38 77q20 20 50 37z" />
    <glyph glyph-name="tilde" unicode="&#x2dc;" 
d="M457 647l54 -48q-23 -36 -44 -54q-30 -27 -69 -27q-32 0 -70 18l-32 14q-32 14 -49 14q-33 0 -60 -41l-55 48q16 27 41 50q34 31 83 31q27 0 63 -15l36 -15q36 -16 52 -16q31 0 50 41z" />
    <glyph glyph-name="hungarumlaut" unicode="&#x2dd;" 
d="M289 690l75 -58l-149 -134l-45 40zM477 689l75 -57l-149 -134l-45 40z" />
    <glyph glyph-name="acutecomb" unicode="&#x301;" horiz-adv-x="2" 
d="M-145 700l81 -56l-166 -134l-51 40z" />
    <glyph glyph-name="uni0394" unicode="&#x394;" horiz-adv-x="668" 
d="M650 0h-632l248 667h132zM333 518l-139 -406h278z" />
    <glyph glyph-name="uni0394" unicode="&#x2206;" horiz-adv-x="668" 
d="M650 0h-632l248 667h132zM333 518l-139 -406h278z" />
    <glyph glyph-name="uni03A9" unicode="&#x3a9;" horiz-adv-x="627" 
d="M34 112h142q-36 19 -71 54q-75 78 -75 198q0 140 86 230q85 88 222 88t222 -88q86 -90 86 -230q0 -120 -75 -198q-35 -35 -71 -54h142v-112h-268v112q45 22 73 54q65 70 65 189q0 104 -61 163q-48 46 -113 46t-113 -46q-61 -61 -61 -165q0 -117 65 -187q28 -32 73 -54
v-112h-268v112z" />
    <glyph glyph-name="uni03A9" unicode="&#x2126;" horiz-adv-x="627" 
d="M34 112h142q-36 19 -71 54q-75 78 -75 198q0 140 86 230q85 88 222 88t222 -88q86 -90 86 -230q0 -120 -75 -198q-35 -35 -71 -54h142v-112h-268v112q45 22 73 54q65 70 65 189q0 104 -61 163q-48 46 -113 46t-113 -46q-61 -61 -61 -165q0 -117 65 -187q28 -32 73 -54
v-112h-268v112z" />
    <glyph glyph-name="pi" unicode="&#x3c0;" horiz-adv-x="621" 
d="M274 0h-122v329h-76v104h562v-104h-76v-329h-122v329h-166v-329z" />
    <glyph glyph-name="afii10023" unicode="&#x401;" horiz-adv-x="496" 
d="M528 667l-14 -112h-240l-18 -149h230l-14 -112h-230l-22 -182h240l-14 -112h-240h-130l82 667h370zM400 800q0 36 23 59q23 24 57 24q28 0 46 -18t18 -45q0 -34 -24 -58q-23 -23 -55 -23q-30 0 -48 18q-17 17 -17 43zM176 800q0 36 23 59q23 24 57 24q28 0 46 -18t18 -45
q0 -34 -24 -58q-23 -23 -55 -23q-30 0 -48 18q-17 17 -17 43z" />
    <glyph glyph-name="afii10051" unicode="&#x402;" horiz-adv-x="672" 
d="M564 555h-220l-21 -170q66 23 134 23q104 0 159 -49q59 -53 59 -152q0 -105 -65 -164q-56 -50 -161 -50q-46 0 -95 8l14 111q37 -7 71 -7q49 0 73 23q27 26 27 80q0 41 -23 63q-26 25 -82 25q-63 0 -124 -23l-34 -273h-130l68 555h-140l14 112h490z" />
    <glyph glyph-name="afii10052" unicode="&#x403;" horiz-adv-x="436" 
d="M512 667l-14 -112h-224l-68 -555h-130l82 667h354zM345 728l-49 50l157 142l81 -70z" />
    <glyph glyph-name="afii10053" unicode="&#x404;" horiz-adv-x="613" 
d="M591 176l-19 -152q-73 -39 -165 -39q-147 0 -233 82q-89 85 -89 228q0 88 29 162t78 123q101 102 280 102q95 0 176 -41l-18 -150q-63 73 -170 73q-97 0 -155 -51q-54 -48 -74 -122h320l-14 -112h-315q8 -75 57 -124q53 -53 147 -53q108 0 165 74z" />
    <glyph glyph-name="afii10054" unicode="&#x405;" horiz-adv-x="534" 
d="M546 604l-79 -89q-38 57 -107 57q-46 0 -71 -23q-26 -23 -26 -56q0 -32 28 -51q12 -8 63 -30l45 -19q51 -22 83 -56q41 -44 41 -107q0 -114 -71 -182q-65 -63 -182 -63q-79 0 -137 38q-47 31 -85 88l95 81q20 -39 47 -61q33 -28 84 -28q57 0 87 33q25 27 25 69
q0 36 -30 61q-10 8 -19.5 13t-26 11.5t-22.5 8.5l-38 16q-56 24 -81 49q-41 40 -41 110q0 87 57 144q64 64 181 64q111 0 180 -78z" />
    <glyph glyph-name="afii10055" unicode="&#x406;" horiz-adv-x="282" 
d="M158 667h130l-82 -667h-130z" />
    <glyph glyph-name="afii10056" unicode="&#x407;" horiz-adv-x="282" 
d="M158 667h130l-82 -667h-130zM255 798q0 40 27 67q18 18 41 18t37 -20q13 -17 13 -42q0 -38 -25 -63q-19 -19 -42 -19q-20 0 -34 16q-17 18 -17 43zM105 798q0 40 27 67q18 18 41 18t37 -20q13 -17 13 -42q0 -38 -25 -63q-19 -19 -42 -19q-20 0 -34 16q-17 18 -17 43z" />
    <glyph glyph-name="afii10057" unicode="&#x408;" horiz-adv-x="390" 
d="M266 667h130l-55 -447q-6 -49 -11 -75.5t-19.5 -58.5t-38.5 -54q-50 -47 -136 -47q-59 0 -99 20q-30 15 -57 42l90 95q20 -36 62 -36q29 0 48 19q3 3 6 7.5t5.5 8.5t4.5 10t3.5 10t3.5 12t2.5 11.5t2 13t2 12.5t2 13.5t1.5 13.5z" />
    <glyph glyph-name="afii10058" unicode="&#x409;" horiz-adv-x="945" 
d="M464 0l67 555h-193l-36 -296q-17 -152 -75 -208q-58 -57 -158 -57q-27 0 -59 6l14 112q15 -6 36 -6q46 0 71 27q6 6 11 14t8.5 15t7 19t5.5 19t4 21t3 20t2.5 22.5t2.5 21.5l47 382h454l-32 -261h90q107 0 166 -55q50 -48 50 -128q0 -100 -62 -160q-64 -63 -197 -63h-98
h-129zM630 294l-22 -182h76q63 0 92 19q40 26 40 75q0 46 -34 69q-29 19 -86 19h-66z" />
    <glyph glyph-name="afii10059" unicode="&#x40a;" horiz-adv-x="968" 
d="M487 0l36 294h-282l-35 -294h-130l82 667h130l-33 -261h282l32 261h130l-32 -261h90q107 0 166 -55q50 -48 50 -128q0 -100 -62 -160q-64 -63 -197 -63h-98h-129zM653 294l-22 -182h76q63 0 92 19q40 26 40 75q0 46 -34 69q-29 19 -86 19h-66z" />
    <glyph glyph-name="afii10060" unicode="&#x40b;" horiz-adv-x="693" 
d="M544 555h-200l-20 -160q62 13 128 13q101 0 155 -37q61 -43 61 -124q0 -23 -8 -82l-20 -165h-130l17 142q7 56 7 64q0 48 -36 71q-28 19 -89 19q-55 0 -98 -13l-35 -283h-130l68 555h-140l14 112h470z" />
    <glyph glyph-name="afii10061" unicode="&#x40c;" horiz-adv-x="617" 
d="M288 667l-34 -266l273 266h151l-319 -311l253 -356h-156l-192 289l-25 -24l-33 -265h-130l82 667h130zM383 728l-49 50l157 142l81 -70z" />
    <glyph glyph-name="afii10062" unicode="&#x40e;" horiz-adv-x="606" 
d="M84 667h140l132 -327l180 327h150l-391 -667h-142l122 200zM209 844l90 36q4 -12 10 -22t10 -14t6 -5q20 -17 58 -17t62 16q21 14 34 42l90 -36q-26 -56 -74 -84q-45 -28 -117 -28t-113 31q-35 25 -56 81z" />
    <glyph glyph-name="afii10145" unicode="&#x40f;" horiz-adv-x="676" 
d="M76 0l82 667h130l-68 -555h264l68 555h130l-82 -667h-202l-20 -166h-120l20 166h-202z" />
    <glyph glyph-name="afii10017" unicode="&#x410;" horiz-adv-x="672" 
d="M533 0l-42 140h-269l-76 -140h-144l373 667h98l197 -667h-137zM276 246h190l-64 240z" />
    <glyph glyph-name="afii10018" unicode="&#x411;" horiz-adv-x="572" 
d="M76 0l82 667h386l-14 -112h-256l-19 -153h72q122 0 179 -57q47 -47 47 -124q0 -47 -18 -90t-48 -71q-66 -60 -190 -60h-90h-131zM242 290l-22 -178h62q62 0 93 19q42 25 42 76q0 43 -35 66q-28 17 -88 17h-52z" />
    <glyph glyph-name="afii10019" unicode="&#x412;" horiz-adv-x="571" 
d="M158 667h165q112 0 162 -49q43 -42 43 -114q0 -57 -28 -97q-24 -36 -65 -51q48 -16 79 -49q36 -40 36 -99q0 -88 -54 -144q-61 -64 -200 -64h-220zM275 561l-21 -171h28q68 0 97 30q25 27 25 63q0 39 -29 61q-23 17 -68 17h-32zM242 290l-23 -184h56q88 0 117 28
q26 24 26 68q0 37 -22 59q-30 29 -106 29h-48z" />
    <glyph glyph-name="afii10020" unicode="&#x413;" horiz-adv-x="436" 
d="M512 667l-14 -112h-224l-68 -555h-130l82 667h354z" />
    <glyph glyph-name="afii10021" unicode="&#x414;" horiz-adv-x="670" 
d="M222 667h450l-68 -555h70l-32 -262h-120l18 150h-410l-18 -150h-120l32 262q49 4 86 38q21 19 34.5 43.5t22 62.5t11 55t8.5 66zM334 555l-22 -178q-14 -117 -27 -154q-22 -65 -74 -111h263l54 443h-194z" />
    <glyph glyph-name="afii10022" unicode="&#x415;" horiz-adv-x="496" 
d="M528 667l-14 -112h-240l-18 -149h230l-14 -112h-230l-22 -182h240l-14 -112h-240h-130l82 667h370z" />
    <glyph glyph-name="afii10024" unicode="&#x416;" horiz-adv-x="861" 
d="M450 667h124l-35 -282l241 282h148l-284 -312l220 -355h-144l-174 292l-20 -16l-34 -276h-124l35 284l-13 15l-234 -299h-150l295 359l-217 308h144l187 -282z" />
    <glyph glyph-name="afii10025" unicode="&#x417;" horiz-adv-x="600" 
d="M219 515l-57 89q45 36 94 56q52 21 118 21q91 0 140 -35q62 -43 62 -125q0 -53 -28 -94q-27 -40 -73 -60q44 -15 72 -49q33 -40 33 -98q0 -96 -64 -162q-72 -73 -223 -73q-89 0 -150 35q-56 32 -89 91l95 81q18 -45 55 -71q38 -28 101 -28q73 0 112 39q28 28 28 71
q0 46 -32 69q-30 22 -101 22h-62l14 112h60q56 0 88 22q34 23 34 66q0 30 -21 51q-25 23 -73 23q-39 0 -75 -16q-30 -12 -58 -37z" />
    <glyph glyph-name="afii10026" unicode="&#x418;" horiz-adv-x="736" 
d="M156 667h130l-54 -440l424 440h88l-82 -667h-130l54 443l-422 -443h-90z" />
    <glyph glyph-name="afii10027" unicode="&#x419;" horiz-adv-x="736" 
d="M156 667h130l-54 -440l424 440h88l-82 -667h-130l54 443l-422 -443h-90zM297 844l90 36q4 -12 10 -22t10 -14t6 -5q20 -17 58 -17t62 16q21 14 34 42l90 -36q-26 -56 -74 -84q-45 -28 -117 -28t-113 31q-35 25 -56 81z" />
    <glyph glyph-name="afii10028" unicode="&#x41a;" horiz-adv-x="617" 
d="M288 667l-34 -266l273 266h151l-319 -311l253 -356h-156l-192 289l-25 -24l-33 -265h-130l82 667h130z" />
    <glyph glyph-name="afii10029" unicode="&#x41b;" horiz-adv-x="670" 
d="M222 667h454l-82 -667h-130l68 555h-194l-36 -296q-17 -152 -75 -208q-58 -57 -158 -57q-27 0 -59 6l14 112q15 -6 36 -6q46 0 71 27q6 6 11 14t8.5 15t7 19t5.5 19t4 21t3 20t2.5 22.5t2.5 21.5z" />
    <glyph glyph-name="afii10030" unicode="&#x41c;" horiz-adv-x="870" 
d="M42 0l207 667h94l124 -424l238 424h94l29 -667h-130l-10 411l-232 -411h-40l-122 411l-118 -411h-134z" />
    <glyph glyph-name="afii10031" unicode="&#x41d;" horiz-adv-x="694" 
d="M288 667l-32 -258h282l32 258h130l-82 -667h-130l36 297h-282l-36 -297h-130l82 667h130z" />
    <glyph glyph-name="afii10032" unicode="&#x41e;" horiz-adv-x="806" 
d="M484 682q142 0 231 -86q88 -84 88 -222q0 -80 -28.5 -154t-78.5 -126q-105 -109 -278 -109q-154 0 -245 93q-88 90 -88 221q0 81 31 154.5t84 123.5t127.5 77.5t156.5 27.5zM425 103q96 0 164 66q36 36 57.5 87.5t21.5 107.5q0 86 -53 141q-56 58 -152 58q-98 0 -166 -64
q-77 -72 -77 -190q0 -90 53 -145q58 -61 152 -61z" />
    <glyph glyph-name="afii10033" unicode="&#x41f;" horiz-adv-x="680" 
d="M158 667h528l-82 -667h-130l68 555h-268l-68 -555h-130z" />
    <glyph glyph-name="afii10034" unicode="&#x420;" horiz-adv-x="535" 
d="M158 667h180q121 0 179 -54q54 -50 54 -142q0 -106 -63 -166q-61 -58 -183 -58h-89l-30 -247h-130zM274 555l-24 -196h55q68 0 100 28t32 79q0 48 -36 71q-29 18 -81 18h-46z" />
    <glyph glyph-name="afii10035" unicode="&#x421;" horiz-adv-x="607" 
d="M585 176l-19 -152q-75 -39 -165 -39q-143 0 -227 82q-89 85 -89 224q0 90 29.5 165t77.5 124q102 102 274 102q96 0 176 -41l-18 -150q-63 73 -170 73q-102 0 -167 -69q-67 -72 -67 -185q0 -90 56 -150q55 -58 144 -58q110 0 165 74z" />
    <glyph glyph-name="afii10036" unicode="&#x422;" horiz-adv-x="442" 
d="M504 555h-150l-68 -555h-130l68 555h-150l14 112h430z" />
    <glyph glyph-name="afii10037" unicode="&#x423;" horiz-adv-x="606" 
d="M84 667h140l132 -327l180 327h150l-391 -667h-142l122 200z" />
    <glyph glyph-name="afii10038" unicode="&#x424;" horiz-adv-x="834" 
d="M351 0l11 92h-7q-117 0 -182 48q-86 61 -86 183q0 125 80 207q85 86 250 86h10l9 78h130l-9 -78h9q132 0 203 -71q64 -63 64 -170q0 -127 -73 -200q-83 -83 -258 -83h-10l-11 -92h-130zM376 204l37 300h-11q-88 0 -133 -45q-48 -47 -48 -128q0 -64 42 -97q39 -30 108 -30
h5zM543 504l-37 -300h10q88 0 134 41q48 43 48 125q0 67 -40 103q-35 31 -106 31h-9z" />
    <glyph glyph-name="afii10039" unicode="&#x425;" horiz-adv-x="634" 
d="M8 0l279 352l-160 315h150l91 -207l149 207h156l-244 -315l185 -352h-150l-116 244l-184 -244h-156z" />
    <glyph glyph-name="afii10040" unicode="&#x426;" horiz-adv-x="690" 
d="M76 0l82 667h130l-68 -555h264l68 555h130l-68 -555h80l-32 -262h-120l18 150h-484z" />
    <glyph glyph-name="afii10041" unicode="&#x427;" horiz-adv-x="622" 
d="M416 0l33 270q-55 -11 -112 -11q-108 0 -166 40q-64 45 -64 127q0 10 9 93l18 148h130l-17 -141q-7 -58 -7 -67q0 -48 37 -69q30 -19 95 -19q46 0 90 11l36 285h130l-82 -667h-130z" />
    <glyph glyph-name="afii10042" unicode="&#x428;" horiz-adv-x="970" 
d="M76 0l82 667h130l-68 -555h214l68 555h130l-68 -555h214l68 555h130l-82 -667h-818z" />
    <glyph glyph-name="afii10043" unicode="&#x429;" horiz-adv-x="984" 
d="M76 0l82 667h130l-68 -555h214l68 555h130l-68 -555h214l68 555h130l-68 -555h80l-32 -262h-120l18 150h-778z" />
    <glyph glyph-name="afii10044" unicode="&#x42a;" horiz-adv-x="627" 
d="M146 0l68 555h-140l14 112h270l-32 -261h90q107 0 166 -55q50 -48 50 -128q0 -100 -62 -160q-64 -63 -197 -63h-97h-130zM312 294l-22 -182h76q63 0 92 19q40 26 40 75q0 46 -34 69q-29 19 -86 19h-66z" />
    <glyph glyph-name="afii10045" unicode="&#x42b;" horiz-adv-x="800" 
d="M676 667h130l-82 -667h-130zM76 0l82 667h130l-32 -261h90q107 0 166 -55q50 -48 50 -128q0 -100 -62 -160q-64 -63 -197 -63h-98h-129zM242 294l-22 -182h76q62 0 92 19q40 26 40 75q0 46 -34 69q-29 19 -86 19h-66z" />
    <glyph glyph-name="afii10046" unicode="&#x42c;" horiz-adv-x="557" 
d="M76 0l82 667h130l-32 -261h90q107 0 166 -55q50 -48 50 -128q0 -100 -62 -160q-64 -63 -197 -63h-227zM242 294l-22 -182h76q63 0 92 19q40 26 40 75q0 46 -34 69q-29 19 -86 19h-66z" />
    <glyph glyph-name="afii10047" unicode="&#x42d;" horiz-adv-x="614" 
d="M47 24l19 152q64 -73 169 -73q99 0 156 46q58 45 76 130h-299l14 112h297q-1 77 -52 126q-49 47 -133 47q-107 0 -190 -75l19 152q92 41 183 41q154 0 234 -88q71 -78 71 -216q0 -184 -114 -300q-93 -93 -266 -93q-106 0 -184 39z" />
    <glyph glyph-name="afii10048" unicode="&#x42e;" horiz-adv-x="1019" 
d="M256 409h86q31 125 127 199q95 74 232 74q146 0 234 -90q81 -84 81 -214q0 -83 -27 -159t-80 -131q-99 -103 -259 -103q-155 0 -242 93q-83 89 -79 219h-87l-36 -297h-130l82 667h130zM648 103q93 0 157 61q76 73 76 200q0 94 -57 150q-52 49 -130 49q-99 0 -163 -64
q-76 -76 -76 -190q0 -98 61 -155q53 -51 132 -51z" />
    <glyph glyph-name="afii10049" unicode="&#x42f;" horiz-adv-x="568" 
d="M574 667l-82 -667h-130l32 258h-16l-202 -258h-164l231 270q-54 14 -89 53q-38 44 -38 112q0 105 69 169q67 63 196 63h193zM431 561h-40q-76 0 -107 -30q-32 -30 -32 -81q0 -43 31 -67q29 -23 93 -23h30z" />
    <glyph glyph-name="afii10065" unicode="&#x430;" horiz-adv-x="572" 
d="M438 377l7 56h122l-53 -433h-122l7 56q-21 -28 -55 -49q-36 -21 -81 -21q-87 0 -142 55q-58 58 -58 153q0 115 67 185q66 68 171 68q47 0 86 -21q32 -17 51 -49zM318 339q-50 0 -85 -31q-43 -40 -43 -100q0 -55 33 -86q30 -28 80 -28q51 0 86 31q43 39 43 104
q0 45 -30 77q-31 33 -84 33z" />
    <glyph glyph-name="afii10066" unicode="&#x431;" horiz-adv-x="581" 
d="M497 720h112q-23 -70 -62 -105q-43 -39 -155 -64q-31 -7 -48 -11.5t-41.5 -17.5t-41.5 -31q-37 -40 -49 -106h2q53 62 143 62q101 0 162 -61q55 -55 55 -143q0 -107 -72 -182t-199 -75q-105 0 -165 60q-62 62 -62 166q0 90 34.5 201t87.5 162q35 33 78 49.5t108 29.5
q60 13 83 24.5t30 41.5zM312 94q61 0 98 40q37 39 37 96q0 50 -32 80q-31 29 -84 29q-58 0 -93 -37q-37 -39 -37 -99q0 -49 29 -78q31 -31 82 -31z" />
    <glyph glyph-name="afii10067" unicode="&#x432;" horiz-adv-x="457" 
d="M111 433h180q77 0 114 -34q30 -27 30 -73q0 -37 -22 -66q-20 -24 -50 -32q31 -7 53 -29q24 -25 24 -62q0 -57 -36 -93q-44 -44 -123 -44h-104h-119zM212 261h48q31 0 44 8q18 11 18 32q0 20 -15 29q-12 7 -35 7h-51zM192 96h63q29 0 44 11q17 12 17 35q0 20 -15 31
q-13 10 -39 10h-60z" />
    <glyph glyph-name="afii10068" unicode="&#x433;" horiz-adv-x="340" 
d="M58 0l53 433h276l-13 -104h-154l-40 -329h-122z" />
    <glyph glyph-name="afii10069" unicode="&#x434;" horiz-adv-x="530" 
d="M151 433h360l-40 -329h64l-28 -230h-110l15 126h-298l-15 -126h-110l28 230q37 4 65 30q17 17 28.5 45t14 43.5t6.5 47.5zM349 104l27 225h-128l-11 -96q-6 -48 -23 -83q-12 -24 -36 -46h171z" />
    <glyph glyph-name="afii10070" unicode="&#x435;" horiz-adv-x="526" 
d="M393 141l105 -25q-33 -67 -92 -101q-52 -29 -130 -29q-105 0 -161 60q-52 54 -52 140q0 57 19.5 109.5t55.5 87.5q64 64 173 64q95 0 148 -50q56 -54 56 -157q0 -31 -2 -44h-324q-7 -55 25 -87q26 -27 71 -27q41 0 66 14q25 16 42 45zM203 274h205q-2 39 -27 63
q-26 24 -68 24t-74 -28q-26 -24 -36 -59z" />
    <glyph glyph-name="afii10072" unicode="&#x436;" horiz-adv-x="655" 
d="M323 433h110l-20 -168l146 168h142l-194 -200l142 -233h-136l-96 170l-18 -18l-19 -152h-110l19 152l-14 18l-135 -170h-142l202 236l-141 197h134l110 -168z" />
    <glyph glyph-name="afii10073" unicode="&#x437;" horiz-adv-x="439" 
d="M145 315l-53 78q35 25 69 38q43 16 94 16q66 0 109 -27q49 -32 49 -88q0 -33 -21 -62q-19 -27 -51 -37q33 -10 52 -29q25 -25 25 -66q0 -61 -42 -103q-49 -49 -154 -49q-73 0 -117 22q-40 20 -72 53l69 74q25 -23 51 -35q31 -14 62 -14q33 0 54 12q24 15 24 40
q0 18 -19 31q-16 10 -51 10h-51l11 88h49q30 0 46 8q22 12 22 36q0 19 -17 29q-19 11 -46 11q-29 0 -50 -10q-25 -11 -42 -26z" />
    <glyph glyph-name="afii10074" unicode="&#x438;" horiz-adv-x="560" 
d="M111 433h122l-33 -267l233 267h122l-53 -433h-122l33 267l-233 -267h-122z" />
    <glyph glyph-name="afii10075" unicode="&#x439;" horiz-adv-x="560" 
d="M111 433h122l-33 -267l233 267h122l-53 -433h-122l33 267l-233 -267h-122zM443 650l77 -38q-17 -46 -60 -75q-41 -28 -106 -28q-68 0 -111 32q-36 25 -51 71l83 38q5 -28 23 -44q22 -19 60 -19q32 0 54 17q21 16 31 46z" />
    <glyph glyph-name="afii10076" unicode="&#x43a;" horiz-adv-x="489" 
d="M111 433h122l-20 -168l176 168h147l-222 -200l174 -233h-140l-124 175l-25 -19l-19 -156h-122z" />
    <glyph glyph-name="afii10077" unicode="&#x43b;" 
d="M495 433l-53 -433h-122l40 329h-118l-19 -159q-11 -88 -54 -131q-60 -60 -161 -38l13 104q46 -11 70 13q18 18 23 60l31 255h350z" />
    <glyph glyph-name="afii10078" unicode="&#x43c;" horiz-adv-x="600" 
d="M12 0l134 433h90l87 -249l147 249h94l24 -433h-120l-7 235l-138 -235h-40l-82 235l-65 -235h-124z" />
    <glyph glyph-name="afii10079" unicode="&#x43d;" horiz-adv-x="530" 
d="M58 0l53 433h122l-19 -153h170l19 153h122l-53 -433h-122l22 176h-170l-22 -176h-122z" />
    <glyph glyph-name="afii10080" unicode="&#x43e;" horiz-adv-x="572" 
d="M336 447q109 0 171 -62q56 -58 56 -144q0 -108 -77 -182q-77 -73 -199 -73q-107 0 -167 60q-57 55 -57 147q0 52 20.5 100t54.5 81q75 73 198 73zM299 94q57 0 95 38q41 41 41 97q0 50 -32 80t-79 30q-54 0 -92 -35q-43 -40 -43 -103q0 -46 30 -76q31 -31 80 -31z" />
    <glyph glyph-name="afii10081" unicode="&#x43f;" horiz-adv-x="526" 
d="M111 433h410l-53 -433h-122l40 329h-166l-40 -329h-122z" />
    <glyph glyph-name="afii10082" unicode="&#x440;" horiz-adv-x="572" 
d="M187 56l-35 -285h-122l81 662h122l-7 -56q27 32 64 51q38 19 80 19q86 0 136 -48q57 -55 57 -153q0 -124 -74 -198q-62 -62 -157 -62q-62 0 -101 25q-25 15 -44 45zM326 339q-55 0 -91 -36q-41 -40 -41 -97q0 -48 27 -78q29 -34 86 -34q54 0 89 35q40 40 40 103
q0 49 -32 79q-30 28 -78 28z" />
    <glyph glyph-name="afii10083" unicode="&#x441;" horiz-adv-x="420" 
d="M438 421l-15 -120q-40 38 -103 38q-56 0 -90 -34q-40 -39 -40 -99q0 -49 30 -79q31 -33 82 -33q58 0 100 38l-14 -119q-47 -27 -114 -27q-99 0 -158 61q-54 56 -54 146q0 110 70 182q71 72 186 72q66 0 120 -26z" />
    <glyph glyph-name="afii10084" unicode="&#x442;" horiz-adv-x="374" 
d="M408 329h-120l-40 -329h-122l40 329h-120l13 104h362z" />
    <glyph glyph-name="afii10085" unicode="&#x443;" horiz-adv-x="538" 
d="M21 -229l195 294l-161 368h138l104 -246l150 246h142l-430 -662h-138z" />
    <glyph glyph-name="afii10086" unicode="&#x444;" horiz-adv-x="694" 
d="M258 -229l27 223h-5q-84 0 -143 44q-74 57 -74 155q0 58 25 108.5t64 81.5q71 56 188 56l28 228h122l-28 -228q45 -2 92 -19t77 -45q54 -52 54 -139q0 -103 -63 -168q-73 -74 -215 -74l-27 -223h-122zM299 102l28 229q-62 0 -96 -30q-42 -35 -42 -100q0 -48 37 -77
q29 -22 73 -22zM449 331l-28 -229q61 0 98 32q39 35 39 95q0 48 -33 76q-30 26 -76 26z" />
    <glyph glyph-name="afii10087" unicode="&#x445;" horiz-adv-x="558" 
d="M2 0l229 236l-145 197h147l77 -112l104 112h159l-193 -197l176 -236h-149l-105 151l-139 -151h-161z" />
    <glyph glyph-name="afii10088" unicode="&#x446;" horiz-adv-x="542" 
d="M58 0l53 433h122l-40 -329h162l40 329h122l-40 -329h70l-28 -230h-110l15 126h-366z" />
    <glyph glyph-name="afii10089" unicode="&#x447;" horiz-adv-x="483" 
d="M303 0l18 153q-41 -15 -88 -15q-80 0 -122 39q-35 32 -35 81q0 11 5 54l15 121h120l-13 -105q-3 -18 -3 -33q0 -31 22 -43q16 -10 52 -10q28 0 59 11l23 180h122l-53 -433h-122z" />
    <glyph glyph-name="afii10090" unicode="&#x448;" horiz-adv-x="762" 
d="M58 0l53 433h122l-40 -329h140l40 329h122l-40 -329h140l40 329h122l-53 -433h-646z" />
    <glyph glyph-name="afii10091" unicode="&#x449;" horiz-adv-x="782" 
d="M58 0l53 433h122l-40 -329h140l40 329h122l-40 -329h140l40 329h122l-40 -329h70l-28 -230h-110l15 126h-606z" />
    <glyph glyph-name="afii10092" unicode="&#x44a;" horiz-adv-x="505" 
d="M59 433h228l-19 -154h78q78 0 117 -37q33 -32 33 -86q0 -70 -41 -111q-46 -45 -161 -45h-60h-122l40 329h-106zM246 96h56q34 0 49 11q18 13 18 37q0 22 -16 31q-13 8 -40 8h-57z" />
    <glyph glyph-name="afii10093" unicode="&#x44b;" horiz-adv-x="650" 
d="M523 433h122l-53 -433h-122zM112 433h121l-19 -154h78q78 0 117 -37q33 -32 33 -87q0 -71 -41 -110q-46 -45 -161 -45h-64h-118zM192 96h56q34 0 49 11q18 13 18 37q0 22 -16 31q-13 8 -40 8h-57z" />
    <glyph glyph-name="afii10094" unicode="&#x44c;" horiz-adv-x="451" 
d="M112 433h121l-19 -154h78q78 0 117 -37q33 -32 33 -87q0 -71 -41 -110q-46 -45 -161 -45h-62h-120zM192 96h56q34 0 49 11q18 13 18 37q0 22 -16 31q-13 8 -40 8h-57z" />
    <glyph glyph-name="afii10095" unicode="&#x44d;" horiz-adv-x="436" 
d="M35 11l15 116q44 -42 118 -42q50 0 81 22q32 21 41 68h-179l11 88h179q-6 42 -35 64q-30 24 -77 24q-64 0 -114 -37l13 106q69 27 127 27q45 0 89.5 -16t72.5 -46q50 -52 50 -143q0 -124 -74 -196q-63 -61 -176 -61q-80 0 -142 26z" />
    <glyph glyph-name="afii10096" unicode="&#x44e;" horiz-adv-x="753" 
d="M213 270h56q22 76 79 122q69 55 171 55q106 0 169 -63q56 -56 56 -144q0 -109 -77 -183q-72 -71 -199 -71q-100 0 -156 57q-48 48 -55 123h-57l-20 -166h-122l53 433h122zM482 94q56 0 93 37q41 41 41 100q0 48 -32 78t-79 30q-49 0 -85 -35q-42 -40 -42 -100
q0 -48 29 -79q31 -31 75 -31z" />
    <glyph glyph-name="afii10097" unicode="&#x44f;" horiz-adv-x="460" 
d="M20 0l148 162q-38 10 -61 34q-28 29 -28 79q0 67 41 108q22 23 56 34.5t57.5 13.5t60.5 2h161l-53 -433h-122l19 152h-8l-125 -152h-146zM309 240l12 97h-53q-30 0 -46 -13q-18 -14 -18 -40q0 -21 15 -32q16 -12 45 -12h45z" />
    <glyph glyph-name="afii10071" unicode="&#x451;" horiz-adv-x="526" 
d="M393 141l105 -25q-33 -67 -92 -101q-52 -29 -130 -29q-105 0 -161 60q-52 54 -52 140q0 57 19.5 109.5t55.5 87.5q64 64 173 64q95 0 148 -50q56 -54 56 -157q0 -31 -2 -44h-324q-7 -55 25 -87q26 -27 71 -27q41 0 66 14q25 16 42 45zM203 274h205q-2 39 -27 63
q-26 24 -68 24t-74 -28q-26 -24 -36 -59zM374 578q0 32 24 56t58 24q28 0 46 -20q16 -18 16 -44q0 -30 -22 -54q-23 -26 -59 -26q-27 0 -44 17q-19 19 -19 47zM166 578q0 32 24 56t58 24q28 0 46 -20q16 -18 16 -44q0 -30 -22 -54q-23 -26 -59 -26q-27 0 -44 17
q-19 19 -19 47z" />
    <glyph glyph-name="afii10099" unicode="&#x452;" horiz-adv-x="546" 
d="M69 0l64 519h-100l9 78h100l17 132h122l-17 -132h200l-9 -78h-200l-23 -182q19 31 54 50q37 20 82 20q76 0 116 -40q34 -34 34 -96q0 -7 -8 -82l-34 -275q-8 -71 -45 -106q-40 -38 -118 -38q-38 0 -77 9l13 108q21 -9 43 -9q34 0 51 22q9 13 14 45l28 218q6 36 6 67
q0 37 -20 55t-53 18q-42 0 -68 -26q-29 -29 -37 -96l-22 -181h-122z" />
    <glyph glyph-name="afii10100" unicode="&#x453;" horiz-adv-x="340" 
d="M58 0l53 433h276l-13 -104h-154l-40 -329h-122zM344 700l81 -56l-166 -134l-51 40z" />
    <glyph glyph-name="afii10101" unicode="&#x454;" horiz-adv-x="433" 
d="M448 421l-15 -120q-40 38 -105 38q-51 0 -84 -22q-29 -20 -43 -57h192l-11 -88h-187q9 -38 36 -57q28 -21 77 -21q63 0 104 38l-14 -119q-51 -27 -115 -27q-108 0 -167 61q-54 56 -54 146q0 110 70 182t192 72q70 0 124 -26z" />
    <glyph glyph-name="afii10102" unicode="&#x455;" horiz-adv-x="400" 
d="M399 403l-63 -75q-14 14 -31 22q-19 9 -41 9q-28 0 -41 -14q-9 -11 -9 -26q0 -14 9 -22t35 -16l37 -12q42 -14 67 -39q30 -31 30 -82q0 -66 -45 -111q-51 -51 -142 -51q-58 0 -102 21q-34 17 -66 51l73 74q16 -23 40 -36q26 -14 50 -14q31 0 47 13q17 14 17 38
q0 16 -11 27q-10 9 -43 21l-30 12q-36 14 -57 35q-29 29 -29 74q0 62 43 103q44 42 123 42q50 0 85 -14q25 -9 54 -30z" />
    <glyph glyph-name="afii10103" unicode="&#x456;" horiz-adv-x="238" 
d="M111 433h122l-53 -433h-122zM121 607q0 33 24 57q24 25 58 25q28 0 46 -18q19 -19 19 -47q0 -32 -24 -56q-25 -25 -58 -25q-26 0 -46 18q-19 19 -19 46z" />
    <glyph glyph-name="afii10104" unicode="&#x457;" horiz-adv-x="274" 
d="M129 433h122l-53 -433h-122zM226 606q0 39 27 66q17 17 38 17q23 0 37 -18q15 -18 15 -43q0 -31 -20 -57q-21 -26 -47 -26q-21 0 -35 16q-15 18 -15 45zM83 607q0 38 27 65q17 17 38 17q23 0 37 -18q15 -18 15 -43q0 -31 -20 -57q-21 -26 -47 -26q-21 0 -35 16
q-15 18 -15 46z" />
    <glyph glyph-name="afii10105" unicode="&#x458;" horiz-adv-x="238" 
d="M111 433h122l-81 -662h-122zM121 607q0 33 24 57q24 25 58 25q28 0 46 -18q19 -19 19 -47q0 -32 -24 -56q-25 -25 -58 -25q-26 0 -46 18q-19 19 -19 46z" />
    <glyph glyph-name="afii10106" unicode="&#x459;" horiz-adv-x="713" 
d="M476 279h78q78 0 117 -37q33 -32 33 -88q0 -68 -41 -109q-46 -45 -161 -45h-59h-123l40 329h-118l-19 -159q-11 -88 -54 -131q-60 -60 -161 -38l13 104q44 -11 70 13q18 18 23 60l31 255h350zM454 96h56q33 0 49 11q18 13 18 37q0 22 -16 31q-13 8 -40 8h-57z" />
    <glyph glyph-name="afii10107" unicode="&#x45a;" horiz-adv-x="742" 
d="M524 433l-19 -154h78q78 0 117 -37q33 -32 33 -87q0 -71 -41 -110q-46 -45 -161 -45h-61h-121l23 183h-169l-23 -183h-122l53 433h122l-19 -154h170l19 154h121zM483 96h56q34 0 49 11q18 13 18 37q0 22 -16 31q-13 8 -40 8h-57z" />
    <glyph glyph-name="afii10108" unicode="&#x45b;" horiz-adv-x="546" 
d="M69 0l64 519h-100l9 78h100l17 132h122l-17 -132h200l-9 -78h-200l-23 -182q19 31 54 50q37 20 82 20q76 0 116 -40q34 -34 34 -96q0 -5 -8 -82l-23 -189h-122l20 163q0 3 2 18t3 28.5t1 20.5q0 37 -20 55t-53 18q-42 0 -68 -26q-29 -29 -37 -96l-22 -181h-122z" />
    <glyph glyph-name="afii10109" unicode="&#x45c;" horiz-adv-x="489" 
d="M111 433h122l-20 -168l176 168h147l-222 -200l174 -233h-140l-124 175l-25 -19l-19 -156h-122zM414 700l81 -56l-166 -134l-51 40z" />
    <glyph glyph-name="afii10110" unicode="&#x45e;" horiz-adv-x="538" 
d="M21 -229l195 294l-161 368h138l104 -246l150 246h142l-430 -662h-138zM433 650l77 -38q-17 -46 -60 -75q-41 -28 -106 -28q-68 0 -111 32q-36 25 -51 71l83 38q5 -28 23 -44q22 -19 60 -19q32 0 54 17q21 16 31 46z" />
    <glyph glyph-name="afii10193" unicode="&#x45f;" horiz-adv-x="522" 
d="M58 0l53 433h122l-40 -329h162l40 329h122l-53 -433h-148l-17 -136h-110l17 136h-148z" />
    <glyph glyph-name="afii10146" unicode="&#x462;" horiz-adv-x="622" 
d="M140 0l61 497h-150l12 100h150l13 97h130l-13 -97h200l-12 -100h-200l-11 -91h90q107 0 166 -55q50 -48 50 -128q0 -100 -62 -160q-64 -63 -197 -63h-227zM306 294l-22 -182h76q63 0 92 19q40 26 40 75q0 46 -34 69q-29 19 -86 19h-66z" />
    <glyph glyph-name="afii10194" unicode="&#x463;" horiz-adv-x="503" 
d="M112 0l42 345h-106l11 88h106l29 234h122l-29 -234h140l-11 -88h-140l-9 -74h77q79 0 117 -37q33 -32 33 -87q0 -64 -39 -102q-47 -45 -161 -45h-60h-122zM246 96h56q32 0 49 11q18 12 18 36q0 22 -16 32q-13 8 -40 8h-57z" />
    <glyph glyph-name="afii10147" unicode="&#x472;" horiz-adv-x="806" 
d="M484 682q142 0 231 -86q88 -84 88 -222q0 -80 -28.5 -154t-78.5 -126q-105 -109 -278 -109q-154 0 -245 93q-88 90 -88 224q0 79 31 152t84 123t127.5 77.5t156.5 27.5zM658 289h-437q5 -78 58 -131q55 -55 146 -55q93 0 158 59q58 51 75 127zM230 385h437q-7 71 -52 120
q-56 58 -152 58q-91 0 -152 -52q-56 -47 -81 -126z" />
    <glyph glyph-name="afii10195" unicode="&#x473;" horiz-adv-x="572" 
d="M337 447q108 0 170 -62q56 -58 56 -144q0 -108 -77 -182q-77 -73 -199 -73q-107 0 -167 60q-57 55 -57 147q0 52 20.5 100t54.5 81q73 73 199 73zM427 184h-236q1 -46 33 -74q30 -26 80 -26q44 0 76 24q34 26 47 76zM202 262h228q-5 36 -31 61q-28 26 -77 26
q-46 0 -77 -24q-29 -23 -43 -63z" />
    <glyph glyph-name="afii10148" unicode="&#x474;" horiz-adv-x="644" 
d="M84 667h140l123 -448l233 448h144l-366 -667h-74z" />
    <glyph glyph-name="afii10196" unicode="&#x475;" horiz-adv-x="504" 
d="M55 433h132l84 -244l144 244h140l-274 -433h-58z" />
    <glyph glyph-name="afii10050" unicode="&#x490;" horiz-adv-x="476" 
d="M76 0l82 667h274l18 150h120l-32 -262h-264l-68 -555h-130z" />
    <glyph glyph-name="afii10098" unicode="&#x491;" horiz-adv-x="380" 
d="M58 0l53 433h206l16 126h110l-29 -230h-194l-40 -329h-122z" />
    <glyph glyph-name="uni0492" unicode="&#x492;" horiz-adv-x="436" 
d="M76 0l38 308h-96l12 100h96l32 259h354l-14 -112h-224l-18 -147h160l-12 -100h-160l-38 -308h-130z" />
    <glyph glyph-name="uni0493" unicode="&#x493;" horiz-adv-x="340" 
d="M58 0l19 158h-68l11 86h68l23 189h276l-13 -104h-154l-10 -85h100l-11 -86h-100l-19 -158h-122z" />
    <glyph glyph-name="uni0494" unicode="&#x494;" horiz-adv-x="602" 
d="M494 555h-220l-21 -170q66 23 134 23q104 0 159 -49q59 -53 59 -152q0 -105 -65 -164q-56 -50 -161 -50q-46 0 -95 8l14 111q37 -7 71 -7q49 0 73 23q27 26 27 80q0 41 -23 63q-26 25 -82 25q-63 0 -124 -23l-34 -273h-130l82 667h350z" />
    <glyph glyph-name="uni0495" unicode="&#x495;" horiz-adv-x="456" 
d="M58 0l53 433h276l-13 -104h-154l-11 -93h13q100 0 152 -49q52 -50 52 -127q0 -137 -113 -214q-72 -49 -162 -54l13 108q55 8 90 43q44 44 44 105q0 41 -23 62q-23 22 -69 22h-10l-16 -132h-122z" />
    <glyph glyph-name="uni0496" unicode="&#x496;" horiz-adv-x="861" 
d="M450 667h124l-35 -282l241 282h148l-284 -312l151 -243h89l-32 -262h-120l18 150h-30l-174 292l-20 -16l-34 -276h-124l35 284l-13 15l-234 -299h-150l295 359l-217 308h144l187 -282z" />
    <glyph glyph-name="uni0497" unicode="&#x497;" horiz-adv-x="655" 
d="M323 433h110l-20 -168l146 168h142l-194 -200l79 -129h75l-28 -230h-110l15 126h-25l-96 170l-18 -18l-19 -152h-110l19 152l-14 18l-135 -170h-142l202 236l-141 197h134l110 -168z" />
    <glyph glyph-name="uni0498" unicode="&#x498;" horiz-adv-x="600" 
d="M219 515l-57 89q45 36 94 56q52 21 118 21q91 0 140 -35q62 -43 62 -125q0 -53 -28 -94q-27 -40 -73 -60q44 -15 72 -49q33 -40 33 -98q0 -98 -64 -162q-63 -63 -158 -67l-20 -157h-120l20 154q-57 5 -108 40q-51 34 -76 83l95 81q18 -45 55 -71q38 -28 101 -28
q73 0 112 39q28 28 28 71q0 46 -32 69q-30 22 -101 22h-62l14 112h60q56 0 88 22q34 23 34 66q0 30 -21 51q-25 23 -73 23q-39 0 -75 -16q-30 -12 -58 -37z" />
    <glyph glyph-name="uni0499" unicode="&#x499;" horiz-adv-x="439" 
d="M145 315l-53 78q35 25 69 38q45 16 94 16q62 0 109 -27q49 -31 49 -89q0 -36 -22 -64q-22 -26 -50 -34q27 -7 47 -27q30 -28 30 -75q0 -60 -42 -100q-41 -39 -99 -41l-15 -126h-110l16 127q-41 4 -77 25q-34 19 -58 45l69 74q25 -23 51 -35q29 -14 61 -14q34 0 55 12
q24 13 24 40q0 19 -19 31q-16 10 -51 10h-51l11 88h49q30 0 46 8q22 12 22 36q0 17 -17 29q-18 11 -46 11q-25 0 -50 -10q-25 -11 -42 -26z" />
    <glyph glyph-name="uni049A" unicode="&#x49a;" horiz-adv-x="617" 
d="M288 667l-34 -266l273 266h151l-319 -311l175 -244h93l-32 -262h-120l18 150h-37l-192 289l-25 -24l-33 -265h-130l82 667h130z" />
    <glyph glyph-name="uni049B" unicode="&#x49b;" horiz-adv-x="489" 
d="M111 433h122l-20 -168l176 168h147l-222 -200l97 -129h85l-28 -230h-110l15 126h-25l-124 175l-25 -19l-19 -156h-122z" />
    <glyph glyph-name="uni049C" unicode="&#x49c;" horiz-adv-x="723" 
d="M158 667h130l-33 -268h69l20 160h96l-20 -162l223 270h147l-268 -317l184 -350h-144l-154 303l-21 -174h-96l21 170h-69l-37 -299h-130z" />
    <glyph glyph-name="uni049D" unicode="&#x49d;" horiz-adv-x="584" 
d="M111 433h122l-20 -165h48l11 100h81l-12 -100l144 165h146l-191 -200l126 -233h-138l-97 190l-14 -120h-80l14 120h-48l-23 -190h-122z" />
    <glyph glyph-name="uni04A0" unicode="&#x4a0;" horiz-adv-x="687" 
d="M748 667l-319 -311l253 -356h-156l-192 289l-25 -24l-33 -265h-130l68 555h-140l14 112h270l-34 -266l273 266h151z" />
    <glyph glyph-name="uni04A1" unicode="&#x4a1;" horiz-adv-x="573" 
d="M112 0l40 329h-106l13 104h228l-20 -168l176 168h147l-222 -200l174 -233h-140l-124 175l-25 -19l-19 -156h-122z" />
    <glyph glyph-name="uni04A2" unicode="&#x4a2;" horiz-adv-x="708" 
d="M76 0l82 667h130l-32 -258h282l32 258h130l-68 -555h80l-32 -262h-120l18 150h-90l36 297h-282l-36 -297h-130z" />
    <glyph glyph-name="uni04A3" unicode="&#x4a3;" horiz-adv-x="550" 
d="M58 0l53 433h122l-19 -153h170l19 153h122l-40 -329h70l-28 -230h-110l15 126h-82l22 176h-170l-22 -176h-122z" />
    <glyph glyph-name="uni04A4" unicode="&#x4a4;" horiz-adv-x="848" 
d="M76 0l82 667h130l-32 -258h282l32 258h354l-14 -112h-224l-68 -555h-130l36 297h-282l-36 -297h-130z" />
    <glyph glyph-name="uni04A5" unicode="&#x4a5;" horiz-adv-x="632" 
d="M58 0l53 433h122l-19 -153h170l19 153h276l-13 -104h-154l-40 -329h-122l22 176h-170l-22 -176h-122z" />
    <glyph glyph-name="uni04AA" unicode="&#x4aa;" horiz-adv-x="607" 
d="M585 176l-19 -152q-45 -28 -96 -33l-20 -157h-120l20 154q-104 11 -176 79q-89 84 -89 231q0 86 28.5 159t78.5 123q102 102 274 102q96 0 176 -41l-18 -150q-63 73 -170 73q-102 0 -167 -69q-67 -72 -67 -184q0 -93 56 -151q55 -58 144 -58q110 0 165 74z" />
    <glyph glyph-name="uni04AB" unicode="&#x4ab;" horiz-adv-x="420" 
d="M438 421l-15 -120q-40 38 -103 38q-56 0 -90 -34q-40 -39 -40 -99q0 -49 30 -79q31 -33 82 -33q58 0 100 38l-14 -119q-28 -18 -63 -23l-16 -126h-110l16 129q-58 11 -99 54q-54 57 -54 146q0 110 70 182q71 72 186 72q66 0 120 -26z" />
    <glyph glyph-name="uni04AE" unicode="&#x4ae;" horiz-adv-x="590" 
d="M227 0l37 305l-184 362h148l114 -232l172 232h160l-280 -362l-37 -305h-130z" />
    <glyph glyph-name="uni04AF" unicode="&#x4af;" horiz-adv-x="504" 
d="M55 433h132l84 -244l144 244h140l-235 -376l-35 -286h-122l35 286z" />
    <glyph glyph-name="uni04B0" unicode="&#x4b0;" horiz-adv-x="590" 
d="M227 0l25 205h-180l12 100h180l-184 362h148l114 -232l172 232h160l-280 -362h180l-12 -100h-180l-25 -205h-130z" />
    <glyph glyph-name="uni04B1" unicode="&#x4b1;" horiz-adv-x="504" 
d="M55 433h132l84 -244l144 244h140l-235 -376l-5 -37h140l-11 -96h-140l-19 -153h-122l19 153h-140l11 96h140l5 37z" />
    <glyph glyph-name="uni04B2" unicode="&#x4b2;" horiz-adv-x="634" 
d="M8 0l279 352l-160 315h150l91 -207l149 207h156l-244 -315l125 -240h73l-32 -262h-120l18 150h-29l-116 244l-184 -244h-156z" />
    <glyph glyph-name="uni04B3" unicode="&#x4b3;" horiz-adv-x="556" 
d="M2 0l229 236l-145 197h147l77 -112l104 112h159l-193 -197l98 -132h89l-28 -230h-110l15 126h-37l-105 151l-139 -151h-161z" />
    <glyph glyph-name="uni04B6" unicode="&#x4b6;" horiz-adv-x="635" 
d="M505 0h-89l33 270q-55 -11 -112 -11q-108 0 -166 40q-64 45 -64 127q0 10 9 93l18 148h130l-17 -141q-7 -58 -7 -67q0 -48 37 -69q30 -19 95 -19q46 0 90 11l36 285h130l-69 -555h80l-32 -262h-120z" />
    <glyph glyph-name="uni04B7" unicode="&#x4b7;" horiz-adv-x="503" 
d="M385 0h-82l18 153q-41 -15 -88 -15q-80 0 -122 39q-35 32 -35 81q0 11 5 54l15 121h120l-13 -105q-3 -18 -3 -33q0 -31 22 -43q16 -10 51 -10q30 0 60 11l23 180h122l-40 -329h70l-28 -230h-110z" />
    <glyph glyph-name="uni04B8" unicode="&#x4b8;" horiz-adv-x="664" 
d="M458 0l34 275q-49 -7 -83 -7l-18 -145h-96l18 148q-79 -3 -136 29q-70 41 -70 127q0 13 10 88l19 152h130l-18 -149q-7 -54 -7 -64q0 -42 20 -60q24 -23 65 -21l22 180h96l-22 -183q43 -1 82 6l36 291h130l-82 -667h-130z" />
    <glyph glyph-name="uni04B9" unicode="&#x4b9;" horiz-adv-x="540" 
d="M360 0l20 159q-27 -6 -55 -6l-11 -89h-80l11 88q-100 0 -142 42q-27 27 -27 74q0 21 5 56l14 109h122q-16 -133 -16 -140q0 -28 19 -42q15 -9 36 -9l13 106h80l-13 -107q22 0 54 5l23 187h122l-53 -433h-122z" />
    <glyph glyph-name="uni04BA" unicode="&#x4ba;" horiz-adv-x="623" 
d="M288 667l-31 -252q62 13 128 13q101 0 155 -37q61 -43 61 -124q0 -12 -8 -82l-23 -185h-130l20 162q7 54 7 64q0 48 -36 71q-29 19 -89 19q-56 0 -99 -13l-37 -303h-130l82 667h130z" />
    <glyph glyph-name="uni04BB" unicode="&#x4bb;" horiz-adv-x="536" 
d="M58 0l90 729h122l-44 -352q19 30 53 50q36 20 84 20q76 0 116 -40q34 -35 34 -95q0 -14 -8 -74l-29 -238h-122l25 201q6 54 6 69q0 37 -20 55t-52 18q-43 0 -69 -26q-29 -29 -37 -96l-27 -221h-122z" />
    <glyph glyph-name="uni04C0" unicode="&#x4c0;" horiz-adv-x="282" 
d="M158 667h130l-82 -667h-130z" />
    <glyph glyph-name="uni04C1" unicode="&#x4c1;" horiz-adv-x="861" 
d="M450 667h124l-35 -282l241 282h148l-284 -312l220 -355h-144l-174 292l-20 -16l-34 -276h-124l35 284l-13 15l-234 -299h-150l295 359l-217 308h144l187 -282zM354 844l90 36q4 -12 10 -22t10 -14t6 -5q20 -17 58 -17t62 16q21 14 34 42l90 -36q-26 -56 -74 -84
q-46 -28 -117 -28q-72 0 -113 31q-35 25 -56 81z" />
    <glyph glyph-name="uni04C2" unicode="&#x4c2;" horiz-adv-x="655" 
d="M323 433h110l-20 -168l146 168h142l-194 -200l142 -233h-136l-96 170l-18 -18l-19 -152h-110l19 152l-14 18l-135 -170h-142l202 236l-141 197h134l110 -168zM496 650l77 -38q-17 -46 -60 -75q-41 -28 -106 -28q-68 0 -111 32q-36 25 -51 71l83 38q5 -28 23 -44
q22 -19 60 -19q32 0 54 17q21 16 31 46z" />
    <glyph glyph-name="uni04C3" unicode="&#x4c3;" horiz-adv-x="647" 
d="M288 667l-34 -277l273 277h151l-275 -271q90 0 149 -48q63 -50 63 -137q0 -103 -61 -164q-57 -58 -157 -58q-34 0 -66 7l14 111q24 -6 41 -6q42 0 66 25q27 27 27 72q0 48 -38 75q-32 23 -93 23q-62 0 -109 -17l-33 -279h-130l82 667h130z" />
    <glyph glyph-name="uni04C4" unicode="&#x4c4;" horiz-adv-x="485" 
d="M111 433h122l-22 -180l178 180h147l-212 -203q53 -14 88 -51q43 -47 43 -119q0 -137 -113 -214q-72 -49 -162 -54l13 108q55 8 90 43q44 42 44 105q0 48 -28 72q-26 23 -78 23h-24l-17 -143h-122z" />
    <glyph glyph-name="uni04C7" unicode="&#x4c7;" horiz-adv-x="686" 
d="M76 0l82 667h130l-32 -258h282l32 258h130l-88 -719q-12 -98 -51 -137q-41 -41 -125 -41q-46 0 -83 9l14 122q18 -9 42 -9q35 0 53 18q17 17 24 71l38 316h-282l-36 -297h-130z" />
    <glyph glyph-name="uni04C8" unicode="&#x4c8;" horiz-adv-x="530" 
d="M58 0l53 433h122l-19 -153h170l19 153h122l-62 -497q-4 -28 -6.5 -44t-13.5 -41.5t-28 -42.5q-38 -38 -118 -38q-38 0 -77 9l13 108q21 -9 43 -9q34 0 51 22q13 18 19 69l25 207h-169l-22 -176h-122z" />
    <glyph glyph-name="uni04D0" unicode="&#x4d0;" horiz-adv-x="672" 
d="M533 0l-42 140h-269l-76 -140h-144l373 667h98l197 -667h-137zM276 246h190l-64 240zM250 844l90 36q4 -12 10 -22t10 -14t6 -5q20 -17 58 -17t62 16q21 14 34 42l90 -36q-26 -56 -74 -84q-46 -28 -117 -28q-72 0 -113 31q-35 25 -56 81z" />
    <glyph glyph-name="uni04D1" unicode="&#x4d1;" horiz-adv-x="572" 
d="M438 377l7 56h122l-53 -433h-122l7 56q-21 -28 -55 -49q-36 -21 -81 -21q-87 0 -142 55q-58 58 -58 153q0 115 67 185q66 68 171 68q47 0 86 -21q32 -17 51 -49zM318 339q-50 0 -85 -31q-43 -40 -43 -100q0 -55 33 -86q30 -28 80 -28q51 0 86 31q43 39 43 104
q0 45 -30 77q-31 33 -84 33zM474 650l77 -38q-17 -46 -60 -75q-41 -28 -106 -28q-68 0 -111 32q-36 25 -51 71l83 38q5 -28 23 -44q22 -19 60 -19q32 0 54 17q21 16 31 46z" />
    <glyph glyph-name="uni04D2" unicode="&#x4d2;" horiz-adv-x="672" 
d="M533 0l-42 140h-269l-76 -140h-144l373 667h98l197 -667h-137zM276 246h190l-64 240zM470 800q0 36 23 59q23 24 57 24q28 0 46 -18t18 -45q0 -34 -24 -58q-23 -23 -55 -23q-30 0 -48 18q-17 17 -17 43zM246 800q0 36 23 59q23 24 57 24q28 0 46 -18t18 -45
q0 -34 -24 -58q-23 -23 -55 -23q-30 0 -48 18q-17 17 -17 43z" />
    <glyph glyph-name="uni04D3" unicode="&#x4d3;" horiz-adv-x="572" 
d="M438 377l7 56h122l-53 -433h-122l7 56q-21 -28 -55 -49q-36 -21 -81 -21q-87 0 -142 55q-58 58 -58 153q0 115 67 185q66 68 171 68q47 0 86 -21q32 -17 51 -49zM318 339q-50 0 -85 -31q-43 -40 -43 -100q0 -55 33 -86q30 -28 80 -28q51 0 86 31q43 39 43 104
q0 45 -30 77q-31 33 -84 33zM394 578q0 32 24 56t58 24q28 0 46 -20q16 -18 16 -44q0 -30 -22 -54q-23 -26 -59 -26q-27 0 -44 17q-19 19 -19 47zM186 578q0 32 24 56t58 24q28 0 46 -20q16 -18 16 -44q0 -30 -22 -54q-23 -26 -59 -26q-27 0 -44 17q-19 19 -19 47z" />
    <glyph glyph-name="uni04D4" unicode="&#x4d4;" horiz-adv-x="920" 
d="M533 0l-42 140h-269l-76 -140h-140l371 667h352l30 -112h-245l42 -149h241l32 -112h-242l51 -182h246l30 -112h-381zM276 246h190l-62 240z" />
    <glyph glyph-name="uni04D5" unicode="&#x4d5;" horiz-adv-x="810" 
d="M435 374q23 29 59 49q45 24 106 24q94 0 145 -51q66 -64 52 -200h-322q0 -58 32 -88q26 -26 78 -26q36 0 61 19q22 16 30 38l110 -18q-25 -63 -73 -97q-52 -38 -135 -38q-71 0 -112 23q-32 15 -61 48q-27 -35 -68 -53q-43 -18 -108 -18q-95 0 -141 45q-37 36 -37 94
q0 77 61 116q47 30 128 30q71 0 124 -30v21q0 49 -31 71q-23 18 -74 18q-57 0 -118 -23l12 97q65 22 131 22q51 0 92 -19q40 -18 59 -54zM171 126q0 -23 20 -37q25 -17 64 -17q38 0 63 14q30 17 30 47q0 26 -26 40q-22 12 -60 12q-42 0 -65 -14q-26 -16 -26 -45zM487 274
h205q-4 44 -33 68q-23 19 -63 19q-47 0 -75 -27q-24 -24 -34 -60z" />
    <glyph glyph-name="uni04D6" unicode="&#x4d6;" horiz-adv-x="496" 
d="M528 667l-14 -112h-240l-18 -149h230l-14 -112h-230l-22 -182h240l-14 -112h-240h-130l82 667h370zM184 844l90 36q4 -12 10 -22t10 -14t6 -5q20 -17 58 -17t62 16q21 14 34 42l90 -36q-26 -56 -74 -84q-46 -28 -117 -28q-72 0 -113 31q-35 25 -56 81z" />
    <glyph glyph-name="uni04D7" unicode="&#x4d7;" horiz-adv-x="526" 
d="M393 141l105 -25q-33 -67 -92 -101q-52 -29 -130 -29q-105 0 -161 60q-52 54 -52 140q0 57 19.5 109.5t55.5 87.5q64 64 173 64q95 0 148 -50q56 -54 56 -157q0 -31 -2 -44h-324q-7 -55 25 -87q26 -27 71 -27q41 0 66 14q25 16 42 45zM203 274h205q-2 39 -27 63
q-26 24 -68 24t-74 -28q-26 -24 -36 -59zM414 650l77 -38q-17 -46 -60 -75q-41 -28 -106 -28q-68 0 -111 32q-36 25 -51 71l83 38q5 -28 23 -44q22 -19 60 -19q32 0 54 17q21 16 31 46z" />
    <glyph glyph-name="uni04D8" unicode="&#x4d8;" horiz-adv-x="763" 
d="M88 377h538q-1 81 -56 136q-51 51 -136 51q-64 0 -113 -29q-41 -26 -69 -61l-114 61q56 67 117 102q77 45 185 45q148 0 232 -84q88 -88 88 -236q0 -180 -114 -290q-54 -51 -110 -69t-128 -18q-85 0 -145 23t-107 85q-41 54 -59 130.5t-9 153.5zM613 277h-390
q4 -81 54 -130q46 -44 126 -44q93 0 151 59q46 48 59 115z" />
    <glyph glyph-name="afii10846" unicode="&#x4d9;" horiz-adv-x="525" 
d="M201 297l-115 19q30 59 81 93q57 38 138 38q96 0 154 -55q57 -55 57 -148q0 -119 -71 -191q-66 -67 -171 -67q-97 0 -150 54q-36 37 -50.5 94t-7.5 113h324q4 50 -25 79q-23 25 -69 25q-35 0 -60 -15q-24 -16 -35 -39zM381 169h-209q3 -46 32 -73q25 -24 65 -24
q48 0 77 27q28 28 35 70z" />
    <glyph glyph-name="uni04DA" unicode="&#x4da;" horiz-adv-x="763" 
d="M88 377h538q-1 81 -56 136q-51 51 -136 51q-64 0 -113 -29q-41 -26 -69 -61l-114 61q56 67 117 102q77 45 185 45q148 0 232 -84q88 -88 88 -236q0 -180 -114 -290q-54 -51 -110 -69t-128 -18q-85 0 -145 23t-107 85q-41 54 -59 130.5t-9 153.5zM613 277h-390
q4 -81 54 -130q46 -44 126 -44q93 0 151 59q46 48 59 115zM502 800q0 36 23 59q23 24 57 24q28 0 46 -18t18 -45q0 -34 -24 -58q-23 -23 -55 -23q-30 0 -48 18q-17 17 -17 43zM278 800q0 36 23 59q22 24 57 24q28 0 46 -18t18 -45q0 -34 -24 -58q-23 -23 -55 -23
q-30 0 -48 18q-17 17 -17 43z" />
    <glyph glyph-name="uni04DB" unicode="&#x4db;" horiz-adv-x="525" 
d="M201 297l-115 19q30 59 81 93q57 38 138 38q96 0 154 -55q57 -55 57 -148q0 -119 -71 -191q-66 -67 -171 -67q-97 0 -150 54q-36 37 -50.5 94t-7.5 113h324q4 50 -25 79q-23 25 -69 25q-35 0 -60 -15q-24 -16 -35 -39zM381 169h-209q3 -46 32 -73q25 -24 65 -24
q48 0 77 27q28 28 35 70zM344 578q0 32 24 56t58 24q28 0 46 -20q16 -18 16 -44q0 -30 -22 -54q-23 -26 -59 -26q-27 0 -44 17q-19 19 -19 47zM136 578q0 32 24 56t58 24q28 0 46 -20q16 -18 16 -44q0 -30 -22 -54q-23 -26 -59 -26q-27 0 -44 17q-19 19 -19 47z" />
    <glyph glyph-name="uni04DC" unicode="&#x4dc;" horiz-adv-x="861" 
d="M450 667h124l-35 -282l241 282h148l-284 -312l220 -355h-144l-174 292l-20 -16l-34 -276h-124l35 284l-13 15l-234 -299h-150l295 359l-217 308h144l187 -282zM560 800q0 36 23 59q23 24 57 24q28 0 46 -18t18 -45q0 -34 -24 -58q-23 -23 -55 -23q-30 0 -48 18
q-17 17 -17 43zM336 800q0 36 23 59q23 24 57 24q28 0 46 -18t18 -45q0 -34 -24 -58q-23 -23 -55 -23q-30 0 -48 18q-17 17 -17 43z" />
    <glyph glyph-name="uni04DD" unicode="&#x4dd;" horiz-adv-x="655" 
d="M323 433h110l-20 -168l146 168h142l-194 -200l142 -233h-136l-96 170l-18 -18l-19 -152h-110l19 152l-14 18l-135 -170h-142l202 236l-141 197h134l110 -168zM426 578q0 32 24 56t58 24q28 0 46 -20q16 -18 16 -44q0 -30 -22 -54q-23 -26 -59 -26q-27 0 -44 17
q-19 19 -19 47zM218 578q0 32 24 56t58 24q28 0 46 -20q16 -18 16 -44q0 -30 -22 -54q-23 -26 -59 -26q-27 0 -44 17q-19 19 -19 47z" />
    <glyph glyph-name="uni04DE" unicode="&#x4de;" horiz-adv-x="600" 
d="M219 515l-57 89q45 36 94 56q52 21 118 21q91 0 140 -35q62 -43 62 -125q0 -53 -28 -94q-27 -40 -73 -60q44 -15 72 -49q33 -40 33 -98q0 -96 -64 -162q-72 -73 -223 -73q-89 0 -150 35q-56 32 -89 91l95 81q18 -45 55 -71q38 -28 101 -28q73 0 112 39q28 28 28 71
q0 46 -32 69q-30 22 -101 22h-62l14 112h60q56 0 88 22q34 23 34 66q0 30 -21 51q-25 23 -73 23q-39 0 -75 -16q-30 -12 -58 -37zM430 800q0 36 23 59q23 24 57 24q28 0 46 -18t18 -45q0 -34 -24 -58q-23 -23 -55 -23q-30 0 -48 18q-17 17 -17 43zM206 800q0 36 23 59
q23 24 57 24q28 0 46 -18t18 -45q0 -34 -24 -58q-23 -23 -55 -23q-30 0 -48 18q-17 17 -17 43z" />
    <glyph glyph-name="uni04DF" unicode="&#x4df;" horiz-adv-x="439" 
d="M145 315l-53 78q35 25 69 38q43 16 94 16q66 0 109 -27q49 -32 49 -88q0 -33 -21 -62q-19 -27 -51 -37q33 -10 52 -29q25 -25 25 -66q0 -61 -42 -103q-49 -49 -154 -49q-73 0 -117 22q-40 20 -72 53l69 74q25 -23 51 -35q31 -14 62 -14q33 0 54 12q24 15 24 40
q0 18 -19 31q-16 10 -51 10h-51l11 88h49q30 0 46 8q22 12 22 36q0 19 -17 29q-19 11 -46 11q-29 0 -50 -10q-25 -11 -42 -26zM298 578q0 32 24 56t58 24q28 0 46 -20q16 -18 16 -44q0 -30 -22 -54q-23 -26 -59 -26q-27 0 -44 17q-19 19 -19 47zM90 578q0 32 24 56t58 24
q28 0 46 -20q16 -18 16 -44q0 -30 -22 -54q-23 -26 -59 -26q-27 0 -44 17q-19 19 -19 47z" />
    <glyph glyph-name="uni04E2" unicode="&#x4e2;" horiz-adv-x="736" 
d="M156 667h130l-54 -440l424 440h88l-82 -667h-130l54 443l-422 -443h-90zM292 745l11 86h366l-11 -86h-366z" />
    <glyph glyph-name="uni04E3" unicode="&#x4e3;" horiz-adv-x="560" 
d="M111 433h122l-33 -267l233 267h122l-53 -433h-122l33 267l-233 -267h-122zM166 539l10 80h364l-10 -80h-364z" />
    <glyph glyph-name="uni04E4" unicode="&#x4e4;" horiz-adv-x="736" 
d="M156 667h130l-54 -440l424 440h88l-82 -667h-130l54 443l-422 -443h-90zM520 800q0 36 23 59q23 24 57 24q28 0 46 -18t18 -45q0 -34 -24 -58q-23 -23 -55 -23q-30 0 -48 18q-17 17 -17 43zM296 800q0 36 23 59q23 24 57 24q28 0 46 -18t18 -45q0 -34 -24 -58
q-23 -23 -55 -23q-30 0 -48 18q-17 17 -17 43z" />
    <glyph glyph-name="uni04E5" unicode="&#x4e5;" horiz-adv-x="560" 
d="M111 433h122l-33 -267l233 267h122l-53 -433h-122l33 267l-233 -267h-122zM384 578q0 32 24 56t58 24q28 0 46 -20q16 -18 16 -44q0 -30 -22 -54q-23 -26 -59 -26q-27 0 -44 17q-19 19 -19 47zM176 578q0 32 24 56t58 24q28 0 46 -20q16 -18 16 -44q0 -30 -22 -54
q-23 -26 -59 -26q-27 0 -44 17q-19 19 -19 47z" />
    <glyph glyph-name="uni04E6" unicode="&#x4e6;" horiz-adv-x="806" 
d="M484 682q142 0 231 -86q88 -84 88 -222q0 -80 -28.5 -154t-78.5 -126q-105 -109 -278 -109q-154 0 -245 93q-88 90 -88 221q0 81 31 154.5t84 123.5t127.5 77.5t156.5 27.5zM425 103q96 0 164 66q36 36 57.5 87.5t21.5 107.5q0 86 -53 141q-56 58 -152 58q-98 0 -166 -64
q-77 -72 -77 -190q0 -90 53 -145q58 -61 152 -61zM530 800q0 36 23 59q23 24 57 24q28 0 46 -18t18 -45q0 -34 -24 -58q-23 -23 -55 -23q-30 0 -48 18q-17 17 -17 43zM306 800q0 36 23 59q23 24 57 24q28 0 46 -18t18 -45q0 -34 -24 -58q-23 -23 -55 -23q-30 0 -48 18
q-17 17 -17 43z" />
    <glyph glyph-name="uni04E7" unicode="&#x4e7;" horiz-adv-x="572" 
d="M336 447q109 0 171 -62q56 -58 56 -144q0 -108 -77 -182q-77 -73 -199 -73q-107 0 -167 60q-57 55 -57 147q0 52 20.5 100t54.5 81q75 73 198 73zM299 94q57 0 95 38q41 41 41 97q0 50 -32 80t-79 30q-54 0 -92 -35q-43 -40 -43 -103q0 -46 30 -76q31 -31 80 -31z
M388 578q0 32 24 56t58 24q28 0 46 -20q16 -18 16 -44q0 -30 -22 -54q-23 -26 -59 -26q-27 0 -44 17q-19 19 -19 47zM180 578q0 32 24 56t58 24q28 0 46 -20q16 -18 16 -44q0 -30 -22 -54q-23 -26 -59 -26q-27 0 -44 17q-19 19 -19 47z" />
    <glyph glyph-name="uni04E8" unicode="&#x4e8;" horiz-adv-x="806" 
d="M484 682q142 0 231 -86q88 -84 88 -222q0 -80 -28.5 -154t-78.5 -126q-105 -109 -278 -109q-154 0 -245 93q-88 90 -88 224q0 79 31 152t84 123t127.5 77.5t156.5 27.5zM658 289h-437q5 -78 58 -131q55 -55 146 -55q93 0 158 59q58 51 75 127zM230 385h437q-7 71 -52 120
q-56 58 -152 58q-91 0 -152 -52q-56 -47 -81 -126z" />
    <glyph glyph-name="uni04E9" unicode="&#x4e9;" horiz-adv-x="572" 
d="M337 447q108 0 170 -62q56 -58 56 -144q0 -108 -77 -182q-77 -73 -199 -73q-107 0 -167 60q-57 55 -57 147q0 52 20.5 100t54.5 81q73 73 199 73zM427 184h-236q1 -46 33 -74q30 -26 80 -26q44 0 76 24q34 26 47 76zM202 262h228q-5 36 -31 61q-28 26 -77 26
q-46 0 -77 -24q-29 -23 -43 -63z" />
    <glyph glyph-name="uni04EA" unicode="&#x4ea;" horiz-adv-x="806" 
d="M484 682q142 0 231 -86q88 -84 88 -222q0 -80 -28.5 -154t-78.5 -126q-105 -109 -278 -109q-154 0 -245 93q-88 90 -88 224q0 79 31 152t84 123t127.5 77.5t156.5 27.5zM658 289h-437q5 -78 58 -131q55 -55 146 -55q93 0 158 59q58 51 75 127zM230 385h437q-7 71 -52 120
q-56 58 -152 58q-91 0 -152 -52q-56 -47 -81 -126zM520 800q0 36 23 59q23 24 57 24q28 0 46 -18t18 -45q0 -34 -24 -58q-23 -23 -55 -23q-30 0 -48 18q-17 17 -17 43zM296 800q0 36 23 59q23 24 57 24q28 0 46 -18t18 -45q0 -34 -24 -58q-23 -23 -55 -23q-30 0 -48 18
q-17 17 -17 43z" />
    <glyph glyph-name="uni04EB" unicode="&#x4eb;" horiz-adv-x="572" 
d="M337 447q108 0 170 -62q56 -58 56 -144q0 -108 -77 -182q-77 -73 -199 -73q-107 0 -167 60q-57 55 -57 147q0 52 20.5 100t54.5 81q73 73 199 73zM427 184h-236q1 -46 33 -74q30 -26 80 -26q44 0 76 24q34 26 47 76zM202 262h228q-5 36 -31 61q-28 26 -77 26
q-46 0 -77 -24q-29 -23 -43 -63zM388 578q0 32 24 56t58 24q28 0 46 -20q16 -18 16 -44q0 -30 -22 -54q-23 -26 -59 -26q-27 0 -44 17q-19 19 -19 47zM180 578q0 32 24 56t58 24q28 0 46 -20q16 -18 16 -44q0 -30 -22 -54q-23 -26 -59 -26q-27 0 -44 17q-19 19 -19 47z" />
    <glyph glyph-name="uni04EE" unicode="&#x4ee;" horiz-adv-x="606" 
d="M84 667h140l132 -327l180 327h150l-391 -667h-142l122 200zM207 745l11 86h366l-11 -86h-366z" />
    <glyph glyph-name="uni04EF" unicode="&#x4ef;" horiz-adv-x="538" 
d="M21 -229l195 294l-161 368h138l104 -246l150 246h142l-430 -662h-138zM150 539l10 80h364l-10 -80h-364z" />
    <glyph glyph-name="uni04F0" unicode="&#x4f0;" horiz-adv-x="606" 
d="M84 667h140l132 -327l180 327h150l-391 -667h-142l122 200zM440 800q0 36 23 59q23 24 57 24q28 0 46 -18t18 -45q0 -34 -24 -58q-23 -23 -55 -23q-30 0 -48 18q-17 17 -17 43zM216 800q0 36 23 59q23 24 57 24q28 0 46 -18t18 -45q0 -34 -24 -58q-23 -23 -55 -23
q-30 0 -48 18q-17 17 -17 43z" />
    <glyph glyph-name="uni04F1" unicode="&#x4f1;" horiz-adv-x="538" 
d="M21 -229l195 294l-161 368h138l104 -246l150 246h142l-430 -662h-138zM373 578q0 32 24 56t58 24q28 0 46 -20q16 -18 16 -44q0 -30 -22 -54q-23 -26 -59 -26q-27 0 -44 17q-19 19 -19 47zM165 578q0 32 24 56t58 24q28 0 46 -20q16 -18 16 -44q0 -30 -22 -54
q-23 -26 -59 -26q-27 0 -44 17q-19 19 -19 47z" />
    <glyph glyph-name="uni04F2" unicode="&#x4f2;" horiz-adv-x="606" 
d="M84 667h140l132 -327l180 327h150l-391 -667h-142l122 200zM341 921l83 -59l-161 -134l-51 40zM541 920l83 -58l-161 -134l-51 40z" />
    <glyph glyph-name="uni04F3" unicode="&#x4f3;" horiz-adv-x="538" 
d="M21 -229l195 294l-161 368h138l104 -246l150 246h142l-430 -662h-138zM269 690l75 -58l-149 -134l-45 40zM457 689l75 -57l-149 -134l-45 40z" />
    <glyph glyph-name="uni04F4" unicode="&#x4f4;" horiz-adv-x="622" 
d="M416 0l33 270q-55 -11 -112 -11q-108 0 -166 40q-64 45 -64 127q0 10 9 93l18 148h130l-17 -141q-7 -58 -7 -67q0 -48 37 -69q30 -19 95 -19q46 0 90 11l36 285h130l-82 -667h-130zM434 800q0 36 23 59q23 24 57 24q28 0 46 -18t18 -45q0 -34 -24 -58q-23 -23 -55 -23
q-30 0 -48 18q-17 17 -17 43zM210 800q0 36 23 59q22 24 57 24q28 0 46 -18t18 -45q0 -34 -24 -58q-23 -23 -55 -23q-30 0 -48 18q-17 17 -17 43z" />
    <glyph glyph-name="uni04F5" unicode="&#x4f5;" horiz-adv-x="483" 
d="M303 0l18 153q-41 -15 -88 -15q-80 0 -122 39q-35 32 -35 81q0 11 5 54l15 121h120l-13 -105q-3 -18 -3 -33q0 -31 22 -43q16 -10 52 -10q28 0 59 11l23 180h122l-53 -433h-122zM330 578q0 32 24 56t58 24q28 0 46 -20q16 -18 16 -44q0 -30 -22 -54q-23 -26 -59 -26
q-27 0 -44 17q-19 19 -19 47zM122 578q0 32 24 56t58 24q28 0 46 -20q16 -18 16 -44q0 -30 -22 -54q-23 -26 -59 -26q-27 0 -44 17q-19 19 -19 47z" />
    <glyph glyph-name="uni04F8" unicode="&#x4f8;" horiz-adv-x="800" 
d="M676 667h130l-82 -667h-130zM76 0l82 667h130l-32 -261h90q107 0 166 -55q50 -48 50 -128q0 -100 -62 -160q-64 -63 -197 -63h-98h-129zM242 294l-22 -182h76q62 0 92 19q40 26 40 75q0 46 -34 69q-29 19 -86 19h-66zM542 800q0 36 23 59q23 24 57 24q28 0 46 -18t18 -45
q0 -34 -24 -58q-23 -23 -55 -23q-30 0 -48 18q-17 17 -17 43zM318 800q0 36 23 59q23 24 57 24q28 0 46 -18t18 -45q0 -34 -24 -58q-23 -23 -55 -23q-30 0 -48 18q-17 17 -17 43z" />
    <glyph glyph-name="uni04F9" unicode="&#x4f9;" horiz-adv-x="650" 
d="M523 433h122l-53 -433h-122zM112 433h121l-19 -154h78q78 0 117 -37q33 -32 33 -87q0 -71 -41 -110q-46 -45 -161 -45h-64h-118zM192 96h56q34 0 49 11q18 13 18 37q0 22 -16 31q-13 8 -40 8h-57zM429 578q0 32 24 56t58 24q28 0 46 -20q16 -18 16 -44q0 -30 -22 -54
q-23 -26 -59 -26q-27 0 -44 17q-19 19 -19 47zM221 578q0 32 24 56t58 24q28 0 46 -20q16 -18 16 -44q0 -30 -22 -54q-23 -26 -59 -26q-27 0 -44 17q-19 19 -19 47z" />
    <glyph glyph-name="uni1E9E" unicode="&#x1e9e;" horiz-adv-x="582" 
d="M337 396l88 96q4 40 -17 63q-20 21 -50 21q-36 0 -61 -23q-25 -24 -34 -87l-57 -466h-130l56 454q15 116 79 172q63 56 158 56q78 0 125 -38q61 -49 61 -134q0 -17 -1 -26l-112 -112q58 -19 87 -56q32 -42 32 -91q0 -110 -84 -180q-65 -55 -190 -59l13 106q56 3 86 28
q42 35 42 94q0 44 -32 68q-27 19 -70 21z" />
    <glyph glyph-name="uni2010" unicode="&#x2010;" horiz-adv-x="360" 
d="M71 174l14 112h260l-14 -112h-260z" />
    <glyph glyph-name="uni2011" unicode="&#x2011;" horiz-adv-x="360" 
d="M71 174l14 112h260l-14 -112h-260z" />
    <glyph glyph-name="figuredash" unicode="&#x2012;" horiz-adv-x="640" 
d="M92 289l13 104h500l-13 -104h-500z" />
    <glyph glyph-name="endash" unicode="&#x2013;" horiz-adv-x="640" 
d="M92 178l13 104h500l-13 -104h-500z" />
    <glyph glyph-name="emdash" unicode="&#x2014;" horiz-adv-x="840" 
d="M92 178l13 104h700l-13 -104h-700z" />
    <glyph glyph-name="afii00208" unicode="&#x2015;" horiz-adv-x="840" 
d="M92 178l13 104h700l-13 -104h-700z" />
    <glyph glyph-name="quoteleft" unicode="&#x2018;" horiz-adv-x="304" 
d="M342 667l-139 -269l-110 13l173 265z" />
    <glyph glyph-name="quoteright" unicode="&#x2019;" horiz-adv-x="370" 
d="M92 411l139 269l111 -13l-174 -265z" />
    <glyph glyph-name="quotesinglbase" unicode="&#x201a;" horiz-adv-x="370" 
d="M26 -131l139 269l110 -13l-173 -265z" />
    <glyph glyph-name="quotedblleft" unicode="&#x201c;" horiz-adv-x="492" 
d="M530 667l-139 -269l-110 13l173 265zM342 667l-139 -269l-110 13l173 265z" />
    <glyph glyph-name="quotedblright" unicode="&#x201d;" horiz-adv-x="570" 
d="M92 411l139 269l111 -13l-174 -265zM280 411l139 269l111 -13l-174 -265z" />
    <glyph glyph-name="quotedblbase" unicode="&#x201e;" horiz-adv-x="570" 
d="M26 -131l139 269l110 -13l-173 -265zM214 -131l139 269l110 -13l-173 -265z" />
    <glyph glyph-name="dagger" unicode="&#x2020;" horiz-adv-x="569" 
d="M299 521l26 208h116l-26 -208h158l-13 -104h-158l-73 -597h-116l73 597h-158l13 104h158z" />
    <glyph glyph-name="daggerdbl" unicode="&#x2021;" horiz-adv-x="572" 
d="M302 521l26 208h116l-26 -208h158l-13 -104h-158l-29 -241h158l-13 -104h-158l-31 -252h-116l31 252h-158l13 104h158l29 241h-158l13 104h158z" />
    <glyph glyph-name="bullet" unicode="&#x2022;" horiz-adv-x="1000" 
d="M401 324q0 58 43 104q49 52 115 52q51 0 88 -35q36 -35 36 -89q0 -60 -46 -107q-48 -49 -112 -49q-55 0 -89 36q-35 35 -35 88z" />
    <glyph glyph-name="ellipsis" unicode="&#x2026;" horiz-adv-x="846" 
d="M71 54q0 37 26 63t63 26q30 0 50 -20q19 -19 19 -50q0 -39 -25 -62q-24 -24 -62 -24q-32 0 -52 20q-19 19 -19 47zM352 54q0 37 26 63t63 26q30 0 50 -20q19 -19 19 -50q0 -39 -25 -62q-24 -24 -62 -24q-32 0 -52 20q-19 19 -19 47zM633 54q0 37 26 63t63 26q30 0 50 -20
q19 -19 19 -50q0 -39 -25 -62q-24 -24 -62 -24q-32 0 -52 20q-19 19 -19 47z" />
    <glyph glyph-name="perthousand" unicode="&#x2030;" horiz-adv-x="1174" 
d="M269 675q74 0 119 -43q44 -44 44 -109q0 -68 -43 -114q-47 -50 -133 -50q-79 0 -122 43q-41 41 -41 104q0 70 47 119q48 50 129 50zM256 431q41 0 66 25q26 26 26 69q0 36 -21 57t-59 21q-39 0 -63 -24q-27 -27 -27 -69q0 -36 22 -58q21 -21 56 -21zM164 3l482 686
l49 -30l-481 -687zM602 306q74 0 119 -43q44 -44 44 -109q0 -68 -43 -114q-47 -50 -133 -50q-79 0 -122 43q-41 41 -41 104q0 70 47 119q48 50 129 50zM589 62q41 0 66 25q26 26 26 69q0 36 -21 57t-59 21q-39 0 -63 -24q-27 -27 -27 -69q0 -36 22 -58q21 -21 56 -21z
M999 306q74 0 119 -43q44 -44 44 -109q0 -68 -43 -114q-47 -50 -133 -50q-79 0 -122 43q-41 41 -41 104q0 70 47 119q48 50 129 50zM986 62q41 0 66 25q26 26 26 69q0 36 -21 57t-59 21q-39 0 -63 -24q-27 -27 -27 -69q0 -36 22 -58q21 -21 56 -21z" />
    <glyph glyph-name="guilsinglleft" unicode="&#x2039;" horiz-adv-x="318" 
d="M173 217l102 -162l-76 -50l-132 214l184 214l64 -52z" />
    <glyph glyph-name="guilsinglright" unicode="&#x203a;" horiz-adv-x="318" 
d="M199 221l-102 162l76 50l132 -214l-184 -214l-64 52z" />
    <glyph glyph-name="fraction" unicode="&#x2044;" horiz-adv-x="231" 
d="M-100 3l482 686l49 -30l-481 -687z" />
    <glyph glyph-name="uni2080" unicode="&#x2080;" horiz-adv-x="380" 
d="M196 -9q-66 0 -104 40q-45 48 -45 132q0 57 20.5 112t54.5 88q47 46 117 46q56 0 91 -32q47 -44 47 -138q0 -57 -17.5 -113t-51.5 -91q-43 -44 -112 -44zM228 337q-28 0 -50 -23q-21 -22 -33.5 -64.5t-12.5 -84.5q0 -63 27 -88q16 -14 36 -14q25 0 47 18q23 20 36.5 65
t13.5 88q0 62 -24 87q-16 16 -40 16z" />
    <glyph glyph-name="uni2081" unicode="&#x2081;" horiz-adv-x="380" 
d="M166 0l40 328h-80l9 72h164l-49 -400h-84z" />
    <glyph glyph-name="uni2082" unicode="&#x2082;" horiz-adv-x="380" 
d="M24 0l163 162q53 53 60 62q25 32 25 61q0 26 -17 40q-14 12 -41 12q-30 0 -45 -18q-16 -18 -18 -44h-84q7 55 41 90q40 44 110 44q67 0 106 -39q32 -32 32 -80q0 -45 -28 -85q-19 -27 -62 -68l-70 -65h136l-9 -72h-299z" />
    <glyph glyph-name="uni2083" unicode="&#x2083;" horiz-adv-x="380" 
d="M159 291h-78q9 50 41 82q36 36 101 36q66 0 100 -36q27 -30 27 -73q0 -37 -20 -61q-17 -21 -43 -28q22 -10 35 -26q19 -24 19 -60q0 -56 -35 -93q-40 -41 -117 -41q-71 0 -110 39q-36 36 -36 90h84q2 -27 18 -42t47 -15q29 0 48 18q18 18 18 45q0 28 -21 42
q-15 10 -47 10h-12l8 66h9q37 0 52 11q20 14 20 42q0 22 -13 33q-13 13 -39 13q-24 0 -39 -15q-13 -13 -17 -37z" />
    <glyph glyph-name="uni2084" unicode="&#x2084;" horiz-adv-x="380" 
d="M353 407l-33 -268h47l-8 -68h-47l-9 -71h-80l9 71h-199l4 35l236 301h80zM145 139h95l18 149z" />
    <glyph glyph-name="uni2085" unicode="&#x2085;" horiz-adv-x="380" 
d="M355 400l-9 -72h-135l-20 -58q16 2 29 2q56 0 89 -33t33 -87q0 -72 -44 -116q-44 -45 -131 -45q-78 0 -130 51l35 72q38 -51 99 -51q40 0 62 21q24 22 24 60q0 31 -24 50q-24 16 -58 16q-43 0 -80 -26h-5l74 216h191z" />
    <glyph glyph-name="uni2086" unicode="&#x2086;" horiz-adv-x="380" 
d="M251 422l59 -47l-107 -119q21 6 40 6q49 0 84 -32q37 -33 37 -89q0 -65 -42 -107q-43 -43 -125 -43q-66 0 -104 27q-48 35 -48 101q0 42 21 79q13 22 41 56zM198 57q32 0 54 18q26 21 26 58q0 28 -17 45q-19 19 -52 19q-35 0 -57 -22t-22 -57q0 -26 16 -42q19 -19 52 -19
z" />
    <glyph glyph-name="uni2087" unicode="&#x2087;" horiz-adv-x="380" 
d="M55 26l218 302h-199l9 72h336l-293 -411z" />
    <glyph glyph-name="uni2088" unicode="&#x2088;" horiz-adv-x="380" 
d="M143 209q-21 9 -35 31q-13 20 -13 48q0 51 37 86t106 35q58 0 89 -28q33 -30 33 -79q0 -35 -19 -60q-20 -25 -50 -35q25 -9 40 -28q19 -23 19 -57q0 -62 -45 -99q-39 -32 -112 -32q-59 0 -94 25q-41 30 -41 85q0 42 24 72q24 28 61 36zM231 343q-28 0 -44 -16t-16 -42
q0 -21 14 -33q15 -13 38 -13q28 0 45 17q16 16 16 42q0 20 -15 33q-13 12 -38 12zM210 173q-29 0 -48 -17q-18 -17 -18 -46q0 -25 15 -39q14 -14 41 -14q31 0 48 17q18 17 18 48q0 22 -14 36q-14 15 -42 15z" />
    <glyph glyph-name="uni2089" unicode="&#x2089;" horiz-adv-x="380" 
d="M176 -22l-60 47l105 116q-24 -4 -41 -4q-46 0 -80 29q-37 31 -37 83q0 74 45 117t124 43q75 0 115 -40q34 -34 34 -88q0 -40 -16 -75q-12 -26 -50 -69zM227 343q-35 0 -57 -22q-22 -20 -22 -57q0 -27 17 -44t52 -17q36 0 58 20q23 21 23 59q0 25 -19 44q-18 17 -52 17z
" />
    <glyph glyph-name="Euro" unicode="&#x20ac;" horiz-adv-x="568" 
d="M535 172l-18 -146q-82 -41 -189 -41q-145 0 -215 87q-48 59 -52 139h-75l47 90h30q0 31 8 63h-66l47 90h42q30 84 94 143q94 85 245 85q98 0 169 -44l-64 -109q-48 35 -126 35q-64 0 -110 -29t-69 -81h268l-47 -90h-249q-8 -35 -8 -63h231l-47 -90h-176q7 -54 50.5 -81
t101.5 -27q107 0 178 69z" />
    <glyph glyph-name="uni20B4" unicode="&#x20b4;" horiz-adv-x="568" 
d="M206 515l-57 89q40 31 82 51q58 27 123 27q97 0 145 -50q38 -39 38 -103q0 -41 -25 -75h63l-11 -90h-131l-95 -63h218l-11 -90h-287q-11 -16 -11 -35q0 -31 22 -52t59 -21q38 0 72 21q29 18 54 48l69 -88q-41 -44 -91 -69q-60 -30 -126 -30q-82 0 -132 44q-56 50 -56 127
q0 30 11 55h-59l11 90h107l95 63h-194l11 90h281q24 19 24 51q0 26 -18 44q-23 23 -60 23q-35 0 -73 -21q-24 -13 -48 -36z" />
    <glyph glyph-name="uni20B6" unicode="&#x20b6;" horiz-adv-x="568" 
d="M364 667q121 0 179 -54q54 -50 54 -142q0 -103 -62 -163q-61 -58 -183 -58h-89l-8 -66h184l-11 -90h-184l-12 -94h-130l12 94h-72l11 90h72l8 66h-72l13 109h72l38 308h180zM300 555l-24 -196h55q68 0 100 28t32 79q0 48 -36 71q-29 18 -81 18h-46z" />
    <glyph glyph-name="uni20B6" unicode="&#x20cf;" horiz-adv-x="568" 
d="M364 667q121 0 179 -54q54 -50 54 -142q0 -103 -62 -163q-61 -58 -183 -58h-89l-8 -66h184l-11 -90h-184l-12 -94h-130l12 94h-72l11 90h72l8 66h-72l13 109h72l38 308h180zM300 555l-24 -196h55q68 0 100 28t32 79q0 48 -36 71q-29 18 -81 18h-46z" />
    <glyph glyph-name="uni20B6" unicode="&#x20ce;" horiz-adv-x="568" 
d="M364 667q121 0 179 -54q54 -50 54 -142q0 -103 -62 -163q-61 -58 -183 -58h-89l-8 -66h184l-11 -90h-184l-12 -94h-130l12 94h-72l11 90h72l8 66h-72l13 109h72l38 308h180zM300 555l-24 -196h55q68 0 100 28t32 79q0 48 -36 71q-29 18 -81 18h-46z" />
    <glyph glyph-name="uni20B6" unicode="&#x20cd;" horiz-adv-x="568" 
d="M364 667q121 0 179 -54q54 -50 54 -142q0 -103 -62 -163q-61 -58 -183 -58h-89l-8 -66h184l-11 -90h-184l-12 -94h-130l12 94h-72l11 90h72l8 66h-72l13 109h72l38 308h180zM300 555l-24 -196h55q68 0 100 28t32 79q0 48 -36 71q-29 18 -81 18h-46z" />
    <glyph glyph-name="uni20B6" unicode="&#x20cc;" horiz-adv-x="568" 
d="M364 667q121 0 179 -54q54 -50 54 -142q0 -103 -62 -163q-61 -58 -183 -58h-89l-8 -66h184l-11 -90h-184l-12 -94h-130l12 94h-72l11 90h72l8 66h-72l13 109h72l38 308h180zM300 555l-24 -196h55q68 0 100 28t32 79q0 48 -36 71q-29 18 -81 18h-46z" />
    <glyph glyph-name="uni20B6" unicode="&#x20cb;" horiz-adv-x="568" 
d="M364 667q121 0 179 -54q54 -50 54 -142q0 -103 -62 -163q-61 -58 -183 -58h-89l-8 -66h184l-11 -90h-184l-12 -94h-130l12 94h-72l11 90h72l8 66h-72l13 109h72l38 308h180zM300 555l-24 -196h55q68 0 100 28t32 79q0 48 -36 71q-29 18 -81 18h-46z" />
    <glyph glyph-name="uni20B6" unicode="&#x20ca;" horiz-adv-x="568" 
d="M364 667q121 0 179 -54q54 -50 54 -142q0 -103 -62 -163q-61 -58 -183 -58h-89l-8 -66h184l-11 -90h-184l-12 -94h-130l12 94h-72l11 90h72l8 66h-72l13 109h72l38 308h180zM300 555l-24 -196h55q68 0 100 28t32 79q0 48 -36 71q-29 18 -81 18h-46z" />
    <glyph glyph-name="uni20B6" unicode="&#x20c9;" horiz-adv-x="568" 
d="M364 667q121 0 179 -54q54 -50 54 -142q0 -103 -62 -163q-61 -58 -183 -58h-89l-8 -66h184l-11 -90h-184l-12 -94h-130l12 94h-72l11 90h72l8 66h-72l13 109h72l38 308h180zM300 555l-24 -196h55q68 0 100 28t32 79q0 48 -36 71q-29 18 -81 18h-46z" />
    <glyph glyph-name="uni20B6" unicode="&#x20c8;" horiz-adv-x="568" 
d="M364 667q121 0 179 -54q54 -50 54 -142q0 -103 -62 -163q-61 -58 -183 -58h-89l-8 -66h184l-11 -90h-184l-12 -94h-130l12 94h-72l11 90h72l8 66h-72l13 109h72l38 308h180zM300 555l-24 -196h55q68 0 100 28t32 79q0 48 -36 71q-29 18 -81 18h-46z" />
    <glyph glyph-name="uni20B6" unicode="&#x20c7;" horiz-adv-x="568" 
d="M364 667q121 0 179 -54q54 -50 54 -142q0 -103 -62 -163q-61 -58 -183 -58h-89l-8 -66h184l-11 -90h-184l-12 -94h-130l12 94h-72l11 90h72l8 66h-72l13 109h72l38 308h180zM300 555l-24 -196h55q68 0 100 28t32 79q0 48 -36 71q-29 18 -81 18h-46z" />
    <glyph glyph-name="uni20B6" unicode="&#x20c6;" horiz-adv-x="568" 
d="M364 667q121 0 179 -54q54 -50 54 -142q0 -103 -62 -163q-61 -58 -183 -58h-89l-8 -66h184l-11 -90h-184l-12 -94h-130l12 94h-72l11 90h72l8 66h-72l13 109h72l38 308h180zM300 555l-24 -196h55q68 0 100 28t32 79q0 48 -36 71q-29 18 -81 18h-46z" />
    <glyph glyph-name="uni20B6" unicode="&#x20c5;" horiz-adv-x="568" 
d="M364 667q121 0 179 -54q54 -50 54 -142q0 -103 -62 -163q-61 -58 -183 -58h-89l-8 -66h184l-11 -90h-184l-12 -94h-130l12 94h-72l11 90h72l8 66h-72l13 109h72l38 308h180zM300 555l-24 -196h55q68 0 100 28t32 79q0 48 -36 71q-29 18 -81 18h-46z" />
    <glyph glyph-name="uni20B6" unicode="&#x20c4;" horiz-adv-x="568" 
d="M364 667q121 0 179 -54q54 -50 54 -142q0 -103 -62 -163q-61 -58 -183 -58h-89l-8 -66h184l-11 -90h-184l-12 -94h-130l12 94h-72l11 90h72l8 66h-72l13 109h72l38 308h180zM300 555l-24 -196h55q68 0 100 28t32 79q0 48 -36 71q-29 18 -81 18h-46z" />
    <glyph glyph-name="uni20B6" unicode="&#x20c3;" horiz-adv-x="568" 
d="M364 667q121 0 179 -54q54 -50 54 -142q0 -103 -62 -163q-61 -58 -183 -58h-89l-8 -66h184l-11 -90h-184l-12 -94h-130l12 94h-72l11 90h72l8 66h-72l13 109h72l38 308h180zM300 555l-24 -196h55q68 0 100 28t32 79q0 48 -36 71q-29 18 -81 18h-46z" />
    <glyph glyph-name="uni20B6" unicode="&#x20c2;" horiz-adv-x="568" 
d="M364 667q121 0 179 -54q54 -50 54 -142q0 -103 -62 -163q-61 -58 -183 -58h-89l-8 -66h184l-11 -90h-184l-12 -94h-130l12 94h-72l11 90h72l8 66h-72l13 109h72l38 308h180zM300 555l-24 -196h55q68 0 100 28t32 79q0 48 -36 71q-29 18 -81 18h-46z" />
    <glyph glyph-name="uni20B6" unicode="&#x20c1;" horiz-adv-x="568" 
d="M364 667q121 0 179 -54q54 -50 54 -142q0 -103 -62 -163q-61 -58 -183 -58h-89l-8 -66h184l-11 -90h-184l-12 -94h-130l12 94h-72l11 90h72l8 66h-72l13 109h72l38 308h180zM300 555l-24 -196h55q68 0 100 28t32 79q0 48 -36 71q-29 18 -81 18h-46z" />
    <glyph glyph-name="uni20B6" unicode="&#x20c0;" horiz-adv-x="568" 
d="M364 667q121 0 179 -54q54 -50 54 -142q0 -103 -62 -163q-61 -58 -183 -58h-89l-8 -66h184l-11 -90h-184l-12 -94h-130l12 94h-72l11 90h72l8 66h-72l13 109h72l38 308h180zM300 555l-24 -196h55q68 0 100 28t32 79q0 48 -36 71q-29 18 -81 18h-46z" />
    <glyph glyph-name="uni20B6" unicode="&#x20bf;" horiz-adv-x="568" 
d="M364 667q121 0 179 -54q54 -50 54 -142q0 -103 -62 -163q-61 -58 -183 -58h-89l-8 -66h184l-11 -90h-184l-12 -94h-130l12 94h-72l11 90h72l8 66h-72l13 109h72l38 308h180zM300 555l-24 -196h55q68 0 100 28t32 79q0 48 -36 71q-29 18 -81 18h-46z" />
    <glyph glyph-name="uni20B6" unicode="&#x20be;" horiz-adv-x="568" 
d="M364 667q121 0 179 -54q54 -50 54 -142q0 -103 -62 -163q-61 -58 -183 -58h-89l-8 -66h184l-11 -90h-184l-12 -94h-130l12 94h-72l11 90h72l8 66h-72l13 109h72l38 308h180zM300 555l-24 -196h55q68 0 100 28t32 79q0 48 -36 71q-29 18 -81 18h-46z" />
    <glyph glyph-name="uni20B6" unicode="&#x20bd;" horiz-adv-x="568" 
d="M364 667q121 0 179 -54q54 -50 54 -142q0 -103 -62 -163q-61 -58 -183 -58h-89l-8 -66h184l-11 -90h-184l-12 -94h-130l12 94h-72l11 90h72l8 66h-72l13 109h72l38 308h180zM300 555l-24 -196h55q68 0 100 28t32 79q0 48 -36 71q-29 18 -81 18h-46z" />
    <glyph glyph-name="uni20B6" unicode="&#x20bc;" horiz-adv-x="568" 
d="M364 667q121 0 179 -54q54 -50 54 -142q0 -103 -62 -163q-61 -58 -183 -58h-89l-8 -66h184l-11 -90h-184l-12 -94h-130l12 94h-72l11 90h72l8 66h-72l13 109h72l38 308h180zM300 555l-24 -196h55q68 0 100 28t32 79q0 48 -36 71q-29 18 -81 18h-46z" />
    <glyph glyph-name="uni20B6" unicode="&#x20bb;" horiz-adv-x="568" 
d="M364 667q121 0 179 -54q54 -50 54 -142q0 -103 -62 -163q-61 -58 -183 -58h-89l-8 -66h184l-11 -90h-184l-12 -94h-130l12 94h-72l11 90h72l8 66h-72l13 109h72l38 308h180zM300 555l-24 -196h55q68 0 100 28t32 79q0 48 -36 71q-29 18 -81 18h-46z" />
    <glyph glyph-name="uni20B6" unicode="&#x20ba;" horiz-adv-x="568" 
d="M364 667q121 0 179 -54q54 -50 54 -142q0 -103 -62 -163q-61 -58 -183 -58h-89l-8 -66h184l-11 -90h-184l-12 -94h-130l12 94h-72l11 90h72l8 66h-72l13 109h72l38 308h180zM300 555l-24 -196h55q68 0 100 28t32 79q0 48 -36 71q-29 18 -81 18h-46z" />
    <glyph glyph-name="uni20B6" unicode="&#x20b9;" horiz-adv-x="568" 
d="M364 667q121 0 179 -54q54 -50 54 -142q0 -103 -62 -163q-61 -58 -183 -58h-89l-8 -66h184l-11 -90h-184l-12 -94h-130l12 94h-72l11 90h72l8 66h-72l13 109h72l38 308h180zM300 555l-24 -196h55q68 0 100 28t32 79q0 48 -36 71q-29 18 -81 18h-46z" />
    <glyph glyph-name="uni20B6" unicode="&#x20b7;" horiz-adv-x="568" 
d="M364 667q121 0 179 -54q54 -50 54 -142q0 -103 -62 -163q-61 -58 -183 -58h-89l-8 -66h184l-11 -90h-184l-12 -94h-130l12 94h-72l11 90h72l8 66h-72l13 109h72l38 308h180zM300 555l-24 -196h55q68 0 100 28t32 79q0 48 -36 71q-29 18 -81 18h-46z" />
    <glyph glyph-name="uni20B8" unicode="&#x20b8;" horiz-adv-x="568" 
d="M550 418h-150l-51 -418h-130l51 418h-150l14 112h430zM569 575h-430l12 92h430z" />
    <glyph glyph-name="afii61352" unicode="&#x2116;" horiz-adv-x="1082" 
d="M206 0h-130l82 667h130l251 -449l55 449h130l-82 -667h-130l-251 449zM939 667q76 0 122 -44q41 -39 41 -106q0 -76 -47 -122q-46 -44 -129 -44q-80 0 -124 45q-39 39 -39 99q0 79 48 125q49 47 128 47zM934 595q-35 0 -59 -22q-28 -26 -28 -72q0 -34 22 -56
q24 -22 60 -22q35 0 59 22q29 27 29 72q0 34 -23 56q-24 22 -60 22zM746 197l11 86h296l-11 -86h-296z" />
    <glyph glyph-name="uni2117" unicode="&#x2117;" horiz-adv-x="760" 
d="M421 682q145 0 245 -99q102 -102 102 -251q0 -143 -94 -242q-99 -105 -253 -105q-149 0 -249 101q-98 98 -98 248q0 155 107 255q97 93 240 93zM421 620q-113 0 -192 -80q-85 -85 -85 -205q0 -62 23 -117t59 -91t88 -58t107 -22q110 0 191 79q86 83 86 205q0 124 -86 210
q-79 79 -191 79zM304 527h121q62 0 94 -32q30 -30 30 -84q0 -53 -27 -83q-30 -32 -101 -32h-41v-143h-76v374zM380 461v-103h30q31 0 46 15q14 14 14 38q0 26 -14 38q-13 12 -43 12h-33z" />
    <glyph glyph-name="trademark" unicode="&#x2122;" horiz-adv-x="720" 
d="M320 591h-82l-38 -304h-85l38 304h-82l9 76h249zM380 287h-85l116 380h62l64 -224l127 224h62l13 -380h-85l-3 209l-114 -209h-38l-60 209z" />
    <glyph glyph-name="partialdiff" unicode="&#x2202;" horiz-adv-x="546" 
d="M111 568l16 105q87 -5 169 -38.5t137 -87.5q104 -103 104 -272q0 -155 -82 -232q-61 -57 -158 -57q-101 0 -167 64q-67 64 -67 165q0 99 65 162q58 56 143 56q74 0 125 -50q-27 88 -116 137q-72 40 -169 48zM297 329q-44 0 -74 -30q-34 -34 -34 -89t34 -87q31 -29 74 -29
q48 0 79 34q29 33 29 82q0 24 -10.5 50.5t-26.5 42.5q-27 26 -71 26z" />
    <glyph glyph-name="product" unicode="&#x220f;" horiz-adv-x="740" 
d="M80 638v112h650v-112h-82v-776h82v-112h-284v112h80v776h-242v-776h80v-112h-284v112h82v776h-82z" />
    <glyph glyph-name="summation" unicode="&#x2211;" horiz-adv-x="694" 
d="M80 750h595v-244h-112l-10 132h-333l248 -371l-248 -405h342l10 135h112v-247h-604v122l244 395l-244 361v122z" />
    <glyph glyph-name="minus" unicode="&#x2212;" 
d="M75 283v112h434v-112h-434z" />
    <glyph glyph-name="uni2215" unicode="&#x2215;" horiz-adv-x="653" 
d="M-30 -170l636 929l87 -40l-635 -929z" />
    <glyph glyph-name="uni2219" unicode="&#x2219;" horiz-adv-x="202" 
d="M43 325q0 42 31 73t73 31q37 0 60 -23q22 -22 22 -57q0 -45 -29 -75q-28 -29 -73 -29q-40 0 -62 23q-22 24 -22 57z" />
    <glyph glyph-name="radical" unicode="&#x221a;" horiz-adv-x="600" 
d="M415 827h287v-110h-181l-173 -717h-160l-60 274h-94v110h194l21 -91q4 -16 10 -71q4 -44 5 -73h11q8 82 20 157q8 50 29 140z" />
    <glyph glyph-name="infinity" unicode="&#x221e;" horiz-adv-x="668" 
d="M379 260q-28 -34 -65 -56q-44 -26 -91 -26q-74 0 -119 45t-45 116q0 73 48 119q45 43 112 43q51 0 96 -28q36 -23 58 -54q28 34 65 56q44 26 91 26q74 0 119 -45t45 -116q0 -73 -48 -119q-45 -43 -112 -43q-51 0 -96 28q-36 23 -58 54zM512 392q-24 0 -43 -16
q-22 -17 -33 -37q16 -23 31 -35q21 -17 45 -17t39 15q16 16 16 38q0 25 -18 40q-15 12 -37 12zM240 392q-22 0 -37 -12q-18 -15 -18 -40q0 -22 16 -38q15 -15 39 -15t45 17q15 12 31 35q-11 20 -33 37q-19 16 -43 16z" />
    <glyph glyph-name="integral" unicode="&#x222b;" horiz-adv-x="380" 
d="M24 -240l23 109q24 -10 50 -10q30 0 45 15q17 17 17 73v606q0 107 46 153q44 44 131 44q46 0 82 -10l-23 -109q-25 10 -51 10q-29 0 -44 -15q-17 -18 -17 -73v-606q0 -108 -45 -153q-44 -44 -129 -44q-39 0 -85 10z" />
    <glyph glyph-name="approxequal" unicode="&#x2248;" 
d="M465 523l70 -40q-23 -54 -56 -89q-41 -42 -95 -42q-34 0 -87 20l-24 9q-61 23 -82 23q-28 0 -48 -21q-14 -15 -26 -42l-70 40q10 28 28 59t35 47q36 34 90 34q31 0 90 -22l26 -10q50 -20 75 -20q27 0 48 18q16 14 26 36zM465 325l70 -40q-23 -54 -56 -89q-41 -42 -95 -42
q-34 0 -87 20l-24 9q-61 23 -82 23q-28 0 -48 -21q-14 -15 -26 -42l-70 40q10 28 28 59t35 47q36 34 90 34q31 0 90 -22l26 -10q50 -20 75 -20q27 0 48 18q16 14 26 36z" />
    <glyph glyph-name="notequal" unicode="&#x2260;" 
d="M75 374v106h237l49 104h96l-49 -104h101v-106h-151l-33 -70h184v-106h-234l-52 -110h-96l52 110h-104v106h154l33 70h-187z" />
    <glyph glyph-name="lessequal" unicode="&#x2264;" 
d="M195 393l314 -134v-114l-434 197v102l434 209v-114zM75 118h434v-110h-434v110z" />
    <glyph glyph-name="greaterequal" unicode="&#x2265;" 
d="M376 393l-314 146v114l434 -209v-102l-434 -197v114zM496 118v-110h-434v110h434z" />
    <glyph glyph-name="dotmath" unicode="&#x22c5;" horiz-adv-x="202" 
d="M43 325q0 42 31 73t73 31q37 0 60 -23q22 -22 22 -57q0 -45 -29 -75q-28 -29 -73 -29q-40 0 -62 23q-22 24 -22 57z" />
    <glyph glyph-name="lozenge" unicode="&#x25ca;" horiz-adv-x="700" 
d="M131 334l260 360l260 -360l-260 -360zM509 334l-118 162l-118 -162l118 -162z" />
    <glyph glyph-name="openbullet" unicode="&#x25e6;" horiz-adv-x="503" 
d="M314 363q-64 0 -109 45t-45 108q0 62 45 106.5t109 44.5t109.5 -44.5t45.5 -106.5q0 -63 -45.5 -108t-109.5 -45zM314 591q-31 0 -53.5 -22t-22.5 -53q0 -32 22 -54t54 -22t54.5 22t22.5 53q0 32 -22.5 54t-54.5 22z" />
    <glyph glyph-name="uniF400" unicode="&#xf400;" horiz-adv-x="2" 
d="M-145 700l81 -56l-166 -134l-51 40z" />
    <glyph glyph-name="uniF401" unicode="&#xf401;" horiz-adv-x="2" 
d="M-267 728l-49 50l157 142l81 -70z" />
    <glyph glyph-name="uniF406" unicode="&#xf406;" 
d="M435 870h92q-12 -62 -47 -99q-44 -45 -129 -45q-83 0 -123 40q-41 39 -41 104h88q2 -25 17 -40q18 -20 57 -20q35 0 57 17t29 43z" />
    <glyph glyph-name="uniF407" unicode="&#xf407;" 
d="M264 -46l96 -44l-150 -154l-70 36z" />
    <glyph glyph-name="uniF408" unicode="&#xf408;" 
d="M353 820l-131 -88l-54 64l196 134l164 -134l-66 -64z" />
    <glyph glyph-name="uniF409" unicode="&#xf409;" 
d="M130 -258l98 208l112 -16l-130 -204z" />
    <glyph glyph-name="uniF40A" unicode="&#xf40a;" 
d="M160 468l106 212l114 -20l-136 -208z" />
    <glyph glyph-name="uniF40B" unicode="&#xf40b;" 
d="M271 809q0 34 25 61q25 25 62 25q33 0 52 -19t19 -50q0 -36 -26 -62q-25 -25 -59 -25q-31 0 -52 19q-21 21 -21 51z" />
    <glyph glyph-name="uniF40C" unicode="&#xf40c;" 
d="M251 808q0 44 32 78q33 34 79 34q39 0 64 -25t25 -65q0 -44 -33 -77q-33 -31 -76 -31t-66 25q-25 25 -25 61zM311 815q0 -14 8 -22q10 -12 28 -12q20 0 32 14t12 33q0 14 -10 24q-9 9 -25 9q-18 0 -31 -13q-14 -13 -14 -33z" />
    <glyph glyph-name="uniF40D" unicode="&#xf40d;" 
d="M487 869l62 -48q-26 -38 -53 -61q-33 -28 -70 -28q-28 0 -74 19l-33 14q-40 16 -50 16q-20 0 -37 -16q-14 -14 -19 -24l-64 48q23 36 47 55q39 34 82 34q25 0 68 -19l38 -16q33 -14 50 -14q19 0 34 14q10 10 19 26z" />
    <glyph glyph-name="uniF40E" unicode="&#xf40e;" 
d="M274 0h66q-28 -18 -40 -30q-26 -26 -26 -52q0 -16 10 -24q10 -10 31 -10q24 0 48 12l-22 -69q-32 -17 -70 -17q-40 0 -63 21q-21 19 -21 51q0 42 34 78q20 22 53 40z" />
    <glyph glyph-name="uniF4C6" unicode="&#xf4c6;" horiz-adv-x="620" 
d="M626 667l-88 -719q-13 -100 -51 -137q-41 -41 -125 -41q-46 0 -83 9l14 122q18 -9 42 -9q35 0 53 18q19 19 26 82l33 274q-89 -7 -120 -7q-123 0 -173 43t-50 118q0 26 3 42l25 205h130q-25 -201 -25 -214q0 -39 24 -60q26 -22 93 -22q57 0 106 7l36 289h130z" />
    <glyph glyph-name="uniF4C7" unicode="&#xf4c7;" horiz-adv-x="483" 
d="M216 433l-13 -105q-3 -18 -3 -33q0 -31 22 -43q16 -10 52 -10q28 0 59 11l23 180h122l-61 -498q-12 -93 -48 -128q-38 -38 -118 -38q-38 0 -77 9l13 108q21 -9 43 -9q34 0 51 22q13 16 19 72l21 182q-41 -15 -88 -15q-80 0 -122 39q-35 32 -35 81q0 11 5 54l15 121h120z
" />
    <glyph glyph-name="uniF4CC" unicode="&#xf4cc;" horiz-adv-x="606" 
d="M84 667h140l132 -327l180 327h150l-391 -667h-142l122 200zM370 728l-49 50l157 142l81 -70z" />
    <glyph glyph-name="uniF4CD" unicode="&#xf4cd;" horiz-adv-x="538" 
d="M21 -229l195 294l-161 368h138l104 -246l150 246h142l-430 -662h-138zM423 700l81 -56l-166 -134l-51 40z" />
    <glyph glyph-name="dollar.fitted" unicode="&#xf5f5;" horiz-adv-x="513" 
d="M315 765h82l-12 -100q43 -5 81 -26q36 -20 63 -49l-76 -84q-21 23 -43 36q-29 18 -60 18q-39 0 -65 -20q-26 -23 -26 -55q0 -30 25 -47q17 -13 59 -31l36 -16q62 -29 89 -58q39 -42 39 -112q0 -102 -66 -163q-58 -54 -138 -56l-15 -112h-82l15 110q-57 8 -105 39
q-49 33 -76 80l84 77q26 -41 55 -61q38 -27 83 -27q51 0 79 23q33 25 33 71q0 32 -25 54q-14 12 -64 36l-34 16q-54 26 -80 53q-39 40 -39 102q0 91 56 147q45 45 115 55z" />
    <glyph glyph-name="Euro.fitted" unicode="&#xf5f6;" horiz-adv-x="657" 
d="M604 172l-18 -146q-82 -41 -189 -41q-145 0 -215 87q-48 59 -52 139h-75l47 90h30q0 31 8 63h-66l47 90h42q30 84 94 143q94 85 245 85q98 0 169 -44l-64 -109q-48 35 -126 35q-64 0 -110 -29t-69 -81h268l-47 -90h-249q-8 -35 -8 -63h231l-47 -90h-176q7 -54 50.5 -81
t101.5 -27q107 0 178 69z" />
    <glyph glyph-name="cent.fitted" unicode="&#xf5f7;" horiz-adv-x="405" 
d="M436 540l-15 -120q-40 38 -103 38q-56 0 -90 -34q-40 -39 -40 -99q0 -49 30 -79q31 -33 82 -33q58 0 100 38l-14 -119q-40 -22 -84 -24l-11 -95h-82l12 97q-69 12 -116 67q-45 54 -45 135q0 110 70 182q60 60 145 70l11 91h82l-11 -93q41 -2 79 -22z" />
    <glyph glyph-name="sterling.fitted" unicode="&#xf5f8;" horiz-adv-x="611" 
d="M223 246h-112l11 88h65q-23 58 -23 118q0 100 62 162q66 68 192 68q102 0 159 -55q58 -56 58 -157q0 -20 -1 -30h-133q1 6 1 21q0 55 -28 82q-25 25 -69 25q-48 0 -78 -30q-34 -34 -34 -92q0 -31 27 -112h148l-11 -88h-120q1 -8 1 -24q0 -49 -18 -92l68 -26
q38 -15 64 -15q27 0 45 17q14 12 25 37l86 -19q-16 -59 -52 -98q-38 -41 -103 -41q-50 0 -110 22l-35 13q-41 16 -72 16q-55 0 -69 -45l-92 17q15 45 42 77q38 45 91 53q18 31 18 70q0 17 -3 38z" />
    <glyph glyph-name="yen.fitted" unicode="&#xf5f9;" horiz-adv-x="605" 
d="M514 667h144l-155 -213h88l-11 -90h-142l-44 -63h178l-11 -90h-178l-26 -211h-120l26 211h-178l11 90h178l-28 63h-142l11 90h88l-103 213h144l106 -234z" />
    <glyph glyph-name="florin.fitted" unicode="&#xf5fa;" horiz-adv-x="612" 
d="M269 347h-60l22 86h60l34 130q23 87 67 129q50 48 128 48q50 0 85 -19l-27 -107q-28 15 -54 15q-28 0 -47 -17q-19 -19 -30 -60l-32 -119h108l-22 -86h-108l-65 -266q-20 -79 -41 -125.5t-54 -77.5q-63 -58 -178 -58q-26 0 -49 4l27 112q17 -3 32 -3q55 0 82 26
q33 30 61 141z" />
    <glyph glyph-name="uni20B4.fitted" unicode="&#xf5fb;" horiz-adv-x="543" 
d="M186 515l-57 89q40 31 82 51q58 27 123 27q97 0 145 -50q38 -39 38 -103q0 -41 -25 -75h63l-11 -90h-131l-95 -63h218l-11 -90h-287q-11 -16 -11 -35q0 -31 22 -52t59 -21q38 0 72 21q29 18 54 48l69 -88q-41 -44 -91 -69q-60 -30 -126 -30q-82 0 -132 44q-56 50 -56 127
q0 30 11 55h-59l11 90h107l95 63h-194l11 90h281q24 19 24 51q0 26 -18 44q-23 23 -60 23q-35 0 -73 -21q-24 -13 -48 -36z" />
    <glyph glyph-name="uni20B6.fitted" unicode="&#xf5fc;" horiz-adv-x="587" 
d="M382 667q121 0 179 -54q54 -50 54 -142q0 -103 -62 -163q-61 -58 -183 -58h-89l-8 -66h184l-11 -90h-184l-12 -94h-130l12 94h-72l11 90h72l8 66h-72l13 109h72l38 308h180zM318 555l-24 -196h55q68 0 100 28t32 79q0 48 -36 71q-29 18 -81 18h-46z" />
    <glyph glyph-name="uni20B8.fitted" unicode="&#xf5fd;" horiz-adv-x="487" 
d="M447 418h-150l-51 -418h-130l51 418h-150l14 112h430zM466 575h-430l12 92h430z" />
    <glyph glyph-name="uniF639" unicode="&#xf639;" horiz-adv-x="568" 
d="M287 -15q-96 0 -152 56q-78 77 -78 228q0 100 34 192t93 148q77 73 176 73q89 0 148 -59q75 -74 75 -218q0 -99 -29.5 -193t-91.5 -157q-40 -40 -79.5 -55t-95.5 -15zM355 570q-48 0 -84 -36q-39 -39 -60.5 -116t-21.5 -149q0 -105 43 -147q25 -25 63 -25q43 0 77 34
q34 36 56.5 113t22.5 149q0 117 -41 157q-20 20 -55 20z" />
    <glyph glyph-name="uniF63A" unicode="&#xf63a;" horiz-adv-x="582" 
d="M49 0l221 223q93 93 131 139q54 63 54 119q0 43 -28 67q-25 22 -67 22q-45 0 -73 -28q-31 -31 -36 -83h-134q8 87 63 148q68 75 189 75q107 0 166 -60q51 -52 51 -129q0 -74 -44 -138q-33 -47 -108 -118l-130 -125h241l-14 -112h-482z" />
    <glyph glyph-name="uniF63B" unicode="&#xf63b;" horiz-adv-x="538" 
d="M237 493h-122q13 79 61 128q58 61 159 61q105 0 159 -56q47 -47 47 -121q0 -54 -30 -96q-26 -36 -66 -53q35 -14 59 -48q25 -36 25 -86q0 -101 -60 -166q-64 -71 -189 -71q-108 0 -166 56q-60 59 -65 151h130q3 -45 33 -72q26 -23 71 -23q54 0 85 32q31 33 31 87
q0 47 -32 71q-26 20 -73 20h-11l11 94h18q49 0 75 25q28 28 28 73q0 37 -25 60q-22 21 -60 21q-43 0 -66 -25q-22 -22 -27 -62z" />
    <glyph glyph-name="uniF63C" unicode="&#xf63c;" horiz-adv-x="515" 
d="M517 667l-54 -437h78l-13 -104h-78l-15 -126h-122l15 126h-326l8 58l390 483h117zM169 230h172l31 258z" />
    <glyph glyph-name="uniF63D" unicode="&#xf63d;" horiz-adv-x="508" 
d="M534 667l-14 -112h-222l-37 -105q26 4 47 4q95 0 150 -57q54 -56 54 -150q0 -110 -64 -181q-73 -81 -207 -81q-75 0 -137 27q-49 22 -89 58l56 112q30 -37 67 -59q44 -26 95 -26q70 0 109 39t39 98q0 62 -38 95q-36 31 -101 31q-70 0 -138 -43l122 350h308z" />
    <glyph glyph-name="uniF63E" unicode="&#xf63e;" horiz-adv-x="549" 
d="M380 685l101 -57l-176 -196q8 1 28 1q110 0 172 -64q53 -57 53 -135q0 -55 -22 -106.5t-58 -82.5q-68 -60 -191 -60q-117 0 -182 65q-59 59 -59 146q0 78 37 140q23 38 90 113zM294 89q60 0 98 41q33 36 33 91q0 52 -33 84q-31 30 -82 30q-61 0 -96 -37q-37 -39 -37 -99
q0 -48 32 -80q31 -30 85 -30z" />
    <glyph glyph-name="uniF63F" unicode="&#xf63f;" horiz-adv-x="484" 
d="M26 29l371 526h-310l14 112h514l-486 -687z" />
    <glyph glyph-name="uniF640" unicode="&#xf640;" horiz-adv-x="533" 
d="M437 348q42 -13 69 -48q30 -40 30 -94q0 -97 -59 -156q-64 -65 -184 -65q-115 0 -175 61q-48 50 -48 121q0 84 53 135q36 35 88 46q-36 21 -57 52q-23 33 -23 81q0 88 56 142q61 59 167 59q89 0 142 -45q57 -47 57 -127q0 -61 -33 -104q-31 -41 -83 -58zM333 402
q45 0 72 24q30 28 30 79q0 41 -28 64q-23 19 -60 19q-42 0 -69 -27q-30 -30 -30 -77q0 -37 24 -60q23 -22 61 -22zM295 87q51 0 79 28q33 33 33 87q0 46 -32 71q-29 22 -66 22q-48 0 -78 -33q-30 -32 -30 -82q0 -42 25 -67q25 -26 69 -26z" />
    <glyph glyph-name="uniF641" unicode="&#xf641;" horiz-adv-x="547" 
d="M231 -18l-100 56l170 193q-17 -3 -33 -3q-87 0 -149 60q-59 57 -59 145q0 105 72 176q73 73 196 73q118 0 185 -67q57 -57 57 -144q0 -67 -38 -134q-26 -45 -95 -124zM319 578q-51 0 -87 -36q-40 -40 -40 -101q0 -47 31 -78q33 -31 87 -31t93 37q37 37 37 96q0 50 -31 80
q-36 33 -90 33z" />
    <glyph glyph-name="uniF6BA" unicode="&#xf6ba;" horiz-adv-x="360" 
d="M71 285l14 112h260l-14 -112h-260z" />
    <glyph glyph-name="uniF6BB" unicode="&#xf6bb;" horiz-adv-x="640" 
d="M92 289l13 104h500l-13 -104h-500z" />
    <glyph glyph-name="uniF6BC" unicode="&#xf6bc;" horiz-adv-x="840" 
d="M92 289l13 104h700l-13 -104h-700z" />
    <glyph glyph-name="uniF6C3" unicode="&#xf6c3;" 
d="M130 -258l98 208l112 -16l-130 -204z" />
    <glyph glyph-name="uniF6C9" unicode="&#xf6c9;" 
d="M315 728l-49 50l157 142l81 -70z" />
    <glyph glyph-name="uniF6CA" unicode="&#xf6ca;" 
d="M351 842l131 88l54 -64l-196 -134l-164 134l66 64z" />
    <glyph glyph-name="uniF6CB" unicode="&#xf6cb;" 
d="M390 800q0 36 23 59q23 24 57 24q28 0 46 -18t18 -45q0 -34 -24 -58q-23 -23 -55 -23q-30 0 -48 18q-17 17 -17 43zM166 800q0 36 23 59q23 24 57 24q28 0 46 -18t18 -45q0 -34 -24 -58q-23 -23 -55 -23q-30 0 -48 18q-17 17 -17 43z" />
    <glyph glyph-name="uniF6CE" unicode="&#xf6ce;" 
d="M363 728l-159 122l99 70l123 -142z" />
    <glyph glyph-name="uniF6CF" unicode="&#xf6cf;" 
d="M311 921l83 -59l-161 -134l-51 40zM511 920l83 -58l-161 -134l-51 40z" />
    <glyph glyph-name="uniF6D0" unicode="&#xf6d0;" 
d="M162 745l11 86h366l-11 -86h-366z" />
    <glyph glyph-name="uniF6D1" unicode="&#xf6d1;" 
d="M174 844l90 36q4 -12 10 -22t10 -14t6 -5q20 -17 58 -17t62 16q21 14 34 42l90 -36q-26 -56 -74 -84q-46 -28 -117 -28q-72 0 -113 31q-35 25 -56 81z" />
    <glyph glyph-name="uniF6D4" unicode="&#xf6d4;" 
d="M364 650l77 -38q-17 -46 -60 -75q-41 -28 -106 -28q-68 0 -111 32q-36 25 -51 71l83 38q5 -28 23 -44q22 -19 60 -19q32 0 54 17q21 16 31 46z" />
    <glyph glyph-name="uniF6DC" unicode="&#xf6dc;" horiz-adv-x="305" 
d="M101 0l68 555h-96l14 112h226l-82 -667h-130z" />
    <glyph glyph-name="uniF6DE" unicode="&#xf6de;" horiz-adv-x="630" 
d="M69 178l10 104h525l-10 -104h-525z" />
    <glyph glyph-name="nbspace" horiz-adv-x="233" 
 />
    <glyph glyph-name="hyphenminus" horiz-adv-x="360" 
d="M71 174l14 112h260l-14 -112h-260z" />
    <glyph glyph-name="dotlessi1" horiz-adv-x="238" 
d="M111 433h122l-53 -433h-122z" />
    </font>
</defs>
</svg>
