<?xml version="1.0" standalone="no"?>
<!DOCTYPE svg PUBLIC "-//W3C//DTD SVG 1.1//EN" "http://www.w3.org/Graphics/SVG/1.1/DTD/svg11.dtd" >
<svg xmlns="http://www.w3.org/2000/svg" xmlns:xlink="http://www.w3.org/1999/xlink" version="1.1">
<metadata>
Created by FontForge 20170731 at Tue Mar  8 15:47:47 2016
 By Aleksey,,,
Copyright (c) 1995 ParaGraph Intl., (c) 1998 ParaType Inc., ParaType Ltd. All rights reserved.
</metadata>
<defs>
<font id="FuturaPT-DemiBold" horiz-adv-x="500" >
  <font-face 
    font-family="Futura PT"
    font-weight="600"
    font-stretch="normal"
    units-per-em="1000"
    panose-1="2 11 7 2 2 2 4 2 3 3"
    ascent="763"
    descent="-237"
    x-height="433"
    cap-height="667"
    bbox="-368 -270 1140 960"
    underline-thickness="50"
    underline-position="-200"
    unicode-range="U+0020-FB02"
  />
<missing-glyph horiz-adv-x="233" 
 />
    <glyph glyph-name="afii10017.var.accented" unicode="&#x410;`" horiz-adv-x="672" 
d="M530 0l-59 140h-269l-59 -140h-141l287 667h102l279 -667h-140zM243 246h190l-95 240zM312 728l-56 50l140 142l90 -70z" />
    <glyph glyph-name="afii10022.var.accented" unicode="&#x415;`" horiz-adv-x="496" 
d="M446 667v-112h-240v-149h230v-112h-230v-182h240v-112h-370v667h370zM224 728l-56 50l140 142l90 -70z" />
    <glyph glyph-name="afii10026.var.accented" unicode="&#x418;`" horiz-adv-x="740" 
d="M76 667h130v-444l366 444h92v-667h-130v446l-366 -446h-92v667zM346 728l-56 50l140 142l90 -70z" />
    <glyph glyph-name="afii10032.var.accented" unicode="&#x41e;`" horiz-adv-x="800" 
d="M400 682q157 0 256.5 -98t99.5 -251t-99.5 -250.5t-256.5 -97.5t-256.5 97.5t-99.5 250.5t99.5 251t256.5 98zM400 103q98 0 160 64.5t62 165.5t-62.5 166t-159.5 65t-159.5 -65t-62.5 -166t62 -165.5t160 -64.5zM376 728l-56 50l140 142l90 -70z" />
    <glyph glyph-name="afii10037.var.accented" unicode="&#x423;`" horiz-adv-x="610" 
d="M2 667h152l169 -336l143 336h142l-309 -667h-142l93 186zM281 728l-56 50l140 142l90 -70z" />
    <glyph glyph-name="afii10045.var.accented" unicode="&#x42b;`" horiz-adv-x="800" 
d="M76 0v667h130v-261h104q104 0 164 -55q62 -57 62 -149q0 -68 -36 -120q-56 -82 -189 -82h-235zM206 294v-182h76q120 0 120 90q0 38 -26.5 65t-91.5 27h-78zM594 667h130v-667h-130v667zM376 728l-56 50l140 142l90 -70z" />
    <glyph glyph-name="afii10047.var.accented" unicode="&#x42d;`" horiz-adv-x="611" 
d="M44 24v152q72 -73 176 -73q78 0 138.5 46t74.5 130h-299v112h297q-14 82 -73 127.5t-133 45.5q-107 0 -181 -75v152q80 41 174 41q157 0 249 -88q47 -46 73.5 -115.5t26.5 -145.5q0 -159 -99 -255q-93 -93 -249 -93q-94 0 -175 39zM231 728l-56 50l140 142l90 -70z" />
    <glyph glyph-name="afii10048.var.accented" unicode="&#x42e;`" horiz-adv-x="1026" 
d="M206 409h92q17 98 84 171q94 102 256 102q153 0 248.5 -98t95.5 -251q0 -152 -95.5 -250t-248.5 -98q-151 0 -243 89t-101 223h-88v-297h-130v667h130v-258zM638 103q94 0 152 64t58 166q0 112 -63.5 171.5t-146.5 59.5t-146.5 -59.5t-63.5 -171.5q0 -102 58 -166
t152 -64zM489 728l-56 50l140 142l90 -70z" />
    <glyph glyph-name="afii10049.var.accented" unicode="&#x42f;`" horiz-adv-x="568" 
d="M492 667v-667h-130v258h-24l-170 -258h-156l198 270q-40 6 -73 30q-75 54 -75 161q0 97 66 155q58 51 171 51h193zM362 561h-40q-16 0 -31 -2t-40 -10.5t-40 -31t-15 -56.5q0 -101 128 -101h38v201zM260 728l-56 50l140 142l90 -70z" />
    <glyph glyph-name="afii10023.var.accented" unicode="&#x401;`" horiz-adv-x="496" 
d="M446 667v-112h-240v-149h230v-112h-230v-182h240v-112h-370v667h370zM206 743l-35 33l112 144l62 -57zM49 823q0 21 17 40.5t43 19.5t43.5 -18t17.5 -42q0 -23 -18 -42t-43 -19q-23 0 -41.5 18.5t-18.5 42.5zM351 823q0 21 17 40.5t44 19.5t44 -19.5t17 -40.5
q0 -23 -19 -42t-42 -19t-42 19t-19 42z" />
    <glyph glyph-name="afii10065.var.accented" unicode="&#x430;`" horiz-adv-x="570" 
d="M390 377v56h122v-433h-122v56q-49 -70 -133 -70q-98 0 -159.5 67t-61.5 164q0 98 60 164t155 66q94 0 139 -70zM282 339q-52 0 -86 -35t-34 -87t34 -87.5t86 -35.5t86 35.5t34 87.5t-34 87t-86 35zM353 700l88 -56l-150 -134l-56 40z" />
    <glyph glyph-name="afii10070.var.accented" unicode="&#x435;`" horiz-adv-x="522" 
d="M371 139l112 -18q-7 -18 -18.5 -35.5t-35.5 -43t-65 -41t-94 -15.5q-102 0 -166 61q-68 64 -68 169q0 104 66 170q62 61 163 61q110 0 169 -71q52 -62 52 -170v-10h-324q0 -44 21 -73q30 -41 87 -41q68 0 101 57zM166 274h205q-7 42 -36.5 64.5t-66.5 22.5
q-36 0 -65.5 -23t-36.5 -64zM329 700l88 -56l-150 -134l-56 40z" />
    <glyph glyph-name="afii10074.var.accented" unicode="&#x438;`" horiz-adv-x="560" 
d="M58 433h122v-267l200 267h122v-433h-122v267l-200 -267h-122v433zM348 700l88 -56l-150 -134l-56 40z" />
    <glyph glyph-name="afii10080.var.accented" unicode="&#x43e;`" horiz-adv-x="568" 
d="M284 447q109 0 175 -61q73 -66 73 -170q0 -103 -73 -169q-66 -61 -175 -61t-175 61q-73 66 -73 169q0 104 73 170q66 61 175 61zM284 94q52 0 87 36t35 86q0 51 -35 87t-87 36t-87 -36t-35 -87q0 -50 35 -86t87 -36zM352 700l88 -56l-150 -134l-56 40z" />
    <glyph glyph-name="afii10085.var.accented" unicode="&#x443;`" horiz-adv-x="538" 
d="M49 -229l159 294l-206 368h142l134 -246l120 246h138l-349 -662h-138zM337 700l88 -56l-150 -134l-56 40z" />
    <glyph glyph-name="afii10093.var.accented" unicode="&#x44b;`" horiz-adv-x="650" 
d="M58 433h122v-154h95q76 0 116 -44q33 -35 33 -93q0 -71 -46 -110q-37 -32 -97 -32h-223v433zM180 96h57q31 0 45 11q16 12 16 35q0 21 -16 31q-14 10 -42 10h-60v-87zM470 433h122v-433h-122v433zM393 700l88 -56l-150 -134l-56 40z" />
    <glyph glyph-name="afii10095.var.accented" unicode="&#x44d;`" horiz-adv-x="434" 
d="M34 9v118q52 -42 126 -42q52 0 80 24q27 24 29 66h-179v88h179q-6 39 -33 61q-30 27 -77 27q-69 0 -123 -37v106q65 27 132 27q108 0 169 -65q61 -63 61 -166q0 -107 -64 -169q-62 -62 -166 -62q-78 0 -134 24zM241 700l88 -56l-150 -134l-56 40z" />
    <glyph glyph-name="afii10096.var.accented" unicode="&#x44e;`" horiz-adv-x="750" 
d="M180 270h59q11 67 62 116q64 61 169 61q106 0 172 -61q72 -65 72 -170q0 -102 -72 -169q-66 -61 -172 -61q-104 0 -169 61q-51 49 -62 119h-59v-166h-122v433h122v-163zM470 94q51 0 84.5 35.5t33.5 86.5q0 52 -33.5 87.5t-84.5 35.5t-84.5 -35.5t-33.5 -87.5
q0 -51 33.5 -86.5t84.5 -35.5zM443 700l88 -56l-150 -134l-56 40z" />
    <glyph glyph-name="afii10097.var.accented" unicode="&#x44f;`" horiz-adv-x="460" 
d="M20 0l128 162q-42 6 -70 34q-34 34 -34 92q0 67 52 109q46 36 134 36h172v-433h-122v152h-14l-106 -152h-140zM280 240v97h-53q-28 0 -41 -12q-16 -15 -16 -38q0 -24 16 -36q14 -11 41 -11h53zM298 700l88 -56l-150 -134l-56 40z" />
    <glyph glyph-name="afii10071.var.accented" unicode="&#x451;`" horiz-adv-x="522" 
d="M371 139l112 -18q-7 -18 -18.5 -35.5t-35.5 -43t-65 -41t-94 -15.5q-102 0 -166 61q-68 64 -68 169q0 104 66 170q62 61 163 61q110 0 169 -71q52 -62 52 -170v-10h-324q0 -44 21 -73q30 -41 87 -41q68 0 101 57zM166 274h205q-7 42 -36.5 64.5t-66.5 22.5
q-36 0 -65.5 -23t-36.5 -64zM293 700l67 -41l-135 -137l-40 28zM52 593q0 27 19 46t45 19q27 0 46 -19t19 -46q0 -26 -19 -45t-46 -19q-26 0 -45 19t-19 45zM348 593q0 26 19 45.5t46 19.5q26 0 45.5 -19t19.5 -46q0 -26 -19.5 -45t-45.5 -19q-27 0 -46 19t-19 45z" />
    <glyph glyph-name="fi" unicode="fi" horiz-adv-x="528" 
d="M294 329h-112v-329h-122v329h-46v104h46v108q0 31 1 45t8.5 38t22.5 45q54 72 173 72q127 0 175 -72q5 -8 9.5 -16t7.5 -16.5t5.5 -15t3.5 -16t2 -14t1.5 -14.5t0.5 -12.5v-12.5v-11v-29h-122v26q0 39 -13 60q-21 33 -70 33q-48 0 -69 -33q-14 -22 -14 -60v-105h112v-104
zM348 433h122v-433h-122v433z" />
    <glyph glyph-name="fl" unicode="fl" horiz-adv-x="528" 
d="M294 329h-112v-329h-122v329h-46v104h46v108q0 31 1 45t8.5 38t22.5 45q54 72 173 72q127 0 175 -72q5 -8 9.5 -16t7.5 -16.5t5.5 -15t3.5 -16t2 -14t1.5 -14.5t0.5 -12.5v-12.5v-11v-541h-122v538q0 39 -13 60q-21 33 -70 33q-48 0 -69 -33q-14 -22 -14 -60v-105h112
v-104z" />
    <glyph glyph-name=".notdef" horiz-adv-x="233" 
 />
    <glyph glyph-name=".null" horiz-adv-x="0" 
 />
    <glyph glyph-name="nonmarkingreturn" horiz-adv-x="333" 
 />
    <glyph glyph-name="space" unicode=" " horiz-adv-x="233" 
 />
    <glyph glyph-name="exclam" unicode="!" horiz-adv-x="252" 
d="M188 203h-124v464h124v-464zM48 65q0 33 22.5 55.5t55.5 22.5t55.5 -22.5t22.5 -55.5t-22.5 -55.5t-55.5 -22.5t-55.5 22.5t-22.5 55.5z" />
    <glyph glyph-name="quotedbl" unicode="&#x22;" horiz-adv-x="388" 
d="M172 667l-23 -268h-84l-23 268h130zM346 667l-23 -268h-84l-23 268h130z" />
    <glyph glyph-name="numbersign" unicode="#" horiz-adv-x="600" 
d="M420 0h-122l30 186h-94l-30 -186h-122l30 186h-102l17 104h102l16 101h-102l17 104h102l28 172h122l-28 -172h94l28 172h122l-28 -172h102l-17 -104h-102l-16 -101h102l-17 -104h-102zM345 290l16 101h-94l-16 -101h94z" />
    <glyph glyph-name="dollar" unicode="$" horiz-adv-x="568" 
d="M248 765h82v-100q42 -3 82 -23q41 -22 68 -52l-66 -84q-44 54 -105 54q-45 0 -68 -24q-19 -19 -19 -47t26 -47q15 -11 82 -41q5 -2 23.5 -10t27.5 -12.5t23.5 -12t25.5 -16t21 -17.5q51 -48 51 -124q0 -91 -60 -149q-45 -45 -112 -58v-112h-82v110q-70 8 -127 46
q-43 29 -73 73l75 77q27 -40 57 -60q38 -28 91 -28q49 0 76 26q25 25 25 62q0 30 -23 55q-12 13 -72 39q-90 36 -133 77q-47 44 -47 115t45 122q43 47 106 61v100z" />
    <glyph glyph-name="percent" unicode="%" horiz-adv-x="774" 
d="M198 675q77 0 122.5 -44.5t45.5 -113.5t-45.5 -113.5t-122.5 -44.5t-122.5 44.5t-45.5 113.5t45.5 113.5t122.5 44.5zM198 431q37 0 60.5 24t23.5 62t-23.5 62t-60.5 24t-60.5 -24t-23.5 -62t23.5 -62t60.5 -24zM162 3l397 686l53 -30l-397 -687zM576 306
q77 0 122.5 -44.5t45.5 -113.5t-45.5 -113.5t-122.5 -44.5t-122.5 44.5t-45.5 113.5t45.5 113.5t122.5 44.5zM576 62q37 0 60.5 24t23.5 62t-23.5 62t-60.5 24t-60.5 -24t-23.5 -62t23.5 -62t60.5 -24z" />
    <glyph glyph-name="ampersand" unicode="&#x26;" horiz-adv-x="710" 
d="M578 324l76 -75q-36 -45 -72 -81l-15 -15l135 -153h-161l-65 75q-100 -90 -215 -90q-97 0 -153 57t-56 134q0 105 107 169l52 31q-67 67 -67 140q0 68 48 117t136 49q83 0 131 -47t48 -112q0 -91 -94 -148l-28 -17l110 -126q54 53 83 92zM403 157l-126 145
q-95 -50 -95 -115q0 -38 28 -63t70 -25q65 0 123 58zM294 463l29 -36l30 21q46 32 46 74q0 27 -16.5 46.5t-48.5 19.5q-33 0 -50.5 -18.5t-17.5 -43.5q0 -29 28 -63z" />
    <glyph glyph-name="quotesingle" unicode="'" horiz-adv-x="214" 
d="M172 667l-23 -268h-84l-23 268h130z" />
    <glyph glyph-name="parenleft" unicode="(" horiz-adv-x="320" 
d="M264 -127l-97 -53q-48 90 -74 206q-25 114 -25 254q0 131 23 240q26 119 76 220l97 -53q-33 -68 -55 -168q-25 -122 -25 -239q0 -128 25 -243q19 -91 55 -164z" />
    <glyph glyph-name="parenright" unicode=")" horiz-adv-x="320" 
d="M153 -180l-97 53q36 73 55 164q25 115 25 243q0 117 -25 239q-22 100 -55 168l97 53q50 -101 76 -220q23 -109 23 -240q0 -140 -25 -254q-26 -116 -74 -206z" />
    <glyph glyph-name="asterisk" unicode="*" horiz-adv-x="568" 
d="M144 681l114 -58l-20 126h92l-20 -126l114 59l28 -88l-127 -20l91 -90l-75 -54l-57 115l-57 -116l-75 54l91 91l-127 19z" />
    <glyph glyph-name="plus" unicode="+" 
d="M33 283v112h156v156h122v-156h156v-112h-156v-156h-122v156h-156z" />
    <glyph glyph-name="comma" unicode="," horiz-adv-x="328" 
d="M4 -131l106 269l112 -13l-141 -265z" />
    <glyph glyph-name="hyphen" unicode="-" horiz-adv-x="360" 
d="M50 174v112h260v-112h-260z" />
    <glyph glyph-name="period" unicode="." horiz-adv-x="252" 
d="M48 65q0 33 22.5 55.5t55.5 22.5t55.5 -22.5t22.5 -55.5t-22.5 -55.5t-55.5 -22.5t-55.5 22.5t-22.5 55.5z" />
    <glyph glyph-name="slash" unicode="/" horiz-adv-x="653" 
d="M-20 -170l525 929l88 -40l-525 -929z" />
    <glyph glyph-name="zero" unicode="0" horiz-adv-x="568" 
d="M284 -15q-107 0 -182.5 92.5t-75.5 256.5q0 163 75.5 255.5t182.5 92.5t182.5 -92.5t75.5 -256.5q0 -163 -75.5 -255.5t-182.5 -92.5zM284 570q-49 0 -88.5 -58.5t-39.5 -177.5t39 -178t89 -59t89 59t39 178t-39.5 177.5t-88.5 58.5z" />
    <glyph glyph-name="one" unicode="1" horiz-adv-x="568" 
d="M228 0v555h-96v112h226v-667h-130z" />
    <glyph glyph-name="two" unicode="2" horiz-adv-x="568" 
d="M18 0l196 223q96 112 114 139q39 58 39 107q0 45 -28.5 73t-70.5 28q-48 0 -76 -32.5t-30 -78.5h-134q4 101 69 162t165 61q110 0 172.5 -63t62.5 -149q0 -48 -22 -96t-42 -72.5t-57 -64.5l-115 -125h241v-112h-484z" />
    <glyph glyph-name="three" unicode="3" horiz-adv-x="568" 
d="M173 493h-122q9 89 69 139t148 50q96 0 152.5 -50t56.5 -134q0 -97 -77 -140q102 -42 102 -159q0 -100 -67.5 -157t-170.5 -57q-98 0 -165 56.5t-75 150.5h130q6 -43 35 -69t76 -26q52 0 79.5 31.5t27.5 74.5q0 42 -27.5 73t-83.5 31h-17v94h18q45 0 68 26.5t23 64.5
q0 40 -24 64t-64 24q-37 0 -63.5 -23t-28.5 -64z" />
    <glyph glyph-name="four" unicode="4" horiz-adv-x="568" 
d="M470 667v-437h78v-104h-78v-126h-122v126h-326v58l331 483h117zM176 230h172v254z" />
    <glyph glyph-name="five" unicode="5" horiz-adv-x="568" 
d="M472 667v-112h-222l-24 -105q26 4 45 4q107 0 172 -67q59 -60 59 -160q0 -106 -68 -174t-183 -68q-87 0 -144 28q-43 21 -81 57l43 112q29 -39 69 -60q46 -25 97 -25q64 0 102 40q35 37 35 97q0 57 -39 92q-39 34 -104 34q-72 0 -144 -43l79 350h308z" />
    <glyph glyph-name="six" unicode="6" horiz-adv-x="568" 
d="M310 685l105 -51l-162 -211q36 16 73 16q88 0 147 -57q63 -59 63 -160q0 -95 -61 -161q-70 -76 -190 -76q-122 0 -190 68q-65 65 -65 162t84 208zM283 89q53 0 87 34q36 36 36 88q0 57 -37 92q-33 32 -86 32t-87 -36q-36 -37 -36 -87q0 -56 37 -90q35 -33 86 -33z" />
    <glyph glyph-name="seven" unicode="7" horiz-adv-x="568" 
d="M49 29l307 526h-310v112h514l-401 -687z" />
    <glyph glyph-name="eight" unicode="8" horiz-adv-x="568" 
d="M397 348q55 -18 87 -63t32 -103q0 -85 -63.5 -141t-168.5 -56t-168.5 56t-63.5 141q0 58 32 103t87 63q-42 21 -69 58.5t-27 89.5q0 78 55 132t154 54t154 -54t55 -132q0 -52 -27 -89.5t-69 -58.5zM284 402q41 0 67 26t26 67t-26 67t-67 26t-67 -26t-26 -67t26 -67
t67 -26zM284 87q44 0 73 29.5t29 74.5t-29 74.5t-73 29.5t-73 -29.5t-29 -74.5t29 -74.5t73 -29.5z" />
    <glyph glyph-name="nine" unicode="9" horiz-adv-x="568" 
d="M258 -18l-105 51l159 208q-39 -13 -71 -13q-37 0 -77.5 15t-68.5 42q-63 59 -63 160q0 95 61 161q70 76 190 76q122 0 190 -68q65 -65 65 -162t-84 -208zM285 578q-53 0 -87 -34q-36 -36 -36 -88q0 -57 37 -92q33 -32 86 -32q52 0 87 36q36 38 36 87q0 55 -37 90
q-35 33 -86 33z" />
    <glyph glyph-name="colon" unicode=":" horiz-adv-x="252" 
d="M48 369q0 33 22.5 55.5t55.5 22.5t55.5 -22.5t22.5 -55.5t-22.5 -55.5t-55.5 -22.5t-55.5 22.5t-22.5 55.5zM48 64q0 33 22.5 55.5t55.5 22.5t55.5 -22.5t22.5 -55.5t-22.5 -55.5t-55.5 -22.5t-55.5 22.5t-22.5 55.5z" />
    <glyph glyph-name="semicolon" unicode=";" horiz-adv-x="328" 
d="M84 369q0 33 22.5 55.5t55.5 22.5t55.5 -22.5t22.5 -55.5t-22.5 -55.5t-55.5 -22.5t-55.5 22.5t-22.5 55.5zM4 -131l106 269l112 -13l-141 -265z" />
    <glyph glyph-name="less" unicode="&#x3c;" 
d="M161 334l306 -150v-120l-434 218v104l434 218v-120z" />
    <glyph glyph-name="equal" unicode="=" 
d="M33 372v106h434v-106h-434zM33 200v106h434v-106h-434z" />
    <glyph glyph-name="greater" unicode="&#x3e;" 
d="M339 334l-306 150v120l434 -218v-104l-434 -218v120z" />
    <glyph glyph-name="question" unicode="?" horiz-adv-x="490" 
d="M283 203h-124v196q16 -4 39 -4q60 0 94 34q26 28 26 67q0 37 -21 58q-20 20 -52 20q-33 0 -51 -18q-22 -20 -22 -65h-130q0 81 50 135q54 56 158 56q94 0 146 -51q52 -50 52 -138q0 -78 -51 -129q-47 -47 -114 -56v-105zM143 63q0 33 22.5 55.5t55.5 22.5t55.5 -22.5
t22.5 -55.5t-22.5 -55.5t-55.5 -22.5t-55.5 22.5t-22.5 55.5z" />
    <glyph glyph-name="at" unicode="@" horiz-adv-x="734" 
d="M468 450l8 42h84l-40 -203q-4 -20 -4 -34q0 -34 26 -34q22 0 46 33q39 53 39 125q0 90 -61.5 157t-177.5 67q-87 0 -151 -43.5t-93 -104.5t-29 -128q0 -83 44 -151.5t117 -95.5q48 -17 111 -17q96 0 187 33l19 -76q-95 -32 -200 -32q-160 0 -255 88q-53 49 -79 115.5
t-26 136.5q0 155 101.5 252.5t253.5 97.5q147 0 230 -86t83 -206q0 -100 -50.5 -166.5t-114.5 -66.5q-28 0 -49.5 14.5t-27.5 41.5q-46 -64 -123 -64q-60 0 -100.5 41.5t-40.5 115.5q0 92 53.5 146t120.5 54q69 0 99 -52zM358 230q34 0 61 31t27 80q0 31 -16.5 52.5
t-48.5 21.5q-38 0 -64.5 -31.5t-26.5 -77.5q0 -37 20.5 -56.5t47.5 -19.5z" />
    <glyph glyph-name="A" unicode="A" horiz-adv-x="672" 
d="M530 0l-59 140h-269l-59 -140h-141l287 667h102l279 -667h-140zM243 246h190l-95 240z" />
    <glyph glyph-name="B" unicode="B" horiz-adv-x="570" 
d="M76 667h165q109 0 163 -42q62 -48 62 -138q0 -89 -75 -131q51 -8 87 -42q48 -46 48 -125q0 -84 -57 -135q-61 -54 -169 -54h-224v667zM206 561v-171h37q10 0 18.5 0.5t25 5.5t28 13.5t20.5 26t9 41.5q0 43 -28 63.5t-72 20.5h-38zM206 290v-184h56q58 0 89 18
q41 24 41 77q0 54 -49 76q-28 13 -89 13h-48z" />
    <glyph glyph-name="C" unicode="C" horiz-adv-x="604" 
d="M560 176v-152q-74 -39 -165 -39q-146 0 -244 93q-107 103 -107 255q0 162 107 261q94 88 245 88q88 0 164 -41v-152q-65 75 -161 75q-98 0 -159.5 -68.5t-61.5 -164.5q0 -105 68 -166.5t158 -61.5q94 0 156 73z" />
    <glyph glyph-name="D" unicode="D" horiz-adv-x="670" 
d="M76 667h174q79 0 138 -13.5t110 -51.5q61 -46 94.5 -116t33.5 -153q0 -175 -134 -269q-54 -38 -110 -51t-134 -13h-172v667zM206 555v-443h40q102 0 163 44q39 28 61 75.5t22 101.5q0 53 -21.5 100.5t-60.5 77.5q-59 44 -164 44h-40z" />
    <glyph glyph-name="E" unicode="E" horiz-adv-x="496" 
d="M446 667v-112h-240v-149h230v-112h-230v-182h240v-112h-370v667h370z" />
    <glyph glyph-name="F" unicode="F" horiz-adv-x="466" 
d="M430 667v-112h-224v-149h210v-112h-210v-294h-130v667h354z" />
    <glyph glyph-name="G" unicode="G" horiz-adv-x="764" 
d="M414 245v112h306v-8q0 -179 -98 -276q-88 -88 -237 -88q-152 0 -242 90q-99 99 -99 257q0 150 98 248q100 102 263 102q88 0 154 -35q77 -39 125 -122l-113 -61q-27 52 -78 79q-42 21 -94 21q-94 0 -154 -59q-67 -65 -67 -176q0 -105 66 -169q59 -57 148 -57q78 0 131 40
q48 37 63 102h-172z" />
    <glyph glyph-name="H" unicode="H" horiz-adv-x="694" 
d="M206 667v-258h282v258h130v-667h-130v297h-282v-297h-130v667h130z" />
    <glyph glyph-name="I" unicode="I" horiz-adv-x="282" 
d="M76 667h130v-667h-130v667z" />
    <glyph glyph-name="J" unicode="J" horiz-adv-x="390" 
d="M184 667h130v-450q0 -149 -78 -202q-46 -30 -109 -30q-88 0 -153 62l79 95q25 -36 65 -36q36 0 51 23q15 22 15 108v430z" />
    <glyph glyph-name="K" unicode="K" horiz-adv-x="636" 
d="M206 667v-282l245 282h164l-282 -308l297 -359h-172l-237 299l-15 -15v-284h-130v667h130z" />
    <glyph glyph-name="L" unicode="L" horiz-adv-x="426" 
d="M76 667h130v-555h206v-112h-336v667z" />
    <glyph glyph-name="M" unicode="M" horiz-adv-x="870" 
d="M42 0l124 667h94l177 -424l185 424h94l112 -667h-132l-60 411l-179 -411h-44l-171 411l-68 -411h-132z" />
    <glyph glyph-name="N" unicode="N" horiz-adv-x="778" 
d="M206 0h-130v667h90l406 -445v445h130v-667h-90l-406 446v-446z" />
    <glyph glyph-name="O" unicode="O" horiz-adv-x="800" 
d="M400 682q157 0 256.5 -98t99.5 -251t-99.5 -250.5t-256.5 -97.5t-256.5 97.5t-99.5 250.5t99.5 251t256.5 98zM400 103q98 0 160 64.5t62 165.5t-62.5 166t-159.5 65t-159.5 -65t-62.5 -166t62 -165.5t160 -64.5z" />
    <glyph glyph-name="P" unicode="P" horiz-adv-x="534" 
d="M76 667h194q62 0 101.5 -10.5t74.5 -40.5q68 -60 68 -161q0 -94 -55 -149q-59 -59 -169 -59h-84v-247h-130v667zM206 555v-196h53q57 0 85 21q36 28 36 78q0 49 -37 76q-30 21 -92 21h-45z" />
    <glyph glyph-name="Q" unicode="Q" horiz-adv-x="800" 
d="M645 -26l-55 59q-81 -48 -190 -48q-157 0 -256.5 97.5t-99.5 250.5t99.5 251t256.5 98t256.5 -98t99.5 -251q0 -139 -88 -237l108 -109zM501 268l77 -79q44 59 44 144q0 101 -62.5 166t-159.5 65t-159.5 -65t-62.5 -166t62.5 -165.5t162.5 -64.5q55 0 99 22l-136 132z
" />
    <glyph glyph-name="R" unicode="R" horiz-adv-x="574" 
d="M76 667h193q110 0 170 -50q66 -56 66 -150q0 -104 -78 -157q-30 -21 -73 -29l208 -281h-162l-178 268h-16v-268h-130v667zM206 561v-201h37q16 0 31.5 2.5t40.5 11t40.5 31t15.5 56.5t-15 56.5t-40 31t-40 10.5t-31 2h-39z" />
    <glyph glyph-name="S" unicode="S" horiz-adv-x="534" 
d="M472 604l-68 -89q-43 57 -109 57q-48 0 -70 -23.5t-22 -54.5q0 -27 21 -45q16 -15 80 -38q99 -34 135 -67q57 -51 57 -140q0 -98 -64.5 -158.5t-167.5 -60.5q-144 0 -230 126l85 81q22 -45 61 -67t79 -22q45 0 74 25.5t29 66.5q0 35 -26 60q-24 22 -103 49
q-74 25 -111 58q-53 46 -53 124q0 81 55 138.5t159 57.5q113 0 189 -78z" />
    <glyph glyph-name="T" unicode="T" horiz-adv-x="442" 
d="M436 555h-150v-555h-130v555h-150v112h430v-112z" />
    <glyph glyph-name="U" unicode="U" horiz-adv-x="688" 
d="M76 667h130v-419q0 -63 32 -99q38 -46 106 -46t106 46q32 36 32 99v419h130v-408q0 -114 -50 -178q-35 -46 -93.5 -71t-124.5 -25t-124.5 25t-93.5 71q-50 64 -50 178v408z" />
    <glyph glyph-name="V" unicode="V" horiz-adv-x="644" 
d="M2 667h142l178 -448l178 448h142l-282 -667h-78z" />
    <glyph glyph-name="W" unicode="W" horiz-adv-x="978" 
d="M485 423l-153 -423h-98l-232 667h138l149 -454l163 460h72l154 -460l160 454h138l-247 -667h-98z" />
    <glyph glyph-name="X" unicode="X" horiz-adv-x="640" 
d="M8 0l236 352l-199 315h156l117 -207l123 207h156l-205 -315l228 -352h-156l-146 244l-154 -244h-156z" />
    <glyph glyph-name="Y" unicode="Y" horiz-adv-x="590" 
d="M227 0v305l-229 362h154l143 -232l143 232h154l-235 -362v-305h-130z" />
    <glyph glyph-name="Z" unicode="Z" horiz-adv-x="584" 
d="M562 667l-324 -555h308v-112h-524l324 555h-273v112h489z" />
    <glyph glyph-name="bracketleft" unicode="[" horiz-adv-x="350" 
d="M300 625h-94v-701h94v-104h-210v909h210v-104z" />
    <glyph glyph-name="backslash" unicode="\" horiz-adv-x="653" 
d="M673 -170l-88 -40l-525 929l88 40z" />
    <glyph glyph-name="bracketright" unicode="]" horiz-adv-x="350" 
d="M50 -76h94v701h-94v104h210v-909h-210v104z" />
    <glyph glyph-name="asciicircum" unicode="^" 
d="M250 577l-115 -241h-127l162 331h160l162 -331h-127z" />
    <glyph glyph-name="underscore" unicode="_" 
d="M0 -158v104h500v-104h-500z" />
    <glyph glyph-name="grave" unicode="`" 
d="M244 510l-150 134l88 56l118 -150z" />
    <glyph glyph-name="a" unicode="a" horiz-adv-x="570" 
d="M390 377v56h122v-433h-122v56q-49 -70 -133 -70q-98 0 -159.5 67t-61.5 164q0 98 60 164t155 66q94 0 139 -70zM282 339q-52 0 -86 -35t-34 -87t34 -87.5t86 -35.5t86 35.5t34 87.5t-34 87t-86 35z" />
    <glyph glyph-name="b" unicode="b" horiz-adv-x="570" 
d="M180 729v-352q50 70 141 70q95 0 154 -65t59 -165t-60.5 -165.5t-155.5 -65.5q-87 0 -138 70v-56h-122v729h122zM288 339q-52 0 -86 -35t-34 -87t34 -87.5t86 -35.5t86 35.5t34 87.5t-34 87t-86 35z" />
    <glyph glyph-name="c" unicode="c" horiz-adv-x="418" 
d="M384 421v-120q-41 38 -100 38q-58 0 -90 -35.5t-32 -86.5q0 -53 35.5 -88t90.5 -35q54 0 96 38v-119q-54 -27 -112 -27q-101 0 -167 63q-69 65 -69 166q0 110 75 176q63 56 156 56q63 0 117 -26z" />
    <glyph glyph-name="d" unicode="d" horiz-adv-x="570" 
d="M390 377v352h122v-729h-122v56q-49 -70 -133 -70q-98 0 -159.5 67t-61.5 164q0 98 60 164t155 66q94 0 139 -70zM282 339q-52 0 -86 -35t-34 -87t34 -87.5t86 -35.5t86 35.5t34 87.5t-34 87t-86 35z" />
    <glyph glyph-name="e" unicode="e" horiz-adv-x="522" 
d="M371 139l112 -18q-7 -18 -18.5 -35.5t-35.5 -43t-65 -41t-94 -15.5q-102 0 -166 61q-68 64 -68 169q0 104 66 170q62 61 163 61q110 0 169 -71q52 -62 52 -170v-10h-324q0 -44 21 -73q30 -41 87 -41q68 0 101 57zM166 274h205q-7 42 -36.5 64.5t-66.5 22.5
q-36 0 -65.5 -23t-36.5 -64z" />
    <glyph glyph-name="f" unicode="f" horiz-adv-x="292" 
d="M294 329h-112v-329h-122v329h-46v104h46v119q0 106 57 153q43 36 107 36q38 0 70 -15v-111q-24 18 -55 18q-29 0 -44 -22q-13 -21 -13 -75v-103h112v-104z" />
    <glyph glyph-name="g" unicode="g" horiz-adv-x="568" 
d="M388 377v56h122v-413q0 -61 -11.5 -106.5t-48.5 -82.5q-61 -61 -171 -61q-106 0 -162 50q-53 45 -70 129h132q8 -33 30 -52q25 -23 74 -23q45 0 74 27q31 30 31 96v61q-47 -72 -133 -72q-90 0 -150 59q-69 69 -69 172q0 107 67 172q60 58 149 58q90 0 136 -70zM282 339
q-49 0 -81 -30q-39 -35 -39 -92q0 -51 32 -85q35 -38 88 -38q48 0 81 30q39 36 39 93q0 50 -35 87q-34 35 -85 35z" />
    <glyph glyph-name="h" unicode="h" horiz-adv-x="534" 
d="M58 0v729h122v-352q50 70 134 70q85 0 128 -53q34 -42 34 -122v-272h-122v236q0 61 -23 85q-21 22 -57 22q-50 0 -75 -38q-19 -30 -19 -84v-221h-122z" />
    <glyph glyph-name="i" unicode="i" horiz-adv-x="238" 
d="M58 433h122v-433h-122v433zM46 616q0 30 21.5 51.5t51.5 21.5t51.5 -21.5t21.5 -51.5t-21.5 -51.5t-51.5 -21.5t-51.5 21.5t-21.5 51.5z" />
    <glyph glyph-name="j" unicode="j" horiz-adv-x="238" 
d="M58 433h122v-662h-122v662zM46 616q0 30 21.5 51.5t51.5 21.5t51.5 -21.5t21.5 -51.5t-21.5 -51.5t-51.5 -21.5t-51.5 21.5t-21.5 51.5z" />
    <glyph glyph-name="k" unicode="k" horiz-adv-x="512" 
d="M58 729h122v-454l162 158h158l-203 -190l219 -243h-162l-161 185l-13 -12v-173h-122v729z" />
    <glyph glyph-name="l" unicode="l" horiz-adv-x="238" 
d="M58 729h122v-729h-122v729z" />
    <glyph glyph-name="m" unicode="m" horiz-adv-x="790" 
d="M58 0v433h122v-49q50 63 129 63q97 0 137 -79q49 79 139 79q76 0 117 -53q19 -25 24.5 -52t5.5 -70v-272h-122v236q0 61 -20 85q-18 22 -50 22q-46 0 -67 -38q-17 -28 -17 -84v-221h-122v236q0 61 -20 85q-18 22 -50 22q-46 0 -67 -38q-17 -28 -17 -84v-221h-122z" />
    <glyph glyph-name="n" unicode="n" horiz-adv-x="534" 
d="M58 0v433h122v-56q50 70 134 70q85 0 128 -53q34 -42 34 -122v-272h-122v236q0 61 -23 85q-21 22 -57 22q-50 0 -75 -38q-19 -30 -19 -84v-221h-122z" />
    <glyph glyph-name="o" unicode="o" horiz-adv-x="568" 
d="M284 447q109 0 175 -61q73 -66 73 -170q0 -103 -73 -169q-66 -61 -175 -61t-175 61q-73 66 -73 169q0 104 73 170q66 61 175 61zM284 94q52 0 87 36t35 86q0 51 -35 87t-87 36t-87 -36t-35 -87q0 -50 35 -86t87 -36z" />
    <glyph glyph-name="p" unicode="p" horiz-adv-x="570" 
d="M180 56v-285h-122v662h122v-56q49 70 141 70q90 0 148 -58q65 -65 65 -172q0 -110 -68 -175q-60 -56 -147 -56t-139 70zM288 339q-47 0 -79 -29q-41 -35 -41 -93q0 -59 40 -94q33 -29 80 -29q49 0 82 31q38 35 38 92q0 56 -37 91q-34 31 -83 31z" />
    <glyph glyph-name="q" unicode="q" horiz-adv-x="570" 
d="M390 -229v285q-52 -70 -139 -70t-147 56q-68 65 -68 175q0 107 65 172q58 58 148 58q92 0 141 -70v56h122v-662h-122zM282 339q-49 0 -83 -31q-37 -35 -37 -91q0 -57 38 -92q33 -31 82 -31q47 0 80 29q40 35 40 94q0 58 -41 93q-32 29 -79 29z" />
    <glyph glyph-name="r" unicode="r" horiz-adv-x="360" 
d="M58 0v433h122v-65q22 42 54 60q30 19 72 19q24 0 52 -10l-16 -114q-23 16 -57 16q-53 0 -81 -35q-24 -30 -24 -96v-208h-122z" />
    <glyph glyph-name="s" unicode="s" horiz-adv-x="404" 
d="M354 401l-60 -71q-31 29 -71 29q-22 0 -34.5 -9.5t-12.5 -25.5q0 -26 39 -39l29 -9q85 -27 110 -62q22 -30 22 -72q0 -66 -48 -110q-50 -46 -130 -46q-101 0 -168 72l64 74q43 -50 96 -50q26 0 43 12.5t17 34.5q0 30 -38 44l-28 10q-65 23 -93 52q-33 35 -33 83
q0 60 45 98q39 31 113 31q78 0 138 -46z" />
    <glyph glyph-name="t" unicode="t" horiz-adv-x="270" 
d="M264 329h-84v-329h-122v329h-48v104h48v148h122v-148h84v-104z" />
    <glyph glyph-name="u" unicode="u" horiz-adv-x="536" 
d="M58 433h122v-245q0 -52 26 -76q25 -22 62 -22t62 22q26 24 26 76v245h122v-265q0 -87 -53 -133q-56 -49 -157 -49t-157 49q-53 46 -53 133v265z" />
    <glyph glyph-name="v" unicode="v" horiz-adv-x="504" 
d="M2 433h136l114 -244l114 244h136l-218 -433h-64z" />
    <glyph glyph-name="w" unicode="w" horiz-adv-x="792" 
d="M396 255l-114 -255h-60l-220 433h136l114 -250l116 250h56l116 -250l114 250h136l-220 -433h-60z" />
    <glyph glyph-name="x" unicode="x" horiz-adv-x="566" 
d="M2 0l206 236l-166 197h154l88 -112l90 112h154l-169 -197l205 -236h-156l-124 151l-126 -151h-156z" />
    <glyph glyph-name="y" unicode="y" horiz-adv-x="538" 
d="M49 -229l159 294l-206 368h142l134 -246l120 246h138l-349 -662h-138z" />
    <glyph glyph-name="z" unicode="z" horiz-adv-x="484" 
d="M472 433l-246 -329h229v-104h-443l246 329h-208v104h422z" />
    <glyph glyph-name="braceleft" unicode="{" 
d="M295 562v-163q0 -51 -12 -76.5t-48 -48.5q36 -23 48 -48.5t12 -76.5v-162q0 -33 13 -46q15 -15 68 -15h24v-104q-32 -2 -64 -2q-83 0 -118 29q-18 14 -27 35.5t-10.5 37t-1.5 41.5v181q0 40 -17 60q-13 14 -38 18v104q25 4 38 18q17 20 17 60v182q0 26 1.5 41.5t10.5 37
t27 35.5q35 29 118 29q32 0 64 -2v-104h-24q-53 0 -68 -15q-13 -13 -13 -46z" />
    <glyph glyph-name="bar" unicode="|" 
d="M189 -250v1000h122v-1000h-122z" />
    <glyph glyph-name="braceright" unicode="}" 
d="M205 399v163q0 33 -13 46q-15 15 -68 15h-24v104q32 2 64 2q83 0 118 -29q18 -14 27 -35.5t10.5 -37t1.5 -41.5v-182q0 -40 17 -60q13 -14 38 -18v-104q-25 -4 -38 -18q-17 -20 -17 -60v-181q0 -26 -1.5 -41.5t-10.5 -37t-27 -35.5q-35 -29 -118 -29q-32 0 -64 2v104h24
q53 0 68 15q13 13 13 46v162q0 51 12 76.5t48 48.5q-36 23 -48 48.5t-12 76.5z" />
    <glyph glyph-name="asciitilde" unicode="~" 
d="M424 370l70 -40q-37 -88 -92 -116q-30 -15 -59 -15q-35 0 -106 27q-67 25 -90 25q-20 0 -37 -14t-23.5 -26t-10.5 -23l-70 40q30 86 77 119q28 21 71 21q35 0 108 -27q71 -25 88 -25q46 0 74 54z" />
    <glyph glyph-name="uni00A0" unicode="&#xa0;" horiz-adv-x="233" 
 />
    <glyph glyph-name="exclamdown" unicode="&#xa1;" horiz-adv-x="251" 
d="M64 234h124v-464h-124v464zM204 372q0 -33 -22.5 -55.5t-55.5 -22.5t-55.5 22.5t-22.5 55.5t22.5 55.5t55.5 22.5t55.5 -22.5t22.5 -55.5z" />
    <glyph glyph-name="cent" unicode="&#xa2;" horiz-adv-x="568" 
d="M281 655h82v-93q43 -2 81 -22v-123q-36 44 -95 44q-50 0 -84 -32q-37 -35 -37 -96t37 -95q31 -29 82 -29q64 0 97 44v-124q-39 -19 -81 -21v-95h-82v93q-72 10 -121 61q-62 65 -62 167q0 103 66 169q49 49 117 61v91z" />
    <glyph glyph-name="sterling" unicode="&#xa3;" horiz-adv-x="568" 
d="M160 246h-113v88h65q-37 67 -37 128q0 94 63 154q68 66 177 66t172 -63q59 -59 59 -167v-12h-132q1 5 1 17q0 55 -29 84q-27 27 -72 27q-48 0 -77 -29q-32 -32 -32 -84q0 -41 23 -89l16 -32h148v-88h-120q7 -26 7 -50q0 -37 -12 -66l37 -13q80 -28 106 -28q48 0 61 54
l89 -19q-20 -84 -72 -118q-33 -21 -80 -21q-45 0 -118 25q-80 26 -110 26q-52 0 -68 -45l-94 17q14 53 54 90q36 33 87 40q11 25 11 49q0 27 -10 59z" />
    <glyph glyph-name="currency" unicode="&#xa4;" horiz-adv-x="668" 
d="M90 682l103 -103q59 45 141 45t141 -45l103 103l66 -66l-103 -103q45 -57 45 -139t-45 -139l103 -103l-66 -66l-103 103q-59 -45 -141 -45t-141 45l-103 -103l-66 66l103 103q-45 57 -45 139t45 139l-103 103zM334 232q62 0 101 40.5t39 101.5t-39 101.5t-101 40.5
t-101 -40.5t-39 -101.5t39 -101.5t101 -40.5z" />
    <glyph glyph-name="yen" unicode="&#xa5;" horiz-adv-x="568" 
d="M419 667h144l-129 -213h88v-90h-142l-36 -63h178v-90h-178v-211h-120v211h-178v90h178l-36 63h-142v90h88l-129 213h144l135 -234z" />
    <glyph glyph-name="brokenbar" unicode="&#xa6;" 
d="M189 390v360h122v-360h-122zM189 -250v360h122v-360h-122z" />
    <glyph glyph-name="section" unicode="&#xa7;" horiz-adv-x="568" 
d="M88 10h122q0 -43 24 -67q17 -19 48 -19q32 0 52 20q17 19 17 45q0 28 -27 49q-17 14 -75 37q-36 14 -54 22t-45 26.5t-44 41.5q-33 45 -33 112q0 46 20 83q32 56 95 74q-42 19 -66 53q-23 32 -23 80q0 64 40 107q53 55 150 55q93 0 140 -52q45 -50 45 -128h-120v4
q0 35 -21 58q-18 18 -47 18q-30 0 -51 -18q-19 -17 -19 -42q0 -31 29 -54q14 -11 77 -37q93 -39 128 -75q45 -48 45 -119q0 -55 -28 -98q-32 -48 -85 -70q35 -17 55 -43q32 -38 32 -87q0 -68 -52 -117t-138 -49q-89 0 -139 52q-52 52 -52 138zM284 187q35 0 60 25
q23 23 23 62t-27 65q-22 22 -56 22t-59 -25q-24 -26 -24 -62t23 -61q24 -26 60 -26z" />
    <glyph glyph-name="dieresis" unicode="&#xa8;" 
d="M74 586q0 29 21.5 50.5t50.5 21.5t50.5 -21.5t21.5 -50.5t-21.5 -50.5t-50.5 -21.5t-50.5 21.5t-21.5 50.5zM282 586q0 29 21.5 50.5t50.5 21.5t50.5 -21.5t21.5 -50.5t-21.5 -50.5t-50.5 -21.5t-50.5 21.5t-21.5 50.5z" />
    <glyph glyph-name="copyright" unicode="&#xa9;" horiz-adv-x="760" 
d="M380 682q146 0 246.5 -100t100.5 -249t-100.5 -248.5t-246.5 -99.5t-246.5 99.5t-100.5 248.5t100.5 249t246.5 100zM380 620q-116 0 -196.5 -83.5t-80.5 -203.5q0 -119 80.5 -202.5t196.5 -83.5t196.5 83.5t80.5 202.5q0 120 -80.5 203.5t-196.5 83.5zM511 516v-109
l-11 11q-42 42 -95 42q-56 0 -91.5 -36.5t-35.5 -91.5q0 -56 35.5 -91t93.5 -35q52 0 93 41l11 11v-109q-48 -25 -107 -25q-95 0 -158.5 59.5t-63.5 147.5q0 82 59 146.5t160 64.5q63 0 110 -26z" />
    <glyph glyph-name="ordfeminine" unicode="&#xaa;" horiz-adv-x="344" 
d="M238 625v34h74v-264h-74v35q-14 -20 -33 -31q-23 -13 -53 -13q-52 0 -88 34q-42 40 -42 106q0 65 42 107q36 34 88 34q28 0 50 -11q22 -10 36 -31zM173 600q-33 0 -52 -21q-22 -22 -22 -52q0 -31 22 -53q23 -21 52 -21q31 0 51 20q22 22 22 54q0 33 -23 54q-21 19 -50 19
zM35 291v56h277v-56h-277z" />
    <glyph glyph-name="guillemotleft" unicode="&#xab;" horiz-adv-x="514" 
d="M146 219l122 -164l-70 -50l-158 214l158 214l70 -50zM342 219l122 -164l-70 -50l-158 214l158 214l70 -50z" />
    <glyph glyph-name="logicalnot" unicode="&#xac;" 
d="M467 0h-122v157h-312v112h434v-269z" />
    <glyph glyph-name="uni00AD" unicode="&#xad;" horiz-adv-x="360" 
d="M50 174v112h260v-112h-260z" />
    <glyph glyph-name="registered" unicode="&#xae;" horiz-adv-x="760" 
d="M380 682q145 0 245 -99q102 -102 102 -251q0 -143 -94 -242q-99 -105 -253 -105q-149 0 -249 101q-98 98 -98 248q0 155 107 255q97 93 240 93zM380 620q-113 0 -192 -80q-85 -85 -85 -205q0 -62 23 -117t59 -91t88 -58t107 -22q110 0 191 79q86 83 86 205q0 124 -86 210
q-79 79 -191 79zM263 527h118q65 0 97 -32q30 -30 30 -83q0 -45 -26 -72q-23 -25 -64 -31l121 -156h-89l-111 143v-143h-76v374zM339 461v-103h30q31 0 46 15q14 14 14 38q0 26 -14 38q-13 12 -43 12h-33z" />
    <glyph glyph-name="macron" unicode="&#xaf;" 
d="M68 539v80h364v-80h-364z" />
    <glyph glyph-name="degree" unicode="&#xb0;" 
d="M250 667q65 0 109 -42.5t44 -107.5t-44 -107.5t-109 -42.5t-109 42.5t-44 107.5t44 107.5t109 42.5zM250 595q-35 0 -57 -22t-22 -56t22 -56t57 -22t57 22t22 56t-22 56t-57 22z" />
    <glyph glyph-name="plusminus" unicode="&#xb1;" 
d="M33 355v112h156v156h122v-156h156v-112h-156v-156h-122v156h-156zM33 52v112h434v-112h-434z" />
    <glyph glyph-name="twosuperior" unicode="&#xb2;" horiz-adv-x="380" 
d="M24 267l119 134q64 74 71 84q23 33 23 64q0 25 -15 40t-42 15q-30 0 -47 -17.5t-17 -44.5h-84q2 61 42 97.5t102 36.5q66 0 105.5 -36.5t39.5 -90.5q0 -39 -18.5 -70.5t-52.5 -69.5l-62 -70h136v-72h-300z" />
    <glyph glyph-name="threesuperior" unicode="&#xb3;" horiz-adv-x="380" 
d="M123 558h-78q6 57 42.5 87.5t92.5 30.5q65 0 98 -32t33 -76q0 -60 -50 -86q65 -22 65 -96q0 -54 -38.5 -91t-109.5 -37q-61 0 -103 34.5t-47 94.5h84q3 -26 20.5 -41.5t45.5 -15.5q32 0 48 17.5t16 42.5q0 22 -16 38.5t-50 16.5h-20v66h20q27 0 41 15t14 36
q0 19 -13.5 33.5t-39.5 14.5q-24 0 -39 -14.5t-16 -37.5z" />
    <glyph glyph-name="acute" unicode="&#xb4;" 
d="M318 700l88 -56l-150 -134l-56 40z" />
    <glyph glyph-name="mu" unicode="&#xb5;" horiz-adv-x="560" 
d="M180 -229h-122v662h122v-209q0 -15 1 -28t7 -35.5t16 -37.5t30 -27t48 -12q98 0 98 144v205h122v-433h-122v60q-12 -32 -38.5 -53t-62.5 -21q-67 0 -99 66v-281z" />
    <glyph glyph-name="mu" unicode="&#x3bc;" horiz-adv-x="560" 
d="M180 -229h-122v662h122v-209q0 -15 1 -28t7 -35.5t16 -37.5t30 -27t48 -12q98 0 98 144v205h122v-433h-122v60q-12 -32 -38.5 -53t-62.5 -21q-67 0 -99 66v-281z" />
    <glyph glyph-name="paragraph" unicode="&#xb6;" horiz-adv-x="654" 
d="M322 -93h-104v413h-13q-79 0 -129 46.5t-50 123.5q0 110 94 155q47 22 136 22h326v-94h-70v-666h-104v666h-86v-666z" />
    <glyph glyph-name="periodcentered" unicode="&#xb7;" horiz-adv-x="200" 
d="M8 286q0 38 27 65t65 27t65 -27t27 -65t-27 -65t-65 -27t-65 27t-27 65z" />
    <glyph glyph-name="cedilla" unicode="&#xb8;" 
d="M262 -46l88 -44l-120 -146l-64 40z" />
    <glyph glyph-name="onesuperior" unicode="&#xb9;" horiz-adv-x="380" 
d="M166 267v328h-80v72h164v-400h-84z" />
    <glyph glyph-name="ordmasculine" unicode="&#xba;" horiz-adv-x="336" 
d="M168 386q-70 0 -110 43q-37 41 -37 100q0 55 38 95q41 43 109 43q67 0 108 -41q39 -39 39 -99q0 -61 -39 -100q-40 -41 -108 -41zM31 347h274v-56h-274v56zM168 600q-31 0 -51 -20t-20 -53q0 -34 20 -54t51 -20t51 20t20 54q0 33 -20 53t-51 20z" />
    <glyph glyph-name="guillemotright" unicode="&#xbb;" horiz-adv-x="514" 
d="M172 219l-122 164l70 50l158 -214l-158 -214l-70 50zM368 219l-122 164l70 50l158 -214l-158 -214l-70 50z" />
    <glyph glyph-name="onequarter" unicode="&#xbc;" horiz-adv-x="860" 
d="M166 267v328h-80v72h164v-400h-84zM226 3l397 686l53 -30l-397 -687zM783 400v-256h47v-68h-47v-76h-80v76h-199v35l199 289h80zM608 144h95v145z" />
    <glyph glyph-name="onehalf" unicode="&#xbd;" horiz-adv-x="860" 
d="M166 267v328h-80v72h164v-400h-84zM186 3l397 686l53 -30l-397 -687zM504 0l119 134q64 74 71 84q23 33 23 64q0 25 -15 40t-42 15q-30 0 -47 -17.5t-17 -44.5h-84q2 61 42 97.5t102 36.5q66 0 105.5 -36.5t39.5 -90.5q0 -39 -18.5 -70.5t-52.5 -69.5l-62 -70h136v-72
h-300z" />
    <glyph glyph-name="threequarters" unicode="&#xbe;" horiz-adv-x="860" 
d="M123 558h-78q5 54 42 86q35 32 93 32q63 0 97 -31q34 -32 34 -77q0 -32 -15 -55q-14 -21 -35 -31q22 -7 37 -22q28 -28 28 -74q0 -53 -36 -89q-39 -39 -112 -39q-68 0 -109 41q-38 38 -41 88h84q4 -25 18 -39q16 -18 48 -18q31 0 48 17q16 16 16 40q0 27 -18 43
q-16 15 -54 15h-14v66h9q35 0 51 15q15 15 15 36q0 22 -16 36q-14 12 -35 12q-27 0 -42 -16q-14 -14 -15 -36zM236 3l397 686l53 -30l-397 -687zM608 144h95v145zM783 400v-256h47v-68h-47v-76h-80v76h-199v35l199 289h80z" />
    <glyph glyph-name="questiondown" unicode="&#xbf;" horiz-adv-x="490" 
d="M207 237h124v-196q-16 4 -39 4q-60 0 -94 -34q-26 -28 -26 -67q0 -37 21 -58q20 -20 52 -20q33 0 51 18q22 20 22 61v4h130q0 -81 -50 -135q-54 -56 -158 -56q-94 0 -146 51q-52 50 -52 138q0 78 51 129q47 47 114 56v105zM347 372q0 -33 -22.5 -55.5t-55.5 -22.5
t-55.5 22.5t-22.5 55.5t22.5 55.5t55.5 22.5t55.5 -22.5t22.5 -55.5z" />
    <glyph glyph-name="Agrave" unicode="&#xc0;" horiz-adv-x="672" 
d="M530 0l-59 140h-269l-59 -140h-141l287 667h102l279 -667h-140zM243 246h190l-95 240zM360 728l-174 122l90 70l140 -142z" />
    <glyph glyph-name="Aacute" unicode="&#xc1;" horiz-adv-x="672" 
d="M530 0l-59 140h-269l-59 -140h-141l287 667h102l279 -667h-140zM243 246h190l-95 240zM312 728l-56 50l140 142l90 -70z" />
    <glyph glyph-name="Acircumflex" unicode="&#xc2;" horiz-adv-x="672" 
d="M530 0l-59 140h-269l-59 -140h-141l287 667h102l279 -667h-140zM243 246h190l-95 240zM336 820l-120 -88l-60 64l180 134l180 -134l-60 -64z" />
    <glyph glyph-name="Atilde" unicode="&#xc3;" horiz-adv-x="672" 
d="M530 0l-59 140h-269l-59 -140h-141l287 667h102l279 -667h-140zM243 246h190l-95 240zM463 869l65 -48q-18 -37 -45 -59q-31 -28 -69 -28q-26 0 -68 17l-35 14q-40 15 -50 15q-19 0 -34 -15q-10 -10 -16 -24l-67 48q17 32 39 54q33 33 76 33q24 0 68 -17l39 -16
q31 -13 48 -13q20 0 33 13q8 8 16 26z" />
    <glyph glyph-name="Adieresis" unicode="&#xc4;" horiz-adv-x="672" 
d="M530 0l-59 140h-269l-59 -140h-141l287 667h102l279 -667h-140zM243 246h190l-95 240zM152 811q0 29 21.5 50.5t50.5 21.5t50.5 -21.5t21.5 -50.5t-21.5 -50.5t-50.5 -21.5t-50.5 21.5t-21.5 50.5zM376 811q0 29 21.5 50.5t50.5 21.5t50.5 -21.5t21.5 -50.5t-21.5 -50.5
t-50.5 -21.5t-50.5 21.5t-21.5 50.5z" />
    <glyph glyph-name="Aring" unicode="&#xc5;" horiz-adv-x="672" 
d="M530 0l-59 140h-269l-59 -140h-141l287 667h102l279 -667h-140zM243 246h190l-95 240zM296 826q0 -17 11.5 -28.5t28.5 -11.5t28.5 11.5t11.5 28.5t-11.5 28.5t-28.5 11.5t-28.5 -11.5t-11.5 -28.5zM237 826q0 42 28.5 70.5t70.5 28.5t70.5 -28.5t28.5 -70.5t-28.5 -70.5
t-70.5 -28.5t-70.5 28.5t-28.5 70.5z" />
    <glyph glyph-name="AE" unicode="&#xc6;" horiz-adv-x="920" 
d="M533 0l-59 140h-269l-59 -140h-140l289 667h352l44 -112h-245l60 -149h241l46 -112h-242l73 -182h246l44 -112h-381zM246 246h190l-92 240z" />
    <glyph glyph-name="Ccedilla" unicode="&#xc7;" horiz-adv-x="604" 
d="M560 176v-152q-74 -39 -165 -39q-146 0 -244 93q-107 103 -107 255q0 162 107 261q94 88 245 88q88 0 164 -41v-152q-65 75 -161 75q-98 0 -159.5 -68.5t-61.5 -164.5q0 -105 68 -166.5t158 -61.5q94 0 156 73zM358 -46l96 -44l-122 -154l-66 36z" />
    <glyph glyph-name="Egrave" unicode="&#xc8;" horiz-adv-x="496" 
d="M446 667v-112h-240v-149h230v-112h-230v-182h240v-112h-370v667h370zM272 728l-174 122l90 70l140 -142z" />
    <glyph glyph-name="Eacute" unicode="&#xc9;" horiz-adv-x="496" 
d="M446 667v-112h-240v-149h230v-112h-230v-182h240v-112h-370v667h370zM246 728l-56 50l140 142l90 -70z" />
    <glyph glyph-name="Ecircumflex" unicode="&#xca;" horiz-adv-x="496" 
d="M446 667v-112h-240v-149h230v-112h-230v-182h240v-112h-370v667h370zM260 820l-120 -88l-60 64l180 134l180 -134l-60 -64z" />
    <glyph glyph-name="Edieresis" unicode="&#xcb;" horiz-adv-x="496" 
d="M446 667v-112h-240v-149h230v-112h-230v-182h240v-112h-370v667h370zM76 811q0 29 21.5 50.5t50.5 21.5t50.5 -21.5t21.5 -50.5t-21.5 -50.5t-50.5 -21.5t-50.5 21.5t-21.5 50.5zM300 811q0 29 21.5 50.5t50.5 21.5t50.5 -21.5t21.5 -50.5t-21.5 -50.5t-50.5 -21.5
t-50.5 21.5t-21.5 50.5z" />
    <glyph glyph-name="Igrave" unicode="&#xcc;" horiz-adv-x="282" 
d="M76 667h130v-667h-130v667zM158 728l-168 114l86 68l136 -134z" />
    <glyph glyph-name="Iacute" unicode="&#xcd;" horiz-adv-x="282" 
d="M76 667h130v-667h-130v667zM206 910l86 -68l-168 -114l-54 48z" />
    <glyph glyph-name="Icircumflex" unicode="&#xce;" horiz-adv-x="282" 
d="M76 667h130v-667h-130v667zM141 822l-92 -80l-54 54l146 124l146 -124l-54 -54z" />
    <glyph glyph-name="Idieresis" unicode="&#xcf;" horiz-adv-x="282" 
d="M76 667h130v-667h-130v667zM6 811q0 29 17 50.5t41 21.5t41 -21.5t17 -50.5t-17 -50.5t-41 -21.5t-41 21.5t-17 50.5zM156 811q0 29 17 50.5t41 21.5t41 -21.5t17 -50.5t-17 -50.5t-41 -21.5t-41 21.5t-17 50.5z" />
    <glyph glyph-name="Eth" unicode="&#xd0;" horiz-adv-x="669" 
d="M76 667h174q79 0 138 -13.5t110 -51.5q60 -45 93.5 -115.5t33.5 -153.5q0 -173 -133 -269q-54 -38 -110 -51t-134 -13h-172v316h-86v100h86v251zM206 555v-139h122v-100h-122v-204h40q101 0 162 44q39 28 61 75.5t22 101.5q0 58 -23.5 104.5t-58.5 73.5q-57 44 -163 44
h-40z" />
    <glyph glyph-name="Ntilde" unicode="&#xd1;" horiz-adv-x="778" 
d="M206 0h-130v667h90l406 -445v445h130v-667h-90l-406 446v-446zM527 869l65 -48q-18 -37 -45 -59q-31 -28 -69 -28q-26 0 -68 17l-35 14q-40 15 -50 15q-19 0 -34 -15q-10 -10 -16 -24l-67 48q17 32 39 54q33 33 76 33q24 0 68 -17l39 -16q31 -13 48 -13q20 0 33 13
q8 8 16 26z" />
    <glyph glyph-name="Ograve" unicode="&#xd2;" horiz-adv-x="800" 
d="M400 682q157 0 256.5 -98t99.5 -251t-99.5 -250.5t-256.5 -97.5t-256.5 97.5t-99.5 250.5t99.5 251t256.5 98zM400 103q98 0 160 64.5t62 165.5t-62.5 166t-159.5 65t-159.5 -65t-62.5 -166t62 -165.5t160 -64.5zM424 728l-174 122l90 70l140 -142z" />
    <glyph glyph-name="Oacute" unicode="&#xd3;" horiz-adv-x="800" 
d="M400 682q157 0 256.5 -98t99.5 -251t-99.5 -250.5t-256.5 -97.5t-256.5 97.5t-99.5 250.5t99.5 251t256.5 98zM400 103q98 0 160 64.5t62 165.5t-62.5 166t-159.5 65t-159.5 -65t-62.5 -166t62 -165.5t160 -64.5zM376 728l-56 50l140 142l90 -70z" />
    <glyph glyph-name="Ocircumflex" unicode="&#xd4;" horiz-adv-x="800" 
d="M400 682q157 0 256.5 -98t99.5 -251t-99.5 -250.5t-256.5 -97.5t-256.5 97.5t-99.5 250.5t99.5 251t256.5 98zM400 103q98 0 160 64.5t62 165.5t-62.5 166t-159.5 65t-159.5 -65t-62.5 -166t62 -165.5t160 -64.5zM400 820l-120 -88l-60 64l180 134l180 -134l-60 -64z" />
    <glyph glyph-name="Otilde" unicode="&#xd5;" horiz-adv-x="800" 
d="M400 682q157 0 256.5 -98t99.5 -251t-99.5 -250.5t-256.5 -97.5t-256.5 97.5t-99.5 250.5t99.5 251t256.5 98zM400 103q98 0 160 64.5t62 165.5t-62.5 166t-159.5 65t-159.5 -65t-62.5 -166t62 -165.5t160 -64.5zM527 869l65 -48q-18 -37 -45 -59q-31 -28 -69 -28
q-26 0 -68 17l-35 14q-40 15 -50 15q-19 0 -34 -15q-10 -10 -16 -24l-67 48q17 32 39 54q33 33 76 33q24 0 68 -17l39 -16q31 -13 48 -13q20 0 33 13q8 8 16 26z" />
    <glyph glyph-name="Odieresis" unicode="&#xd6;" horiz-adv-x="800" 
d="M400 682q157 0 256.5 -98t99.5 -251t-99.5 -250.5t-256.5 -97.5t-256.5 97.5t-99.5 250.5t99.5 251t256.5 98zM400 103q98 0 160 64.5t62 165.5t-62.5 166t-159.5 65t-159.5 -65t-62.5 -166t62 -165.5t160 -64.5zM216 811q0 29 21.5 50.5t50.5 21.5t50.5 -21.5
t21.5 -50.5t-21.5 -50.5t-50.5 -21.5t-50.5 21.5t-21.5 50.5zM440 811q0 29 21.5 50.5t50.5 21.5t50.5 -21.5t21.5 -50.5t-21.5 -50.5t-50.5 -21.5t-50.5 21.5t-21.5 50.5z" />
    <glyph glyph-name="multiply" unicode="&#xd7;" 
d="M44 215l124 124l-124 124l82 82l124 -124l124 124l82 -82l-124 -124l124 -124l-82 -82l-124 124l-124 -124z" />
    <glyph glyph-name="Oslash" unicode="&#xd8;" horiz-adv-x="812" 
d="M30 31l88 88q-68 96 -68 214q0 151 100 251q98 98 256 98q122 0 214 -62l89 88l73 -73l-88 -88q68 -95 68 -213q0 -150 -97 -250q-97 -99 -259 -99q-126 0 -214 62l-89 -89zM599 453l-316 -316q58 -34 123 -34q97 0 158 63q64 66 64 167q0 64 -29 120zM213 213l317 316
q-57 35 -124 35q-93 0 -154 -59q-68 -65 -68 -175q0 -65 29 -117z" />
    <glyph glyph-name="Ugrave" unicode="&#xd9;" horiz-adv-x="688" 
d="M76 667h130v-419q0 -63 32 -99q38 -46 106 -46t106 46q32 36 32 99v419h130v-408q0 -114 -50 -178q-35 -46 -93.5 -71t-124.5 -25t-124.5 25t-93.5 71q-50 64 -50 178v408zM368 728l-174 122l90 70l140 -142z" />
    <glyph glyph-name="Uacute" unicode="&#xda;" horiz-adv-x="688" 
d="M76 667h130v-419q0 -63 32 -99q38 -46 106 -46t106 46q32 36 32 99v419h130v-408q0 -114 -50 -178q-35 -46 -93.5 -71t-124.5 -25t-124.5 25t-93.5 71q-50 64 -50 178v408zM320 728l-56 50l140 142l90 -70z" />
    <glyph glyph-name="Ucircumflex" unicode="&#xdb;" horiz-adv-x="688" 
d="M76 667h130v-419q0 -63 32 -99q38 -46 106 -46t106 46q32 36 32 99v419h130v-408q0 -114 -50 -178q-35 -46 -93.5 -71t-124.5 -25t-124.5 25t-93.5 71q-50 64 -50 178v408zM344 820l-120 -88l-60 64l180 134l180 -134l-60 -64z" />
    <glyph glyph-name="Udieresis" unicode="&#xdc;" horiz-adv-x="688" 
d="M76 667h130v-419q0 -63 32 -99q38 -46 106 -46t106 46q32 36 32 99v419h130v-408q0 -114 -50 -178q-35 -46 -93.5 -71t-124.5 -25t-124.5 25t-93.5 71q-50 64 -50 178v408zM160 811q0 29 21.5 50.5t50.5 21.5t50.5 -21.5t21.5 -50.5t-21.5 -50.5t-50.5 -21.5t-50.5 21.5
t-21.5 50.5zM384 811q0 29 21.5 50.5t50.5 21.5t50.5 -21.5t21.5 -50.5t-21.5 -50.5t-50.5 -21.5t-50.5 21.5t-21.5 50.5z" />
    <glyph glyph-name="Yacute" unicode="&#xdd;" horiz-adv-x="590" 
d="M227 0v305l-229 362h154l143 -232l143 232h154l-235 -362v-305h-130zM271 728l-56 50l140 142l90 -70z" />
    <glyph glyph-name="Thorn" unicode="&#xde;" horiz-adv-x="534" 
d="M76 667h130v-90h64q62 0 101.5 -10.5t74.5 -40.5q68 -60 68 -161q0 -94 -55 -149q-59 -59 -169 -59h-84v-157h-130v667zM206 465v-196h53q57 0 85 21q36 28 36 78q0 49 -37 76q-30 21 -92 21h-45z" />
    <glyph glyph-name="germandbls" unicode="&#xdf;" horiz-adv-x="568" 
d="M180 0h-122v524q0 105 57 162q55 55 155 55q98 0 155 -56q55 -54 55 -130q0 -51 -27 -90q-17 -29 -56 -51q43 -12 78 -48q57 -57 57 -150q0 -43 -17.5 -88.5t-48.5 -75.5q-68 -66 -196 -66h-12v108q72 2 114 45q34 37 34 86q0 75 -61 107q-37 20 -87 20v104q48 0 77 27
q27 25 27 64q0 41 -24 63q-25 23 -65 23t-65 -25q-28 -29 -28 -103v-505z" />
    <glyph glyph-name="agrave" unicode="&#xe0;" horiz-adv-x="570" 
d="M390 377v56h122v-433h-122v56q-49 -70 -133 -70q-98 0 -159.5 67t-61.5 164q0 98 60 164t155 66q94 0 139 -70zM282 339q-52 0 -86 -35t-34 -87t34 -87.5t86 -35.5t86 35.5t34 87.5t-34 87t-86 35zM309 510l-150 134l88 56l118 -150z" />
    <glyph glyph-name="aacute" unicode="&#xe1;" horiz-adv-x="570" 
d="M390 377v56h122v-433h-122v56q-49 -70 -133 -70q-98 0 -159.5 67t-61.5 164q0 98 60 164t155 66q94 0 139 -70zM282 339q-52 0 -86 -35t-34 -87t34 -87.5t86 -35.5t86 35.5t34 87.5t-34 87t-86 35zM353 700l88 -56l-150 -134l-56 40z" />
    <glyph glyph-name="acircumflex" unicode="&#xe2;" horiz-adv-x="570" 
d="M390 377v56h122v-433h-122v56q-49 -70 -133 -70q-98 0 -159.5 67t-61.5 164q0 98 60 164t155 66q94 0 139 -70zM282 339q-52 0 -86 -35t-34 -87t34 -87.5t86 -35.5t86 35.5t34 87.5t-34 87t-86 35zM285 602l-110 -92l-60 60l170 138l170 -138l-60 -60z" />
    <glyph glyph-name="atilde" unicode="&#xe3;" horiz-adv-x="570" 
d="M390 377v56h122v-433h-122v56q-49 -70 -133 -70q-98 0 -159.5 67t-61.5 164q0 98 60 164t155 66q94 0 139 -70zM282 339q-52 0 -86 -35t-34 -87t34 -87.5t86 -35.5t86 35.5t34 87.5t-34 87t-86 35zM424 647l59 -48q-15 -30 -38 -53q-29 -26 -66 -26q-34 0 -71 16l-34 14
q-29 12 -46 12t-31 -14q-11 -11 -17 -25l-61 48q17 32 35 50q29 29 72 29q28 0 61 -13l38 -15q35 -14 50 -14q20 0 31 11q10 10 18 28z" />
    <glyph glyph-name="adieresis" unicode="&#xe4;" horiz-adv-x="570" 
d="M390 377v56h122v-433h-122v56q-49 -70 -133 -70q-98 0 -159.5 67t-61.5 164q0 98 60 164t155 66q94 0 139 -70zM282 339q-52 0 -86 -35t-34 -87t34 -87.5t86 -35.5t86 35.5t34 87.5t-34 87t-86 35zM126 586q0 29 21.5 50.5t50.5 21.5t50.5 -21.5t21.5 -50.5t-21.5 -50.5
t-50.5 -21.5t-50.5 21.5t-21.5 50.5zM334 586q0 29 21.5 50.5t50.5 21.5t50.5 -21.5t21.5 -50.5t-21.5 -50.5t-50.5 -21.5t-50.5 21.5t-21.5 50.5z" />
    <glyph glyph-name="aring" unicode="&#xe5;" horiz-adv-x="570" 
d="M390 377v56h122v-433h-122v56q-49 -70 -133 -70q-98 0 -159.5 67t-61.5 164q0 98 60 164t155 66q94 0 139 -70zM282 339q-52 0 -86 -35t-34 -87t34 -87.5t86 -35.5t86 35.5t34 87.5t-34 87t-86 35zM189 600q0 38 28 66t66 28t66 -28t28 -66t-28 -66t-66 -28t-66 28
t-28 66zM244 600q0 -17 11 -28t28 -11t28 11t11 28t-11 28t-28 11t-28 -11t-11 -28z" />
    <glyph glyph-name="ae" unicode="&#xe6;" horiz-adv-x="808" 
d="M657 139l112 -18q-18 -46 -49.5 -76t-66.5 -41t-56 -14.5t-41 -3.5q-113 0 -168 82q-62 -82 -174 -82q-85 0 -131.5 40.5t-46.5 99.5q0 61 44 100q51 45 139 45q59 0 112 -30l1 21q3 45 -37 71q-28 18 -81 18q-51 0 -111 -17v97q71 16 120 16q33 0 57.5 -3.5t56 -20.5
t51.5 -49q58 73 164 73q109 0 168 -71q52 -62 52 -170v-10h-324q-2 -43 21 -73q30 -41 87 -41q68 0 101 57zM154 131q0 -22 21 -40.5t64 -18.5q46 0 69 19.5t23 41.5q0 20 -22 36t-71 16q-44 0 -64 -16.5t-20 -37.5zM452 274h205q-7 42 -36.5 64.5t-66.5 22.5
q-36 0 -65.5 -23t-36.5 -64z" />
    <glyph glyph-name="ccedilla" unicode="&#xe7;" horiz-adv-x="418" 
d="M384 421v-120q-41 38 -100 38q-58 0 -90 -35.5t-32 -86.5q0 -53 35.5 -88t90.5 -35q54 0 96 38v-119q-54 -27 -112 -27q-101 0 -167 63q-69 65 -69 166q0 110 75 176q63 56 156 56q63 0 117 -26zM222 -46l88 -44l-120 -146l-64 40z" />
    <glyph glyph-name="egrave" unicode="&#xe8;" horiz-adv-x="522" 
d="M371 139l112 -18q-7 -18 -18.5 -35.5t-35.5 -43t-65 -41t-94 -15.5q-102 0 -166 61q-68 64 -68 169q0 104 66 170q62 61 163 61q110 0 169 -71q52 -62 52 -170v-10h-324q0 -44 21 -73q30 -41 87 -41q68 0 101 57zM166 274h205q-7 42 -36.5 64.5t-66.5 22.5
q-36 0 -65.5 -23t-36.5 -64zM284 510l-150 134l88 56l118 -150z" />
    <glyph glyph-name="eacute" unicode="&#xe9;" horiz-adv-x="522" 
d="M371 139l112 -18q-7 -18 -18.5 -35.5t-35.5 -43t-65 -41t-94 -15.5q-102 0 -166 61q-68 64 -68 169q0 104 66 170q62 61 163 61q110 0 169 -71q52 -62 52 -170v-10h-324q0 -44 21 -73q30 -41 87 -41q68 0 101 57zM166 274h205q-7 42 -36.5 64.5t-66.5 22.5
q-36 0 -65.5 -23t-36.5 -64zM328 700l88 -56l-150 -134l-56 40z" />
    <glyph glyph-name="ecircumflex" unicode="&#xea;" horiz-adv-x="522" 
d="M371 139l112 -18q-7 -18 -18.5 -35.5t-35.5 -43t-65 -41t-94 -15.5q-102 0 -166 61q-68 64 -68 169q0 104 66 170q62 61 163 61q110 0 169 -71q52 -62 52 -170v-10h-324q0 -44 21 -73q30 -41 87 -41q68 0 101 57zM166 274h205q-7 42 -36.5 64.5t-66.5 22.5
q-36 0 -65.5 -23t-36.5 -64zM264 602l-110 -92l-60 60l170 138l170 -138l-60 -60z" />
    <glyph glyph-name="edieresis" unicode="&#xeb;" horiz-adv-x="522" 
d="M371 139l112 -18q-7 -18 -18.5 -35.5t-35.5 -43t-65 -41t-94 -15.5q-102 0 -166 61q-68 64 -68 169q0 104 66 170q62 61 163 61q110 0 169 -71q52 -62 52 -170v-10h-324q0 -44 21 -73q30 -41 87 -41q68 0 101 57zM166 274h205q-7 42 -36.5 64.5t-66.5 22.5
q-36 0 -65.5 -23t-36.5 -64zM88 586q0 29 21.5 50.5t50.5 21.5t50.5 -21.5t21.5 -50.5t-21.5 -50.5t-50.5 -21.5t-50.5 21.5t-21.5 50.5zM296 586q0 29 21.5 50.5t50.5 21.5t50.5 -21.5t21.5 -50.5t-21.5 -50.5t-50.5 -21.5t-50.5 21.5t-21.5 50.5z" />
    <glyph glyph-name="igrave" unicode="&#xec;" horiz-adv-x="238" 
d="M58 433h122v-433h-122v433zM112 501l-110 168l100 32l76 -177z" />
    <glyph glyph-name="iacute" unicode="&#xed;" horiz-adv-x="238" 
d="M58 433h122v-433h-122v433zM136 701l100 -32l-110 -168l-66 23z" />
    <glyph glyph-name="icircumflex" unicode="&#xee;" horiz-adv-x="238" 
d="M58 433h122v-433h-122v433zM119 602l-87 -78l-56 56l143 128l143 -128l-56 -56z" />
    <glyph glyph-name="idieresis" unicode="&#xef;" horiz-adv-x="238" 
d="M58 433h122v-433h-122v433zM-57 586q0 29 21.5 50.5t50.5 21.5t50.5 -21.5t21.5 -50.5t-21.5 -50.5t-50.5 -21.5t-50.5 21.5t-21.5 50.5zM151 586q0 29 21.5 50.5t50.5 21.5t50.5 -21.5t21.5 -50.5t-21.5 -50.5t-50.5 -21.5t-50.5 21.5t-21.5 50.5z" />
    <glyph glyph-name="eth" unicode="&#xf0;" horiz-adv-x="546" 
d="M67 588l33 94q134 -10 228 -66l150 49l23 -71l-101 -32q53 -51 80 -122q30 -77 30 -173q0 -145 -81 -222q-62 -59 -159 -59q-101 0 -167 64q-67 67 -67 165q0 103 67 164q57 54 143 54q73 0 123 -50q-13 95 -94 140l-196 -73l-22 64l139 48q-65 24 -129 26zM270 329
q-44 0 -74 -30q-34 -32 -34 -89q0 -53 33 -86q30 -30 75 -30q49 0 78 33q30 33 30 83q0 54 -31 87q-30 32 -77 32z" />
    <glyph glyph-name="ntilde" unicode="&#xf1;" horiz-adv-x="534" 
d="M58 0v433h122v-56q50 70 134 70q85 0 128 -53q34 -42 34 -122v-272h-122v236q0 61 -23 85q-21 22 -57 22q-50 0 -75 -38q-19 -30 -19 -84v-221h-122zM403 647l59 -48q-15 -30 -38 -53q-29 -26 -66 -26q-34 0 -71 16l-34 14q-29 12 -46 12t-31 -14q-11 -11 -17 -25l-61 48
q17 32 35 50q29 29 72 29q28 0 61 -13l38 -15q35 -14 50 -14q20 0 31 11q10 10 18 28z" />
    <glyph glyph-name="ograve" unicode="&#xf2;" horiz-adv-x="568" 
d="M284 447q109 0 175 -61q73 -66 73 -170q0 -103 -73 -169q-66 -61 -175 -61t-175 61q-73 66 -73 169q0 104 73 170q66 61 175 61zM284 94q52 0 87 36t35 86q0 51 -35 87t-87 36t-87 -36t-35 -87q0 -50 35 -86t87 -36zM294 510l-150 134l88 56l118 -150z" />
    <glyph glyph-name="oacute" unicode="&#xf3;" horiz-adv-x="568" 
d="M284 447q109 0 175 -61q73 -66 73 -170q0 -103 -73 -169q-66 -61 -175 -61t-175 61q-73 66 -73 169q0 104 73 170q66 61 175 61zM284 94q52 0 87 36t35 86q0 51 -35 87t-87 36t-87 -36t-35 -87q0 -50 35 -86t87 -36zM338 700l88 -56l-150 -134l-56 40z" />
    <glyph glyph-name="ocircumflex" unicode="&#xf4;" horiz-adv-x="568" 
d="M284 447q109 0 175 -61q73 -66 73 -170q0 -103 -73 -169q-66 -61 -175 -61t-175 61q-73 66 -73 169q0 104 73 170q66 61 175 61zM284 94q52 0 87 36t35 86q0 51 -35 87t-87 36t-87 -36t-35 -87q0 -50 35 -86t87 -36zM284 602l-110 -92l-60 60l170 138l170 -138l-60 -60z
" />
    <glyph glyph-name="otilde" unicode="&#xf5;" horiz-adv-x="568" 
d="M284 447q109 0 175 -61q73 -66 73 -170q0 -103 -73 -169q-66 -61 -175 -61t-175 61q-73 66 -73 169q0 104 73 170q66 61 175 61zM284 94q52 0 87 36t35 86q0 51 -35 87t-87 36t-87 -36t-35 -87q0 -50 35 -86t87 -36zM407 647l59 -48q-15 -30 -38 -53q-29 -26 -66 -26
q-34 0 -71 16l-34 14q-29 12 -46 12t-31 -14q-11 -11 -17 -25l-61 48q17 32 35 50q29 29 72 29q28 0 61 -13l38 -15q35 -14 50 -14q20 0 31 11q10 10 18 28z" />
    <glyph glyph-name="odieresis" unicode="&#xf6;" horiz-adv-x="568" 
d="M284 447q109 0 175 -61q73 -66 73 -170q0 -103 -73 -169q-66 -61 -175 -61t-175 61q-73 66 -73 169q0 104 73 170q66 61 175 61zM284 94q52 0 87 36t35 86q0 51 -35 87t-87 36t-87 -36t-35 -87q0 -50 35 -86t87 -36zM108 586q0 29 21.5 50.5t50.5 21.5t50.5 -21.5
t21.5 -50.5t-21.5 -50.5t-50.5 -21.5t-50.5 21.5t-21.5 50.5zM316 586q0 29 21.5 50.5t50.5 21.5t50.5 -21.5t21.5 -50.5t-21.5 -50.5t-50.5 -21.5t-50.5 21.5t-21.5 50.5z" />
    <glyph glyph-name="divide" unicode="&#xf7;" 
d="M179 511q0 29 21 50t50 21t50 -21t21 -50t-21 -50t-50 -21t-50 21t-21 50zM179 167q0 29 21 50t50 21t50 -21t21 -50t-21 -50t-50 -21t-50 21t-21 50zM33 283v112h434v-112h-434z" />
    <glyph glyph-name="oslash" unicode="&#xf8;" horiz-adv-x="576" 
d="M24 7l65 65q-49 63 -49 144q0 104 73 170q68 61 175 61q81 0 140 -36l68 68l56 -51l-66 -66q50 -64 50 -146q0 -103 -73 -169q-66 -61 -175 -61q-83 0 -142 37l-66 -66zM396 273l-165 -165q27 -14 58 -14q54 0 87 36q34 35 34 88q0 32 -14 55zM178 161l165 165
q-25 13 -52 13q-55 0 -91 -36q-34 -34 -34 -88q0 -26 12 -54z" />
    <glyph glyph-name="ugrave" unicode="&#xf9;" horiz-adv-x="536" 
d="M58 433h122v-245q0 -52 26 -76q25 -22 62 -22t62 22q26 24 26 76v245h122v-265q0 -87 -53 -133q-56 -49 -157 -49t-157 49q-53 46 -53 133v265zM262 510l-150 134l88 56l118 -150z" />
    <glyph glyph-name="uacute" unicode="&#xfa;" horiz-adv-x="536" 
d="M58 433h122v-245q0 -52 26 -76q25 -22 62 -22t62 22q26 24 26 76v245h122v-265q0 -87 -53 -133q-56 -49 -157 -49t-157 49q-53 46 -53 133v265zM336 700l88 -56l-150 -134l-56 40z" />
    <glyph glyph-name="ucircumflex" unicode="&#xfb;" horiz-adv-x="536" 
d="M58 433h122v-245q0 -52 26 -76q25 -22 62 -22t62 22q26 24 26 76v245h122v-265q0 -87 -53 -133q-56 -49 -157 -49t-157 49q-53 46 -53 133v265zM268 602l-110 -92l-60 60l170 138l170 -138l-60 -60z" />
    <glyph glyph-name="udieresis" unicode="&#xfc;" horiz-adv-x="536" 
d="M58 433h122v-245q0 -52 26 -76q25 -22 62 -22t62 22q26 24 26 76v245h122v-265q0 -87 -53 -133q-56 -49 -157 -49t-157 49q-53 46 -53 133v265zM92 586q0 29 21.5 50.5t50.5 21.5t50.5 -21.5t21.5 -50.5t-21.5 -50.5t-50.5 -21.5t-50.5 21.5t-21.5 50.5zM300 586
q0 29 21.5 50.5t50.5 21.5t50.5 -21.5t21.5 -50.5t-21.5 -50.5t-50.5 -21.5t-50.5 21.5t-21.5 50.5z" />
    <glyph glyph-name="yacute" unicode="&#xfd;" horiz-adv-x="538" 
d="M49 -229l159 294l-206 368h142l134 -246l120 246h138l-349 -662h-138zM337 700l88 -56l-150 -134l-56 40z" />
    <glyph glyph-name="thorn" unicode="&#xfe;" horiz-adv-x="570" 
d="M58 729h122v-352q50 70 141 70q95 0 154 -65t59 -165t-60.5 -165.5t-155.5 -65.5q-87 0 -138 70v-286h-122v959zM288 94q52 0 86 35.5t34 87.5t-34 87t-86 35t-86 -35t-34 -87t34 -87.5t86 -35.5z" />
    <glyph glyph-name="ydieresis" unicode="&#xff;" horiz-adv-x="538" 
d="M49 -229l159 294l-206 368h142l134 -246l120 246h138l-349 -662h-138zM104 586q0 29 21.5 50.5t50.5 21.5t50.5 -21.5t21.5 -50.5t-21.5 -50.5t-50.5 -21.5t-50.5 21.5t-21.5 50.5zM312 586q0 29 21.5 50.5t50.5 21.5t50.5 -21.5t21.5 -50.5t-21.5 -50.5t-50.5 -21.5
t-50.5 21.5t-21.5 50.5z" />
    <glyph glyph-name="Amacron" unicode="&#x100;" horiz-adv-x="672" 
d="M530 0l-59 140h-269l-59 -140h-141l287 667h102l279 -667h-140zM243 246h190l-95 240zM153 745v86h366v-86h-366z" />
    <glyph glyph-name="amacron" unicode="&#x101;" horiz-adv-x="570" 
d="M390 377v56h122v-433h-122v56q-49 -70 -133 -70q-98 0 -159.5 67t-61.5 164q0 98 60 164t155 66q94 0 139 -70zM282 339q-52 0 -86 -35t-34 -87t34 -87.5t86 -35.5t86 35.5t34 87.5t-34 87t-86 35zM116 539v80h364v-80h-364z" />
    <glyph glyph-name="Abreve" unicode="&#x102;" horiz-adv-x="672" 
d="M530 0l-59 140h-269l-59 -140h-141l287 667h102l279 -667h-140zM243 246h190l-95 240zM416 870h90q-6 -63 -53 -103.5t-117 -40.5t-117 40.5t-53 103.5h90q12 -60 80 -60t80 60z" />
    <glyph glyph-name="abreve" unicode="&#x103;" horiz-adv-x="570" 
d="M390 377v56h122v-433h-122v56q-49 -70 -133 -70q-98 0 -159.5 67t-61.5 164q0 98 60 164t155 66q94 0 139 -70zM282 339q-52 0 -86 -35t-34 -87t34 -87.5t86 -35.5t86 35.5t34 87.5t-34 87t-86 35zM364 650h84q-6 -49 -37 -87q-47 -54 -127 -54t-127 54q-31 38 -37 87h84
q5 -26 22 -42q21 -21 58 -21t58 21q17 16 22 42z" />
    <glyph glyph-name="Aogonek" unicode="&#x104;" horiz-adv-x="672" 
d="M202 140l-59 -140h-141l287 667h102l279 -667h-70q-25 -18 -40 -36q-18 -23 -18 -47q0 -15 10 -25q11 -11 33 -11q21 0 47 12l-14 -69q-33 -17 -67 -17q-43 0 -71 26q-24 24 -24 59q0 34 23 64q19 24 51 44l-59 140h-269zM243 246h190l-94 240z" />
    <glyph glyph-name="aogonek" unicode="&#x105;" horiz-adv-x="570" 
d="M390 377v56h122v-433h-40q-27 -17 -42 -36q-20 -22 -20 -43q0 -17 15 -29q12 -9 31 -9q24 0 46 12l-14 -67q-27 -17 -62 -17q-44 0 -69 24q-23 23 -23 57q0 36 26 68q19 22 48 40h-18v56q-49 -70 -133 -70q-94 0 -156 63q-65 67 -65 168q0 106 67 171q61 59 148 59
q94 0 139 -70zM282 339q-53 0 -86 -35q-34 -36 -34 -87q0 -54 34 -88q35 -35 86 -35q53 0 86 35q34 34 34 88q0 55 -35 88q-34 34 -85 34z" />
    <glyph glyph-name="Cacute" unicode="&#x106;" horiz-adv-x="604" 
d="M560 176v-152q-74 -39 -165 -39q-146 0 -244 93q-107 103 -107 255q0 162 107 261q94 88 245 88q88 0 164 -41v-152q-65 75 -161 75q-98 0 -159.5 -68.5t-61.5 -164.5q0 -105 68 -166.5t158 -61.5q94 0 156 73zM366 728l-56 50l140 142l90 -70z" />
    <glyph glyph-name="cacute" unicode="&#x107;" horiz-adv-x="418" 
d="M384 421v-120q-41 38 -100 38q-58 0 -90 -35.5t-32 -86.5q0 -53 35.5 -88t90.5 -35q54 0 96 38v-119q-54 -27 -112 -27q-101 0 -167 63q-69 65 -69 166q0 110 75 176q63 56 156 56q63 0 117 -26zM318 700l88 -56l-150 -134l-56 40z" />
    <glyph glyph-name="Ccircumflex" unicode="&#x108;" horiz-adv-x="604" 
d="M560 176v-152q-74 -39 -165 -39q-146 0 -244 93q-107 103 -107 255q0 162 107 261q94 88 245 88q88 0 164 -41v-152q-65 75 -161 75q-98 0 -159.5 -68.5t-61.5 -164.5q0 -105 68 -166.5t158 -61.5q94 0 156 73zM380 820l-120 -88l-60 64l180 134l180 -134l-60 -64z" />
    <glyph glyph-name="ccircumflex" unicode="&#x109;" horiz-adv-x="418" 
d="M384 421v-120q-41 38 -100 38q-58 0 -90 -35.5t-32 -86.5q0 -53 35.5 -88t90.5 -35q54 0 96 38v-119q-54 -27 -112 -27q-101 0 -167 63q-69 65 -69 166q0 110 75 176q63 56 156 56q63 0 117 -26zM260 602l-110 -92l-60 60l170 138l170 -138l-60 -60z" />
    <glyph glyph-name="Cdotaccent" unicode="&#x10a;" horiz-adv-x="604" 
d="M560 176v-152q-74 -39 -165 -39q-146 0 -244 93q-107 103 -107 255q0 162 107 261q94 88 245 88q88 0 164 -41v-152q-65 75 -161 75q-98 0 -159.5 -68.5t-61.5 -164.5q0 -105 68 -166.5t158 -61.5q94 0 156 73zM319 817q0 33 22.5 55.5t55.5 22.5t55.5 -22.5t22.5 -55.5
t-22.5 -55.5t-55.5 -22.5t-55.5 22.5t-22.5 55.5z" />
    <glyph glyph-name="cdotaccent" unicode="&#x10b;" horiz-adv-x="418" 
d="M384 421v-120q-41 38 -100 38q-58 0 -90 -35.5t-32 -86.5q0 -53 35.5 -88t90.5 -35q54 0 96 38v-119q-54 -27 -112 -27q-101 0 -167 63q-69 65 -69 166q0 110 75 176q63 56 156 56q63 0 117 -26zM196 590q0 32 22 54t54 22t54 -22t22 -54t-22 -54t-54 -22t-54 22t-22 54z
" />
    <glyph glyph-name="Ccaron" unicode="&#x10c;" horiz-adv-x="604" 
d="M560 176v-152q-74 -39 -165 -39q-146 0 -244 93q-107 103 -107 255q0 162 107 261q94 88 245 88q88 0 164 -41v-152q-65 75 -161 75q-98 0 -159.5 -68.5t-61.5 -164.5q0 -105 68 -166.5t158 -61.5q94 0 156 73zM380 842l120 88l60 -64l-180 -134l-180 134l60 64z" />
    <glyph glyph-name="ccaron" unicode="&#x10d;" horiz-adv-x="418" 
d="M384 421v-120q-41 38 -100 38q-58 0 -90 -35.5t-32 -86.5q0 -53 35.5 -88t90.5 -35q54 0 96 38v-119q-54 -27 -112 -27q-101 0 -167 63q-69 65 -69 166q0 110 75 176q63 56 156 56q63 0 117 -26zM260 616l110 92l60 -60l-170 -138l-170 138l60 60z" />
    <glyph glyph-name="Dcaron" unicode="&#x10e;" horiz-adv-x="670" 
d="M76 667h174q79 0 138 -13.5t110 -51.5q61 -46 94.5 -116t33.5 -153q0 -175 -134 -269q-54 -38 -110 -51t-134 -13h-172v667zM206 555v-443h40q102 0 163 44q39 28 61 75.5t22 101.5q0 53 -21.5 100.5t-60.5 77.5q-59 44 -164 44h-40zM290 842l120 88l60 -64l-180 -134
l-180 134l60 64z" />
    <glyph glyph-name="dcaron" unicode="&#x10f;" horiz-adv-x="710" 
d="M390 377v352h122v-729h-122v56q-49 -70 -133 -70q-98 0 -159.5 67t-61.5 164q0 98 60 164t155 66q94 0 139 -70zM282 339q-52 0 -86 -35t-34 -87t34 -87.5t86 -35.5t86 35.5t34 87.5t-34 87t-86 35zM560 478l66 212l114 -20l-96 -208z" />
    <glyph glyph-name="Dcroat" unicode="&#x110;" horiz-adv-x="669" 
d="M76 667h174q79 0 138 -13.5t110 -51.5q60 -45 93.5 -115.5t33.5 -153.5q0 -173 -133 -269q-54 -38 -110 -51t-134 -13h-172v316h-86v100h86v251zM206 555v-139h122v-100h-122v-204h40q101 0 162 44q39 28 61 75.5t22 101.5q0 58 -23.5 104.5t-58.5 73.5q-57 44 -163 44
h-40z" />
    <glyph glyph-name="dcroat" unicode="&#x111;" horiz-adv-x="570" 
d="M390 377v182h-220v78h220v92h122v-92h78v-78h-78v-559h-122v56q-49 -70 -133 -70q-98 0 -159.5 67t-61.5 164q0 98 60 164t155 66q94 0 139 -70zM282 339q-52 0 -86 -35t-34 -87t34 -87.5t86 -35.5t86 35.5t34 87.5t-34 87t-86 35z" />
    <glyph glyph-name="Emacron" unicode="&#x112;" horiz-adv-x="496" 
d="M446 667v-112h-240v-149h230v-112h-230v-182h240v-112h-370v667h370zM77 745v86h366v-86h-366z" />
    <glyph glyph-name="emacron" unicode="&#x113;" horiz-adv-x="522" 
d="M371 139l112 -18q-7 -18 -18.5 -35.5t-35.5 -43t-65 -41t-94 -15.5q-102 0 -166 61q-68 64 -68 169q0 104 66 170q62 61 163 61q110 0 169 -71q52 -62 52 -170v-10h-324q0 -44 21 -73q30 -41 87 -41q68 0 101 57zM166 274h205q-7 42 -36.5 64.5t-66.5 22.5
q-36 0 -65.5 -23t-36.5 -64zM78 539v80h364v-80h-364z" />
    <glyph glyph-name="Edotaccent" unicode="&#x116;" horiz-adv-x="496" 
d="M446 667v-112h-240v-149h230v-112h-230v-182h240v-112h-370v667h370zM182 817q0 33 22.5 55.5t55.5 22.5t55.5 -22.5t22.5 -55.5t-22.5 -55.5t-55.5 -22.5t-55.5 22.5t-22.5 55.5z" />
    <glyph glyph-name="edotaccent" unicode="&#x117;" horiz-adv-x="522" 
d="M371 139l112 -18q-7 -18 -18.5 -35.5t-35.5 -43t-65 -41t-94 -15.5q-102 0 -166 61q-68 64 -68 169q0 104 66 170q62 61 163 61q110 0 169 -71q52 -62 52 -170v-10h-324q0 -44 21 -73q30 -41 87 -41q68 0 101 57zM166 274h205q-7 42 -36.5 64.5t-66.5 22.5
q-36 0 -65.5 -23t-36.5 -64zM190 590q0 32 22 54t54 22t54 -22t22 -54t-22 -54t-54 -22t-54 22t-22 54z" />
    <glyph glyph-name="Eogonek" unicode="&#x118;" horiz-adv-x="496" 
d="M446 667v-112h-240v-149h230v-112h-230v-182h240v-112h-40q-25 -18 -40 -36q-18 -23 -18 -47q0 -15 10 -25q11 -11 33 -11q21 0 47 12l-14 -69q-33 -17 -67 -17q-43 0 -71 26q-24 24 -24 59q0 34 23 64q19 24 51 44h-260v667h370z" />
    <glyph glyph-name="eogonek" unicode="&#x119;" horiz-adv-x="522" 
d="M371 139l112 -18q-15 -40 -39.5 -63t-69.5 -51q-38 -23 -55 -43q-20 -25 -20 -43q0 -17 15 -29q12 -9 31 -9q24 0 46 12l-14 -67q-29 -17 -61 -17q-46 0 -70 24q-23 21 -23 57q0 32 18 57q11 17 36 37q-108 0 -173 61q-68 64 -68 166q0 107 66 173q62 61 162 61
q111 0 170 -71q52 -61 52 -170v-10h-324q-2 -42 21 -73q32 -41 87 -41q38 0 67 19q23 16 34 38zM166 274h205q-7 40 -36 64q-28 23 -67 23t-66 -23q-30 -23 -36 -64z" />
    <glyph glyph-name="Ecaron" unicode="&#x11a;" horiz-adv-x="496" 
d="M446 667v-112h-240v-149h230v-112h-230v-182h240v-112h-370v667h370zM260 842l120 88l60 -64l-180 -134l-180 134l60 64z" />
    <glyph glyph-name="ecaron" unicode="&#x11b;" horiz-adv-x="522" 
d="M371 139l112 -18q-7 -18 -18.5 -35.5t-35.5 -43t-65 -41t-94 -15.5q-102 0 -166 61q-68 64 -68 169q0 104 66 170q62 61 163 61q110 0 169 -71q52 -62 52 -170v-10h-324q0 -44 21 -73q30 -41 87 -41q68 0 101 57zM166 274h205q-7 42 -36.5 64.5t-66.5 22.5
q-36 0 -65.5 -23t-36.5 -64zM264 616l110 92l60 -60l-170 -138l-170 138l60 60z" />
    <glyph glyph-name="Gcircumflex" unicode="&#x11c;" horiz-adv-x="764" 
d="M414 245v112h306v-8q0 -179 -98 -276q-88 -88 -237 -88q-152 0 -242 90q-99 99 -99 257q0 150 98 248q100 102 263 102q88 0 154 -35q77 -39 125 -122l-113 -61q-27 52 -78 79q-42 21 -94 21q-94 0 -154 -59q-67 -65 -67 -176q0 -105 66 -169q59 -57 148 -57q78 0 131 40
q48 37 63 102h-172zM390 820l-120 -88l-60 64l180 134l180 -134l-60 -64z" />
    <glyph glyph-name="gcircumflex" unicode="&#x11d;" horiz-adv-x="568" 
d="M388 377v56h122v-413q0 -61 -11.5 -106.5t-48.5 -82.5q-61 -61 -171 -61q-106 0 -162 50q-53 45 -70 129h132q8 -33 30 -52q25 -23 74 -23q45 0 74 27q31 30 31 96v61q-47 -72 -133 -72q-90 0 -150 59q-69 69 -69 172q0 107 67 172q60 58 149 58q90 0 136 -70zM282 339
q-49 0 -81 -30q-39 -35 -39 -92q0 -51 32 -85q35 -38 88 -38q48 0 81 30q39 36 39 93q0 50 -35 87q-34 35 -85 35zM270 602l-110 -92l-60 60l170 138l170 -138l-60 -60z" />
    <glyph glyph-name="Gbreve" unicode="&#x11e;" horiz-adv-x="764" 
d="M414 245v112h306v-8q0 -179 -98 -276q-88 -88 -237 -88q-152 0 -242 90q-99 99 -99 257q0 150 98 248q100 102 263 102q88 0 154 -35q77 -39 125 -122l-113 -61q-27 52 -78 79q-42 21 -94 21q-94 0 -154 -59q-67 -65 -67 -176q0 -105 66 -169q59 -57 148 -57q78 0 131 40
q48 37 63 102h-172zM474 870h90q-6 -63 -53 -103.5t-117 -40.5t-117 40.5t-53 103.5h90q12 -60 80 -60t80 60z" />
    <glyph glyph-name="gbreve" unicode="&#x11f;" horiz-adv-x="568" 
d="M388 377v56h122v-413q0 -61 -11.5 -106.5t-48.5 -82.5q-61 -61 -171 -61q-106 0 -162 50q-53 45 -70 129h132q8 -33 30 -52q25 -23 74 -23q45 0 74 27q31 30 31 96v61q-47 -72 -133 -72q-90 0 -150 59q-69 69 -69 172q0 107 67 172q60 58 149 58q90 0 136 -70zM282 339
q-49 0 -81 -30q-39 -35 -39 -92q0 -51 32 -85q35 -38 88 -38q48 0 81 30q39 36 39 93q0 50 -35 87q-34 35 -85 35zM350 650h84q-6 -49 -37 -87q-47 -54 -127 -54t-127 54q-31 38 -37 87h84q5 -26 22 -42q21 -21 58 -21t58 21q17 16 22 42z" />
    <glyph glyph-name="Gdotaccent" unicode="&#x120;" horiz-adv-x="764" 
d="M414 245v112h306v-8q0 -179 -98 -276q-88 -88 -237 -88q-152 0 -242 90q-99 99 -99 257q0 150 98 248q100 102 263 102q88 0 154 -35q77 -39 125 -122l-113 -61q-27 52 -78 79q-42 21 -94 21q-94 0 -154 -59q-67 -65 -67 -176q0 -105 66 -169q59 -57 148 -57q78 0 131 40
q48 37 63 102h-172zM329 817q0 33 22.5 55.5t55.5 22.5t55.5 -22.5t22.5 -55.5t-22.5 -55.5t-55.5 -22.5t-55.5 22.5t-22.5 55.5z" />
    <glyph glyph-name="gdotaccent" unicode="&#x121;" horiz-adv-x="568" 
d="M388 377v56h122v-413q0 -61 -11.5 -106.5t-48.5 -82.5q-61 -61 -171 -61q-106 0 -162 50q-53 45 -70 129h132q8 -33 30 -52q25 -23 74 -23q45 0 74 27q31 30 31 96v61q-47 -72 -133 -72q-90 0 -150 59q-69 69 -69 172q0 107 67 172q60 58 149 58q90 0 136 -70zM282 339
q-49 0 -81 -30q-39 -35 -39 -92q0 -51 32 -85q35 -38 88 -38q48 0 81 30q39 36 39 93q0 50 -35 87q-34 35 -85 35zM194 590q0 32 22 54t54 22t54 -22t22 -54t-22 -54t-54 -22t-54 22t-22 54z" />
    <glyph glyph-name="Gcommaaccent" unicode="&#x122;" horiz-adv-x="764" 
d="M414 245v112h306v-8q0 -179 -98 -276q-88 -88 -237 -88q-152 0 -242 90q-99 99 -99 257q0 150 98 248q100 102 263 102q88 0 154 -35q77 -39 125 -122l-113 -61q-27 52 -78 79q-42 21 -94 21q-94 0 -154 -59q-67 -65 -67 -176q0 -105 66 -169q59 -57 148 -57q78 0 131 40
q48 37 63 102h-172zM280 -258l68 208l112 -16l-100 -204z" />
    <glyph glyph-name="gcommaaccent" unicode="&#x123;" horiz-adv-x="568" 
d="M388 377v56h122v-413q0 -61 -11.5 -106.5t-48.5 -82.5q-61 -61 -171 -61q-106 0 -162 50q-53 45 -70 129h132q8 -33 30 -52q25 -23 74 -23q45 0 74 27q31 30 31 96v61q-47 -72 -133 -72q-90 0 -150 59q-69 69 -69 172q0 107 67 172q60 58 149 58q90 0 136 -70zM282 339
q-49 0 -81 -30q-39 -35 -39 -92q0 -51 32 -85q35 -38 88 -38q48 0 81 30q39 36 39 93q0 50 -35 87q-34 35 -85 35zM374 690l-68 -208l-112 16l100 204z" />
    <glyph glyph-name="Hcircumflex" unicode="&#x124;" horiz-adv-x="694" 
d="M206 667v-258h282v258h130v-667h-130v297h-282v-297h-130v667h130zM347 820l-120 -88l-60 64l180 134l180 -134l-60 -64z" />
    <glyph glyph-name="hcircumflex" unicode="&#x125;" horiz-adv-x="534" 
d="M58 0v729h122v-352q50 70 134 70q85 0 128 -53q34 -42 34 -122v-272h-122v236q0 61 -23 85q-21 22 -57 22q-50 0 -75 -38q-19 -30 -19 -84v-221h-122zM130 852l-110 -92l-60 60l170 138l170 -138l-60 -60z" />
    <glyph glyph-name="Hbar" unicode="&#x126;" horiz-adv-x="694" 
d="M206 667v-53h282v53h130v-53h60v-96h-60v-518h-130v297h-282v-297h-130v518h-60v96h60v53h130zM488 518h-282v-109h282v109z" />
    <glyph glyph-name="hbar" unicode="&#x127;" horiz-adv-x="544" 
d="M68 0v559h-78v78h78v92h122v-92h200v-78h-200v-182q50 70 134 70q85 0 128 -53q34 -42 34 -122v-272h-122v236q0 61 -23 85q-21 22 -57 22q-50 0 -75 -38q-19 -30 -19 -84v-221h-122z" />
    <glyph glyph-name="Imacron" unicode="&#x12a;" horiz-adv-x="282" 
d="M76 667h130v-667h-130v667zM1 745v86h280v-86h-280z" />
    <glyph glyph-name="imacron" unicode="&#x12b;" horiz-adv-x="238" 
d="M58 433h122v-433h-122v433zM-3 539v80h244v-80h-244z" />
    <glyph glyph-name="Iogonek" unicode="&#x12e;" horiz-adv-x="282" 
d="M76 667h130v-667q-25 -18 -40 -36q-18 -23 -18 -47q0 -15 10 -25q11 -11 33 -11q21 0 47 12l-14 -69q-33 -17 -67 -17q-43 0 -71 26q-24 24 -24 59q0 34 23 64q19 24 51 44h-60v667z" />
    <glyph glyph-name="iogonek" unicode="&#x12f;" horiz-adv-x="238" 
d="M58 433h122v-433q-27 -17 -42 -36q-20 -22 -20 -43q0 -17 15 -29q12 -9 31 -9q24 0 46 12l-14 -67q-27 -17 -62 -17q-44 0 -69 24q-23 23 -23 57q0 36 26 68q19 22 48 40h-58v433zM46 616q0 30 21.5 51.5t51.5 21.5t51.5 -21.5t21.5 -51.5t-21.5 -51.5t-51.5 -21.5
t-51.5 21.5t-21.5 51.5z" />
    <glyph glyph-name="Idotaccent" unicode="&#x130;" horiz-adv-x="282" 
d="M76 667h130v-667h-130v667zM63 817q0 33 22.5 55.5t55.5 22.5t55.5 -22.5t22.5 -55.5t-22.5 -55.5t-55.5 -22.5t-55.5 22.5t-22.5 55.5z" />
    <glyph glyph-name="dotlessi" unicode="&#x131;" horiz-adv-x="238" 
d="M58 433h122v-433h-122v433z" />
    <glyph glyph-name="Jcircumflex" unicode="&#x134;" horiz-adv-x="390" 
d="M184 667h130v-450q0 -149 -78 -202q-46 -30 -109 -30q-88 0 -153 62l79 95q25 -36 65 -36q36 0 51 23q15 22 15 108v430zM240 820l-120 -88l-60 64l180 134l180 -134l-60 -64z" />
    <glyph glyph-name="jcircumflex" unicode="&#x135;" horiz-adv-x="238" 
d="M58 433h122v-662h-122v662zM119 602l-87 -78l-56 56l143 128l143 -128l-56 -56z" />
    <glyph glyph-name="Kcommaaccent" unicode="&#x136;" horiz-adv-x="636" 
d="M206 667v-282l245 282h164l-282 -308l297 -359h-172l-237 299l-15 -15v-284h-130v667h130zM211 -258l68 208l112 -16l-100 -204z" />
    <glyph glyph-name="kcommaaccent" unicode="&#x137;" horiz-adv-x="512" 
d="M58 729h122v-454l162 158h158l-203 -190l219 -243h-162l-161 185l-13 -12v-173h-122v729zM150 -258l68 208l112 -16l-100 -204z" />
    <glyph glyph-name="Lacute" unicode="&#x139;" horiz-adv-x="426" 
d="M76 667h130v-555h206v-112h-336v667zM176 728l-56 50l140 142l90 -70z" />
    <glyph glyph-name="lacute" unicode="&#x13a;" horiz-adv-x="238" 
d="M58 729h122v-729h-122v729zM187 960l88 -56l-150 -134l-56 40z" />
    <glyph glyph-name="Lcommaaccent" unicode="&#x13b;" horiz-adv-x="426" 
d="M76 667h130v-555h206v-112h-336v667zM130 -258l68 208l112 -16l-100 -204z" />
    <glyph glyph-name="lcommaaccent" unicode="&#x13c;" horiz-adv-x="238" 
d="M58 729h122v-729h-122v729zM10 -258l68 208l112 -16l-100 -204z" />
    <glyph glyph-name="Lcaron" unicode="&#x13d;" horiz-adv-x="426" 
d="M76 667h130v-555h206v-112h-336v667zM260 468l66 212l114 -20l-96 -208z" />
    <glyph glyph-name="lcaron" unicode="&#x13e;" horiz-adv-x="378" 
d="M58 729h122v-729h-122v729zM228 478l66 212l114 -20l-96 -208z" />
    <glyph glyph-name="Ldot" unicode="&#x13f;" horiz-adv-x="426" 
d="M76 667h130v-555h206v-112h-336v667zM274 335q0 33 22.5 55.5t55.5 22.5t55.5 -22.5t22.5 -55.5t-22.5 -55.5t-55.5 -22.5t-55.5 22.5t-22.5 55.5z" />
    <glyph glyph-name="ldot" unicode="&#x140;" horiz-adv-x="386" 
d="M58 729h122v-729h-122v729zM236 365q0 31 22 53.5t54 22.5t54 -22.5t22 -53.5t-22 -53.5t-54 -22.5t-54 22.5t-22 53.5z" />
    <glyph glyph-name="Lslash" unicode="&#x141;" horiz-adv-x="426" 
d="M76 667h130v-226l102 65v-100l-102 -65v-229h206v-112h-336v278l-86 -55v100l86 55v289z" />
    <glyph glyph-name="lslash" unicode="&#x142;" horiz-adv-x="238" 
d="M58 729h122v-209l74 54v-90l-74 -54v-430h-122v364l-74 -54v90l74 54v275z" />
    <glyph glyph-name="Nacute" unicode="&#x143;" horiz-adv-x="778" 
d="M206 0h-130v667h90l406 -445v445h130v-667h-90l-406 446v-446zM365 728l-56 50l140 142l90 -70z" />
    <glyph glyph-name="nacute" unicode="&#x144;" horiz-adv-x="534" 
d="M58 0v433h122v-56q50 70 134 70q85 0 128 -53q34 -42 34 -122v-272h-122v236q0 61 -23 85q-21 22 -57 22q-50 0 -75 -38q-19 -30 -19 -84v-221h-122zM335 700l88 -56l-150 -134l-56 40z" />
    <glyph glyph-name="Ncommaaccent" unicode="&#x145;" horiz-adv-x="778" 
d="M206 0h-130v667h90l406 -445v445h130v-667h-90l-406 446v-446zM279 -258l68 208l112 -16l-100 -204z" />
    <glyph glyph-name="ncommaaccent" unicode="&#x146;" horiz-adv-x="534" 
d="M58 0v433h122v-56q50 70 134 70q85 0 128 -53q34 -42 34 -122v-272h-122v236q0 61 -23 85q-21 22 -57 22q-50 0 -75 -38q-19 -30 -19 -84v-221h-122zM160 -258l68 208l112 -16l-100 -204z" />
    <glyph glyph-name="Ncaron" unicode="&#x147;" horiz-adv-x="778" 
d="M206 0h-130v667h90l406 -445v445h130v-667h-90l-406 446v-446zM389 842l120 88l60 -64l-180 -134l-180 134l60 64z" />
    <glyph glyph-name="ncaron" unicode="&#x148;" horiz-adv-x="534" 
d="M58 0v433h122v-56q50 70 134 70q85 0 128 -53q34 -42 34 -122v-272h-122v236q0 61 -23 85q-21 22 -57 22q-50 0 -75 -38q-19 -30 -19 -84v-221h-122zM290 616l110 92l60 -60l-170 -138l-170 138l60 60z" />
    <glyph glyph-name="Omacron" unicode="&#x14c;" horiz-adv-x="800" 
d="M400 682q157 0 256.5 -98t99.5 -251t-99.5 -250.5t-256.5 -97.5t-256.5 97.5t-99.5 250.5t99.5 251t256.5 98zM400 103q98 0 160 64.5t62 165.5t-62.5 166t-159.5 65t-159.5 -65t-62.5 -166t62 -165.5t160 -64.5zM217 745v86h366v-86h-366z" />
    <glyph glyph-name="omacron" unicode="&#x14d;" horiz-adv-x="568" 
d="M284 447q109 0 175 -61q73 -66 73 -170q0 -103 -73 -169q-66 -61 -175 -61t-175 61q-73 66 -73 169q0 104 73 170q66 61 175 61zM284 94q52 0 87 36t35 86q0 51 -35 87t-87 36t-87 -36t-35 -87q0 -50 35 -86t87 -36zM102 539v80h364v-80h-364z" />
    <glyph glyph-name="Obreve" unicode="&#x14e;" horiz-adv-x="800" 
d="M400 682q157 0 256.5 -98t99.5 -251t-99.5 -250.5t-256.5 -97.5t-256.5 97.5t-99.5 250.5t99.5 251t256.5 98zM400 103q98 0 160 64.5t62 165.5t-62.5 166t-159.5 65t-159.5 -65t-62.5 -166t62 -165.5t160 -64.5zM480 870h90q-6 -63 -53 -103.5t-117 -40.5t-117 40.5
t-53 103.5h90q12 -60 80 -60t80 60z" />
    <glyph glyph-name="obreve" unicode="&#x14f;" horiz-adv-x="568" 
d="M284 447q109 0 175 -61q73 -66 73 -170q0 -103 -73 -169q-66 -61 -175 -61t-175 61q-73 66 -73 169q0 104 73 170q66 61 175 61zM284 94q52 0 87 36t35 86q0 51 -35 87t-87 36t-87 -36t-35 -87q0 -50 35 -86t87 -36zM364 650h84q-6 -49 -37 -87q-47 -54 -127 -54t-127 54
q-31 38 -37 87h84q5 -26 22 -42q21 -21 58 -21t58 21q17 16 22 42z" />
    <glyph glyph-name="Ohungarumlaut" unicode="&#x150;" horiz-adv-x="800" 
d="M400 682q157 0 256.5 -98t99.5 -251t-99.5 -250.5t-256.5 -97.5t-256.5 97.5t-99.5 250.5t99.5 251t256.5 98zM400 103q98 0 160 64.5t62 165.5t-62.5 166t-159.5 65t-159.5 -65t-62.5 -166t62 -165.5t160 -64.5zM348 921l90 -59l-144 -134l-56 40zM548 920l90 -58
l-144 -134l-56 40z" />
    <glyph glyph-name="ohungarumlaut" unicode="&#x151;" horiz-adv-x="568" 
d="M284 447q109 0 175 -61q73 -66 73 -170q0 -103 -73 -169q-66 -61 -175 -61t-175 61q-73 66 -73 169q0 104 73 170q66 61 175 61zM284 94q52 0 87 36t35 86q0 51 -35 87t-87 36t-87 -36t-35 -87q0 -50 35 -86t87 -36zM238 690l82 -58l-132 -134l-50 40zM426 689l82 -57
l-132 -134l-50 40z" />
    <glyph glyph-name="OE" unicode="&#x152;" horiz-adv-x="1038" 
d="M988 667v-112h-234v-149h224v-112h-224v-182h234v-112h-364v90q-86 -105 -230 -105q-153 0 -251.5 98.5t-98.5 249.5q0 150 98.5 249.5t249.5 99.5q91 0 165 -45q40 -24 67 -60v90h364zM395 103q95 0 156 64.5t61 165.5t-61 166t-156 65q-96 0 -156.5 -65t-60.5 -166
t61 -165.5t156 -64.5z" />
    <glyph glyph-name="oe" unicode="&#x153;" horiz-adv-x="880" 
d="M729 139l112 -18q-7 -17 -18 -34.5t-35 -43t-65.5 -41.5t-94.5 -16q-113 0 -170 84q-19 -24 -50 -46q-57 -38 -129 -38q-102 0 -171 61q-72 66 -72 169q0 104 72 170q67 61 171 61q114 0 178 -79q57 79 166 79q108 0 169 -71q52 -62 52 -170v-10h-324q-2 -43 21 -73
q30 -41 87 -41q68 0 101 57zM279 94q45 0 81 33t36 89q0 51 -33 87t-84 36t-84 -36t-33 -87q0 -56 36 -89t81 -33zM524 274h205q-7 42 -36.5 64.5t-66.5 22.5q-36 0 -65.5 -23t-36.5 -64z" />
    <glyph glyph-name="Racute" unicode="&#x154;" horiz-adv-x="574" 
d="M76 667h193q110 0 170 -50q66 -56 66 -150q0 -104 -78 -157q-30 -21 -73 -29l208 -281h-162l-178 268h-16v-268h-130v667zM206 561v-201h37q16 0 31.5 2.5t40.5 11t40.5 31t15.5 56.5t-15 56.5t-40 31t-40 10.5t-31 2h-39zM263 728l-56 50l140 142l90 -70z" />
    <glyph glyph-name="racute" unicode="&#x155;" horiz-adv-x="360" 
d="M58 0v433h122v-65q22 42 54 60q30 19 72 19q24 0 52 -10l-16 -114q-23 16 -57 16q-53 0 -81 -35q-24 -30 -24 -96v-208h-122zM258 700l88 -56l-150 -134l-56 40z" />
    <glyph glyph-name="Rcommaaccent" unicode="&#x156;" horiz-adv-x="574" 
d="M76 667h193q110 0 170 -50q66 -56 66 -150q0 -104 -78 -157q-30 -21 -73 -29l208 -281h-162l-178 268h-16v-268h-130v667zM206 561v-201h37q16 0 31.5 2.5t40.5 11t40.5 31t15.5 56.5t-15 56.5t-40 31t-40 10.5t-31 2h-39zM180 -258l68 208l112 -16l-100 -204z" />
    <glyph glyph-name="rcommaaccent" unicode="&#x157;" horiz-adv-x="360" 
d="M58 0v433h122v-65q22 42 54 60q30 19 72 19q24 0 52 -10l-16 -114q-23 16 -57 16q-53 0 -81 -35q-24 -30 -24 -96v-208h-122zM90 -258l68 208l112 -16l-100 -204z" />
    <glyph glyph-name="Rcaron" unicode="&#x158;" horiz-adv-x="574" 
d="M76 667h193q110 0 170 -50q66 -56 66 -150q0 -104 -78 -157q-30 -21 -73 -29l208 -281h-162l-178 268h-16v-268h-130v667zM206 561v-201h37q16 0 31.5 2.5t40.5 11t40.5 31t15.5 56.5t-15 56.5t-40 31t-40 10.5t-31 2h-39zM270 842l120 88l60 -64l-180 -134l-180 134
l60 64z" />
    <glyph glyph-name="rcaron" unicode="&#x159;" horiz-adv-x="360" 
d="M58 0v433h122v-65q22 42 54 60q30 19 72 19q24 0 52 -10l-16 -114q-23 16 -57 16q-53 0 -81 -35q-24 -30 -24 -96v-208h-122zM210 616l110 92l60 -60l-170 -138l-170 138l60 60z" />
    <glyph glyph-name="Sacute" unicode="&#x15a;" horiz-adv-x="534" 
d="M472 604l-68 -89q-43 57 -109 57q-48 0 -70 -23.5t-22 -54.5q0 -27 21 -45q16 -15 80 -38q99 -34 135 -67q57 -51 57 -140q0 -98 -64.5 -158.5t-167.5 -60.5q-144 0 -230 126l85 81q22 -45 61 -67t79 -22q45 0 74 25.5t29 66.5q0 35 -26 60q-24 22 -103 49
q-74 25 -111 58q-53 46 -53 124q0 81 55 138.5t159 57.5q113 0 189 -78zM266 728l-56 50l140 142l90 -70z" />
    <glyph glyph-name="sacute" unicode="&#x15b;" horiz-adv-x="404" 
d="M354 401l-60 -71q-31 29 -71 29q-22 0 -34.5 -9.5t-12.5 -25.5q0 -26 39 -39l29 -9q85 -27 110 -62q22 -30 22 -72q0 -66 -48 -110q-50 -46 -130 -46q-101 0 -168 72l64 74q43 -50 96 -50q26 0 43 12.5t17 34.5q0 30 -38 44l-28 10q-65 23 -93 52q-33 35 -33 83
q0 60 45 98q39 31 113 31q78 0 138 -46zM270 700l88 -56l-150 -134l-56 40z" />
    <glyph glyph-name="Scircumflex" unicode="&#x15c;" horiz-adv-x="534" 
d="M472 604l-68 -89q-43 57 -109 57q-48 0 -70 -23.5t-22 -54.5q0 -27 21 -45q16 -15 80 -38q99 -34 135 -67q57 -51 57 -140q0 -98 -64.5 -158.5t-167.5 -60.5q-144 0 -230 126l85 81q22 -45 61 -67t79 -22q45 0 74 25.5t29 66.5q0 35 -26 60q-24 22 -103 49
q-74 25 -111 58q-53 46 -53 124q0 81 55 138.5t159 57.5q113 0 189 -78zM280 820l-120 -88l-60 64l180 134l180 -134l-60 -64z" />
    <glyph glyph-name="scircumflex" unicode="&#x15d;" horiz-adv-x="404" 
d="M354 401l-60 -71q-31 29 -71 29q-22 0 -34.5 -9.5t-12.5 -25.5q0 -26 39 -39l29 -9q85 -27 110 -62q22 -30 22 -72q0 -66 -48 -110q-50 -46 -130 -46q-101 0 -168 72l64 74q43 -50 96 -50q26 0 43 12.5t17 34.5q0 30 -38 44l-28 10q-65 23 -93 52q-33 35 -33 83
q0 60 45 98q39 31 113 31q78 0 138 -46zM210 602l-110 -92l-60 60l170 138l170 -138l-60 -60z" />
    <glyph glyph-name="Scedilla" unicode="&#x15e;" horiz-adv-x="534" 
d="M472 604l-68 -89q-43 57 -109 57q-48 0 -70 -23.5t-22 -54.5q0 -27 21 -45q16 -15 80 -38q99 -34 135 -67q57 -51 57 -140q0 -98 -64.5 -158.5t-167.5 -60.5q-144 0 -230 126l85 81q22 -45 61 -67t79 -22q45 0 74 25.5t29 66.5q0 35 -26 60q-24 22 -103 49
q-74 25 -111 58q-53 46 -53 124q0 81 55 138.5t159 57.5q113 0 189 -78zM244 -46l96 -44l-122 -154l-66 36z" />
    <glyph glyph-name="scedilla" unicode="&#x15f;" horiz-adv-x="404" 
d="M354 401l-60 -71q-31 29 -71 29q-22 0 -34.5 -9.5t-12.5 -25.5q0 -26 39 -39l29 -9q85 -27 110 -62q22 -30 22 -72q0 -66 -48 -110q-50 -46 -130 -46q-101 0 -168 72l64 74q43 -50 96 -50q26 0 43 12.5t17 34.5q0 30 -38 44l-28 10q-65 23 -93 52q-33 35 -33 83
q0 60 45 98q39 31 113 31q78 0 138 -46zM182 -46l88 -44l-120 -146l-64 40z" />
    <glyph glyph-name="Scaron" unicode="&#x160;" horiz-adv-x="534" 
d="M472 604l-68 -89q-43 57 -109 57q-48 0 -70 -23.5t-22 -54.5q0 -27 21 -45q16 -15 80 -38q99 -34 135 -67q57 -51 57 -140q0 -98 -64.5 -158.5t-167.5 -60.5q-144 0 -230 126l85 81q22 -45 61 -67t79 -22q45 0 74 25.5t29 66.5q0 35 -26 60q-24 22 -103 49
q-74 25 -111 58q-53 46 -53 124q0 81 55 138.5t159 57.5q113 0 189 -78zM280 842l120 88l60 -64l-180 -134l-180 134l60 64z" />
    <glyph glyph-name="scaron" unicode="&#x161;" horiz-adv-x="404" 
d="M354 401l-60 -71q-31 29 -71 29q-22 0 -34.5 -9.5t-12.5 -25.5q0 -26 39 -39l29 -9q85 -27 110 -62q22 -30 22 -72q0 -66 -48 -110q-50 -46 -130 -46q-101 0 -168 72l64 74q43 -50 96 -50q26 0 43 12.5t17 34.5q0 30 -38 44l-28 10q-65 23 -93 52q-33 35 -33 83
q0 60 45 98q39 31 113 31q78 0 138 -46zM210 616l110 92l60 -60l-170 -138l-170 138l60 60z" />
    <glyph glyph-name="Tcedilla" unicode="&#x162;" horiz-adv-x="442" 
d="M436 555h-150v-555h-130v555h-150v112h430v-112zM194 -46l96 -44l-122 -154l-66 36z" />
    <glyph glyph-name="tcedilla" unicode="&#x163;" horiz-adv-x="270" 
d="M264 329h-84v-329h-122v329h-48v104h48v148h122v-148h84v-104zM102 -46l88 -44l-120 -146l-64 40z" />
    <glyph glyph-name="Tcaron" unicode="&#x164;" horiz-adv-x="442" 
d="M436 555h-150v-555h-130v555h-150v112h430v-112zM221 842l120 88l60 -64l-180 -134l-180 134l60 64z" />
    <glyph glyph-name="tcaron" unicode="&#x165;" horiz-adv-x="370" 
d="M264 329h-84v-329h-122v329h-48v104h48v148h122v-148h84v-104zM220 478l66 212l114 -20l-96 -208z" />
    <glyph glyph-name="Utilde" unicode="&#x168;" horiz-adv-x="688" 
d="M76 667h130v-419q0 -63 32 -99q38 -46 106 -46t106 46q32 36 32 99v419h130v-408q0 -114 -50 -178q-35 -46 -93.5 -71t-124.5 -25t-124.5 25t-93.5 71q-50 64 -50 178v408zM471 869l65 -48q-18 -37 -45 -59q-31 -28 -69 -28q-26 0 -68 17l-35 14q-40 15 -50 15
q-19 0 -34 -15q-10 -10 -16 -24l-67 48q17 32 39 54q33 33 76 33q24 0 68 -17l39 -16q31 -13 48 -13q20 0 33 13q8 8 16 26z" />
    <glyph glyph-name="utilde" unicode="&#x169;" horiz-adv-x="536" 
d="M58 433h122v-245q0 -52 26 -76q25 -22 62 -22t62 22q26 24 26 76v245h122v-265q0 -87 -53 -133q-56 -49 -157 -49t-157 49q-53 46 -53 133v265zM391 647l59 -48q-15 -30 -38 -53q-29 -26 -66 -26q-34 0 -71 16l-34 14q-29 12 -46 12t-31 -14q-11 -11 -17 -25l-61 48
q17 32 35 50q29 29 72 29q28 0 61 -13l38 -15q35 -14 50 -14q20 0 31 11q10 10 18 28z" />
    <glyph glyph-name="Umacron" unicode="&#x16a;" horiz-adv-x="688" 
d="M76 667h130v-419q0 -63 32 -99q38 -46 106 -46t106 46q32 36 32 99v419h130v-408q0 -114 -50 -178q-35 -46 -93.5 -71t-124.5 -25t-124.5 25t-93.5 71q-50 64 -50 178v408zM161 745v86h366v-86h-366z" />
    <glyph glyph-name="umacron" unicode="&#x16b;" horiz-adv-x="536" 
d="M58 433h122v-245q0 -52 26 -76q25 -22 62 -22t62 22q26 24 26 76v245h122v-265q0 -87 -53 -133q-56 -49 -157 -49t-157 49q-53 46 -53 133v265zM86 539v80h364v-80h-364z" />
    <glyph glyph-name="Ubreve" unicode="&#x16c;" horiz-adv-x="688" 
d="M76 667h130v-419q0 -63 32 -99q38 -46 106 -46t106 46q32 36 32 99v419h130v-408q0 -114 -50 -178q-35 -46 -93.5 -71t-124.5 -25t-124.5 25t-93.5 71q-50 64 -50 178v408zM424 870h90q-6 -63 -53 -103.5t-117 -40.5t-117 40.5t-53 103.5h90q12 -60 80 -60t80 60z" />
    <glyph glyph-name="ubreve" unicode="&#x16d;" horiz-adv-x="536" 
d="M58 433h122v-245q0 -52 26 -76q25 -22 62 -22t62 22q26 24 26 76v245h122v-265q0 -87 -53 -133q-56 -49 -157 -49t-157 49q-53 46 -53 133v265zM348 650h84q-6 -49 -37 -87q-47 -54 -127 -54t-127 54q-31 38 -37 87h84q5 -26 22 -42q21 -21 58 -21t58 21q17 16 22 42z
" />
    <glyph glyph-name="Uring" unicode="&#x16e;" horiz-adv-x="688" 
d="M76 667h130v-419q0 -63 32 -99q38 -46 106 -46t106 46q32 36 32 99v419h130v-408q0 -114 -50 -178q-35 -46 -93.5 -71t-124.5 -25t-124.5 25t-93.5 71q-50 64 -50 178v408zM304 826q0 -17 11.5 -28.5t28.5 -11.5t28.5 11.5t11.5 28.5t-11.5 28.5t-28.5 11.5t-28.5 -11.5
t-11.5 -28.5zM245 826q0 42 28.5 70.5t70.5 28.5t70.5 -28.5t28.5 -70.5t-28.5 -70.5t-70.5 -28.5t-70.5 28.5t-28.5 70.5z" />
    <glyph glyph-name="uring" unicode="&#x16f;" horiz-adv-x="536" 
d="M58 433h122v-245q0 -52 26 -76q25 -22 62 -22t62 22q26 24 26 76v245h122v-265q0 -87 -53 -133q-56 -49 -157 -49t-157 49q-53 46 -53 133v265zM174 600q0 38 28 66t66 28t66 -28t28 -66t-28 -66t-66 -28t-66 28t-28 66zM229 600q0 -17 11 -28t28 -11t28 11t11 28t-11 28
t-28 11t-28 -11t-11 -28z" />
    <glyph glyph-name="Uhungarumlaut" unicode="&#x170;" horiz-adv-x="688" 
d="M76 667h130v-419q0 -63 32 -99q38 -46 106 -46t106 46q32 36 32 99v419h130v-408q0 -114 -50 -178q-35 -46 -93.5 -71t-124.5 -25t-124.5 25t-93.5 71q-50 64 -50 178v408zM292 921l90 -59l-144 -134l-56 40zM492 920l90 -58l-144 -134l-56 40z" />
    <glyph glyph-name="uhungarumlaut" unicode="&#x171;" horiz-adv-x="536" 
d="M58 433h122v-245q0 -52 26 -76q25 -22 62 -22t62 22q26 24 26 76v245h122v-265q0 -87 -53 -133q-56 -49 -157 -49t-157 49q-53 46 -53 133v265zM222 690l82 -58l-132 -134l-50 40zM410 689l82 -57l-132 -134l-50 40z" />
    <glyph glyph-name="Uogonek" unicode="&#x172;" horiz-adv-x="688" 
d="M76 667h130v-419q0 -63 32 -99q38 -46 106 -46t106 46q32 36 32 99v419h130v-408q0 -113 -50 -178q-28 -36 -94 -72q-45 -25 -61 -43q-20 -23 -20 -49q0 -15 10 -25q11 -11 33 -11q21 0 47 12l-14 -69q-33 -17 -67 -17q-43 0 -71 26q-24 22 -24 59q0 30 15 53
q13 20 37 40q-153 0 -227 96q-50 64 -50 178v408z" />
    <glyph glyph-name="uogonek" unicode="&#x173;" horiz-adv-x="536" 
d="M58 433h122v-245q0 -52 26 -76q25 -22 62 -22t62 22q26 24 26 76v245h122v-265q0 -80 -44 -124q-16 -16 -58 -41q-39 -24 -52 -38q-21 -21 -21 -44q0 -18 15 -29q12 -9 31 -9q25 0 46 12l-14 -67q-30 -17 -62 -17q-45 0 -69 24q-23 21 -23 57q0 29 16 54q14 21 38 40
q-114 0 -170 49q-53 46 -53 133v265z" />
    <glyph glyph-name="Ydieresis" unicode="&#x178;" horiz-adv-x="590" 
d="M227 0v305l-229 362h154l143 -232l143 232h154l-235 -362v-305h-130zM111 811q0 29 21.5 50.5t50.5 21.5t50.5 -21.5t21.5 -50.5t-21.5 -50.5t-50.5 -21.5t-50.5 21.5t-21.5 50.5zM335 811q0 29 21.5 50.5t50.5 21.5t50.5 -21.5t21.5 -50.5t-21.5 -50.5t-50.5 -21.5
t-50.5 21.5t-21.5 50.5z" />
    <glyph glyph-name="Zacute" unicode="&#x179;" horiz-adv-x="584" 
d="M562 667l-324 -555h308v-112h-524l324 555h-273v112h489zM286 728l-56 50l140 142l90 -70z" />
    <glyph glyph-name="zacute" unicode="&#x17a;" horiz-adv-x="484" 
d="M472 433l-246 -329h229v-104h-443l246 329h-208v104h422zM310 700l88 -56l-150 -134l-56 40z" />
    <glyph glyph-name="Zdotaccent" unicode="&#x17b;" horiz-adv-x="584" 
d="M562 667l-324 -555h308v-112h-524l324 555h-273v112h489zM232 817q0 33 22.5 55.5t55.5 22.5t55.5 -22.5t22.5 -55.5t-22.5 -55.5t-55.5 -22.5t-55.5 22.5t-22.5 55.5z" />
    <glyph glyph-name="zdotaccent" unicode="&#x17c;" horiz-adv-x="484" 
d="M472 433l-246 -329h229v-104h-443l246 329h-208v104h422zM174 590q0 32 22 54t54 22t54 -22t22 -54t-22 -54t-54 -22t-54 22t-22 54z" />
    <glyph glyph-name="Zcaron" unicode="&#x17d;" horiz-adv-x="584" 
d="M562 667l-324 -555h308v-112h-524l324 555h-273v112h489zM310 842l120 88l60 -64l-180 -134l-180 134l60 64z" />
    <glyph glyph-name="zcaron" unicode="&#x17e;" horiz-adv-x="484" 
d="M472 433l-246 -329h229v-104h-443l246 329h-208v104h422zM250 616l110 92l60 -60l-170 -138l-170 138l60 60z" />
    <glyph glyph-name="uni018F" unicode="&#x18f;" horiz-adv-x="762" 
d="M44 377h538q-12 82 -71 134.5t-140 52.5q-111 0 -178 -90l-113 61q55 72 131.5 109.5t162.5 37.5q151 0 247.5 -97t96.5 -252t-96 -251.5t-247 -96.5q-174 0 -263 130q-68 98 -68 225v37zM581 277h-390q4 -64 42 -110q54 -64 144 -64q85 0 143 57q47 47 61 117z" />
    <glyph glyph-name="florin" unicode="&#x192;" horiz-adv-x="568" 
d="M222 347h-60l16 86h60l24 130q16 87 58 129q46 48 124 48q49 0 87 -19l-20 -107q-27 15 -55 15q-26 0 -45 -17q-19 -18 -26 -60l-23 -119h108l-16 -86h-108l-46 -266q-14 -77 -30 -123.5t-50 -79.5q-59 -58 -174 -58q-26 0 -49 4l19 112q16 -3 32 -3q51 0 80 26
q32 28 51 141z" />
    <glyph glyph-name="uni01CF" unicode="&#x1cf;" horiz-adv-x="282" 
d="M76 667h130v-667h-130v667zM141 840l92 80l54 -54l-146 -124l-146 124l54 54z" />
    <glyph glyph-name="uni01D0" unicode="&#x1d0;" horiz-adv-x="238" 
d="M58 433h122v-433h-122v433zM119 630l87 78l56 -56l-143 -128l-143 128l56 56z" />
    <glyph glyph-name="uni01DD" unicode="&#x1dd;" horiz-adv-x="522" 
d="M159 298l-112 18q55 131 209 131q98 0 162 -61q68 -65 68 -169t-66 -170q-62 -61 -163 -61q-110 0 -169 71q-52 62 -52 170v20h324q-1 37 -21 63q-29 41 -83 41q-67 0 -97 -53zM358 169h-209q7 -46 36 -71.5t69 -25.5t69 26t35 71z" />
    <glyph glyph-name="Gcaron" unicode="&#x1e6;" horiz-adv-x="764" 
d="M414 245v112h306v-8q0 -179 -98 -276q-88 -88 -237 -88q-152 0 -242 90q-99 99 -99 257q0 150 98 248q100 102 263 102q88 0 154 -35q77 -39 125 -122l-113 -61q-27 52 -78 79q-42 21 -94 21q-94 0 -154 -59q-67 -65 -67 -176q0 -105 66 -169q59 -57 148 -57q78 0 131 40
q48 37 63 102h-172zM382 842l120 88l60 -64l-180 -134l-180 134l60 64z" />
    <glyph glyph-name="gcaron" unicode="&#x1e7;" horiz-adv-x="568" 
d="M388 377v56h122v-413q0 -61 -11.5 -106.5t-48.5 -82.5q-61 -61 -171 -61q-106 0 -162 50q-53 45 -70 129h132q8 -33 30 -52q25 -23 74 -23q45 0 74 27q31 30 31 96v61q-47 -72 -133 -72q-90 0 -150 59q-69 69 -69 172q0 107 67 172q60 58 149 58q90 0 136 -70zM282 339
q-49 0 -81 -30q-39 -35 -39 -92q0 -51 32 -85q35 -38 88 -38q48 0 81 30q39 36 39 93q0 50 -35 87q-34 35 -85 35zM284 616l110 92l60 -60l-170 -138l-170 138l60 60z" />
    <glyph glyph-name="AEacute" unicode="&#x1fc;" horiz-adv-x="920" 
d="M533 0l-59 140h-269l-59 -140h-140l289 667h352l44 -112h-245l60 -149h241l46 -112h-242l73 -182h246l44 -112h-381zM246 246h190l-92 240zM436 728l-56 50l140 142l90 -70z" />
    <glyph glyph-name="aeacute" unicode="&#x1fd;" horiz-adv-x="808" 
d="M657 139l112 -18q-18 -46 -49.5 -76t-66.5 -41t-56 -14.5t-41 -3.5q-113 0 -168 82q-62 -82 -174 -82q-85 0 -131.5 40.5t-46.5 99.5q0 61 44 100q51 45 139 45q59 0 112 -30l1 21q3 45 -37 71q-28 18 -81 18q-51 0 -111 -17v97q71 16 120 16q33 0 57.5 -3.5t56 -20.5
t51.5 -49q58 73 164 73q109 0 168 -71q52 -62 52 -170v-10h-324q-2 -43 21 -73q30 -41 87 -41q68 0 101 57zM154 131q0 -22 21 -40.5t64 -18.5q46 0 69 19.5t23 41.5q0 20 -22 36t-71 16q-44 0 -64 -16.5t-20 -37.5zM452 274h205q-7 42 -36.5 64.5t-66.5 22.5
q-36 0 -65.5 -23t-36.5 -64zM472 700l88 -56l-150 -134l-56 40z" />
    <glyph glyph-name="Scommaaccent" unicode="&#x218;" horiz-adv-x="534" 
d="M472 604l-68 -89q-43 57 -109 57q-48 0 -70 -23.5t-22 -54.5q0 -27 21 -45q16 -15 80 -38q99 -34 135 -67q57 -51 57 -140q0 -98 -64.5 -158.5t-167.5 -60.5q-144 0 -230 126l85 81q22 -45 61 -67t79 -22q45 0 74 25.5t29 66.5q0 35 -26 60q-24 22 -103 49
q-74 25 -111 58q-53 46 -53 124q0 81 55 138.5t159 57.5q113 0 189 -78zM160 -258l68 208l112 -16l-100 -204z" />
    <glyph glyph-name="scommaaccent" unicode="&#x219;" horiz-adv-x="404" 
d="M354 401l-60 -71q-31 29 -71 29q-22 0 -34.5 -9.5t-12.5 -25.5q0 -26 39 -39l29 -9q85 -27 110 -62q22 -30 22 -72q0 -66 -48 -110q-50 -46 -130 -46q-101 0 -168 72l64 74q43 -50 96 -50q26 0 43 12.5t17 34.5q0 30 -38 44l-28 10q-65 23 -93 52q-33 35 -33 83
q0 60 45 98q39 31 113 31q78 0 138 -46zM90 -258l68 208l112 -16l-100 -204z" />
    <glyph glyph-name="Tcommaaccent" unicode="&#x21a;" horiz-adv-x="442" 
d="M436 555h-150v-555h-130v555h-150v112h430v-112zM100 -258l68 208l112 -16l-100 -204z" />
    <glyph glyph-name="tcommaaccent" unicode="&#x21b;" horiz-adv-x="270" 
d="M264 329h-84v-329h-122v329h-48v104h48v148h122v-148h84v-104zM10 -258l68 208l112 -16l-100 -204z" />
    <glyph glyph-name="uni0228" unicode="&#x228;" horiz-adv-x="496" 
d="M446 667v-112h-240v-149h230v-112h-230v-182h240v-112h-370v667h370zM252 -46l96 -44l-122 -154l-66 36z" />
    <glyph glyph-name="uni0229" unicode="&#x229;" horiz-adv-x="522" 
d="M371 139l112 -18q-7 -18 -18.5 -35.5t-35.5 -43t-65 -41t-94 -15.5q-102 0 -166 61q-68 64 -68 169q0 104 66 170q62 61 163 61q110 0 169 -71q52 -62 52 -170v-10h-324q0 -44 21 -73q30 -41 87 -41q68 0 101 57zM166 274h205q-7 42 -36.5 64.5t-66.5 22.5
q-36 0 -65.5 -23t-36.5 -64zM273 -46l88 -44l-120 -146l-64 40z" />
    <glyph glyph-name="uni0237" unicode="&#x237;" horiz-adv-x="238" 
d="M58 433h122v-662h-122v662z" />
    <glyph glyph-name="uni0259" unicode="&#x259;" horiz-adv-x="522" 
d="M159 298l-112 18q55 131 209 131q98 0 162 -61q68 -65 68 -169t-66 -170q-62 -61 -163 -61q-110 0 -169 71q-52 62 -52 170v20h324q-1 37 -21 63q-29 41 -83 41q-67 0 -97 -53zM358 169h-209q7 -46 36 -71.5t69 -25.5t69 26t35 71z" />
    <glyph glyph-name="afii57929" unicode="&#x2bc;" 
d="M160 478l66 212l114 -20l-96 -208z" />
    <glyph glyph-name="circumflex" unicode="&#x2c6;" 
d="M250 602l-110 -92l-60 60l170 138l170 -138l-60 -60z" />
    <glyph glyph-name="caron" unicode="&#x2c7;" 
d="M250 616l110 92l60 -60l-170 -138l-170 138l60 60z" />
    <glyph glyph-name="uni02C9" unicode="&#x2c9;" 
d="M68 539v80h364v-80h-364z" />
    <glyph glyph-name="breve" unicode="&#x2d8;" 
d="M330 650h84q-6 -49 -37 -87q-47 -54 -127 -54t-127 54q-31 38 -37 87h84q5 -26 22 -42q21 -21 58 -21t58 21q17 16 22 42z" />
    <glyph glyph-name="dotaccent" unicode="&#x2d9;" 
d="M174 590q0 32 22 54t54 22t54 -22t22 -54t-22 -54t-54 -22t-54 22t-22 54z" />
    <glyph glyph-name="ring" unicode="&#x2da;" 
d="M156 600q0 38 28 66t66 28t66 -28t28 -66t-28 -66t-66 -28t-66 28t-28 66zM211 600q0 -17 11 -28t28 -11t28 11t11 28t-11 28t-28 11t-28 -11t-11 -28z" />
    <glyph glyph-name="ogonek" unicode="&#x2db;" 
d="M280 0h58q-24 -16 -36 -30q-20 -22 -20 -43q0 -16 11.5 -28t33.5 -12q21 0 47 12l-14 -67q-27 -17 -63 -17q-43 0 -67 23.5t-24 56.5q0 34 26 65q21 24 48 40z" />
    <glyph glyph-name="tilde" unicode="&#x2dc;" 
d="M373 647l59 -48q-15 -30 -38 -53q-29 -26 -66 -26q-34 0 -71 16l-34 14q-29 12 -46 12t-31 -14q-11 -11 -17 -25l-61 48q17 32 35 50q29 29 72 29q28 0 61 -13l38 -15q35 -14 50 -14q20 0 31 11q10 10 18 28z" />
    <glyph glyph-name="hungarumlaut" unicode="&#x2dd;" 
d="M204 690l82 -58l-132 -134l-50 40zM392 689l82 -57l-132 -134l-50 40z" />
    <glyph glyph-name="acutecomb" unicode="&#x301;" horiz-adv-x="2" 
d="M-180 700l88 -56l-150 -134l-56 40z" />
    <glyph glyph-name="uni0394" unicode="&#x394;" horiz-adv-x="668" 
d="M650 0h-632l248 667h132zM333 518l-139 -406h278z" />
    <glyph glyph-name="uni0394" unicode="&#x2206;" horiz-adv-x="668" 
d="M650 0h-632l248 667h132zM333 518l-139 -406h278z" />
    <glyph glyph-name="uni03A9" unicode="&#x3a9;" horiz-adv-x="668" 
d="M30 0v112h142q-46 28 -71 54q-75 77 -75 200q0 132 83.5 224t224.5 92t224.5 -92t83.5 -224q0 -123 -75 -200q-25 -26 -71 -54h142v-112h-268v112q64 31 99 88q39 66 39 155q0 97 -51.5 153t-122.5 56t-122.5 -56t-51.5 -153q0 -89 39 -155q35 -57 99 -88v-112h-268z" />
    <glyph glyph-name="uni03A9" unicode="&#x2126;" horiz-adv-x="668" 
d="M30 0v112h142q-46 28 -71 54q-75 77 -75 200q0 132 83.5 224t224.5 92t224.5 -92t83.5 -224q0 -123 -75 -200q-25 -26 -71 -54h142v-112h-268v112q64 31 99 88q39 66 39 155q0 97 -51.5 153t-122.5 56t-122.5 -56t-51.5 -153q0 -89 39 -155q35 -57 99 -88v-112h-268z" />
    <glyph glyph-name="pi" unicode="&#x3c0;" horiz-adv-x="634" 
d="M234 0h-122v329h-76v104h562v-104h-76v-329h-122v329h-166v-329z" />
    <glyph glyph-name="afii10023" unicode="&#x401;" horiz-adv-x="496" 
d="M446 667v-112h-240v-149h230v-112h-230v-182h240v-112h-370v667h370zM76 811q0 29 21.5 50.5t50.5 21.5t50.5 -21.5t21.5 -50.5t-21.5 -50.5t-50.5 -21.5t-50.5 21.5t-21.5 50.5zM300 811q0 29 21.5 50.5t50.5 21.5t50.5 -21.5t21.5 -50.5t-21.5 -50.5t-50.5 -21.5
t-50.5 21.5t-21.5 50.5z" />
    <glyph glyph-name="afii10051" unicode="&#x402;" horiz-adv-x="660" 
d="M496 555h-220v-170q65 23 137 23q85 0 136 -30q91 -52 91 -175q0 -121 -76 -172q-53 -37 -147 -37q-31 0 -67 6v112q33 -6 64 -6q42 0 63 18q29 24 29 74q0 61 -41 84q-24 14 -69 14q-60 0 -120 -23v-273h-130v555h-140v112h490v-112z" />
    <glyph glyph-name="afii10052" unicode="&#x403;" horiz-adv-x="436" 
d="M430 667v-112h-224v-555h-130v667h354zM256 728l-56 50l140 142l90 -70z" />
    <glyph glyph-name="afii10053" unicode="&#x404;" horiz-adv-x="611" 
d="M567 176v-152q-81 -39 -175 -39q-156 0 -249 93q-99 96 -99 255q0 76 26.5 145.5t73.5 115.5q92 88 249 88q94 0 174 -41v-152q-67 75 -175 75q-83 0 -141 -49.5t-73 -123.5h319v-112h-319q15 -83 78.5 -129.5t142.5 -46.5q101 0 168 73z" />
    <glyph glyph-name="afii10054" unicode="&#x405;" horiz-adv-x="534" 
d="M472 604l-68 -89q-43 57 -109 57q-48 0 -70 -23.5t-22 -54.5q0 -27 21 -45q16 -15 80 -38q99 -34 135 -67q57 -51 57 -140q0 -98 -64.5 -158.5t-167.5 -60.5q-144 0 -230 126l85 81q22 -45 61 -67t79 -22q45 0 74 25.5t29 66.5q0 35 -26 60q-24 22 -103 49
q-74 25 -111 58q-53 46 -53 124q0 81 55 138.5t159 57.5q113 0 189 -78z" />
    <glyph glyph-name="afii10055" unicode="&#x406;" horiz-adv-x="282" 
d="M76 667h130v-667h-130v667z" />
    <glyph glyph-name="afii10056" unicode="&#x407;" horiz-adv-x="282" 
d="M76 667h130v-667h-130v667zM6 811q0 29 17 50.5t41 21.5t41 -21.5t17 -50.5t-17 -50.5t-41 -21.5t-41 21.5t-17 50.5zM156 811q0 29 17 50.5t41 21.5t41 -21.5t17 -50.5t-17 -50.5t-41 -21.5t-41 21.5t-17 50.5z" />
    <glyph glyph-name="afii10057" unicode="&#x408;" horiz-adv-x="390" 
d="M184 667h130v-450q0 -149 -78 -202q-46 -30 -109 -30q-88 0 -153 62l79 95q25 -36 65 -36q36 0 51 23q15 22 15 108v430z" />
    <glyph glyph-name="afii10058" unicode="&#x409;" horiz-adv-x="944" 
d="M140 667h454v-261h104q104 0 164 -55q62 -57 62 -149q0 -68 -36 -120q-56 -82 -189 -82h-235v555h-194v-296q0 -38 -1 -57t-7 -54t-22 -61.5t-42 -48.5q-52 -44 -133 -44q-28 0 -55 6v112q20 -6 37 -6q36 0 60 24q16 16 23.5 44t8.5 48t1 63v382zM594 294v-182h76
q120 0 120 90q0 38 -26.5 65t-91.5 27h-78z" />
    <glyph glyph-name="afii10059" unicode="&#x40a;" horiz-adv-x="968" 
d="M206 667v-258h282v258h130v-261h104q104 0 164 -55q62 -57 62 -149q0 -68 -36 -120q-56 -82 -189 -82h-235v297h-282v-297h-130v667h130zM618 294v-182h76q120 0 120 90q0 38 -26.5 65t-91.5 27h-78z" />
    <glyph glyph-name="afii10060" unicode="&#x40b;" horiz-adv-x="690" 
d="M476 555h-200v-154q68 7 119 7q121 0 178 -43q67 -50 67 -160v-205h-130v182q0 66 -33 92q-29 22 -95 22q-57 0 -106 -7v-289h-130v555h-140v112h470v-112z" />
    <glyph glyph-name="afii10061" unicode="&#x40c;" horiz-adv-x="636" 
d="M206 667v-282l245 282h164l-282 -308l297 -359h-172l-237 299l-15 -15v-284h-130v667h130zM294 728l-56 50l140 142l90 -70z" />
    <glyph glyph-name="afii10062" unicode="&#x40e;" horiz-adv-x="610" 
d="M2 667h152l169 -336l143 336h142l-309 -667h-142l93 186zM130 844l90 36q22 -58 90 -58t90 58l90 -36q-20 -52 -66.5 -82t-113.5 -30t-113.5 30t-66.5 82z" />
    <glyph glyph-name="afii10145" unicode="&#x40f;" horiz-adv-x="676" 
d="M76 0v667h130v-555h264v555h130v-667h-202v-166h-120v166h-202z" />
    <glyph glyph-name="afii10017" unicode="&#x410;" horiz-adv-x="672" 
d="M530 0l-59 140h-269l-59 -140h-141l287 667h102l279 -667h-140zM243 246h190l-95 240z" />
    <glyph glyph-name="afii10018" unicode="&#x411;" horiz-adv-x="570" 
d="M76 0v667h386v-112h-256v-153h90q106 0 167 -54q63 -56 63 -148q0 -66 -37 -119q-57 -81 -192 -81h-221zM206 290v-178h62q124 0 124 87q0 38 -27.5 64.5t-94.5 26.5h-64z" />
    <glyph glyph-name="afii10019" unicode="&#x412;" horiz-adv-x="570" 
d="M76 667h165q109 0 163 -42q62 -48 62 -138q0 -89 -75 -131q51 -8 87 -42q48 -46 48 -125q0 -84 -57 -135q-61 -54 -169 -54h-224v667zM206 561v-171h37q10 0 18.5 0.5t25 5.5t28 13.5t20.5 26t9 41.5q0 43 -28 63.5t-72 20.5h-38zM206 290v-184h56q58 0 89 18
q41 24 41 77q0 54 -49 76q-28 13 -89 13h-48z" />
    <glyph glyph-name="afii10020" unicode="&#x413;" horiz-adv-x="436" 
d="M430 667v-112h-224v-555h-130v667h354z" />
    <glyph glyph-name="afii10021" unicode="&#x414;" horiz-adv-x="670" 
d="M140 667h450v-555h70v-262h-120v150h-410v-150h-120v262q34 -1 62 24.5t44 65.5q24 61 24 175v290zM266 555v-178q0 -125 -23 -186q-18 -46 -52 -79h269v443h-194z" />
    <glyph glyph-name="afii10022" unicode="&#x415;" horiz-adv-x="496" 
d="M446 667v-112h-240v-149h230v-112h-230v-182h240v-112h-370v667h370z" />
    <glyph glyph-name="afii10024" unicode="&#x416;" horiz-adv-x="894" 
d="M385 667h124v-282l222 282h148l-255 -308l264 -359h-150l-214 299l-15 -15v-284h-124v284l-15 15l-214 -299h-150l264 359l-255 308h148l222 -282v282z" />
    <glyph glyph-name="afii10025" unicode="&#x417;" horiz-adv-x="600" 
d="M158 515l-68 89q87 78 205 78q101 0 160 -47.5t59 -126.5q0 -95 -82 -141q60 -15 92 -62t32 -110q0 -94 -74 -152t-191 -58q-173 0 -251 126l85 81q22 -50 69.5 -74.5t99.5 -24.5q63 0 95.5 29t32.5 70q0 102 -146 102h-60v112h60q51 0 81 22.5t30 62.5q0 37 -24 57
t-71 20q-86 0 -134 -53z" />
    <glyph glyph-name="afii10026" unicode="&#x418;" horiz-adv-x="740" 
d="M76 667h130v-444l366 444h92v-667h-130v446l-366 -446h-92v667z" />
    <glyph glyph-name="afii10027" unicode="&#x419;" horiz-adv-x="740" 
d="M76 667h130v-444l366 444h92v-667h-130v446l-366 -446h-92v667zM190 844l90 36q22 -58 90 -58t90 58l90 -36q-20 -52 -66.5 -82t-113.5 -30t-113.5 30t-66.5 82z" />
    <glyph glyph-name="afii10028" unicode="&#x41a;" horiz-adv-x="636" 
d="M206 667v-282l245 282h164l-282 -308l297 -359h-172l-237 299l-15 -15v-284h-130v667h130z" />
    <glyph glyph-name="afii10029" unicode="&#x41b;" horiz-adv-x="670" 
d="M140 667h454v-667h-130v555h-194v-296q0 -38 -1 -57t-7 -54t-22 -61.5t-42 -48.5q-52 -44 -133 -44q-28 0 -55 6v112q20 -6 37 -6q36 0 60 24q16 16 23.5 44t8.5 48t1 63v382z" />
    <glyph glyph-name="afii10030" unicode="&#x41c;" horiz-adv-x="870" 
d="M42 0l124 667h94l177 -424l185 424h94l112 -667h-132l-60 411l-179 -411h-44l-171 411l-68 -411h-132z" />
    <glyph glyph-name="afii10031" unicode="&#x41d;" horiz-adv-x="694" 
d="M206 667v-258h282v258h130v-667h-130v297h-282v-297h-130v667h130z" />
    <glyph glyph-name="afii10032" unicode="&#x41e;" horiz-adv-x="800" 
d="M400 682q157 0 256.5 -98t99.5 -251t-99.5 -250.5t-256.5 -97.5t-256.5 97.5t-99.5 250.5t99.5 251t256.5 98zM400 103q98 0 160 64.5t62 165.5t-62.5 166t-159.5 65t-159.5 -65t-62.5 -166t62 -165.5t160 -64.5z" />
    <glyph glyph-name="afii10033" unicode="&#x41f;" horiz-adv-x="680" 
d="M76 667h528v-667h-130v555h-268v-555h-130v667z" />
    <glyph glyph-name="afii10034" unicode="&#x420;" horiz-adv-x="534" 
d="M76 667h194q62 0 101.5 -10.5t74.5 -40.5q68 -60 68 -161q0 -94 -55 -149q-59 -59 -169 -59h-84v-247h-130v667zM206 555v-196h53q57 0 85 21q36 28 36 78q0 49 -37 76q-30 21 -92 21h-45z" />
    <glyph glyph-name="afii10035" unicode="&#x421;" horiz-adv-x="604" 
d="M560 176v-152q-74 -39 -165 -39q-146 0 -244 93q-107 103 -107 255q0 162 107 261q94 88 245 88q88 0 164 -41v-152q-65 75 -161 75q-98 0 -159.5 -68.5t-61.5 -164.5q0 -105 68 -166.5t158 -61.5q94 0 156 73z" />
    <glyph glyph-name="afii10036" unicode="&#x422;" horiz-adv-x="442" 
d="M436 555h-150v-555h-130v555h-150v112h430v-112z" />
    <glyph glyph-name="afii10037" unicode="&#x423;" horiz-adv-x="610" 
d="M2 667h152l169 -336l143 336h142l-309 -667h-142l93 186z" />
    <glyph glyph-name="afii10038" unicode="&#x424;" horiz-adv-x="830" 
d="M350 0v92h-18q-117 0 -188 50q-100 71 -100 212t100 212q71 50 188 50h18v78h130v-78h18q117 0 188 -50q100 -71 100 -212t-100 -212q-71 -50 -188 -50h-18v-92h-130zM350 204v300h-20q-60 0 -98 -28q-54 -40 -54 -122q0 -79 54 -122q36 -28 98 -28h20zM480 504v-300h20
q63 0 99 28q53 41 53 122q0 83 -53 122q-38 28 -99 28h-20z" />
    <glyph glyph-name="afii10039" unicode="&#x425;" horiz-adv-x="640" 
d="M8 0l236 352l-199 315h156l117 -207l123 207h156l-205 -315l228 -352h-156l-146 244l-154 -244h-156z" />
    <glyph glyph-name="afii10040" unicode="&#x426;" horiz-adv-x="690" 
d="M76 0v667h130v-555h264v555h130v-555h80v-262h-120v150h-484z" />
    <glyph glyph-name="afii10041" unicode="&#x427;" horiz-adv-x="620" 
d="M414 0v266q-68 -7 -119 -7q-121 0 -178 43q-67 50 -67 160v205h130v-182q0 -66 33 -92q29 -22 95 -22q57 0 106 7v289h130v-667h-130z" />
    <glyph glyph-name="afii10042" unicode="&#x428;" horiz-adv-x="970" 
d="M76 0v667h130v-555h214v555h130v-555h214v555h130v-667h-818z" />
    <glyph glyph-name="afii10043" unicode="&#x429;" horiz-adv-x="984" 
d="M76 0v667h130v-555h214v555h130v-555h214v555h130v-555h80v-262h-120v150h-778z" />
    <glyph glyph-name="afii10044" unicode="&#x42a;" horiz-adv-x="626" 
d="M146 0v555h-140v112h270v-261h104q104 0 164 -55q62 -57 62 -149q0 -68 -36 -120q-56 -82 -189 -82h-235zM276 294v-182h76q120 0 120 90q0 38 -26.5 65t-91.5 27h-78z" />
    <glyph glyph-name="afii10045" unicode="&#x42b;" horiz-adv-x="800" 
d="M76 0v667h130v-261h104q104 0 164 -55q62 -57 62 -149q0 -68 -36 -120q-56 -82 -189 -82h-235zM206 294v-182h76q120 0 120 90q0 38 -26.5 65t-91.5 27h-78zM594 667h130v-667h-130v667z" />
    <glyph glyph-name="afii10046" unicode="&#x42c;" horiz-adv-x="556" 
d="M76 0v667h130v-261h104q104 0 164 -55q62 -57 62 -149q0 -68 -36 -120q-56 -82 -189 -82h-235zM206 294v-182h76q120 0 120 90q0 38 -26.5 65t-91.5 27h-78z" />
    <glyph glyph-name="afii10047" unicode="&#x42d;" horiz-adv-x="611" 
d="M44 24v152q72 -73 176 -73q78 0 138.5 46t74.5 130h-299v112h297q-14 82 -73 127.5t-133 45.5q-107 0 -181 -75v152q80 41 174 41q157 0 249 -88q47 -46 73.5 -115.5t26.5 -145.5q0 -159 -99 -255q-93 -93 -249 -93q-94 0 -175 39z" />
    <glyph glyph-name="afii10048" unicode="&#x42e;" horiz-adv-x="1026" 
d="M206 409h92q17 98 84 171q94 102 256 102q153 0 248.5 -98t95.5 -251q0 -152 -95.5 -250t-248.5 -98q-151 0 -243 89t-101 223h-88v-297h-130v667h130v-258zM638 103q94 0 152 64t58 166q0 112 -63.5 171.5t-146.5 59.5t-146.5 -59.5t-63.5 -171.5q0 -102 58 -166
t152 -64z" />
    <glyph glyph-name="afii10049" unicode="&#x42f;" horiz-adv-x="568" 
d="M492 667v-667h-130v258h-24l-170 -258h-156l198 270q-40 6 -73 30q-75 54 -75 161q0 97 66 155q58 51 171 51h193zM362 561h-40q-16 0 -31 -2t-40 -10.5t-40 -31t-15 -56.5q0 -101 128 -101h38v201z" />
    <glyph glyph-name="afii10065" unicode="&#x430;" horiz-adv-x="570" 
d="M390 377v56h122v-433h-122v56q-49 -70 -133 -70q-98 0 -159.5 67t-61.5 164q0 98 60 164t155 66q94 0 139 -70zM282 339q-52 0 -86 -35t-34 -87t34 -87.5t86 -35.5t86 35.5t34 87.5t-34 87t-86 35z" />
    <glyph glyph-name="afii10066" unicode="&#x431;" horiz-adv-x="576" 
d="M404 720h112q-20 -120 -142 -156l-45 -13q-5 -1 -28.5 -7.5t-35 -10.5t-29.5 -13t-30 -21q-44 -41 -49 -111h2q23 30 65 44.5t87 14.5q100 0 162 -61q67 -64 67 -168t-73 -171q-67 -61 -172 -61q-110 0 -173 57q-78 70 -78 219q0 201 66 292q26 36 65 59.5t64 31t66 15.5
q48 10 69.5 23.5t29.5 36.5zM292 94q53 0 87.5 35t34.5 87q0 53 -34 88t-88 35t-88 -35t-34 -88q0 -52 34.5 -87t87.5 -35z" />
    <glyph glyph-name="afii10067" unicode="&#x432;" horiz-adv-x="456" 
d="M58 433h191q69 0 103 -26q42 -32 42 -85q0 -28 -15.5 -52.5t-44.5 -36.5q32 -6 57 -28q33 -30 33 -81q0 -61 -46 -96q-38 -28 -97 -28h-223v433zM180 261h56q19 0 32 8q16 10 16 30q0 21 -14 31q-10 7 -36 7h-54v-76zM180 96h57q31 0 45 11q16 12 16 35q0 21 -16 31
q-14 10 -42 10h-60v-87z" />
    <glyph glyph-name="afii10068" unicode="&#x433;" horiz-adv-x="340" 
d="M58 0v433h276v-104h-154v-329h-122z" />
    <glyph glyph-name="afii10069" unicode="&#x434;" horiz-adv-x="530" 
d="M98 433h360v-329h64v-230h-110v126h-298v-126h-110v230q51 3 77 55q17 37 17 111v163zM336 104v225h-128v-96q0 -88 -48 -129h176z" />
    <glyph glyph-name="afii10070" unicode="&#x435;" horiz-adv-x="522" 
d="M371 139l112 -18q-7 -18 -18.5 -35.5t-35.5 -43t-65 -41t-94 -15.5q-102 0 -166 61q-68 64 -68 169q0 104 66 170q62 61 163 61q110 0 169 -71q52 -62 52 -170v-10h-324q0 -44 21 -73q30 -41 87 -41q68 0 101 57zM166 274h205q-7 42 -36.5 64.5t-66.5 22.5
q-36 0 -65.5 -23t-36.5 -64z" />
    <glyph glyph-name="afii10072" unicode="&#x436;" horiz-adv-x="668" 
d="M279 433h110v-168l130 168h142l-165 -197l174 -236h-148l-117 170l-16 -18v-152h-110v152l-16 18l-117 -170h-148l174 236l-165 197h142l130 -168v168z" />
    <glyph glyph-name="afii10073" unicode="&#x437;" horiz-adv-x="440" 
d="M102 317l-56 76q68 54 164 54q73 0 115 -29q49 -33 49 -92q0 -60 -60 -93q32 -8 57 -29q33 -30 33 -80q0 -63 -50 -100q-50 -38 -142 -38q-116 0 -186 72l60 74q49 -46 116 -46q42 0 59 15t17 34q0 24 -23 36q-16 8 -52 8h-51v88h49q33 0 48 10t15 30q0 44 -66 44
q-56 0 -96 -34z" />
    <glyph glyph-name="afii10074" unicode="&#x438;" horiz-adv-x="560" 
d="M58 433h122v-267l200 267h122v-433h-122v267l-200 -267h-122v433z" />
    <glyph glyph-name="afii10075" unicode="&#x439;" horiz-adv-x="560" 
d="M58 433h122v-267l200 267h122v-433h-122v267l-200 -267h-122v433zM364 650l80 -38q-20 -56 -67 -79.5t-97 -23.5t-97 23.5t-67 79.5l80 38q6 -27 29.5 -45t54.5 -18q29 0 53 16t31 47z" />
    <glyph glyph-name="afii10076" unicode="&#x43a;" 
d="M58 433h122v-168l162 168h152l-196 -193l206 -240h-156l-150 179l-18 -18v-161h-122v433z" />
    <glyph glyph-name="afii10077" unicode="&#x43b;" 
d="M442 433v-433h-122v329h-118v-159q0 -84 -41 -128q-41 -46 -117 -46q-20 0 -36 4v104q12 -2 19 -2q33 0 50 21q15 18 15 55v255h350z" />
    <glyph glyph-name="afii10078" unicode="&#x43c;" horiz-adv-x="600" 
d="M12 0l79 433h90l119 -249l119 249h90l79 -433h-122l-36 235l-108 -235h-44l-108 235l-36 -235h-122z" />
    <glyph glyph-name="afii10079" unicode="&#x43d;" horiz-adv-x="530" 
d="M58 0v433h122v-153h170v153h122v-433h-122v176h-170v-176h-122z" />
    <glyph glyph-name="afii10080" unicode="&#x43e;" horiz-adv-x="568" 
d="M284 447q109 0 175 -61q73 -66 73 -170q0 -103 -73 -169q-66 -61 -175 -61t-175 61q-73 66 -73 169q0 104 73 170q66 61 175 61zM284 94q52 0 87 36t35 86q0 51 -35 87t-87 36t-87 -36t-35 -87q0 -50 35 -86t87 -36z" />
    <glyph glyph-name="afii10081" unicode="&#x43f;" horiz-adv-x="526" 
d="M58 433h410v-433h-122v329h-166v-329h-122v433z" />
    <glyph glyph-name="afii10082" unicode="&#x440;" horiz-adv-x="570" 
d="M180 56v-285h-122v662h122v-56q49 70 141 70q90 0 148 -58q65 -65 65 -172q0 -110 -68 -175q-60 -56 -147 -56t-139 70zM288 339q-47 0 -79 -29q-41 -35 -41 -93q0 -59 40 -94q33 -29 80 -29q49 0 82 31q38 35 38 92q0 56 -37 91q-34 31 -83 31z" />
    <glyph glyph-name="afii10083" unicode="&#x441;" horiz-adv-x="418" 
d="M384 421v-120q-41 38 -100 38q-58 0 -90 -35.5t-32 -86.5q0 -53 35.5 -88t90.5 -35q54 0 96 38v-119q-54 -27 -112 -27q-101 0 -167 63q-69 65 -69 166q0 110 75 176q63 56 156 56q63 0 117 -26z" />
    <glyph glyph-name="afii10084" unicode="&#x442;" horiz-adv-x="374" 
d="M368 329h-120v-329h-122v329h-120v104h362v-104z" />
    <glyph glyph-name="afii10085" unicode="&#x443;" horiz-adv-x="538" 
d="M49 -229l159 294l-206 368h142l134 -246l120 246h138l-349 -662h-138z" />
    <glyph glyph-name="afii10086" unicode="&#x444;" horiz-adv-x="690" 
d="M284 -229v223h-10q-92 0 -152 43q-86 60 -86 180q0 118 86 180q60 42 152 42h10v228h122v-228h10q93 0 152 -42q86 -62 86 -180q0 -120 -86 -180q-60 -43 -152 -43h-10v-223h-122zM284 102v229q-45 2 -77 -20q-45 -31 -45 -94q0 -65 44 -94q30 -21 78 -21zM406 331v-229
q48 0 78 21q44 29 44 94q0 63 -45 94q-32 22 -77 20z" />
    <glyph glyph-name="afii10087" unicode="&#x445;" horiz-adv-x="566" 
d="M2 0l206 236l-166 197h154l88 -112l90 112h154l-169 -197l205 -236h-156l-124 151l-126 -151h-156z" />
    <glyph glyph-name="afii10088" unicode="&#x446;" horiz-adv-x="542" 
d="M58 0v433h122v-329h162v329h122v-329h70v-230h-110v126h-366z" />
    <glyph glyph-name="afii10089" unicode="&#x447;" horiz-adv-x="484" 
d="M304 0v148q-52 -10 -102 -10q-79 0 -121 40q-39 37 -39 102v153h122v-128q0 -33 15 -47q17 -16 62 -16q30 0 63 6v185h122v-433h-122z" />
    <glyph glyph-name="afii10090" unicode="&#x448;" horiz-adv-x="762" 
d="M58 0v433h122v-329h140v329h122v-329h140v329h122v-433h-646z" />
    <glyph glyph-name="afii10091" unicode="&#x449;" horiz-adv-x="782" 
d="M58 0v433h122v-329h140v329h122v-329h140v329h122v-329h70v-230h-110v126h-606z" />
    <glyph glyph-name="afii10092" unicode="&#x44a;" horiz-adv-x="504" 
d="M6 433h228v-154h95q76 0 116 -44q33 -35 33 -93q0 -71 -46 -110q-37 -32 -97 -32h-223v329h-106v104zM234 96h57q31 0 45 11q16 12 16 35q0 21 -16 31q-14 10 -42 10h-60v-87z" />
    <glyph glyph-name="afii10093" unicode="&#x44b;" horiz-adv-x="650" 
d="M58 433h122v-154h95q76 0 116 -44q33 -35 33 -93q0 -71 -46 -110q-37 -32 -97 -32h-223v433zM180 96h57q31 0 45 11q16 12 16 35q0 21 -16 31q-14 10 -42 10h-60v-87zM470 433h122v-433h-122v433z" />
    <glyph glyph-name="afii10094" unicode="&#x44c;" horiz-adv-x="450" 
d="M58 433h122v-154h95q76 0 116 -44q33 -35 33 -93q0 -71 -46 -110q-37 -32 -97 -32h-223v433zM180 96h57q31 0 45 11q16 12 16 35q0 21 -16 31q-14 10 -42 10h-60v-87z" />
    <glyph glyph-name="afii10095" unicode="&#x44d;" horiz-adv-x="434" 
d="M34 9v118q52 -42 126 -42q52 0 80 24q27 24 29 66h-179v88h179q-6 39 -33 61q-30 27 -77 27q-69 0 -123 -37v106q65 27 132 27q108 0 169 -65q61 -63 61 -166q0 -107 -64 -169q-62 -62 -166 -62q-78 0 -134 24z" />
    <glyph glyph-name="afii10096" unicode="&#x44e;" horiz-adv-x="750" 
d="M180 270h59q11 67 62 116q64 61 169 61q106 0 172 -61q72 -65 72 -170q0 -102 -72 -169q-66 -61 -172 -61q-104 0 -169 61q-51 49 -62 119h-59v-166h-122v433h122v-163zM470 94q51 0 84.5 35.5t33.5 86.5q0 52 -33.5 87.5t-84.5 35.5t-84.5 -35.5t-33.5 -87.5
q0 -51 33.5 -86.5t84.5 -35.5z" />
    <glyph glyph-name="afii10097" unicode="&#x44f;" horiz-adv-x="460" 
d="M20 0l128 162q-42 6 -70 34q-34 34 -34 92q0 67 52 109q46 36 134 36h172v-433h-122v152h-14l-106 -152h-140zM280 240v97h-53q-28 0 -41 -12q-16 -15 -16 -38q0 -24 16 -36q14 -11 41 -11h53z" />
    <glyph glyph-name="afii10071" unicode="&#x451;" horiz-adv-x="522" 
d="M371 139l112 -18q-7 -18 -18.5 -35.5t-35.5 -43t-65 -41t-94 -15.5q-102 0 -166 61q-68 64 -68 169q0 104 66 170q62 61 163 61q110 0 169 -71q52 -62 52 -170v-10h-324q0 -44 21 -73q30 -41 87 -41q68 0 101 57zM166 274h205q-7 42 -36.5 64.5t-66.5 22.5
q-36 0 -65.5 -23t-36.5 -64zM90 586q0 29 21.5 50.5t50.5 21.5t50.5 -21.5t21.5 -50.5t-21.5 -50.5t-50.5 -21.5t-50.5 21.5t-21.5 50.5zM298 586q0 29 21.5 50.5t50.5 21.5t50.5 -21.5t21.5 -50.5t-21.5 -50.5t-50.5 -21.5t-50.5 21.5t-21.5 50.5z" />
    <glyph glyph-name="afii10099" unicode="&#x452;" horiz-adv-x="544" 
d="M68 0v519h-78v78h78v132h122v-132h200v-78h-200v-182q50 70 134 70q85 0 128 -53q34 -42 34 -122v-318q0 -82 -49 -117q-38 -27 -106 -27q-38 0 -69 9v108q24 -9 47 -9q33 0 46 22q9 15 9 60v236q0 61 -23 85q-21 22 -57 22q-50 0 -75 -38q-19 -30 -19 -84v-181h-122z
" />
    <glyph glyph-name="afii10100" unicode="&#x453;" horiz-adv-x="340" 
d="M58 0v433h276v-104h-154v-329h-122zM258 700l88 -56l-150 -134l-56 40z" />
    <glyph glyph-name="afii10101" unicode="&#x454;" horiz-adv-x="434" 
d="M400 124v-118q-47 -20 -116 -20q-113 0 -178 58q-33 30 -51.5 76t-18.5 93q0 101 67 166q68 68 178 68q68 0 117 -30v-106q-52 40 -113 40q-48 0 -82 -29q-31 -25 -41 -62h192v-88h-192q4 -43 40 -66q30 -20 92 -20q65 0 106 38z" />
    <glyph glyph-name="afii10102" unicode="&#x455;" horiz-adv-x="404" 
d="M354 401l-60 -71q-31 29 -71 29q-22 0 -34.5 -9.5t-12.5 -25.5q0 -26 39 -39l29 -9q85 -27 110 -62q22 -30 22 -72q0 -66 -48 -110q-50 -46 -130 -46q-101 0 -168 72l64 74q43 -50 96 -50q26 0 43 12.5t17 34.5q0 30 -38 44l-28 10q-65 23 -93 52q-33 35 -33 83
q0 60 45 98q39 31 113 31q78 0 138 -46z" />
    <glyph glyph-name="afii10103" unicode="&#x456;" horiz-adv-x="238" 
d="M58 433h122v-433h-122v433zM46 616q0 30 21.5 51.5t51.5 21.5t51.5 -21.5t21.5 -51.5t-21.5 -51.5t-51.5 -21.5t-51.5 21.5t-21.5 51.5z" />
    <glyph glyph-name="afii10104" unicode="&#x457;" horiz-adv-x="274" 
d="M76 433h122v-433h-122v433zM8 617q0 29 17 50.5t41 21.5q22 0 39.5 -20t17.5 -52t-17.5 -52t-39.5 -20q-24 0 -41 21.5t-17 50.5zM151 617q0 32 17.5 52t39.5 20q24 0 41 -21.5t17 -50.5t-17 -50.5t-41 -21.5q-22 0 -39.5 20t-17.5 52z" />
    <glyph glyph-name="afii10105" unicode="&#x458;" horiz-adv-x="238" 
d="M58 433h122v-662h-122v662zM46 616q0 30 21.5 51.5t51.5 21.5t51.5 -21.5t21.5 -51.5t-21.5 -51.5t-51.5 -21.5t-51.5 21.5t-21.5 51.5z" />
    <glyph glyph-name="afii10106" unicode="&#x459;" horiz-adv-x="712" 
d="M442 433v-154h95q76 0 116 -44q33 -35 33 -93q0 -71 -46 -110q-37 -32 -97 -32h-223v329h-118v-159q0 -84 -41 -128q-41 -46 -117 -46q-20 0 -36 4v104q12 -2 19 -2q33 0 50 21q15 18 15 55v255h350zM442 96h57q31 0 45 11q16 12 16 35q0 21 -16 31q-14 10 -42 10h-60
v-87z" />
    <glyph glyph-name="afii10107" unicode="&#x45a;" horiz-adv-x="742" 
d="M58 0v433h122v-153h170v153h122v-154h95q76 0 116 -44q33 -35 33 -93q0 -71 -46 -110q-37 -32 -97 -32h-223v176h-170v-176h-122zM472 96h57q31 0 45 11q16 12 16 35q0 21 -16 31q-14 10 -42 10h-60v-87z" />
    <glyph glyph-name="afii10108" unicode="&#x45b;" horiz-adv-x="544" 
d="M68 0v519h-78v78h78v132h122v-132h200v-78h-200v-182q50 70 134 70q85 0 128 -53q34 -42 34 -122v-232h-122v196q0 61 -23 85q-21 22 -57 22q-50 0 -75 -38q-19 -30 -19 -84v-181h-122z" />
    <glyph glyph-name="afii10109" unicode="&#x45c;" 
d="M58 433h122v-168l162 168h152l-196 -193l206 -240h-156l-150 179l-18 -18v-161h-122v433zM318 700l88 -56l-150 -134l-56 40z" />
    <glyph glyph-name="afii10110" unicode="&#x45e;" horiz-adv-x="538" 
d="M49 -229l159 294l-206 368h142l134 -246l120 246h138l-349 -662h-138zM358 650l80 -38q-20 -56 -67 -79.5t-97 -23.5t-97 23.5t-67 79.5l80 38q6 -27 29.5 -45t54.5 -18q29 0 53 16t31 47z" />
    <glyph glyph-name="afii10193" unicode="&#x45f;" horiz-adv-x="522" 
d="M58 0v433h122v-329h162v329h122v-433h-148v-136h-110v136h-148z" />
    <glyph glyph-name="afii10146" unicode="&#x462;" horiz-adv-x="620" 
d="M140 0v497h-150v100h150v97h130v-97h200v-100h-200v-107h104q104 0 164 -52q62 -54 62 -139q0 -68 -36 -119q-57 -80 -189 -80h-235zM270 290v-184h76q120 0 120 92q0 38 -26.5 65t-91.5 27h-78z" />
    <glyph glyph-name="afii10194" unicode="&#x463;" horiz-adv-x="504" 
d="M234 271h95q78 0 117 -44q32 -36 32 -89q0 -68 -46 -107q-37 -31 -97 -31h-223v345h-106v88h106v234h122v-234h140v-88h-140v-74zM234 96h57q31 0 45 11q16 12 16 35q0 21 -16 31q-14 10 -42 10h-60v-87z" />
    <glyph glyph-name="afii10147" unicode="&#x472;" horiz-adv-x="798" 
d="M399 682q157 0 256 -98t99 -251q0 -152 -99.5 -250t-255.5 -98t-255.5 98t-99.5 250q0 153 99 251t256 98zM618 289h-438q12 -79 71.5 -132.5t147.5 -53.5t147.5 53.5t71.5 132.5zM182 389h434q-16 80 -77 127.5t-140 47.5t-140 -47.5t-77 -127.5z" />
    <glyph glyph-name="afii10195" unicode="&#x473;" horiz-adv-x="568" 
d="M284 447q109 0 175 -61q73 -66 73 -170q0 -103 -73 -169q-66 -61 -175 -61t-175 61q-73 66 -73 169q0 104 73 170q66 61 175 61zM406 184h-244q7 -45 42 -73.5t80 -28.5t80 28.5t42 73.5zM166 262h236q-9 41 -43 65t-75 24t-75 -24t-43 -65z" />
    <glyph glyph-name="afii10148" unicode="&#x474;" horiz-adv-x="644" 
d="M2 667h142l178 -448l178 448h142l-282 -667h-78z" />
    <glyph glyph-name="afii10196" unicode="&#x475;" horiz-adv-x="504" 
d="M2 433h136l114 -244l114 244h136l-218 -433h-64z" />
    <glyph glyph-name="afii10050" unicode="&#x490;" horiz-adv-x="476" 
d="M76 0v667h274v150h120v-262h-264v-555h-130z" />
    <glyph glyph-name="afii10098" unicode="&#x491;" horiz-adv-x="380" 
d="M58 0v433h206v126h110v-230h-194v-329h-122z" />
    <glyph glyph-name="uni0492" unicode="&#x492;" horiz-adv-x="436" 
d="M76 0v308h-96v100h96v259h354v-112h-224v-147h160v-100h-160v-308h-130z" />
    <glyph glyph-name="uni0493" unicode="&#x493;" horiz-adv-x="340" 
d="M58 0v158h-68v86h68v189h276v-104h-154v-85h100v-86h-100v-158h-122z" />
    <glyph glyph-name="uni0494" unicode="&#x494;" horiz-adv-x="590" 
d="M426 555h-220v-170q65 23 137 23q85 0 136 -30q91 -52 91 -175q0 -121 -76 -172q-53 -37 -147 -37q-31 0 -67 6v112q33 -6 64 -6q42 0 63 18q29 24 29 74q0 61 -41 84q-25 14 -69 14q-60 0 -120 -23v-273h-130v667h350v-112z" />
    <glyph glyph-name="uni0495" unicode="&#x495;" horiz-adv-x="456" 
d="M58 0v433h276v-104h-154v-93h18q90 0 141 -33q81 -51 81 -168q0 -95 -67 -163q-69 -69 -173 -80v108q45 6 75 36q39 37 39 97q0 46 -26 72q-27 27 -80 27h-8v-132h-122z" />
    <glyph glyph-name="uni0496" unicode="&#x496;" horiz-adv-x="894" 
d="M385 667h124v-282l222 282h148l-255 -308l181 -247h83v-262h-120v150h-30l-214 299l-15 -15v-284h-124v284l-15 15l-214 -299h-150l264 359l-255 308h148l222 -282v282z" />
    <glyph glyph-name="uni0497" unicode="&#x497;" horiz-adv-x="668" 
d="M279 433h110v-168l130 168h142l-165 -197l97 -132h75v-230h-110v126h-36l-117 170l-16 -18v-152h-110v152l-16 18l-117 -170h-148l174 236l-165 197h142l130 -168v168z" />
    <glyph glyph-name="uni0498" unicode="&#x498;" horiz-adv-x="600" 
d="M158 515l-68 89q41 36 87 56q54 22 122 22q109 0 170 -61q45 -45 45 -114q0 -49 -22 -87q-20 -35 -60 -53q62 -17 94 -64q30 -43 30 -103q0 -82 -56 -141q-56 -58 -142 -67v-158h-120v155q-59 3 -113 38q-49 31 -85 84l85 81q20 -40 58 -67q45 -32 111 -32q63 0 98 31
q30 27 30 68q0 44 -29 71q-33 31 -117 31h-60v112h60q55 0 84 25q27 23 27 58q0 36 -22 56q-24 23 -77 23q-71 0 -130 -53z" />
    <glyph glyph-name="uni0499" unicode="&#x499;" horiz-adv-x="440" 
d="M102 317l-56 76q30 23 66 38q44 16 98 16q73 0 115 -29q49 -32 49 -91q0 -39 -21 -64q-15 -18 -39 -30q32 -8 57 -29q33 -31 33 -79q0 -56 -41 -94q-41 -37 -96 -40v-127h-110v128q-76 9 -131 66l60 74q22 -21 50 -32q35 -14 66 -14q35 0 54 12q22 14 22 37q0 25 -23 36
q-16 8 -52 8h-51v88h49q33 0 48 10t15 30q0 22 -19 34q-16 10 -47 10q-24 0 -50 -8q-25 -8 -46 -26z" />
    <glyph glyph-name="uni049A" unicode="&#x49a;" horiz-adv-x="636" 
d="M76 667h130v-282l245 282h164l-282 -308l204 -247h93v-262h-120v150h-52l-237 299l-15 -15v-284h-130v667z" />
    <glyph glyph-name="uni049B" unicode="&#x49b;" 
d="M58 433h122v-168l162 168h152l-196 -193l117 -136h85v-230h-110v126h-42l-150 179l-18 -18v-161h-122v433z" />
    <glyph glyph-name="uni049C" unicode="&#x49c;" horiz-adv-x="720" 
d="M76 667h130v-268h69v160h96v-160l190 268h144l-228 -308l237 -359h-152l-191 299v-170h-96v170h-69v-299h-130v667z" />
    <glyph glyph-name="uni049D" unicode="&#x49d;" horiz-adv-x="574" 
d="M58 433h122v-165h48v100h80v-100l124 165h136l-154 -193l154 -240h-140l-120 190v-120h-80v120h-48v-190h-122v433z" />
    <glyph glyph-name="uni04A0" unicode="&#x4a0;" horiz-adv-x="706" 
d="M146 0v555h-140v112h270v-282l245 282h164l-282 -308l297 -359h-172l-237 299l-15 -15v-284h-130z" />
    <glyph glyph-name="uni04A1" unicode="&#x4a1;" horiz-adv-x="584" 
d="M112 0v329h-106v104h228v-168l162 168h152l-196 -193l206 -240h-156l-150 179l-18 -18v-161h-122z" />
    <glyph glyph-name="uni04A2" unicode="&#x4a2;" horiz-adv-x="708" 
d="M76 0v667h130v-258h282v258h130v-555h80v-262h-120v150h-90v297h-282v-297h-130z" />
    <glyph glyph-name="uni04A3" unicode="&#x4a3;" horiz-adv-x="550" 
d="M58 0v433h122v-153h170v153h122v-329h70v-230h-110v126h-82v176h-170v-176h-122z" />
    <glyph glyph-name="uni04A4" unicode="&#x4a4;" horiz-adv-x="848" 
d="M76 0v667h130v-258h282v258h354v-112h-224v-555h-130v297h-282v-297h-130z" />
    <glyph glyph-name="uni04A5" unicode="&#x4a5;" horiz-adv-x="632" 
d="M58 0v433h122v-153h170v153h276v-104h-154v-329h-122v176h-170v-176h-122z" />
    <glyph glyph-name="uni04AA" unicode="&#x4aa;" horiz-adv-x="604" 
d="M560 176v-152q-45 -27 -104 -34v-156h-120v155q-113 14 -194 98q-98 101 -98 246q0 160 107 261q94 88 245 88q88 0 164 -41v-152q-65 75 -161 75q-89 0 -148 -57q-73 -70 -73 -176q0 -100 65 -165q63 -63 161 -63q94 0 156 73z" />
    <glyph glyph-name="uni04AB" unicode="&#x4ab;" horiz-adv-x="418" 
d="M384 421v-120q-42 38 -100 38q-51 0 -88 -34q-34 -34 -34 -87q0 -56 37 -91q35 -33 89 -33q53 0 96 38v-119q-24 -14 -59 -22v-127h-110v129q-65 13 -110 56q-69 65 -69 167q0 109 75 175q64 56 160 56q61 0 113 -26z" />
    <glyph glyph-name="uni04AE" unicode="&#x4ae;" horiz-adv-x="590" 
d="M227 0v305l-229 362h154l143 -232l143 232h154l-235 -362v-305h-130z" />
    <glyph glyph-name="uni04AF" unicode="&#x4af;" horiz-adv-x="504" 
d="M2 433h136l114 -244l114 244h136l-189 -376v-286h-122v286z" />
    <glyph glyph-name="uni04B0" unicode="&#x4b0;" horiz-adv-x="590" 
d="M227 0v205h-180v100h180l-229 362h154l143 -232l143 232h154l-235 -362h180v-100h-180v-205h-130z" />
    <glyph glyph-name="uni04B1" unicode="&#x4b1;" horiz-adv-x="504" 
d="M2 433h136l114 -244l114 244h136l-189 -376v-37h140v-96h-140v-153h-122v153h-140v96h140v37z" />
    <glyph glyph-name="uni04B2" unicode="&#x4b2;" horiz-adv-x="640" 
d="M8 0l236 352l-199 315h156l117 -207l123 207h156l-205 -315l155 -240h73v-262h-120v150h-36l-146 244l-154 -244h-156z" />
    <glyph glyph-name="uni04B3" unicode="&#x4b3;" horiz-adv-x="564" 
d="M2 0l206 236l-166 197h154l88 -112l90 112h154l-169 -197l114 -132h89v-230h-110v126h-44l-124 151l-126 -151h-156z" />
    <glyph glyph-name="uni04B6" unicode="&#x4b6;" horiz-adv-x="634" 
d="M414 0v266q-68 -7 -119 -7q-121 0 -178 43q-67 50 -67 160v205h130v-182q0 -66 33 -92q29 -22 95 -22q57 0 106 7v289h130v-555h80v-262h-120v150h-90z" />
    <glyph glyph-name="uni04B7" unicode="&#x4b7;" horiz-adv-x="504" 
d="M304 0v148q-52 -10 -102 -10q-79 0 -121 40q-39 37 -39 102v153h122v-128q0 -33 15 -47q17 -16 62 -16q30 0 63 6v185h122v-329h70v-230h-110v126h-82z" />
    <glyph glyph-name="uni04B8" unicode="&#x4b8;" horiz-adv-x="660" 
d="M454 0v278q-51 -4 -82 -5v-150h-96v150q-102 0 -159 41q-67 48 -67 148v205h130v-182q0 -67 33 -93q25 -19 63 -19v180h96v-180q35 0 82 5v289h130v-667h-130z" />
    <glyph glyph-name="uni04B9" unicode="&#x4b9;" horiz-adv-x="540" 
d="M360 0v160q-26 -4 -54 -6v-90h-80v90q-90 0 -139 37q-45 35 -45 103v139h122v-128q0 -33 20 -49q17 -12 42 -14v106h80v-108q27 0 54 8v185h122v-433h-122z" />
    <glyph glyph-name="uni04BA" unicode="&#x4ba;" horiz-adv-x="620" 
d="M206 667v-246q68 7 119 7q121 0 178 -43q67 -50 67 -160v-225h-130v202q0 66 -33 92q-29 22 -95 22q-57 0 -106 -7v-309h-130v667h130z" />
    <glyph glyph-name="uni04BB" unicode="&#x4bb;" horiz-adv-x="534" 
d="M58 0v729h122v-352q50 70 134 70q85 0 128 -53q34 -42 34 -122v-272h-122v236q0 61 -23 85q-21 22 -57 22q-50 0 -75 -38q-19 -30 -19 -84v-221h-122z" />
    <glyph glyph-name="uni04C0" unicode="&#x4c0;" horiz-adv-x="282" 
d="M76 667h130v-667h-130v667z" />
    <glyph glyph-name="uni04C1" unicode="&#x4c1;" horiz-adv-x="894" 
d="M385 667h124v-282l222 282h148l-255 -308l264 -359h-150l-214 299l-15 -15v-284h-124v284l-15 15l-214 -299h-150l264 359l-255 308h148l222 -282v282zM267 844l90 36q22 -58 90 -58t90 58l90 -36q-20 -52 -66.5 -82t-113.5 -30t-113.5 30t-66.5 82z" />
    <glyph glyph-name="uni04C2" unicode="&#x4c2;" horiz-adv-x="668" 
d="M279 433h110v-168l130 168h142l-165 -197l174 -236h-148l-117 170l-16 -18v-152h-110v152l-16 18l-117 -170h-148l174 236l-165 197h142l130 -168v168zM418 650l80 -38q-20 -56 -67 -79.5t-97 -23.5t-97 23.5t-67 79.5l80 38q6 -27 29.5 -45t54.5 -18q29 0 53 16t31 47z
" />
    <glyph glyph-name="uni04C3" unicode="&#x4c3;" horiz-adv-x="620" 
d="M76 667h130v-282l245 282h164l-243 -264q106 0 164 -58q54 -55 54 -151q0 -94 -57 -152q-52 -53 -141 -53q-68 0 -128 30l34 103q35 -21 75 -21q37 0 59 22q24 24 24 65q0 49 -27 76q-32 32 -108 32q-52 0 -115 -7v-289h-130v667z" />
    <glyph glyph-name="uni04C4" unicode="&#x4c4;" horiz-adv-x="480" 
d="M58 433h122v-181l148 181h152l-189 -203q60 -11 98 -47q56 -53 56 -148q0 -96 -67 -163q-69 -69 -173 -80v108q43 6 75 36q39 38 39 106q0 49 -29 75q-29 25 -84 25h-26v-142h-122v433z" />
    <glyph glyph-name="uni04C7" unicode="&#x4c7;" horiz-adv-x="694" 
d="M76 0v667h130v-258h282v258h130v-753q0 -69 -36 -106q-37 -38 -111 -38q-46 0 -85 9v112q23 -9 46 -9q27 0 41 14q15 16 15 68v333h-282v-297h-130z" />
    <glyph glyph-name="uni04C8" unicode="&#x4c8;" horiz-adv-x="530" 
d="M58 0v433h122v-153h170v153h122v-519q0 -82 -49 -117q-38 -27 -106 -27q-38 0 -69 9v108q24 -9 47 -9q33 0 46 22q9 15 9 60v216h-170v-176h-122z" />
    <glyph glyph-name="uni04D0" unicode="&#x4d0;" horiz-adv-x="672" 
d="M530 0l-59 140h-269l-59 -140h-141l287 667h102l279 -667h-140zM243 246h190l-95 240zM156 844l90 36q22 -58 90 -58t90 58l90 -36q-20 -52 -66.5 -82t-113.5 -30t-113.5 30t-66.5 82z" />
    <glyph glyph-name="uni04D1" unicode="&#x4d1;" horiz-adv-x="570" 
d="M390 377v56h122v-433h-122v56q-49 -70 -133 -70q-98 0 -159.5 67t-61.5 164q0 98 60 164t155 66q94 0 139 -70zM282 339q-52 0 -86 -35t-34 -87t34 -87.5t86 -35.5t86 35.5t34 87.5t-34 87t-86 35zM369 650l80 -38q-20 -56 -67 -79.5t-97 -23.5t-97 23.5t-67 79.5l80 38
q6 -27 29.5 -45t54.5 -18q29 0 53 16t31 47z" />
    <glyph glyph-name="uni04D2" unicode="&#x4d2;" horiz-adv-x="672" 
d="M530 0l-59 140h-269l-59 -140h-141l287 667h102l279 -667h-140zM243 246h190l-95 240zM152 811q0 29 21.5 50.5t50.5 21.5t50.5 -21.5t21.5 -50.5t-21.5 -50.5t-50.5 -21.5t-50.5 21.5t-21.5 50.5zM376 811q0 29 21.5 50.5t50.5 21.5t50.5 -21.5t21.5 -50.5t-21.5 -50.5
t-50.5 -21.5t-50.5 21.5t-21.5 50.5z" />
    <glyph glyph-name="uni04D3" unicode="&#x4d3;" horiz-adv-x="570" 
d="M390 377v56h122v-433h-122v56q-49 -70 -133 -70q-98 0 -159.5 67t-61.5 164q0 98 60 164t155 66q94 0 139 -70zM282 339q-52 0 -86 -35t-34 -87t34 -87.5t86 -35.5t86 35.5t34 87.5t-34 87t-86 35zM109 586q0 29 21.5 50.5t50.5 21.5t50.5 -21.5t21.5 -50.5t-21.5 -50.5
t-50.5 -21.5t-50.5 21.5t-21.5 50.5zM317 586q0 29 21.5 50.5t50.5 21.5t50.5 -21.5t21.5 -50.5t-21.5 -50.5t-50.5 -21.5t-50.5 21.5t-21.5 50.5z" />
    <glyph glyph-name="uni04D4" unicode="&#x4d4;" horiz-adv-x="920" 
d="M533 0l-59 140h-269l-59 -140h-140l289 667h352l44 -112h-245l60 -149h241l46 -112h-242l73 -182h246l44 -112h-381zM246 246h190l-92 240z" />
    <glyph glyph-name="uni04D5" unicode="&#x4d5;" horiz-adv-x="808" 
d="M657 139l112 -18q-18 -46 -49.5 -76t-66.5 -41t-56 -14.5t-41 -3.5q-113 0 -168 82q-62 -82 -174 -82q-85 0 -131.5 40.5t-46.5 99.5q0 61 44 100q51 45 139 45q59 0 112 -30l1 21q3 45 -37 71q-28 18 -81 18q-51 0 -111 -17v97q71 16 120 16q33 0 57.5 -3.5t56 -20.5
t51.5 -49q58 73 164 73q109 0 168 -71q52 -62 52 -170v-10h-324q-2 -43 21 -73q30 -41 87 -41q68 0 101 57zM154 131q0 -22 21 -40.5t64 -18.5q46 0 69 19.5t23 41.5q0 20 -22 36t-71 16q-44 0 -64 -16.5t-20 -37.5zM452 274h205q-7 42 -36.5 64.5t-66.5 22.5
q-36 0 -65.5 -23t-36.5 -64z" />
    <glyph glyph-name="uni04D6" unicode="&#x4d6;" horiz-adv-x="496" 
d="M446 667v-112h-240v-149h230v-112h-230v-182h240v-112h-370v667h370zM80 844l90 36q22 -58 90 -58t90 58l90 -36q-20 -52 -66.5 -82t-113.5 -30t-113.5 30t-66.5 82z" />
    <glyph glyph-name="uni04D7" unicode="&#x4d7;" horiz-adv-x="522" 
d="M371 139l112 -18q-7 -18 -18.5 -35.5t-35.5 -43t-65 -41t-94 -15.5q-102 0 -166 61q-68 64 -68 169q0 104 66 170q62 61 163 61q110 0 169 -71q52 -62 52 -170v-10h-324q0 -44 21 -73q30 -41 87 -41q68 0 101 57zM166 274h205q-7 42 -36.5 64.5t-66.5 22.5
q-36 0 -65.5 -23t-36.5 -64zM350 650l80 -38q-20 -56 -67 -79.5t-97 -23.5t-97 23.5t-67 79.5l80 38q6 -27 29.5 -45t54.5 -18q29 0 53 16t31 47z" />
    <glyph glyph-name="uni04D8" unicode="&#x4d8;" horiz-adv-x="762" 
d="M44 377h538q-12 82 -71 134.5t-140 52.5q-111 0 -178 -90l-113 61q55 72 131.5 109.5t162.5 37.5q151 0 247.5 -97t96.5 -252t-96 -251.5t-247 -96.5q-174 0 -263 130q-68 98 -68 225v37zM581 277h-390q4 -64 42 -110q54 -64 144 -64q85 0 143 57q47 47 61 117z" />
    <glyph glyph-name="afii10846" unicode="&#x4d9;" horiz-adv-x="522" 
d="M159 298l-112 18q55 131 209 131q98 0 162 -61q68 -65 68 -169t-66 -170q-62 -61 -163 -61q-110 0 -169 71q-52 62 -52 170v20h324q-1 37 -21 63q-29 41 -83 41q-67 0 -97 -53zM358 169h-209q7 -46 36 -71.5t69 -25.5t69 26t35 71z" />
    <glyph glyph-name="uni04DA" unicode="&#x4da;" horiz-adv-x="762" 
d="M44 377h538q-12 82 -71 134.5t-140 52.5q-111 0 -178 -90l-113 61q55 72 131.5 109.5t162.5 37.5q151 0 247.5 -97t96.5 -252t-96 -251.5t-247 -96.5q-174 0 -263 130q-68 98 -68 225v37zM581 277h-390q4 -64 42 -110q54 -64 144 -64q85 0 143 57q47 47 61 117zM198 811
q0 29 21.5 50.5t50.5 21.5t50.5 -21.5t21.5 -50.5t-21.5 -50.5t-50.5 -21.5t-50.5 21.5t-21.5 50.5zM422 811q0 29 21.5 50.5t50.5 21.5t50.5 -21.5t21.5 -50.5t-21.5 -50.5t-50.5 -21.5t-50.5 21.5t-21.5 50.5z" />
    <glyph glyph-name="uni04DB" unicode="&#x4db;" horiz-adv-x="522" 
d="M159 298l-112 18q55 131 209 131q98 0 162 -61q68 -65 68 -169t-66 -170q-62 -61 -163 -61q-110 0 -169 71q-52 62 -52 170v20h324q-1 37 -21 63q-29 41 -83 41q-67 0 -97 -53zM358 169h-209q7 -46 36 -71.5t69 -25.5t69 26t35 71zM84 586q0 29 21.5 50.5t50.5 21.5
t50.5 -21.5t21.5 -50.5t-21.5 -50.5t-50.5 -21.5t-50.5 21.5t-21.5 50.5zM292 586q0 29 21.5 50.5t50.5 21.5t50.5 -21.5t21.5 -50.5t-21.5 -50.5t-50.5 -21.5t-50.5 21.5t-21.5 50.5z" />
    <glyph glyph-name="uni04DC" unicode="&#x4dc;" horiz-adv-x="894" 
d="M385 667h124v-282l222 282h148l-255 -308l264 -359h-150l-214 299l-15 -15v-284h-124v284l-15 15l-214 -299h-150l264 359l-255 308h148l222 -282v282zM263 811q0 29 21.5 50.5t50.5 21.5t50.5 -21.5t21.5 -50.5t-21.5 -50.5t-50.5 -21.5t-50.5 21.5t-21.5 50.5zM487 811
q0 29 21.5 50.5t50.5 21.5t50.5 -21.5t21.5 -50.5t-21.5 -50.5t-50.5 -21.5t-50.5 21.5t-21.5 50.5z" />
    <glyph glyph-name="uni04DD" unicode="&#x4dd;" horiz-adv-x="668" 
d="M279 433h110v-168l130 168h142l-165 -197l174 -236h-148l-117 170l-16 -18v-152h-110v152l-16 18l-117 -170h-148l174 236l-165 197h142l130 -168v168zM158 586q0 29 21.5 50.5t50.5 21.5t50.5 -21.5t21.5 -50.5t-21.5 -50.5t-50.5 -21.5t-50.5 21.5t-21.5 50.5zM366 586
q0 29 21.5 50.5t50.5 21.5t50.5 -21.5t21.5 -50.5t-21.5 -50.5t-50.5 -21.5t-50.5 21.5t-21.5 50.5z" />
    <glyph glyph-name="uni04DE" unicode="&#x4de;" horiz-adv-x="600" 
d="M158 515l-68 89q87 78 205 78q101 0 160 -47.5t59 -126.5q0 -95 -82 -141q60 -15 92 -62t32 -110q0 -94 -74 -152t-191 -58q-173 0 -251 126l85 81q22 -50 69.5 -74.5t99.5 -24.5q63 0 95.5 29t32.5 70q0 102 -146 102h-60v112h60q51 0 81 22.5t30 62.5q0 37 -24 57
t-71 20q-86 0 -134 -53zM116 811q0 29 21.5 50.5t50.5 21.5t50.5 -21.5t21.5 -50.5t-21.5 -50.5t-50.5 -21.5t-50.5 21.5t-21.5 50.5zM340 811q0 29 21.5 50.5t50.5 21.5t50.5 -21.5t21.5 -50.5t-21.5 -50.5t-50.5 -21.5t-50.5 21.5t-21.5 50.5z" />
    <glyph glyph-name="uni04DF" unicode="&#x4df;" horiz-adv-x="440" 
d="M102 317l-56 76q68 54 164 54q73 0 115 -29q49 -33 49 -92q0 -60 -60 -93q32 -8 57 -29q33 -30 33 -80q0 -63 -50 -100q-50 -38 -142 -38q-116 0 -186 72l60 74q49 -46 116 -46q42 0 59 15t17 34q0 24 -23 36q-16 8 -52 8h-51v88h49q33 0 48 10t15 30q0 44 -66 44
q-56 0 -96 -34zM38 586q0 29 21.5 50.5t50.5 21.5t50.5 -21.5t21.5 -50.5t-21.5 -50.5t-50.5 -21.5t-50.5 21.5t-21.5 50.5zM246 586q0 29 21.5 50.5t50.5 21.5t50.5 -21.5t21.5 -50.5t-21.5 -50.5t-50.5 -21.5t-50.5 21.5t-21.5 50.5z" />
    <glyph glyph-name="uni04E2" unicode="&#x4e2;" horiz-adv-x="740" 
d="M76 667h130v-444l366 444h92v-667h-130v446l-366 -446h-92v667zM197 745v86h366v-86h-366z" />
    <glyph glyph-name="uni04E3" unicode="&#x4e3;" horiz-adv-x="560" 
d="M58 433h122v-267l200 267h122v-433h-122v267l-200 -267h-122v433zM98 539v80h364v-80h-364z" />
    <glyph glyph-name="uni04E4" unicode="&#x4e4;" horiz-adv-x="740" 
d="M76 667h130v-444l366 444h92v-667h-130v446l-366 -446h-92v667zM196 811q0 29 21.5 50.5t50.5 21.5t50.5 -21.5t21.5 -50.5t-21.5 -50.5t-50.5 -21.5t-50.5 21.5t-21.5 50.5zM420 811q0 29 21.5 50.5t50.5 21.5t50.5 -21.5t21.5 -50.5t-21.5 -50.5t-50.5 -21.5
t-50.5 21.5t-21.5 50.5z" />
    <glyph glyph-name="uni04E5" unicode="&#x4e5;" horiz-adv-x="560" 
d="M58 433h122v-267l200 267h122v-433h-122v267l-200 -267h-122v433zM104 586q0 29 21.5 50.5t50.5 21.5t50.5 -21.5t21.5 -50.5t-21.5 -50.5t-50.5 -21.5t-50.5 21.5t-21.5 50.5zM312 586q0 29 21.5 50.5t50.5 21.5t50.5 -21.5t21.5 -50.5t-21.5 -50.5t-50.5 -21.5
t-50.5 21.5t-21.5 50.5z" />
    <glyph glyph-name="uni04E6" unicode="&#x4e6;" horiz-adv-x="800" 
d="M400 682q157 0 256.5 -98t99.5 -251t-99.5 -250.5t-256.5 -97.5t-256.5 97.5t-99.5 250.5t99.5 251t256.5 98zM400 103q98 0 160 64.5t62 165.5t-62.5 166t-159.5 65t-159.5 -65t-62.5 -166t62 -165.5t160 -64.5zM216 811q0 29 21.5 50.5t50.5 21.5t50.5 -21.5
t21.5 -50.5t-21.5 -50.5t-50.5 -21.5t-50.5 21.5t-21.5 50.5zM440 811q0 29 21.5 50.5t50.5 21.5t50.5 -21.5t21.5 -50.5t-21.5 -50.5t-50.5 -21.5t-50.5 21.5t-21.5 50.5z" />
    <glyph glyph-name="uni04E7" unicode="&#x4e7;" horiz-adv-x="568" 
d="M284 447q109 0 175 -61q73 -66 73 -170q0 -103 -73 -169q-66 -61 -175 -61t-175 61q-73 66 -73 169q0 104 73 170q66 61 175 61zM284 94q52 0 87 36t35 86q0 51 -35 87t-87 36t-87 -36t-35 -87q0 -50 35 -86t87 -36zM108 586q0 29 21.5 50.5t50.5 21.5t50.5 -21.5
t21.5 -50.5t-21.5 -50.5t-50.5 -21.5t-50.5 21.5t-21.5 50.5zM316 586q0 29 21.5 50.5t50.5 21.5t50.5 -21.5t21.5 -50.5t-21.5 -50.5t-50.5 -21.5t-50.5 21.5t-21.5 50.5z" />
    <glyph glyph-name="uni04E8" unicode="&#x4e8;" horiz-adv-x="798" 
d="M399 682q157 0 256 -98t99 -251q0 -152 -99.5 -250t-255.5 -98t-255.5 98t-99.5 250q0 153 99 251t256 98zM618 289h-438q12 -79 71.5 -132.5t147.5 -53.5t147.5 53.5t71.5 132.5zM182 389h434q-16 80 -77 127.5t-140 47.5t-140 -47.5t-77 -127.5z" />
    <glyph glyph-name="uni04E9" unicode="&#x4e9;" horiz-adv-x="568" 
d="M284 447q109 0 175 -61q73 -66 73 -170q0 -103 -73 -169q-66 -61 -175 -61t-175 61q-73 66 -73 169q0 104 73 170q66 61 175 61zM406 184h-244q7 -45 42 -73.5t80 -28.5t80 28.5t42 73.5zM166 262h236q-9 41 -43 65t-75 24t-75 -24t-43 -65z" />
    <glyph glyph-name="uni04EA" unicode="&#x4ea;" horiz-adv-x="798" 
d="M399 682q157 0 256 -98t99 -251q0 -152 -99.5 -250t-255.5 -98t-255.5 98t-99.5 250q0 153 99 251t256 98zM618 289h-438q12 -79 71.5 -132.5t147.5 -53.5t147.5 53.5t71.5 132.5zM182 389h434q-16 80 -77 127.5t-140 47.5t-140 -47.5t-77 -127.5zM216 811
q0 29 21.5 50.5t50.5 21.5t50.5 -21.5t21.5 -50.5t-21.5 -50.5t-50.5 -21.5t-50.5 21.5t-21.5 50.5zM440 811q0 29 21.5 50.5t50.5 21.5t50.5 -21.5t21.5 -50.5t-21.5 -50.5t-50.5 -21.5t-50.5 21.5t-21.5 50.5z" />
    <glyph glyph-name="uni04EB" unicode="&#x4eb;" horiz-adv-x="568" 
d="M284 447q109 0 175 -61q73 -66 73 -170q0 -103 -73 -169q-66 -61 -175 -61t-175 61q-73 66 -73 169q0 104 73 170q66 61 175 61zM406 184h-244q7 -45 42 -73.5t80 -28.5t80 28.5t42 73.5zM166 262h236q-9 41 -43 65t-75 24t-75 -24t-43 -65zM108 586q0 29 21.5 50.5
t50.5 21.5t50.5 -21.5t21.5 -50.5t-21.5 -50.5t-50.5 -21.5t-50.5 21.5t-21.5 50.5zM316 586q0 29 21.5 50.5t50.5 21.5t50.5 -21.5t21.5 -50.5t-21.5 -50.5t-50.5 -21.5t-50.5 21.5t-21.5 50.5z" />
    <glyph glyph-name="uni04EE" unicode="&#x4ee;" horiz-adv-x="610" 
d="M2 667h152l169 -336l143 336h142l-309 -667h-142l93 186zM127 745v86h366v-86h-366z" />
    <glyph glyph-name="uni04EF" unicode="&#x4ef;" horiz-adv-x="538" 
d="M49 -229l159 294l-206 368h142l134 -246l120 246h138l-349 -662h-138zM87 539v80h364v-80h-364z" />
    <glyph glyph-name="uni04F0" unicode="&#x4f0;" horiz-adv-x="610" 
d="M2 667h152l169 -336l143 336h142l-309 -667h-142l93 186zM136 811q0 29 21.5 50.5t50.5 21.5t50.5 -21.5t21.5 -50.5t-21.5 -50.5t-50.5 -21.5t-50.5 21.5t-21.5 50.5zM360 811q0 29 21.5 50.5t50.5 21.5t50.5 -21.5t21.5 -50.5t-21.5 -50.5t-50.5 -21.5t-50.5 21.5
t-21.5 50.5z" />
    <glyph glyph-name="uni04F1" unicode="&#x4f1;" horiz-adv-x="538" 
d="M49 -229l159 294l-206 368h142l134 -246l120 246h138l-349 -662h-138zM93 586q0 29 21.5 50.5t50.5 21.5t50.5 -21.5t21.5 -50.5t-21.5 -50.5t-50.5 -21.5t-50.5 21.5t-21.5 50.5zM301 586q0 29 21.5 50.5t50.5 21.5t50.5 -21.5t21.5 -50.5t-21.5 -50.5t-50.5 -21.5
t-50.5 21.5t-21.5 50.5z" />
    <glyph glyph-name="uni04F2" unicode="&#x4f2;" horiz-adv-x="610" 
d="M2 667h152l169 -336l143 336h142l-309 -667h-142l93 186zM268 921l90 -59l-144 -134l-56 40zM468 920l90 -58l-144 -134l-56 40z" />
    <glyph glyph-name="uni04F3" unicode="&#x4f3;" horiz-adv-x="538" 
d="M49 -229l159 294l-206 368h142l134 -246l120 246h138l-349 -662h-138zM223 690l82 -58l-132 -134l-50 40zM411 689l82 -57l-132 -134l-50 40z" />
    <glyph glyph-name="uni04F4" unicode="&#x4f4;" horiz-adv-x="620" 
d="M414 0v266q-68 -7 -119 -7q-121 0 -178 43q-67 50 -67 160v205h130v-182q0 -66 33 -92q29 -22 95 -22q57 0 106 7v289h130v-667h-130zM120 811q0 29 21.5 50.5t50.5 21.5t50.5 -21.5t21.5 -50.5t-21.5 -50.5t-50.5 -21.5t-50.5 21.5t-21.5 50.5zM344 811q0 29 21.5 50.5
t50.5 21.5t50.5 -21.5t21.5 -50.5t-21.5 -50.5t-50.5 -21.5t-50.5 21.5t-21.5 50.5z" />
    <glyph glyph-name="uni04F5" unicode="&#x4f5;" horiz-adv-x="484" 
d="M304 0v148q-52 -10 -102 -10q-79 0 -121 40q-39 37 -39 102v153h122v-128q0 -33 15 -47q17 -16 62 -16q30 0 63 6v185h122v-433h-122zM60 586q0 29 21.5 50.5t50.5 21.5t50.5 -21.5t21.5 -50.5t-21.5 -50.5t-50.5 -21.5t-50.5 21.5t-21.5 50.5zM268 586q0 29 21.5 50.5
t50.5 21.5t50.5 -21.5t21.5 -50.5t-21.5 -50.5t-50.5 -21.5t-50.5 21.5t-21.5 50.5z" />
    <glyph glyph-name="uni04F8" unicode="&#x4f8;" horiz-adv-x="800" 
d="M76 0v667h130v-261h104q104 0 164 -55q62 -57 62 -149q0 -68 -36 -120q-56 -82 -189 -82h-235zM206 294v-182h76q120 0 120 90q0 38 -26.5 65t-91.5 27h-78zM594 667h130v-667h-130v667zM216 811q0 29 21.5 50.5t50.5 21.5t50.5 -21.5t21.5 -50.5t-21.5 -50.5
t-50.5 -21.5t-50.5 21.5t-21.5 50.5zM440 811q0 29 21.5 50.5t50.5 21.5t50.5 -21.5t21.5 -50.5t-21.5 -50.5t-50.5 -21.5t-50.5 21.5t-21.5 50.5z" />
    <glyph glyph-name="uni04F9" unicode="&#x4f9;" horiz-adv-x="650" 
d="M58 433h122v-154h95q76 0 116 -44q33 -35 33 -93q0 -71 -46 -110q-37 -32 -97 -32h-223v433zM180 96h57q31 0 45 11q16 12 16 35q0 21 -16 31q-14 10 -42 10h-60v-87zM470 433h122v-433h-122v433zM149 586q0 29 21.5 50.5t50.5 21.5t50.5 -21.5t21.5 -50.5t-21.5 -50.5
t-50.5 -21.5t-50.5 21.5t-21.5 50.5zM357 586q0 29 21.5 50.5t50.5 21.5t50.5 -21.5t21.5 -50.5t-21.5 -50.5t-50.5 -21.5t-50.5 21.5t-21.5 50.5z" />
    <glyph glyph-name="uni1E9E" unicode="&#x1e9e;" horiz-adv-x="574" 
d="M288 396l76 94q0 47 -24 68q-21 18 -53 18q-37 0 -58 -23q-23 -25 -23 -74v-479h-130v468q0 98 60 158q56 56 149 56q80 0 129 -35q78 -55 78 -163l-99 -107q69 -19 104 -69q33 -46 33 -121q0 -33 -17 -73t-48 -67q-65 -58 -177 -61v106q51 3 79 28q29 27 29 79
q0 46 -31 75q-25 24 -77 29v93z" />
    <glyph glyph-name="uni2010" unicode="&#x2010;" horiz-adv-x="360" 
d="M50 174v112h260v-112h-260z" />
    <glyph glyph-name="uni2011" unicode="&#x2011;" horiz-adv-x="360" 
d="M50 174v112h260v-112h-260z" />
    <glyph glyph-name="figuredash" unicode="&#x2012;" horiz-adv-x="640" 
d="M70 289v104h500v-104h-500z" />
    <glyph glyph-name="endash" unicode="&#x2013;" horiz-adv-x="640" 
d="M70 178v104h500v-104h-500z" />
    <glyph glyph-name="emdash" unicode="&#x2014;" horiz-adv-x="840" 
d="M70 178v104h700v-104h-700z" />
    <glyph glyph-name="afii00208" unicode="&#x2015;" horiz-adv-x="840" 
d="M70 178v104h700v-104h-700z" />
    <glyph glyph-name="quoteleft" unicode="&#x2018;" horiz-adv-x="304" 
d="M260 667l-106 -269l-112 13l141 265z" />
    <glyph glyph-name="quoteright" unicode="&#x2019;" horiz-adv-x="304" 
d="M42 411l106 269l112 -13l-141 -265z" />
    <glyph glyph-name="quotesinglbase" unicode="&#x201a;" horiz-adv-x="370" 
d="M42 -131l106 269l112 -13l-141 -265z" />
    <glyph glyph-name="quotedblleft" unicode="&#x201c;" horiz-adv-x="492" 
d="M448 667l-106 -269l-112 13l141 265zM260 667l-106 -269l-112 13l141 265z" />
    <glyph glyph-name="quotedblright" unicode="&#x201d;" horiz-adv-x="492" 
d="M42 411l106 269l112 -13l-141 -265zM230 411l106 269l112 -13l-141 -265z" />
    <glyph glyph-name="quotedblbase" unicode="&#x201e;" horiz-adv-x="570" 
d="M42 -131l106 269l112 -13l-141 -265zM230 -131l106 269l112 -13l-141 -265z" />
    <glyph glyph-name="dagger" unicode="&#x2020;" horiz-adv-x="568" 
d="M226 521v208h116v-208h158v-104h-158v-597h-116v597h-158v104h158z" />
    <glyph glyph-name="daggerdbl" unicode="&#x2021;" horiz-adv-x="568" 
d="M226 521v208h116v-208h158v-104h-158v-241h158v-104h-158v-252h-116v252h-158v104h158v241h-158v104h158z" />
    <glyph glyph-name="bullet" unicode="&#x2022;" horiz-adv-x="1000" 
d="M360 340q0 58 41 99t99 41t99 -41t41 -99t-41 -99t-99 -41t-99 41t-41 99z" />
    <glyph glyph-name="ellipsis" unicode="&#x2026;" horiz-adv-x="846" 
d="M63 65q0 33 22.5 55.5t55.5 22.5t55.5 -22.5t22.5 -55.5t-22.5 -55.5t-55.5 -22.5t-55.5 22.5t-22.5 55.5zM345 65q0 33 22.5 55.5t55.5 22.5t55.5 -22.5t22.5 -55.5t-22.5 -55.5t-55.5 -22.5t-55.5 22.5t-22.5 55.5zM627 65q0 33 22.5 55.5t55.5 22.5t55.5 -22.5
t22.5 -55.5t-22.5 -55.5t-55.5 -22.5t-55.5 22.5t-22.5 55.5z" />
    <glyph glyph-name="perthousand" unicode="&#x2030;" horiz-adv-x="1170" 
d="M198 675q77 0 122.5 -44.5t45.5 -113.5t-45.5 -113.5t-122.5 -44.5t-122.5 44.5t-45.5 113.5t45.5 113.5t122.5 44.5zM198 431q37 0 60.5 24t23.5 62t-23.5 62t-60.5 24t-60.5 -24t-23.5 -62t23.5 -62t60.5 -24zM162 3l397 686l53 -30l-397 -687zM576 306
q77 0 122.5 -44.5t45.5 -113.5t-45.5 -113.5t-122.5 -44.5t-122.5 44.5t-45.5 113.5t45.5 113.5t122.5 44.5zM576 62q37 0 60.5 24t23.5 62t-23.5 62t-60.5 24t-60.5 -24t-23.5 -62t23.5 -62t60.5 -24zM972 306q77 0 122.5 -44.5t45.5 -113.5t-45.5 -113.5t-122.5 -44.5
t-122.5 44.5t-45.5 113.5t45.5 113.5t122.5 44.5zM972 62q37 0 60.5 24t23.5 62t-23.5 62t-60.5 24t-60.5 -24t-23.5 -62t23.5 -62t60.5 -24z" />
    <glyph glyph-name="guilsinglleft" unicode="&#x2039;" horiz-adv-x="318" 
d="M146 219l122 -164l-70 -50l-158 214l158 214l70 -50z" />
    <glyph glyph-name="guilsinglright" unicode="&#x203a;" horiz-adv-x="318" 
d="M172 219l-122 164l70 50l158 -214l-158 -214l-70 50z" />
    <glyph glyph-name="fraction" unicode="&#x2044;" horiz-adv-x="250" 
d="M-100 3l397 686l53 -30l-397 -687z" />
    <glyph glyph-name="uni2080" unicode="&#x2080;" horiz-adv-x="380" 
d="M190 -9q-66 0 -114 55t-48 154t48 154t114 55t114 -55t48 -154t-48 -154t-114 -55zM190 337q-31 0 -54.5 -33.5t-23.5 -103.5q0 -76 25.5 -106.5t52.5 -30.5t52.5 30.5t25.5 106.5q0 70 -23.5 103.5t-54.5 33.5z" />
    <glyph glyph-name="uni2081" unicode="&#x2081;" horiz-adv-x="380" 
d="M166 0v328h-80v72h164v-400h-84z" />
    <glyph glyph-name="uni2082" unicode="&#x2082;" horiz-adv-x="380" 
d="M24 0l119 134q64 74 71 84q23 33 23 64q0 25 -15 40t-42 15q-30 0 -47 -17.5t-17 -44.5h-84q2 61 42 97.5t102 36.5q66 0 105.5 -36.5t39.5 -90.5q0 -39 -18.5 -70.5t-52.5 -69.5l-62 -70h136v-72h-300z" />
    <glyph glyph-name="uni2083" unicode="&#x2083;" horiz-adv-x="380" 
d="M123 291h-78q6 57 42.5 87.5t92.5 30.5q65 0 98 -32t33 -76q0 -60 -50 -86q65 -22 65 -96q0 -54 -38.5 -91t-109.5 -37q-61 0 -103 34.5t-47 94.5h84q3 -26 20.5 -41.5t45.5 -15.5q32 0 48 17.5t16 42.5q0 22 -16 38.5t-50 16.5h-20v66h20q27 0 41 15t14 36
q0 19 -13.5 33.5t-39.5 14.5q-24 0 -39 -14.5t-16 -37.5z" />
    <glyph glyph-name="uni2084" unicode="&#x2084;" horiz-adv-x="380" 
d="M303 407v-268h47v-68h-47v-71h-80v71h-199v35l199 301h80zM124 139h99v153z" />
    <glyph glyph-name="uni2085" unicode="&#x2085;" horiz-adv-x="380" 
d="M306 400v-72h-135l-13 -58q16 2 27 2q67 0 103 -39t36 -96q0 -62 -41.5 -104t-121.5 -42q-77 0 -129 51l26 72q42 -51 101 -51q39 0 60 22t21 51q0 31 -23.5 52.5t-67.5 21.5q-43 0 -77 -26h-5l48 216h191z" />
    <glyph glyph-name="uni2086" unicode="&#x2086;" horiz-adv-x="380" 
d="M204 422l62 -47l-95 -121q23 9 47 9q53 0 91.5 -34.5t38.5 -95.5q0 -59 -40.5 -100.5t-117.5 -41.5q-74 0 -116 40t-42 98t49 125zM190 57q31 0 52.5 20t21.5 50t-21.5 50t-52.5 20t-52.5 -20t-21.5 -50t21.5 -50t52.5 -20z" />
    <glyph glyph-name="uni2087" unicode="&#x2087;" horiz-adv-x="380" 
d="M56 26l181 302h-203v72h336l-243 -411z" />
    <glyph glyph-name="uni2088" unicode="&#x2088;" horiz-adv-x="380" 
d="M116 209q-57 26 -57 89q0 47 34.5 79t96.5 32t96.5 -32t34.5 -79q0 -63 -57 -89q36 -12 53.5 -40t17.5 -60q0 -51 -40 -84.5t-105 -33.5t-105 33.5t-40 84.5q0 32 17.5 60t53.5 40zM190 343q-21 0 -38.5 -13.5t-17.5 -38.5t17.5 -38.5t38.5 -13.5t38.5 13.5t17.5 38.5
t-17.5 38.5t-38.5 13.5zM190 173q-26 0 -43.5 -17t-17.5 -41q0 -25 17.5 -41.5t43.5 -16.5t43.5 16.5t17.5 41.5q0 24 -17.5 41t-43.5 17z" />
    <glyph glyph-name="uni2089" unicode="&#x2089;" horiz-adv-x="380" 
d="M176 -22l-62 47l95 121q-23 -9 -47 -9q-53 0 -91.5 34.5t-38.5 95.5q0 59 40.5 100.5t117.5 41.5q74 0 116 -40t42 -98q0 -62 -47 -125zM190 343q-31 0 -52.5 -20t-21.5 -50t21.5 -50t52.5 -20t52.5 20t21.5 50t-21.5 50t-52.5 20z" />
    <glyph glyph-name="Euro" unicode="&#x20ac;" horiz-adv-x="568" 
d="M534 172v-146q-76 -41 -184 -41q-150 0 -230 87q-54 58 -65 139h-75l36 90h30q-4 33 0 63h-66l36 90h42q19 85 80 143q88 85 233 85q97 0 173 -44l-51 -109q-55 35 -130 35q-42 0 -74 -11.5t-50 -30.5t-27.5 -35t-14.5 -33h268l-36 -90h-249q-4 -36 0 -63h231l-36 -90
h-176q13 -55 59.5 -81.5t105.5 -26.5q107 0 170 69z" />
    <glyph glyph-name="uni20B4" unicode="&#x20b4;" horiz-adv-x="568" 
d="M143 515l-68 89q37 31 83 52q60 26 127 26q97 0 146 -46q44 -43 44 -102q0 -43 -26 -80h70v-90h-142l-65 -63h207v-90h-277q-18 -21 -18 -48q0 -29 24 -46q20 -14 53 -14q44 0 78 24q29 20 50 53l80 -88q-36 -45 -90 -75q-61 -32 -140 -32q-84 0 -132 41q-50 42 -50 104
q0 47 21 81h-74v90h138l65 63h-203v90h276q24 23 24 53q0 31 -22 49q-21 17 -52 17q-41 0 -80 -23q-27 -15 -47 -35z" />
    <glyph glyph-name="uni20B6" unicode="&#x20b6;" horiz-adv-x="568" 
d="M295 667q62 0 101.5 -10.5t74.5 -40.5q68 -60 68 -163q0 -89 -55 -144q-61 -59 -169 -59h-84v-63h184v-90h-184v-97h-130v97h-70v90h70v63h-70v109h70v308h194zM231 555v-196h53q57 0 85 21q36 28 36 78q0 49 -37 76q-30 21 -92 21h-45z" />
    <glyph glyph-name="uni20B6" unicode="&#x20cf;" horiz-adv-x="568" 
d="M295 667q62 0 101.5 -10.5t74.5 -40.5q68 -60 68 -163q0 -89 -55 -144q-61 -59 -169 -59h-84v-63h184v-90h-184v-97h-130v97h-70v90h70v63h-70v109h70v308h194zM231 555v-196h53q57 0 85 21q36 28 36 78q0 49 -37 76q-30 21 -92 21h-45z" />
    <glyph glyph-name="uni20B6" unicode="&#x20ce;" horiz-adv-x="568" 
d="M295 667q62 0 101.5 -10.5t74.5 -40.5q68 -60 68 -163q0 -89 -55 -144q-61 -59 -169 -59h-84v-63h184v-90h-184v-97h-130v97h-70v90h70v63h-70v109h70v308h194zM231 555v-196h53q57 0 85 21q36 28 36 78q0 49 -37 76q-30 21 -92 21h-45z" />
    <glyph glyph-name="uni20B6" unicode="&#x20cd;" horiz-adv-x="568" 
d="M295 667q62 0 101.5 -10.5t74.5 -40.5q68 -60 68 -163q0 -89 -55 -144q-61 -59 -169 -59h-84v-63h184v-90h-184v-97h-130v97h-70v90h70v63h-70v109h70v308h194zM231 555v-196h53q57 0 85 21q36 28 36 78q0 49 -37 76q-30 21 -92 21h-45z" />
    <glyph glyph-name="uni20B6" unicode="&#x20cc;" horiz-adv-x="568" 
d="M295 667q62 0 101.5 -10.5t74.5 -40.5q68 -60 68 -163q0 -89 -55 -144q-61 -59 -169 -59h-84v-63h184v-90h-184v-97h-130v97h-70v90h70v63h-70v109h70v308h194zM231 555v-196h53q57 0 85 21q36 28 36 78q0 49 -37 76q-30 21 -92 21h-45z" />
    <glyph glyph-name="uni20B6" unicode="&#x20cb;" horiz-adv-x="568" 
d="M295 667q62 0 101.5 -10.5t74.5 -40.5q68 -60 68 -163q0 -89 -55 -144q-61 -59 -169 -59h-84v-63h184v-90h-184v-97h-130v97h-70v90h70v63h-70v109h70v308h194zM231 555v-196h53q57 0 85 21q36 28 36 78q0 49 -37 76q-30 21 -92 21h-45z" />
    <glyph glyph-name="uni20B6" unicode="&#x20ca;" horiz-adv-x="568" 
d="M295 667q62 0 101.5 -10.5t74.5 -40.5q68 -60 68 -163q0 -89 -55 -144q-61 -59 -169 -59h-84v-63h184v-90h-184v-97h-130v97h-70v90h70v63h-70v109h70v308h194zM231 555v-196h53q57 0 85 21q36 28 36 78q0 49 -37 76q-30 21 -92 21h-45z" />
    <glyph glyph-name="uni20B6" unicode="&#x20c9;" horiz-adv-x="568" 
d="M295 667q62 0 101.5 -10.5t74.5 -40.5q68 -60 68 -163q0 -89 -55 -144q-61 -59 -169 -59h-84v-63h184v-90h-184v-97h-130v97h-70v90h70v63h-70v109h70v308h194zM231 555v-196h53q57 0 85 21q36 28 36 78q0 49 -37 76q-30 21 -92 21h-45z" />
    <glyph glyph-name="uni20B6" unicode="&#x20c8;" horiz-adv-x="568" 
d="M295 667q62 0 101.5 -10.5t74.5 -40.5q68 -60 68 -163q0 -89 -55 -144q-61 -59 -169 -59h-84v-63h184v-90h-184v-97h-130v97h-70v90h70v63h-70v109h70v308h194zM231 555v-196h53q57 0 85 21q36 28 36 78q0 49 -37 76q-30 21 -92 21h-45z" />
    <glyph glyph-name="uni20B6" unicode="&#x20c7;" horiz-adv-x="568" 
d="M295 667q62 0 101.5 -10.5t74.5 -40.5q68 -60 68 -163q0 -89 -55 -144q-61 -59 -169 -59h-84v-63h184v-90h-184v-97h-130v97h-70v90h70v63h-70v109h70v308h194zM231 555v-196h53q57 0 85 21q36 28 36 78q0 49 -37 76q-30 21 -92 21h-45z" />
    <glyph glyph-name="uni20B6" unicode="&#x20c6;" horiz-adv-x="568" 
d="M295 667q62 0 101.5 -10.5t74.5 -40.5q68 -60 68 -163q0 -89 -55 -144q-61 -59 -169 -59h-84v-63h184v-90h-184v-97h-130v97h-70v90h70v63h-70v109h70v308h194zM231 555v-196h53q57 0 85 21q36 28 36 78q0 49 -37 76q-30 21 -92 21h-45z" />
    <glyph glyph-name="uni20B6" unicode="&#x20c5;" horiz-adv-x="568" 
d="M295 667q62 0 101.5 -10.5t74.5 -40.5q68 -60 68 -163q0 -89 -55 -144q-61 -59 -169 -59h-84v-63h184v-90h-184v-97h-130v97h-70v90h70v63h-70v109h70v308h194zM231 555v-196h53q57 0 85 21q36 28 36 78q0 49 -37 76q-30 21 -92 21h-45z" />
    <glyph glyph-name="uni20B6" unicode="&#x20c4;" horiz-adv-x="568" 
d="M295 667q62 0 101.5 -10.5t74.5 -40.5q68 -60 68 -163q0 -89 -55 -144q-61 -59 -169 -59h-84v-63h184v-90h-184v-97h-130v97h-70v90h70v63h-70v109h70v308h194zM231 555v-196h53q57 0 85 21q36 28 36 78q0 49 -37 76q-30 21 -92 21h-45z" />
    <glyph glyph-name="uni20B6" unicode="&#x20c3;" horiz-adv-x="568" 
d="M295 667q62 0 101.5 -10.5t74.5 -40.5q68 -60 68 -163q0 -89 -55 -144q-61 -59 -169 -59h-84v-63h184v-90h-184v-97h-130v97h-70v90h70v63h-70v109h70v308h194zM231 555v-196h53q57 0 85 21q36 28 36 78q0 49 -37 76q-30 21 -92 21h-45z" />
    <glyph glyph-name="uni20B6" unicode="&#x20c2;" horiz-adv-x="568" 
d="M295 667q62 0 101.5 -10.5t74.5 -40.5q68 -60 68 -163q0 -89 -55 -144q-61 -59 -169 -59h-84v-63h184v-90h-184v-97h-130v97h-70v90h70v63h-70v109h70v308h194zM231 555v-196h53q57 0 85 21q36 28 36 78q0 49 -37 76q-30 21 -92 21h-45z" />
    <glyph glyph-name="uni20B6" unicode="&#x20c1;" horiz-adv-x="568" 
d="M295 667q62 0 101.5 -10.5t74.5 -40.5q68 -60 68 -163q0 -89 -55 -144q-61 -59 -169 -59h-84v-63h184v-90h-184v-97h-130v97h-70v90h70v63h-70v109h70v308h194zM231 555v-196h53q57 0 85 21q36 28 36 78q0 49 -37 76q-30 21 -92 21h-45z" />
    <glyph glyph-name="uni20B6" unicode="&#x20c0;" horiz-adv-x="568" 
d="M295 667q62 0 101.5 -10.5t74.5 -40.5q68 -60 68 -163q0 -89 -55 -144q-61 -59 -169 -59h-84v-63h184v-90h-184v-97h-130v97h-70v90h70v63h-70v109h70v308h194zM231 555v-196h53q57 0 85 21q36 28 36 78q0 49 -37 76q-30 21 -92 21h-45z" />
    <glyph glyph-name="uni20B6" unicode="&#x20bf;" horiz-adv-x="568" 
d="M295 667q62 0 101.5 -10.5t74.5 -40.5q68 -60 68 -163q0 -89 -55 -144q-61 -59 -169 -59h-84v-63h184v-90h-184v-97h-130v97h-70v90h70v63h-70v109h70v308h194zM231 555v-196h53q57 0 85 21q36 28 36 78q0 49 -37 76q-30 21 -92 21h-45z" />
    <glyph glyph-name="uni20B6" unicode="&#x20be;" horiz-adv-x="568" 
d="M295 667q62 0 101.5 -10.5t74.5 -40.5q68 -60 68 -163q0 -89 -55 -144q-61 -59 -169 -59h-84v-63h184v-90h-184v-97h-130v97h-70v90h70v63h-70v109h70v308h194zM231 555v-196h53q57 0 85 21q36 28 36 78q0 49 -37 76q-30 21 -92 21h-45z" />
    <glyph glyph-name="uni20B6" unicode="&#x20bd;" horiz-adv-x="568" 
d="M295 667q62 0 101.5 -10.5t74.5 -40.5q68 -60 68 -163q0 -89 -55 -144q-61 -59 -169 -59h-84v-63h184v-90h-184v-97h-130v97h-70v90h70v63h-70v109h70v308h194zM231 555v-196h53q57 0 85 21q36 28 36 78q0 49 -37 76q-30 21 -92 21h-45z" />
    <glyph glyph-name="uni20B6" unicode="&#x20bc;" horiz-adv-x="568" 
d="M295 667q62 0 101.5 -10.5t74.5 -40.5q68 -60 68 -163q0 -89 -55 -144q-61 -59 -169 -59h-84v-63h184v-90h-184v-97h-130v97h-70v90h70v63h-70v109h70v308h194zM231 555v-196h53q57 0 85 21q36 28 36 78q0 49 -37 76q-30 21 -92 21h-45z" />
    <glyph glyph-name="uni20B6" unicode="&#x20bb;" horiz-adv-x="568" 
d="M295 667q62 0 101.5 -10.5t74.5 -40.5q68 -60 68 -163q0 -89 -55 -144q-61 -59 -169 -59h-84v-63h184v-90h-184v-97h-130v97h-70v90h70v63h-70v109h70v308h194zM231 555v-196h53q57 0 85 21q36 28 36 78q0 49 -37 76q-30 21 -92 21h-45z" />
    <glyph glyph-name="uni20B6" unicode="&#x20ba;" horiz-adv-x="568" 
d="M295 667q62 0 101.5 -10.5t74.5 -40.5q68 -60 68 -163q0 -89 -55 -144q-61 -59 -169 -59h-84v-63h184v-90h-184v-97h-130v97h-70v90h70v63h-70v109h70v308h194zM231 555v-196h53q57 0 85 21q36 28 36 78q0 49 -37 76q-30 21 -92 21h-45z" />
    <glyph glyph-name="uni20B6" unicode="&#x20b9;" horiz-adv-x="568" 
d="M295 667q62 0 101.5 -10.5t74.5 -40.5q68 -60 68 -163q0 -89 -55 -144q-61 -59 -169 -59h-84v-63h184v-90h-184v-97h-130v97h-70v90h70v63h-70v109h70v308h194zM231 555v-196h53q57 0 85 21q36 28 36 78q0 49 -37 76q-30 21 -92 21h-45z" />
    <glyph glyph-name="uni20B6" unicode="&#x20b7;" horiz-adv-x="568" 
d="M295 667q62 0 101.5 -10.5t74.5 -40.5q68 -60 68 -163q0 -89 -55 -144q-61 -59 -169 -59h-84v-63h184v-90h-184v-97h-130v97h-70v90h70v63h-70v109h70v308h194zM231 555v-196h53q57 0 85 21q36 28 36 78q0 49 -37 76q-30 21 -92 21h-45z" />
    <glyph glyph-name="uni20B8" unicode="&#x20b8;" horiz-adv-x="568" 
d="M499 418h-150v-418h-130v418h-150v112h430v-112zM499 575h-430v92h430v-92z" />
    <glyph glyph-name="afii61352" unicode="&#x2116;" horiz-adv-x="1080" 
d="M206 0h-130v667h130l306 -449v449h130v-667h-130l-306 449v-449zM870 667q77 0 122.5 -44.5t45.5 -113.5t-45.5 -113.5t-122.5 -44.5t-122.5 44.5t-45.5 113.5t45.5 113.5t122.5 44.5zM870 595q-37 0 -60.5 -24t-23.5 -62t23.5 -62t60.5 -24t60.5 24t23.5 62t-23.5 62
t-60.5 24zM722 197v86h296v-86h-296z" />
    <glyph glyph-name="uni2117" unicode="&#x2117;" horiz-adv-x="760" 
d="M380 682q145 0 245 -99q102 -102 102 -251q0 -143 -94 -242q-99 -105 -253 -105q-149 0 -249 101q-98 98 -98 248q0 155 107 255q97 93 240 93zM380 620q-113 0 -192 -80q-85 -85 -85 -205q0 -62 23 -117t59 -91t88 -58t107 -22q110 0 191 79q86 83 86 205q0 124 -86 210
q-79 79 -191 79zM263 527h121q62 0 94 -32q30 -30 30 -84q0 -53 -27 -83q-30 -32 -101 -32h-41v-143h-76v374zM339 461v-103h30q31 0 46 15q14 14 14 38q0 26 -14 38q-13 12 -43 12h-33z" />
    <glyph glyph-name="trademark" unicode="&#x2122;" horiz-adv-x="720" 
d="M247 591h-82v-304h-85v304h-82v76h249v-76zM345 287h-85l68 387h62l93 -231l98 231h62l61 -387h-85l-29 209l-90 -214h-34l-88 214z" />
    <glyph glyph-name="partialdiff" unicode="&#x2202;" horiz-adv-x="546" 
d="M84 568l16 105q87 -5 169 -38.5t137 -87.5q104 -103 104 -272q0 -155 -82 -232q-62 -57 -158 -57q-101 0 -167 64q-67 64 -67 165q0 99 65 162q58 56 143 56q74 0 125 -50q-27 88 -116 137q-72 40 -169 48zM270 329q-44 0 -74 -30q-34 -34 -34 -89t34 -87q31 -29 74 -29
q48 0 79 34q29 33 29 82q0 24 -10.5 50.5t-26.5 42.5q-27 26 -71 26z" />
    <glyph glyph-name="product" unicode="&#x220f;" horiz-adv-x="730" 
d="M40 638v112h650v-112h-82v-776h82v-112h-284v112h80v776h-242v-776h80v-112h-284v112h82v776h-82z" />
    <glyph glyph-name="summation" unicode="&#x2211;" horiz-adv-x="668" 
d="M22 750h595v-244h-112l-10 132h-333l248 -371l-248 -405h342l10 135h112v-247h-604v122l244 395l-244 361v122z" />
    <glyph glyph-name="minus" unicode="&#x2212;" 
d="M33 283v112h434v-112h-434z" />
    <glyph glyph-name="uni2215" unicode="&#x2215;" horiz-adv-x="653" 
d="M-20 -170l525 929l88 -40l-525 -929z" />
    <glyph glyph-name="uni2219" unicode="&#x2219;" horiz-adv-x="200" 
d="M8 286q0 38 27 65t65 27t65 -27t27 -65t-27 -65t-65 -27t-65 27t-27 65z" />
    <glyph glyph-name="radical" unicode="&#x221a;" horiz-adv-x="668" 
d="M381 827h287v-110h-181l-173 -717h-160l-60 274h-94v110h194l21 -91q8 -37 10 -71l5 -61v-12h11q13 142 49 297z" />
    <glyph glyph-name="infinity" unicode="&#x221e;" horiz-adv-x="668" 
d="M337 260q-66 -82 -159 -82q-70 0 -115.5 45t-45.5 116t45 116.5t114 45.5q92 0 156 -82q67 82 157 82q71 0 116.5 -45t45.5 -116t-45.5 -116.5t-114.5 -45.5q-94 0 -154 82zM470 392q-43 0 -76 -53q35 -52 76 -52q26 0 40.5 16t14.5 37q0 23 -16.5 37.5t-38.5 14.5z
M198 287q22 0 42.5 15.5t33.5 36.5q-30 53 -76 53q-26 0 -40.5 -16t-14.5 -37q0 -22 16 -37t39 -15z" />
    <glyph glyph-name="integral" unicode="&#x222b;" 
d="M53 -240l23 109q29 -10 51 -10q30 0 44 15q17 18 17 73v606q0 92 34 139q42 58 139 58q39 0 86 -10l-23 -109q-29 10 -51 10q-30 0 -44 -15q-17 -18 -17 -73v-606q0 -92 -34 -139q-42 -58 -139 -58q-39 0 -86 10z" />
    <glyph glyph-name="approxequal" unicode="&#x2248;" 
d="M424 523l70 -40q-37 -88 -92 -116q-30 -15 -59 -15q-35 0 -106 27q-67 25 -90 25q-20 0 -37 -14t-23.5 -26t-10.5 -23l-70 40q30 86 77 119q28 21 71 21q35 0 108 -27q71 -25 88 -25q46 0 74 54zM424 325l70 -40q-37 -88 -92 -116q-30 -15 -59 -15q-35 0 -106 27
q-67 25 -90 25q-20 0 -37 -14t-23.5 -26t-10.5 -23l-70 40q30 86 77 119q28 21 71 21q35 0 108 -27q71 -25 88 -25q46 0 74 54z" />
    <glyph glyph-name="notequal" unicode="&#x2260;" 
d="M33 374v106h237l49 104h96l-49 -104h101v-106h-151l-33 -70h184v-106h-234l-52 -110h-96l52 110h-104v106h154l33 70h-187z" />
    <glyph glyph-name="lessequal" unicode="&#x2264;" 
d="M153 393l314 -134v-114l-434 197v102l434 209v-114zM33 118h434v-110h-434v110z" />
    <glyph glyph-name="greaterequal" unicode="&#x2265;" 
d="M347 393l-314 146v114l434 -209v-102l-434 -197v114zM467 118v-110h-434v110h434z" />
    <glyph glyph-name="dotmath" unicode="&#x22c5;" horiz-adv-x="200" 
d="M8 286q0 38 27 65t65 27t65 -27t27 -65t-27 -65t-65 -27t-65 27t-27 65z" />
    <glyph glyph-name="lozenge" unicode="&#x25ca;" horiz-adv-x="700" 
d="M90 334l260 360l260 -360l-260 -360zM468 334l-118 162l-118 -162l118 -162z" />
    <glyph glyph-name="openbullet" unicode="&#x25e6;" 
d="M250 662q65 0 109 -42.5t44 -107.5t-44 -107.5t-109 -42.5t-109 42.5t-44 107.5t44 107.5t109 42.5zM250 590q-35 0 -57 -22t-22 -56t22 -56t57 -22t57 22t22 56t-22 56t-57 22z" />
    <glyph glyph-name="uniF400" unicode="&#xf400;" horiz-adv-x="2" 
d="M-180 700l88 -56l-150 -134l-56 40z" />
    <glyph glyph-name="uniF401" unicode="&#xf401;" horiz-adv-x="2" 
d="M-312 728l-56 50l140 142l90 -70z" />
    <glyph glyph-name="uniF406" unicode="&#xf406;" 
d="M330 870h90q-6 -63 -53 -103.5t-117 -40.5t-117 40.5t-53 103.5h90q12 -60 80 -60t80 60z" />
    <glyph glyph-name="uniF407" unicode="&#xf407;" 
d="M254 -46l96 -44l-122 -154l-66 36z" />
    <glyph glyph-name="uniF408" unicode="&#xf408;" 
d="M250 820l-120 -88l-60 64l180 134l180 -134l-60 -64z" />
    <glyph glyph-name="uniF409" unicode="&#xf409;" 
d="M160 -258l68 208l112 -16l-100 -204z" />
    <glyph glyph-name="uniF40A" unicode="&#xf40a;" 
d="M160 468l66 212l114 -20l-96 -208z" />
    <glyph glyph-name="uniF40B" unicode="&#xf40b;" 
d="M172 817q0 33 22.5 55.5t55.5 22.5t55.5 -22.5t22.5 -55.5t-22.5 -55.5t-55.5 -22.5t-55.5 22.5t-22.5 55.5z" />
    <glyph glyph-name="uniF40C" unicode="&#xf40c;" 
d="M210 826q0 -17 11.5 -28.5t28.5 -11.5t28.5 11.5t11.5 28.5t-11.5 28.5t-28.5 11.5t-28.5 -11.5t-11.5 -28.5zM151 826q0 42 28.5 70.5t70.5 28.5t70.5 -28.5t28.5 -70.5t-28.5 -70.5t-70.5 -28.5t-70.5 28.5t-28.5 70.5z" />
    <glyph glyph-name="uniF40D" unicode="&#xf40d;" 
d="M377 869l65 -48q-18 -37 -45 -59q-31 -28 -69 -28q-26 0 -68 17l-35 14q-40 15 -50 15q-19 0 -34 -15q-10 -10 -16 -24l-67 48q17 32 39 54q33 33 76 33q24 0 68 -17l39 -16q31 -13 48 -13q20 0 33 13q8 8 16 26z" />
    <glyph glyph-name="uniF40E" unicode="&#xf40e;" 
d="M274 0h66q-24 -16 -36 -30q-20 -22 -20 -43q0 -18 11.5 -30.5t33.5 -12.5q21 0 47 12l-14 -69q-28 -17 -67 -17q-45 0 -70 25t-25 60q0 34 26 65q21 24 48 40z" />
    <glyph glyph-name="uniF4C6" unicode="&#xf4c6;" horiz-adv-x="620" 
d="M180 667v-182q0 -66 33 -92q29 -22 95 -22q57 0 106 7v289h130v-750q0 -71 -36 -108q-37 -38 -111 -38q-46 0 -85 9v112q24 -9 46 -9q27 0 41 14q15 16 15 68v301q-68 -7 -119 -7q-121 0 -178 43q-67 50 -67 160v205h130z" />
    <glyph glyph-name="uniF4C7" unicode="&#xf4c7;" horiz-adv-x="484" 
d="M42 433h122v-128q0 -33 15 -47q17 -16 62 -16q30 0 63 6v185h122v-519q0 -82 -49 -117q-38 -27 -106 -27q-38 0 -69 9v108q24 -9 47 -9q33 0 46 22q9 15 9 60v188q-52 -10 -102 -10q-79 0 -121 40q-39 37 -39 102v153z" />
    <glyph glyph-name="uniF4CC" unicode="&#xf4cc;" horiz-adv-x="610" 
d="M2 667h152l169 -336l143 336h142l-309 -667h-142l93 186zM281 728l-56 50l140 142l90 -70z" />
    <glyph glyph-name="uniF4CD" unicode="&#xf4cd;" horiz-adv-x="538" 
d="M49 -229l159 294l-206 368h142l134 -246l120 246h138l-349 -662h-138zM337 700l88 -56l-150 -134l-56 40z" />
    <glyph glyph-name="dollar.fitted" unicode="&#xf5f5;" horiz-adv-x="483" 
d="M212 765h82v-100q42 -3 82 -23q41 -22 68 -52l-66 -84q-44 54 -105 54q-45 0 -68 -24q-19 -19 -19 -47t26 -47q15 -11 82 -41q5 -2 23.5 -10t27.5 -12.5t23.5 -12t25.5 -16t21 -17.5q51 -48 51 -124q0 -91 -60 -149q-45 -45 -112 -58v-112h-82v110q-70 8 -127 46
q-43 29 -73 73l75 77q27 -40 57 -60q38 -28 91 -28q49 0 76 26q25 25 25 62q0 34 -23 55q-13 13 -72 39q-97 43 -133 77q-47 44 -47 115t45 122q43 47 106 61v100z" />
    <glyph glyph-name="Euro.fitted" unicode="&#xf5f6;" horiz-adv-x="618" 
d="M573 172v-146q-76 -41 -184 -41q-150 0 -230 87q-54 58 -65 139h-75l36 90h30q-5 33 0 63h-66l36 90h42q19 85 80 143q88 85 233 85q97 0 173 -44l-51 -109q-55 35 -130 35q-42 0 -74 -11.5t-50 -30.5t-27.5 -35t-14.5 -33h268l-36 -90h-249q-4 -36 0 -63h231l-36 -90
h-176q13 -55 59.5 -81.5t105.5 -26.5q107 0 170 69z" />
    <glyph glyph-name="cent.fitted" unicode="&#xf5f7;" horiz-adv-x="385" 
d="M197 655h82v-93q43 -2 81 -22v-123q-36 44 -95 44q-50 0 -84 -32q-37 -35 -37 -96t37 -95q31 -29 82 -29q64 0 97 44v-124q-39 -19 -81 -21v-95h-82v93q-72 10 -121 61q-62 65 -62 167q0 103 66 169q49 49 117 61v91z" />
    <glyph glyph-name="sterling.fitted" unicode="&#xf5f8;" horiz-adv-x="597" 
d="M168 246h-113v88h65q-37 67 -37 128q0 94 63 154q68 66 177 66t172 -63q59 -59 59 -167v-12h-132q1 5 1 17q0 55 -29 84q-27 27 -72 27q-48 0 -77 -29q-32 -32 -32 -84q0 -41 23 -89l16 -32h148v-88h-120q7 -26 7 -50q0 -37 -12 -66l37 -13q80 -28 106 -28q48 0 61 54
l89 -19q-20 -84 -72 -118q-33 -21 -80 -21q-45 0 -118 25q-80 26 -110 26q-52 0 -68 -45l-94 17q14 53 54 90q36 33 87 40q11 25 11 49q0 27 -10 59z" />
    <glyph glyph-name="yen.fitted" unicode="&#xf5f9;" horiz-adv-x="595" 
d="M432 667h144l-129 -213h88v-90h-142l-36 -63h178v-90h-178v-211h-120v211h-178v90h178l-36 63h-142v90h88l-129 213h144l135 -234z" />
    <glyph glyph-name="florin.fitted" unicode="&#xf5fa;" horiz-adv-x="551" 
d="M233 347h-60l16 86h60l24 130q16 87 58 129q46 48 124 48q49 0 87 -19l-20 -107q-27 15 -55 15q-26 0 -45 -17q-19 -18 -26 -60l-23 -119h108l-16 -86h-108l-46 -266q-14 -77 -30 -123.5t-50 -79.5q-59 -58 -174 -58q-26 0 -49 4l19 112q16 -3 32 -3q51 0 80 26
q32 28 51 141z" />
    <glyph glyph-name="uni20B4.fitted" unicode="&#xf5fb;" horiz-adv-x="519" 
d="M120 515l-68 89q37 31 83 52q60 26 127 26q97 0 146 -46q44 -43 44 -102q0 -43 -26 -80h70v-90h-142l-65 -63h207v-90h-277q-18 -21 -18 -48q0 -29 24 -46q20 -14 53 -14q44 0 78 24q29 20 50 53l80 -88q-36 -45 -90 -75q-61 -32 -140 -32q-84 0 -132 41q-50 42 -50 104
q0 47 21 81h-74v90h138l65 63h-203v90h276q24 23 24 53q0 31 -22 49q-21 17 -52 17q-41 0 -80 -23q-27 -15 -47 -35z" />
    <glyph glyph-name="uni20B6.fitted" unicode="&#xf5fc;" horiz-adv-x="545" 
d="M287 667q62 0 101.5 -10.5t74.5 -40.5q68 -60 68 -163q0 -89 -55 -144q-61 -59 -169 -59h-84v-63h184v-90h-184v-97h-130v97h-70v90h70v63h-70v109h70v308h194zM223 555v-196h53q57 0 85 21q36 28 36 78q0 49 -37 76q-30 21 -92 21h-45z" />
    <glyph glyph-name="uni20B8.fitted" unicode="&#xf5fd;" horiz-adv-x="458" 
d="M444 418h-150v-418h-130v418h-150v112h430v-112zM444 575h-430v92h430v-92z" />
    <glyph glyph-name="uniF639" unicode="&#xf639;" horiz-adv-x="574" 
d="M287 -15q-107 0 -182.5 92.5t-75.5 256.5q0 163 75.5 255.5t182.5 92.5t182.5 -92.5t75.5 -256.5q0 -163 -75.5 -255.5t-182.5 -92.5zM287 570q-49 0 -88.5 -58.5t-39.5 -177.5t39 -178t89 -59t89 59t39 178t-39.5 177.5t-88.5 58.5z" />
    <glyph glyph-name="uniF63A" unicode="&#xf63a;" horiz-adv-x="544" 
d="M26 0l196 223q96 112 114 139q39 58 39 107q0 45 -28.5 73t-70.5 28q-48 0 -76 -32.5t-30 -78.5h-134q4 101 69 162t165 61q110 0 172.5 -63t62.5 -149q0 -48 -22 -96t-42 -72.5t-57 -64.5l-115 -125h241v-112h-484z" />
    <glyph glyph-name="uniF63B" unicode="&#xf63b;" horiz-adv-x="530" 
d="M172 493h-122q9 89 69 139t148 50q96 0 152.5 -50t56.5 -134q0 -97 -77 -140q102 -42 102 -159q0 -100 -67.5 -157t-170.5 -57q-98 0 -165 56.5t-75 150.5h130q6 -43 35 -69t76 -26q52 0 79.5 31.5t27.5 74.5q0 42 -27.5 73t-83.5 31h-17v94h18q45 0 68 26.5t23 64.5
q0 40 -24 64t-64 24q-37 0 -63.5 -23t-28.5 -64z" />
    <glyph glyph-name="uniF63C" unicode="&#xf63c;" horiz-adv-x="557" 
d="M454 667v-437h78v-104h-78v-126h-122v126h-326v58l331 483h117zM160 230h172v254z" />
    <glyph glyph-name="uniF63D" unicode="&#xf63d;" horiz-adv-x="528" 
d="M467 667v-112h-222l-24 -105q26 4 45 4q107 0 172 -67q59 -60 59 -160q0 -106 -68 -174t-183 -68q-87 0 -144 28q-43 21 -81 57l43 112q29 -39 69 -60q46 -25 97 -25q64 0 102 40q35 37 35 97q0 57 -39 92q-39 34 -104 34q-72 0 -144 -43l79 350h308z" />
    <glyph glyph-name="uniF63E" unicode="&#xf63e;" horiz-adv-x="547" 
d="M299 685l105 -51l-162 -211q36 16 73 16q39 0 79 -15t68 -42q63 -59 63 -160q0 -95 -61 -161q-70 -76 -190 -76q-122 0 -190 68q-65 65 -65 162t84 208zM272 89q53 0 87 34q36 36 36 88q0 57 -37 92q-33 32 -86 32t-87 -36q-36 -37 -36 -87q0 -56 37 -90q35 -33 86 -33z
" />
    <glyph glyph-name="uniF63F" unicode="&#xf63f;" horiz-adv-x="554" 
d="M39 29l307 526h-310v112h514l-401 -687z" />
    <glyph glyph-name="uniF640" unicode="&#xf640;" horiz-adv-x="522" 
d="M374 348q55 -18 87 -63t32 -103q0 -85 -63.5 -141t-168.5 -56t-168.5 56t-63.5 141q0 58 32 103t87 63q-42 21 -69 58.5t-27 89.5q0 78 55 132t154 54t154 -54t55 -132q0 -52 -27 -89.5t-69 -58.5zM261 402q41 0 67 26t26 67t-26 67t-67 26t-67 -26t-26 -67t26 -67
t67 -26zM261 87q44 0 73 29.5t29 74.5t-29 74.5t-73 29.5t-73 -29.5t-29 -74.5t29 -74.5t73 -29.5z" />
    <glyph glyph-name="uniF641" unicode="&#xf641;" horiz-adv-x="547" 
d="M248 -18l-105 51l159 208q-39 -13 -71 -13q-37 0 -77.5 15t-68.5 42q-63 59 -63 160q0 95 61 161q70 76 190 76q122 0 190 -68q65 -65 65 -162t-84 -208zM275 578q-53 0 -87 -34q-36 -36 -36 -88q0 -57 37 -92q33 -32 86 -32q52 0 87 36q36 38 36 87q0 55 -37 90
q-35 33 -86 33z" />
    <glyph glyph-name="uniF6BA" unicode="&#xf6ba;" horiz-adv-x="360" 
d="M50 285v112h260v-112h-260z" />
    <glyph glyph-name="uniF6BB" unicode="&#xf6bb;" horiz-adv-x="640" 
d="M70 289v104h500v-104h-500z" />
    <glyph glyph-name="uniF6BC" unicode="&#xf6bc;" horiz-adv-x="840" 
d="M70 289v104h700v-104h-700z" />
    <glyph glyph-name="uniF6C3" unicode="&#xf6c3;" 
d="M160 -258l68 208l112 -16l-100 -204z" />
    <glyph glyph-name="uniF6C9" unicode="&#xf6c9;" 
d="M226 728l-56 50l140 142l90 -70z" />
    <glyph glyph-name="uniF6CA" unicode="&#xf6ca;" 
d="M250 842l120 88l60 -64l-180 -134l-180 134l60 64z" />
    <glyph glyph-name="uniF6CB" unicode="&#xf6cb;" 
d="M66 811q0 29 21.5 50.5t50.5 21.5t50.5 -21.5t21.5 -50.5t-21.5 -50.5t-50.5 -21.5t-50.5 21.5t-21.5 50.5zM290 811q0 29 21.5 50.5t50.5 21.5t50.5 -21.5t21.5 -50.5t-21.5 -50.5t-50.5 -21.5t-50.5 21.5t-21.5 50.5z" />
    <glyph glyph-name="uniF6CE" unicode="&#xf6ce;" 
d="M274 728l-174 122l90 70l140 -142z" />
    <glyph glyph-name="uniF6CF" unicode="&#xf6cf;" 
d="M198 921l90 -59l-144 -134l-56 40zM398 920l90 -58l-144 -134l-56 40z" />
    <glyph glyph-name="uniF6D0" unicode="&#xf6d0;" 
d="M67 745v86h366v-86h-366z" />
    <glyph glyph-name="uniF6D1" unicode="&#xf6d1;" 
d="M70 844l90 36q22 -58 90 -58t90 58l90 -36q-20 -52 -66.5 -82t-113.5 -30t-113.5 30t-66.5 82z" />
    <glyph glyph-name="uniF6D4" unicode="&#xf6d4;" 
d="M334 650l80 -38q-20 -56 -67 -79.5t-97 -23.5t-97 23.5t-67 79.5l80 38q6 -27 29.5 -45t54.5 -18q29 0 53 16t31 47z" />
    <glyph glyph-name="uniF6DC" unicode="&#xf6dc;" horiz-adv-x="284" 
d="M112 0v555h-96v112h226v-667h-130z" />
    <glyph glyph-name="uniF6DE" unicode="&#xf6de;" horiz-adv-x="630" 
d="M52 178v104h525v-104h-525z" />
    <glyph glyph-name="nbspace" horiz-adv-x="233" 
 />
    <glyph glyph-name="hyphenminus" horiz-adv-x="360" 
d="M50 174v112h260v-112h-260z" />
    <glyph glyph-name="dotlessi1" horiz-adv-x="238" 
d="M58 433h122v-433h-122v433z" />
    <glyph glyph-name="NULL" horiz-adv-x="0" 
 />
    <glyph glyph-name="CR" horiz-adv-x="233" 
 />
    </font>
</defs>
</svg>
