<?xml version="1.0" standalone="no"?>
<!DOCTYPE svg PUBLIC "-//W3C//DTD SVG 1.1//EN" "http://www.w3.org/Graphics/SVG/1.1/DTD/svg11.dtd" >
<svg xmlns="http://www.w3.org/2000/svg" xmlns:xlink="http://www.w3.org/1999/xlink" version="1.1">
<metadata>
Created by FontForge 20170731 at Tue Jan 27 12:39:45 2015
 By Aleksey,,,
Copyright (c) 1995 ParaGraph Intl., (c) 1998 ParaType Inc., ParaType Ltd. All rights reserved.
</metadata>
<defs>
<font id="FuturaPT-Demi" horiz-adv-x="1024" >
  <font-face 
    font-family="FuturaPT-Demi"
    font-weight="500"
    font-stretch="normal"
    units-per-em="2048"
    panose-1="2 11 7 2 2 2 4 2 3 3"
    ascent="1563"
    descent="-485"
    x-height="887"
    cap-height="1366"
    bbox="-754 -553 2335 1966"
    underline-thickness="102"
    underline-position="-306"
    unicode-range="U+0020-FB02"
  />
<missing-glyph horiz-adv-x="477" 
 />
    <glyph glyph-name="afii10017.var.accented" unicode="&#x410;`" horiz-adv-x="1376" 
d="M639 1491l-115 102l287 291l184 -143zM498 504h389l-195 491zM1085 0l-120 287h-551l-121 -287h-289l588 1366h209l571 -1366h-287z" />
    <glyph glyph-name="afii10022.var.accented" unicode="&#x415;`" horiz-adv-x="1015" 
d="M459 1491l-115 102l287 291l184 -143zM913 1366v-229h-491v-306h471v-229h-471v-373h491v-229h-757v1366h757z" />
    <glyph glyph-name="afii10026.var.accented" unicode="&#x418;`" horiz-adv-x="1515" 
d="M709 1491l-115 102l287 291l184 -143zM156 1366h266v-909l749 909h189v-1366h-266v913l-750 -913h-188v1366z" />
    <glyph glyph-name="afii10032.var.accented" unicode="&#x41e;`" horiz-adv-x="1638" 
d="M770 1491l-115 102l287 291l184 -143zM819 211q201 0 328 132t127 339t-128 340t-327 133t-327 -133t-127 -340t127 -339t327 -132zM819 1397q322 0 526 -201q203 -201 203 -514t-204 -513t-525 -200t-525 200t-204 513t204 514t525 201z" />
    <glyph glyph-name="afii10037.var.accented" unicode="&#x423;`" horiz-adv-x="1249" 
d="M575 1491l-114 102l287 291l184 -143zM4 1366h311l347 -688l292 688h291l-633 -1366h-290l190 381z" />
    <glyph glyph-name="afii10045.var.accented" unicode="&#x42b;`" horiz-adv-x="1638" 
d="M770 1491l-115 102l287 291l184 -143zM1217 1366h266v-1366h-266v1366zM422 602v-373h156q246 0 245 185q0 78 -54 133t-187 55h-160zM156 0v1366h266v-535h213q213 -1 338 -115t125 -302q0 -139 -74 -246q-115 -168 -387 -168h-481z" />
    <glyph glyph-name="afii10047.var.accented" unicode="&#x42d;`" horiz-adv-x="1251" 
d="M473 1491l-115 102l287 291l184 -143zM274 571v230h609q-29 168 -150 261t-272 93q-219 0 -371 -154v312q164 84 356 84q501 0 661 -417q54 -142 54 -298q0 -326 -203 -522q-190 -190 -509 -191q-193 0 -359 80v311q147 -150 361 -149q159 0 283 94t153 266h-613z" />
    <glyph glyph-name="afii10048.var.accented" unicode="&#x42e;`" horiz-adv-x="2101" 
d="M1001 1491l-114 102l287 291l184 -143zM1307 211q193 0 311 131t119 350q0 219 -130 341t-300 122t-300 -122t-130 -341q1 -219 119 -350t311 -131zM422 838h188q35 201 172 350q194 209 516 209t518 -201t196 -513t-196 -513t-507 -201q-311 1 -499 183t-208 456h-180
v-608h-266v1366h266v-528z" />
    <glyph glyph-name="afii10049.var.accented" unicode="&#x42f;`" horiz-adv-x="1163" 
d="M532 1491l-114 102l287 291l184 -143zM741 1149h-82q-258 0 -258 -206t263 -206h77v412zM1008 1366v-1366h-267v528h-49l-348 -528h-319l405 553q-82 12 -149 61q-154 111 -154 320q0 208 127 320t358 112h396z" />
    <glyph glyph-name="afii10023.var.accented" unicode="&#x401;`" horiz-adv-x="1015" 
d="M969 1684q0 -44 -39 -84t-86 -40t-86 40q-39 39 -39 84q0 44 35 84t90 40t90 -40t35 -84zM223 1808q53 0 89 -36t36 -85q0 -47 -37 -87t-86 -40t-87 39q-38 38 -38 84q0 45 35 85t88 40zM422 1522l-72 67l230 295l127 -117zM913 1366v-229h-491v-306h471v-229h-471v-373
h491v-229h-757v1366h757z" />
    <glyph glyph-name="afii10065.var.accented" unicode="&#x430;`" horiz-adv-x="1167" 
d="M723 1434l180 -115l-307 -275l-115 82zM578 694q-106 0 -177 -71q-69 -73 -69 -179t70 -179t176 -73t176 74q70 72 69 178q0 106 -69 179q-70 71 -176 71zM799 887h250v-887h-250v115q-100 -143 -273 -144q-200 -1 -326 137t-126 338t123 334q123 135 317 135t285 -143
v115z" />
    <glyph glyph-name="afii10070.var.accented" unicode="&#x435;`" horiz-adv-x="1069" 
d="M674 1434l180 -115l-307 -275l-115 82zM550 739q-76 0 -136 -47t-74 -131h420q-14 86 -74 132t-136 46zM553 -29q-209 0 -344 128t-135 342q0 215 131 345t347 130t330 -137q114 -136 113 -357v-21h-663q0 -90 43 -149q61 -84 189 -84t196 117l229 -37q-27 -71 -110 -161
q-49 -52 -133 -84t-193 -32z" />
    <glyph glyph-name="afii10074.var.accented" unicode="&#x438;`" horiz-adv-x="1146" 
d="M713 1434l180 -115l-307 -275l-115 82zM119 887h250v-547l409 547h250v-887h-250v547l-409 -547h-250v887z" />
    <glyph glyph-name="afii10080.var.accented" unicode="&#x43e;`" horiz-adv-x="1163" 
d="M721 1434l180 -115l-307 -275l-115 82zM582 193q106 -1 178 73t72 177t-72 178q-72 73 -178 73t-179 -73q-71 -73 -71 -177t71 -178q73 -73 179 -73zM582 915q224 1 366 -129t142 -342t-150 -348q-135 -125 -358 -125t-366 130q-142 130 -142 342t142 342t366 130z" />
    <glyph glyph-name="afii10085.var.accented" unicode="&#x443;`" horiz-adv-x="1101" 
d="M690 1434l180 -115l-307 -275l-114 82zM100 -469l326 602l-422 754h291l274 -504l246 504h283l-715 -1356h-283z" />
    <glyph glyph-name="afii10093.var.accented" unicode="&#x44b;`" horiz-adv-x="1331" 
d="M805 1434l180 -115l-307 -275l-115 82zM963 887h249v-887h-249v887zM369 375v-178h116q127 0 125 94q0 82 -118 84h-123zM119 887h250v-316h194q156 0 238 -90q67 -71 67 -203t-94 -212q-76 -66 -199 -66h-456v887z" />
    <glyph glyph-name="afii10095.var.accented" unicode="&#x44d;`" horiz-adv-x="888" 
d="M494 1434l180 -115l-307 -275l-115 82zM328 174q106 0 164 49q55 49 59 135h-367v181h367q-12 80 -68 125q-61 55 -179 55t-230 -76v217q133 55 270 55q221 0 346 -131t125 -346t-129 -342t-342 -127q-159 0 -274 49v242q106 -86 258 -86z" />
    <glyph glyph-name="afii10096.var.accented" unicode="&#x44e;`" horiz-adv-x="1536" 
d="M907 1434l180 -115l-307 -275l-114 82zM963 193q104 1 173 73q68 72 68 177t-68 179q-69 72 -173 72t-173 -72t-69 -178t69 -178t173 -73zM369 553h120q23 137 127 238q132 125 348 125t357 -130q141 -128 141 -340t-141 -344q-141 -131 -356 -131t-349 125
q-104 100 -127 244h-120v-340h-250v887h250v-334z" />
    <glyph glyph-name="afii10097.var.accented" unicode="&#x44f;`" horiz-adv-x="942" 
d="M610 1434l181 -115l-308 -275l-114 82zM573 492v198h-108q-57 0 -87 -28t-30 -75q0 -97 117 -95h108zM90 599q0 128 100 208t281 80h352v-887h-250v311h-28l-217 -311h-287l262 332q-85 12 -149 76t-64 191z" />
    <glyph glyph-name="afii10071.var.accented" unicode="&#x451;`" horiz-adv-x="1069" 
d="M713 1214q0 54 39 94t93 40t94 -39t40 -93t-40 -94q-40 -39 -94 -39t-93 39t-39 92zM106 1215q0 53 39 93t93 40t94 -39q39 -39 39 -93t-39 -94q-39 -39 -93 -39t-94 39q-39 39 -39 93zM600 1434l137 -84l-276 -281l-82 57zM550 739q-76 0 -136 -47t-74 -131h420
q-14 86 -74 132t-136 46zM553 -29q-209 0 -344 128t-135 342q0 215 131 345t347 130t330 -137q114 -136 113 -357v-21h-663q0 -90 43 -149q61 -84 189 -84t196 117l229 -37q-27 -71 -110 -161q-49 -52 -133 -84t-193 -32z" />
    <glyph glyph-name="fi" unicode="fi" horiz-adv-x="1081" 
d="M713 887h250v-887h-250v887zM713 1102q0 192 -170 190q-98 0 -142 -67q-29 -45 -28 -123v-215h229v-213h-229v-674h-250v674h-94v213h94v221q0 63 2 92q6 91 63 170q111 148 363 148t350 -148q27 -43 34 -63q7 -19 12 -33t7 -34t6 -36q4 -17 3 -35v-120h-250v53z" />
    <glyph glyph-name="fl" unicode="fl" horiz-adv-x="1081" 
d="M713 1102q0 192 -170 190q-98 0 -142 -67q-29 -45 -28 -123v-215h229v-213h-229v-674h-250v674h-94v213h94v221q0 63 2 92q6 91 63 170q111 148 363 148t350 -148q27 -43 34 -63q7 -19 12 -33t7 -34t6 -36q4 -17 3 -35v-1169h-250v1102z" />
    <glyph glyph-name=".notdef" horiz-adv-x="477" 
 />
    <glyph glyph-name=".null" horiz-adv-x="0" 
 />
    <glyph glyph-name="nonmarkingreturn" horiz-adv-x="681" 
 />
    <glyph glyph-name="space" unicode=" " horiz-adv-x="477" 
 />
    <glyph glyph-name="exclam" unicode="!" horiz-adv-x="516" 
d="M98 133q0 68 46 114t114 46t114 -46t46 -114t-46 -114t-114 -46t-114 46t-46 114zM385 416h-254v950h254v-950z" />
    <glyph glyph-name="quotedbl" unicode="&#x22;" horiz-adv-x="794" 
d="M709 1366l-47 -549h-173l-47 549h267zM352 1366l-47 -549h-172l-47 549h266z" />
    <glyph glyph-name="numbersign" unicode="#" horiz-adv-x="1228" 
d="M707 594l32 207h-192l-33 -207h193zM860 0h-250l62 381h-193l-61 -381h-250l61 381h-209l35 213h209l33 207h-209l35 213h209l57 352h250l-57 -352h192l57 352h250l-57 -352h209l-35 -213h-209l-33 -207h209l-35 -213h-208z" />
    <glyph glyph-name="dollar" unicode="$" horiz-adv-x="1163" 
d="M762 394q0 68 -47 120q-25 27 -148 80q-184 74 -276 161t-92 232t92 250q88 96 217 125v205h168v-205q86 -6 169 -49t138 -105l-135 -172q-90 111 -215 111q-92 0 -135 -44q-43 -43 -43 -101t47 -93t153 -79q107 -44 125 -54t58 -30t86 -64q104 -98 104 -269t-123 -290
q-92 -92 -229 -119v-229h-168v225q-144 16 -246 84t-164 160l154 157q120 -178 303 -180q99 0 153 52q54 53 54 121z" />
    <glyph glyph-name="percent" unicode="%" horiz-adv-x="1585" 
d="M1180 127q76 0 124 49t48 127t-48 127t-124 49t-124 -49t-48 -127t48 -127t124 -49zM1180 627q158 0 251 -91q93 -90 93 -232t-93 -233t-251 -91t-251 91t-93 232t93 233t251 91zM332 6l813 1405l108 -61l-813 -1407zM406 883q76 0 124 49t48 127t-48 127t-124 49
t-124 -49t-48 -127t48 -127t124 -49zM406 1382q158 0 250 -91t94 -232q0 -141 -94 -233t-250 -91q-158 0 -251 91q-93 90 -93 232t92 233q94 91 252 91z" />
    <glyph glyph-name="ampersand" unicode="&#x26;" horiz-adv-x="1454" 
d="M817 1069q0 55 -34 95q-35 40 -101 40t-102 -38t-35 -93q0 -55 57 -125l60 -74l61 44q94 66 94 151zM573 203q133 0 252 119l-258 296q-195 -102 -194 -235q0 -78 57 -129t143 -51zM106 360q0 215 220 347l106 63q-137 138 -137 282t98 244q97 100 273 100t274 -96
t98 -229q0 -186 -192 -303l-58 -35l226 -258q111 109 170 189l155 -154q-74 -92 -147 -166l-31 -31l277 -313h-330l-133 154q-205 -184 -422 -184t-332 116q-115 117 -115 274z" />
    <glyph glyph-name="quotesingle" unicode="'" horiz-adv-x="438" 
d="M352 1366l-47 -549h-172l-47 549h266z" />
    <glyph glyph-name="parenleft" unicode="(" horiz-adv-x="655" 
d="M342 -369q-203 381 -203 929t203 956l199 -109q-68 -139 -116 -367t-48 -467q0 -501 164 -833z" />
    <glyph glyph-name="parenright" unicode=")" horiz-adv-x="655" 
d="M313 1516q203 -412 203 -958t-203 -927l-198 109q162 329 164 833q-1 239 -49 467t-115 367z" />
    <glyph glyph-name="asterisk" unicode="*" horiz-adv-x="1163" 
d="M295 1395l233 -119l-41 258h189l-41 -258l233 121l58 -180l-260 -41l186 -185l-154 -110l-116 235l-117 -237l-154 110l187 187l-260 38z" />
    <glyph glyph-name="plus" unicode="+" 
d="M68 580v229h319v319h250v-319h319v-229h-319v-320h-250v320h-319z" />
    <glyph glyph-name="comma" unicode="," horiz-adv-x="671" 
d="M8 -268l217 551l230 -27l-289 -543z" />
    <glyph glyph-name="hyphen" unicode="-" horiz-adv-x="737" 
d="M102 356v230h533v-230h-533z" />
    <glyph glyph-name="period" unicode="." horiz-adv-x="516" 
d="M98 133q0 68 46 114t114 46t114 -46t46 -114t-46 -114t-114 -46t-114 46t-46 114z" />
    <glyph glyph-name="slash" unicode="/" horiz-adv-x="1337" 
d="M-41 -348l1075 1902l180 -81l-1075 -1903z" />
    <glyph glyph-name="zero" unicode="0" horiz-adv-x="1163" 
d="M582 1167q-100 0 -182 -119q-81 -120 -81 -364t80 -365q81 -121 183 -121t182 122q80 120 80 364t-81 364t-181 119zM582 -31q-219 -1 -374 189t-155 525t155 524t374 189q220 0 374 -188q154 -190 154 -525t-154 -525t-374 -189z" />
    <glyph glyph-name="one" unicode="1" horiz-adv-x="1163" 
d="M467 0v1137h-197v229h463v-1366h-266z" />
    <glyph glyph-name="two" unicode="2" horiz-adv-x="1163" 
d="M752 956q0 96 -58 154q-58 57 -151 57q-92 0 -150 -66q-57 -67 -61 -161h-275q7 207 141 332t349 125t343 -129t128 -305q0 -99 -45 -197t-86 -148t-117 -133l-235 -256h493v-229h-991l401 457q197 229 234 284q80 119 80 215z" />
    <glyph glyph-name="three" unicode="3" horiz-adv-x="1163" 
d="M977 1006q0 -186 -158 -273q209 -86 209 -325q0 -205 -138 -322t-344 -117t-343 116t-154 308h266q11 -88 71 -141t162 -53t158 64q56 65 56 152t-56 150t-171 64h-35v192h37q92 1 139 55t47 134t-49 129t-128 49q-80 0 -134 -47t-58 -131h-250q18 182 142 284t312 102
t304 -102t115 -288z" />
    <glyph glyph-name="four" unicode="4" horiz-adv-x="1163" 
d="M713 471v520l-353 -520h353zM963 1366v-895h159v-213h-159v-258h-250v258h-668v119l678 989h240z" />
    <glyph glyph-name="five" unicode="5" horiz-adv-x="1163" 
d="M141 373q127 -174 353 -174q118 0 193 79q75 78 75 198t-80 191t-220 71t-288 -89l162 717h631v-229h-455l-49 -215q53 8 92 8q219 0 346 -130t127 -341t-139 -350t-375 -140q-178 1 -280 51t-181 123z" />
    <glyph glyph-name="six" unicode="6" horiz-adv-x="1163" 
d="M582 182q106 0 178 72t72 184t-72 180t-180 68t-181 -75q-71 -75 -71 -183t74 -178q74 -68 180 -68zM668 899q180 0 305 -119q125 -120 125 -320t-125 -335q-143 -156 -391 -156q-248 1 -384 137t-136 334t171 426l402 537l215 -105l-332 -432q74 33 150 33z" />
    <glyph glyph-name="seven" unicode="7" horiz-adv-x="1163" 
d="M94 1137v229h1053l-821 -1407l-226 100l629 1078h-635z" />
    <glyph glyph-name="eight" unicode="8" horiz-adv-x="1163" 
d="M582 178q90 0 149 60t60 153t-59 153t-150 60t-150 -60t-59 -152q-1 -92 59 -154q60 -60 150 -60zM582 823q84 -1 137 53t53 138t-53 137t-137 53t-138 -53t-53 -137q-1 -84 53 -138t138 -53zM1057 373q0 -174 -130 -289t-345 -115t-345 115t-131 289q0 119 66 211
t178 129q-86 43 -141 120t-55 183q0 160 112 270t316 111q204 0 316 -111t112 -270q0 -106 -56 -183t-141 -120q113 -37 179 -129t65 -211z" />
    <glyph glyph-name="nine" unicode="9" horiz-adv-x="1163" 
d="M582 1184q-106 0 -178 -72t-72 -184t72 -180t179 -68t180 76t73 182t-74 176t-180 70zM488 467q-70 0 -153 31t-140 86q-129 122 -129 322t124 335q144 156 392 156q248 -1 384 -137t136 -334t-172 -426l-402 -537l-215 105l326 426q-81 -27 -151 -27z" />
    <glyph glyph-name="colon" unicode=":" horiz-adv-x="516" 
d="M98 131q0 68 46 114t114 46t114 -46t46 -114t-46 -114t-114 -46t-114 46t-46 114zM98 756q0 68 46 114t114 45q68 0 114 -46q46 -45 46 -113t-46 -114t-114 -46t-114 46t-46 114z" />
    <glyph glyph-name="semicolon" unicode=";" horiz-adv-x="671" 
d="M8 -268l217 551l230 -27l-289 -543zM172 756q0 68 46 114t114 45q68 0 114 -46q46 -45 46 -113t-46 -114t-114 -46t-114 46t-46 114z" />
    <glyph glyph-name="less" unicode="&#x3c;" 
d="M330 684l626 -307v-246l-888 447v213l888 446v-246z" />
    <glyph glyph-name="equal" unicode="=" 
d="M68 410v217h888v-217h-888zM68 762v217h888v-217h-888z" />
    <glyph glyph-name="greater" unicode="&#x3e;" 
d="M694 684l-626 307v246l888 -446v-213l-888 -447v246z" />
    <glyph glyph-name="question" unicode="?" horiz-adv-x="1003" 
d="M293 129q0 68 46 114t114 46q67 0 113 -46t46 -114t-46 -114t-114 -46t-113 46q-46 46 -46 114zM580 416h-254v401q33 -8 80 -8q123 0 192 70q53 57 53 135t-42 120q-43 42 -109 42t-107 -39t-41 -131h-266q0 166 102 276q111 115 314 115q203 1 309 -103
q107 -104 107 -274t-100 -270t-238 -119v-215z" />
    <glyph glyph-name="at" unicode="@" horiz-adv-x="1503" 
d="M740 471q62 -1 118 63q55 64 55 146q0 170 -133 170q-78 0 -132 -65t-54 -149t42 -125q42 -40 104 -40zM1057 522q0 -70 53 -69q45 0 94 67q80 109 80 256q0 184 -126 322t-363 137q-177 0 -309 -89t-191 -214q-59 -124 -59 -278t90 -294q148 -230 467 -231q197 0 383 68
l38 -156q-195 -66 -409 -66q-328 0 -522 181q-109 100 -162 236t-53 280q0 317 207 517q209 200 515 200q306 -1 476 -177t170 -421q0 -205 -104 -341t-234 -137q-57 0 -102 30q-44 30 -56 85q-94 -131 -252 -131q-123 0 -206 85q-83 84 -83 254t110 282t249 110
q139 0 200 -106l17 86h172l-82 -416q-8 -41 -8 -70z" />
    <glyph glyph-name="A" unicode="A" horiz-adv-x="1376" 
d="M498 504h389l-195 491zM1085 0l-120 287h-551l-121 -287h-289l588 1366h209l571 -1366h-287z" />
    <glyph glyph-name="B" unicode="B" horiz-adv-x="1167" 
d="M537 217q266 0 266 195q0 111 -101 155q-57 27 -182 27h-98v-377h115zM422 1149v-350h76q95 0 146 40q59 42 60 134q2 92 -56 134t-148 42h-78zM156 1366h338q223 0 333 -86q127 -98 127 -282t-153 -269q104 -16 178 -86q98 -94 98 -261q-1 -166 -121 -274t-342 -108
h-458v1366z" />
    <glyph glyph-name="C" unicode="C" horiz-adv-x="1236" 
d="M809 -31q-299 0 -500 191q-219 210 -219 532t219 525q193 180 502 180q180 0 336 -84v-312q-133 154 -332 154t-325 -140t-126 -346t140 -332q140 -127 328 -127t315 150v-311q-152 -80 -338 -80z" />
    <glyph glyph-name="D" unicode="D" horiz-adv-x="1372" 
d="M422 1137v-908h82q346 0 459 245q45 97 45 207t-44 207t-124 159q-121 90 -336 90h-82zM156 1366h356q162 0 283 -28t235 -114t184 -228q68 -144 68 -314q0 -358 -274 -551q-111 -79 -226 -105t-274 -26h-352v1366z" />
    <glyph glyph-name="E" unicode="E" horiz-adv-x="1015" 
d="M913 1366v-229h-491v-306h471v-229h-471v-373h491v-229h-757v1366h757z" />
    <glyph glyph-name="F" unicode="F" horiz-adv-x="954" 
d="M881 1366v-229h-459v-306h430v-229h-430v-602h-266v1366h725z" />
    <glyph glyph-name="G" unicode="G" horiz-adv-x="1564" 
d="M848 502v229h627v-16q0 -367 -201 -565q-180 -180 -488 -180t-502 193q-194 194 -194 509t203 520t536 205q180 0 316 -72q158 -80 256 -250l-232 -125q-55 106 -150 156t-202 49q-193 0 -323 -127t-129 -348q0 -221 128 -345t299 -124t274 79t134 212h-352z" />
    <glyph glyph-name="H" unicode="H" horiz-adv-x="1421" 
d="M422 1366v-528h577v528h267v-1366h-267v608h-577v-608h-266v1366h266z" />
    <glyph glyph-name="I" unicode="I" horiz-adv-x="577" 
d="M156 1366h266v-1366h-266v1366z" />
    <glyph glyph-name="J" unicode="J" horiz-adv-x="798" 
d="M377 1366h266v-922q0 -305 -160 -413q-94 -61 -223 -62q-180 0 -313 127l162 195q51 -74 129 -74t108 46t31 222v881z" />
    <glyph glyph-name="K" unicode="K" horiz-adv-x="1302" 
d="M422 1366v-578l502 578h336l-578 -631l608 -735h-352l-485 612l-31 -30v-582h-266v1366h266z" />
    <glyph glyph-name="L" unicode="L" horiz-adv-x="872" 
d="M156 1366h266v-1137h422v-229h-688v1366z" />
    <glyph glyph-name="M" unicode="M" horiz-adv-x="1781" 
d="M86 0l254 1366h192l363 -868l379 868h192l230 -1366h-271l-122 842l-367 -842h-90l-350 842l-140 -842h-270z" />
    <glyph glyph-name="N" unicode="N" horiz-adv-x="1593" 
d="M422 0h-266v1366h184l831 -911v911h267v-1366h-185l-831 913v-913z" />
    <glyph glyph-name="O" unicode="O" horiz-adv-x="1638" 
d="M819 211q201 0 328 132t127 339t-128 340t-327 133t-327 -133t-127 -340t127 -339t327 -132zM819 1397q322 0 526 -201q203 -201 203 -514t-204 -513t-525 -200t-525 200t-204 513t204 514t525 201z" />
    <glyph glyph-name="P" unicode="P" horiz-adv-x="1093" 
d="M422 1137v-402h108q117 0 183 50q65 49 65 151q-1 201 -264 201h-92zM156 1366h397q127 0 208 -22t152 -82q139 -123 139 -323q0 -201 -116 -317q-117 -116 -342 -116h-172v-506h-266v1366z" />
    <glyph glyph-name="Q" unicode="Q" horiz-adv-x="1638" 
d="M1274 698q0 190 -128 324q-128 133 -327 133t-327 -133t-127 -340q0 -207 128 -339t332 -132q113 0 203 45l-278 270l276 23l158 -162q90 121 90 311zM90 682q0 313 204 514t526 201t525 -201t203 -500t-180 -499l221 -224l-268 -26l-113 121q-166 -98 -389 -99
q-321 0 -525 200t-204 513z" />
    <glyph glyph-name="R" unicode="R" horiz-adv-x="1175" 
d="M760 944q0 205 -258 205h-80v-412h76q68 1 133 23q129 44 129 184zM156 1366h395q225 0 354 -108t129 -312q0 -203 -160 -311q-61 -43 -149 -60l426 -575h-332l-364 549h-33v-549h-266v1366z" />
    <glyph glyph-name="S" unicode="S" horiz-adv-x="1093" 
d="M416 1016q0 -59 38 -93q38 -35 205 -93t240 -125q117 -104 117 -296t-132 -316t-343 -124q-295 0 -471 258l174 166q45 -92 125 -137q81 -45 167 -45t146 52q59 52 59 130t-51 126q-51 47 -208 101t-232 121q-109 94 -109 257t113 281t335 118t378 -160l-140 -182
q-88 117 -223 116q-98 0 -143 -48t-45 -107z" />
    <glyph glyph-name="T" unicode="T" horiz-adv-x="905" 
d="M893 1137h-307v-1137h-267v1137h-307v229h881v-229z" />
    <glyph glyph-name="U" unicode="U" horiz-adv-x="1409" 
d="M156 1366h266v-858q0 -129 65 -203q77 -94 217 -94t218 94q66 74 65 203v858h266v-836q0 -383 -294 -510q-121 -51 -255 -51t-254 51q-294 125 -294 510v836z" />
    <glyph glyph-name="V" unicode="V" horiz-adv-x="1318" 
d="M4 1366h291l364 -917l365 917h291l-578 -1366h-159z" />
    <glyph glyph-name="W" unicode="W" horiz-adv-x="2002" 
d="M993 866l-313 -866h-201l-475 1366h283l305 -930l334 942h147l316 -942l327 930h283l-506 -1366h-201z" />
    <glyph glyph-name="X" unicode="X" horiz-adv-x="1310" 
d="M16 0l484 721l-408 645h320l239 -424l252 424h320l-420 -645l467 -721h-320l-299 500l-315 -500h-320z" />
    <glyph glyph-name="Y" unicode="Y" horiz-adv-x="1208" 
d="M465 0v625l-469 741h315l293 -475l293 475h315l-481 -741v-625h-266z" />
    <glyph glyph-name="Z" unicode="Z" horiz-adv-x="1196" 
d="M1118 229v-229h-1073l664 1137h-559v229h1001l-664 -1137h631z" />
    <glyph glyph-name="bracketleft" unicode="[" horiz-adv-x="716" 
d="M614 1280h-192v-1436h192v-213h-430v1862h430v-213z" />
    <glyph glyph-name="backslash" unicode="\" horiz-adv-x="1337" 
d="M1378 -348l-180 -82l-1075 1903l180 81z" />
    <glyph glyph-name="bracketright" unicode="]" horiz-adv-x="716" 
d="M102 -156h193v1436h-193v213h430v-1862h-430v213z" />
    <glyph glyph-name="asciicircum" unicode="^" 
d="M512 1182l-236 -494h-260l332 678h328l332 -678h-260z" />
    <glyph glyph-name="underscore" unicode="_" 
d="M0 -324v213h1024v-213h-1024z" />
    <glyph glyph-name="grave" unicode="`" 
d="M500 1044l-307 275l180 115l241 -308z" />
    <glyph glyph-name="a" unicode="a" horiz-adv-x="1167" 
d="M578 694q-106 0 -177 -71q-69 -73 -69 -179t70 -179t176 -73t176 74q70 72 69 178q0 106 -69 179q-70 71 -176 71zM799 887h250v-887h-250v115q-100 -143 -273 -144q-200 -1 -326 137t-126 338t123 334q123 135 317 135t285 -143v115z" />
    <glyph glyph-name="b" unicode="b" horiz-adv-x="1167" 
d="M590 694q-106 0 -176 -72t-70 -178t70 -179t176 -73t176 74q70 72 70 178t-70 178t-176 72zM369 1493v-721q103 143 293 143t311 -133t121 -338t-124 -339t-310 -134t-291 144v-115h-250v1493h250z" />
    <glyph glyph-name="c" unicode="c" horiz-adv-x="856" 
d="M582 694q-120 0 -185 -72t-65 -180q0 -106 72 -178t185 -72q112 0 197 78v-243q-111 -55 -229 -56q-207 0 -345 131t-138 347t153 352q129 115 320 114q128 0 239 -53v-246q-84 78 -204 78z" />
    <glyph glyph-name="d" unicode="d" horiz-adv-x="1167" 
d="M578 694q-106 0 -177 -71q-69 -73 -69 -179t70 -179t176 -73t176 74q70 72 69 178q0 106 -69 179q-70 71 -176 71zM799 1493h250v-1493h-250v115q-100 -143 -273 -144q-200 -1 -326 137t-126 338t123 334q123 135 317 135t285 -143v721z" />
    <glyph glyph-name="e" unicode="e" horiz-adv-x="1069" 
d="M550 739q-76 0 -136 -47t-74 -131h420q-14 86 -74 132t-136 46zM553 -29q-209 0 -344 128t-135 342q0 215 131 345t347 130t330 -137q114 -136 113 -357v-21h-663q0 -90 43 -149q61 -84 189 -84t196 117l229 -37q-27 -71 -110 -161q-49 -52 -133 -84t-193 -32z" />
    <glyph glyph-name="f" unicode="f" horiz-adv-x="598" 
d="M602 674h-229v-674h-250v674h-94v213h94v243q0 217 117 314q88 74 219 74q78 0 143 -31v-227q-48 36 -110 36t-91 -44t-28 -154v-211h229v-213z" />
    <glyph glyph-name="g" unicode="g" horiz-adv-x="1163" 
d="M580 694q-102 0 -175 -66t-73 -178q0 -110 68 -184t172 -74t178 68t73 177q0 109 -71 186q-70 71 -172 71zM74 448q0 216 130 342t314 126t277 -144v115h249v-846q0 -125 -24 -218t-98 -169q-124 -125 -346 -125t-336 102q-109 92 -144 265h271q36 -154 213 -154
q92 0 153 58t62 194v125q-97 -147 -277 -147t-303 120q-141 141 -141 356z" />
    <glyph glyph-name="h" unicode="h" horiz-adv-x="1093" 
d="M119 0v1493h250v-721q102 143 275 143t261 -108q70 -86 70 -250v-557h-250v483q0 125 -45 172t-133 47t-133 -69t-45 -180v-453h-250z" />
    <glyph glyph-name="i" unicode="i" horiz-adv-x="487" 
d="M94 1262q0 61 44 105t106 44t105 -44q44 -44 44 -105q0 -62 -44 -106t-105 -44t-106 44q-44 45 -44 106zM119 887h250v-887h-250v887z" />
    <glyph glyph-name="j" unicode="j" horiz-adv-x="487" 
d="M94 1262q0 61 44 105t106 44t105 -44q44 -44 44 -105q0 -62 -44 -106t-105 -44t-106 44q-44 45 -44 106zM119 887h250v-1356h-250v1356z" />
    <glyph glyph-name="k" unicode="k" horiz-adv-x="1048" 
d="M119 1493h250v-930l331 324h324l-416 -389l449 -498h-332l-330 379l-26 -25v-354h-250v1493z" />
    <glyph glyph-name="l" unicode="l" horiz-adv-x="487" 
d="M119 1493h250v-1493h-250v1493z" />
    <glyph glyph-name="m" unicode="m" horiz-adv-x="1617" 
d="M541 702q-174 0 -172 -249v-453h-250v887h250v-101q102 129 264 129q199 0 280 -161q100 162 285 161q156 0 240 -108q39 -51 50 -107t11 -143v-557h-250v483q0 219 -143 219q-172 0 -172 -249v-453h-250v483q0 219 -143 219z" />
    <glyph glyph-name="n" unicode="n" horiz-adv-x="1093" 
d="M119 0v887h250v-115q102 143 275 143t261 -108q70 -86 70 -250v-557h-250v483q0 125 -45 172t-133 47t-133 -69t-45 -180v-453h-250z" />
    <glyph glyph-name="o" unicode="o" horiz-adv-x="1163" 
d="M582 193q106 -1 178 73t72 177t-72 178q-72 73 -178 73t-179 -73q-71 -73 -71 -177t71 -178q73 -73 179 -73zM582 915q224 1 366 -129t142 -342t-150 -348q-135 -125 -358 -125t-366 130q-142 130 -142 342t142 342t366 130z" />
    <glyph glyph-name="p" unicode="p" horiz-adv-x="1167" 
d="M344 443q0 -120 75 -185t173 -65q98 -1 171 67t73 184t-73 182q-73 68 -171 68t-164 -59q-84 -72 -84 -192zM369 -469h-250v1356h250v-115q100 143 286 143q187 1 313 -125t126 -348t-132 -347q-132 -123 -309 -123q-178 0 -284 143v-584z" />
    <glyph glyph-name="q" unicode="q" horiz-adv-x="1167" 
d="M576 694q-98 0 -171 -68t-73 -183q0 -116 73 -183t171 -67q98 -1 172 65t75 186q0 120 -84 191q-65 59 -163 59zM799 -469v584q-107 -143 -285 -143t-301 114q-139 133 -139 355q0 223 126 349t312 126t287 -144v115h250v-1356h-250z" />
    <glyph glyph-name="r" unicode="r" horiz-adv-x="737" 
d="M369 426v-426h-250v887h250v-133q85 163 258 161q49 0 106 -20l-33 -233q-47 33 -116 32q-215 0 -215 -268z" />
    <glyph glyph-name="s" unicode="s" horiz-adv-x="827" 
d="M457 735q-45 0 -71 -19t-26 -52q0 -53 80 -80l60 -19q174 -55 222 -121t48 -153q0 -135 -100 -227t-264 -93q-207 0 -345 148l132 151q88 -102 196 -102q53 0 88 26t35 70q0 61 -78 90l-57 21q-133 47 -196 113t-63 176t93 188q79 63 235 63t279 -94l-123 -145
q-63 59 -145 59z" />
    <glyph glyph-name="t" unicode="t" horiz-adv-x="552" 
d="M541 674h-172v-674h-250v674h-99v213h99v303h250v-303h172v-213z" />
    <glyph glyph-name="u" unicode="u" horiz-adv-x="1097" 
d="M119 887h250v-502q0 -105 52 -153t128 -48t128 47t52 154v502h250v-543q0 -178 -112 -275q-113 -97 -319 -97t-318 96q-112 98 -111 276v543z" />
    <glyph glyph-name="v" unicode="v" horiz-adv-x="1032" 
d="M4 887h279l233 -500l234 500h278l-446 -887h-131z" />
    <glyph glyph-name="w" unicode="w" horiz-adv-x="1622" 
d="M811 522l-233 -522h-123l-451 887h279l233 -512l238 512h114l238 -512l233 512h279l-451 -887h-123z" />
    <glyph glyph-name="x" unicode="x" horiz-adv-x="1159" 
d="M4 0l422 483l-340 404h315l181 -230l184 230h315l-346 -404l420 -483h-319l-254 309l-258 -309h-320z" />
    <glyph glyph-name="y" unicode="y" horiz-adv-x="1101" 
d="M100 -469l326 602l-422 754h291l274 -504l246 504h283l-715 -1356h-283z" />
    <glyph glyph-name="z" unicode="z" horiz-adv-x="991" 
d="M932 213v-213h-907l503 674h-426v213h865l-504 -674h469z" />
    <glyph glyph-name="braceleft" unicode="{" 
d="M604 1151v-334q0 -105 -24 -157t-99 -99q74 -47 99 -99t24 -157v-332q0 -69 29 -97t137 -28h49v-213q-66 -4 -131 -4q-242 0 -297 132q-18 44 -21 76t-3 85v371q0 82 -31 117t-82 43v213q113 18 113 159v373q0 53 3 85t21 76q54 132 297 132q66 0 131 -4v-213h-49
q-110 0 -138 -28t-28 -97z" />
    <glyph glyph-name="bar" unicode="|" 
d="M387 -512v2048h250v-2048h-250z" />
    <glyph glyph-name="braceright" unicode="}" 
d="M420 817v334q0 69 -29 97t-137 28h-49v213q66 4 131 4q243 0 297 -132q18 -44 21 -76t3 -85v-373q0 -83 31 -117t82 -42v-213q-51 -8 -82 -43t-31 -117v-371q0 -53 -3 -85t-21 -76q-53 -131 -297 -132q-66 0 -131 4v213h49q110 0 138 29t28 96v332q0 105 24 157t99 99
q-75 47 -99 99t-24 157z" />
    <glyph glyph-name="asciitilde" unicode="~" 
d="M12 467q99 287 295 287q79 0 227 -54t183 -53q94 0 151 111l144 -82q-115 -271 -310 -268q-72 0 -213 53t-185 53t-85 -34t-63 -95z" />
    <glyph glyph-name="uni00A0" unicode="&#xa0;" horiz-adv-x="477" 
 />
    <glyph glyph-name="exclamdown" unicode="&#xa1;" horiz-adv-x="514" 
d="M418 762q0 -68 -46 -114t-114 -46t-114 46t-46 114t46 114t114 46t114 -46t46 -114zM131 479h254v-950h-254v950z" />
    <glyph glyph-name="cent" unicode="&#xa2;" horiz-adv-x="1163" 
d="M575 1341h168v-190q88 -4 166 -45v-252q-74 90 -185 90t-184 -68t-73 -194q-1 -126 69 -190t188 -64t185 90v-254q-80 -39 -166 -43v-194h-168v190q-147 20 -247 125q-127 133 -127 343t135 345q100 100 239 125v186z" />
    <glyph glyph-name="sterling" unicode="&#xa3;" horiz-adv-x="1163" 
d="M96 504v180h133q-76 137 -75 262q0 193 134 322t357 129t348 -125t125 -346v-25h-270q2 10 2 35q0 113 -57 170t-153 57q-96 -1 -158 -63t-62 -157t47 -193l33 -66h303v-180h-246q14 -53 14 -116t-24 -122l76 -26q164 -57 217 -58q98 0 125 111l182 -39
q-68 -285 -311 -285q-92 0 -249 52t-218 53q-106 0 -140 -92l-192 34q29 109 107 181t182 86q41 91 2 221h-232z" />
    <glyph glyph-name="currency" unicode="&#xa4;" horiz-adv-x="1368" 
d="M684 475q127 0 207 83t80 208t-80 208t-207 83t-207 -83t-80 -208t80 -208t207 -83zM684 1278q168 0 289 -92l211 211l135 -135l-211 -211q92 -117 92 -285t-92 -285l211 -211l-135 -135l-211 211q-121 -92 -289 -92t-289 92l-211 -211l-135 135l211 211q-92 117 -92 285
t92 285l-211 211l135 135l211 -211q121 92 289 92z" />
    <glyph glyph-name="yen" unicode="&#xa5;" horiz-adv-x="1163" 
d="M1069 930v-185h-291l-73 -129h364v-184h-364v-432h-246v432h-365v184h365l-74 129h-291v185h180l-264 436h295l277 -479l276 479h295l-264 -436h180z" />
    <glyph glyph-name="brokenbar" unicode="&#xa6;" 
d="M387 -512v737h250v-737h-250zM387 799v737h250v-737h-250z" />
    <glyph glyph-name="section" unicode="&#xa7;" horiz-adv-x="1163" 
d="M412 561q0 -74 48 -126t121 -52t122 49t49 129t-50 129t-120 49t-121 -51q-49 -53 -49 -127zM203 1161q0 131 82 219q109 113 303 113q194 -1 288 -105t95 -264h-246v9q0 71 -40 113t-100 42q-59 0 -101 -36t-42 -93t60 -104q29 -23 188 -89t232 -141q92 -98 92 -227
t-62 -222t-170 -138q72 -35 113 -88q66 -78 66 -179q-1 -139 -107 -239t-286 -100t-281 106q-107 106 -107 282h250q0 -88 49 -137q35 -39 100 -39t103 40t37 95q0 55 -45 91q-46 36 -142 75q-96 38 -133 54t-92 54q-158 110 -157 314q0 94 40 170q66 115 195 152
q-182 83 -182 272z" />
    <glyph glyph-name="dieresis" unicode="&#xa8;" 
d="M578 1200q0 60 44 104t103 44t103 -44t44 -104t-44 -103q-44 -44 -103 -44t-103 44t-44 103zM152 1200q0 60 44 104t103 44t103 -44t44 -104t-44 -103q-44 -44 -103 -44t-103 44t-44 103z" />
    <glyph glyph-name="copyright" unicode="&#xa9;" horiz-adv-x="1556" 
d="M826 942q-112 0 -184 -75t-73 -189q0 -114 73 -184q74 -72 186 -72t196 84l23 22v-223q-98 -51 -220 -51q-195 0 -325 122t-129 296q0 174 121 306t327 132q130 0 226 -53v-223l-23 22q-86 86 -198 86zM778 1270q-238 0 -402 -171t-165 -416q0 -245 165 -416
q164 -171 402 -171t403 171t165 416t-165 416t-403 171zM778 1397q299 0 505 -205t206 -510t-206 -509t-505 -204t-505 204t-205 509q0 305 205 510q206 205 505 205z" />
    <glyph glyph-name="ordfeminine" unicode="&#xaa;" horiz-adv-x="704" 
d="M72 596v115h567v-115h-567zM356 928q60 0 104 43t44 109t-46 108q-46 41 -108 41q-64 0 -102 -43q-45 -46 -45 -108t45 -107q47 -43 108 -43zM317 1366q112 0 170 -86v70h152v-541h-152v72q-65 -92 -173 -91q-109 0 -189 76t-80 210t86 220q74 70 186 70z" />
    <glyph glyph-name="guillemotleft" unicode="&#xab;" horiz-adv-x="1052" 
d="M700 449l250 -336l-143 -103l-324 439l324 438l143 -103zM299 449l250 -336l-143 -103l-324 439l324 438l143 -103z" />
    <glyph glyph-name="logicalnot" unicode="&#xac;" 
d="M956 0h-249v322h-639v229h888v-551z" />
    <glyph glyph-name="uni00AD" unicode="&#xad;" horiz-adv-x="737" 
d="M102 356v230h533v-230h-533z" />
    <glyph glyph-name="registered" unicode="&#xae;" horiz-adv-x="1556" 
d="M879 842q0 104 -117 102h-68v-211h62q63 0 93 30t30 79zM539 1079h241q132 0 196 -63q64 -64 64 -164t-50 -154t-134 -65l248 -320h-182l-228 293v-293h-155v766zM778 96q225 0 396 166q172 166 172 418t-170 421t-399 169q-230 0 -398 -169t-168 -415q0 -127 47 -240
q47 -112 121 -186t180 -119t219 -45zM780 1397q295 0 502 -206t207 -505t-198 -508t-508 -209t-513 204q-202 204 -202 516t219 517q198 191 493 191z" />
    <glyph glyph-name="macron" unicode="&#xaf;" 
d="M139 1104v164h746v-164h-746z" />
    <glyph glyph-name="degree" unicode="&#xb0;" 
d="M512 1219q-72 0 -117 -45t-45 -115t45 -115t117 -45t117 45t45 115t-45 115t-117 45zM512 1366q133 0 223 -87t90 -220t-90 -220t-223 -87t-223 87t-90 220t90 220t223 87z" />
    <glyph glyph-name="plusminus" unicode="&#xb1;" 
d="M68 106v230h888v-230h-888zM68 727v229h319v320h250v-320h319v-229h-319v-319h-250v319h-319z" />
    <glyph glyph-name="twosuperior" unicode="&#xb2;" horiz-adv-x="778" 
d="M485 1118q0 119 -119 119q-58 0 -94 -36t-34 -91h-172q4 125 86 200q82 74 212 74t213 -74q81 -75 80 -186q1 -80 -37 -144t-108 -142l-127 -144h279v-147h-615l244 274q131 152 145 172q47 68 47 125z" />
    <glyph glyph-name="threesuperior" unicode="&#xb3;" horiz-adv-x="778" 
d="M378 1384q124 0 192 -66t67 -155q0 -123 -102 -176q133 -45 133 -196q0 -111 -79 -187t-214 -76t-221 71t-97 194h172q6 -53 42 -85t98 -32q63 0 95 36t32 84t-33 82t-103 33h-41v136h41q55 1 84 31t29 71t-28 71q-29 30 -79 30t-81 -30t-33 -77h-160q12 117 87 179
t199 62z" />
    <glyph glyph-name="acute" unicode="&#xb4;" 
d="M651 1434l180 -115l-307 -275l-114 82z" />
    <glyph glyph-name="mu" unicode="&#xb5;" horiz-adv-x="1146" 
d="M369 -469h-250v1356h250v-428q0 -135 49 -207q20 -32 61 -56t99 -24q201 0 200 295v420h250v-887h-250v123q-25 -66 -79 -109t-128 -43q-137 0 -202 135v-575z" />
    <glyph glyph-name="mu" unicode="&#x3bc;" horiz-adv-x="1146" 
d="M369 -469h-250v1356h250v-428q0 -135 49 -207q20 -32 61 -56t99 -24q201 0 200 295v420h250v-887h-250v123q-25 -66 -79 -109t-128 -43q-137 0 -202 135v-575z" />
    <glyph glyph-name="paragraph" unicode="&#xb6;" horiz-adv-x="1339" 
d="M659 -190h-213v845h-26q-162 -1 -264 95t-103 254q0 225 193 317q96 45 278 45h668v-192h-143v-1364h-213v1364h-177v-1364z" />
    <glyph glyph-name="periodcentered" unicode="&#xb7;" horiz-adv-x="409" 
d="M16 586q0 78 56 133t133 55q78 0 133 -55t55 -133t-55 -133t-133 -55q-77 0 -133 54q-56 56 -56 134z" />
    <glyph glyph-name="cedilla" unicode="&#xb8;" 
d="M537 -94l180 -90l-246 -299l-131 82z" />
    <glyph glyph-name="onesuperior" unicode="&#xb9;" horiz-adv-x="778" 
d="M340 547v672h-164v147h336v-819h-172z" />
    <glyph glyph-name="ordmasculine" unicode="&#xba;" horiz-adv-x="688" 
d="M344 1229q-63 0 -104 -41t-41 -110q0 -70 41 -110t104 -40t105 41q41 41 41 109t-41 110q-42 41 -105 41zM63 711h562v-115h-562v115zM342 791q-141 0 -220 86q-79 87 -79 203t81 201t219 85t220 -82t82 -206t-81 -206t-222 -81z" />
    <glyph glyph-name="guillemotright" unicode="&#xbb;" horiz-adv-x="1052" 
d="M754 449l-250 335l143 103l324 -438l-324 -439l-143 103zM352 449l-250 335l144 103l323 -438l-323 -439l-144 103z" />
    <glyph glyph-name="onequarter" unicode="&#xbc;" horiz-adv-x="1761" 
d="M1440 295v297l-195 -297h195zM1604 819v-524h96v-139h-96v-156h-164v156h-408v71l408 592h164zM463 6l813 1405l108 -61l-813 -1407zM340 547v672h-164v147h336v-819h-172z" />
    <glyph glyph-name="onehalf" unicode="&#xbd;" horiz-adv-x="1761" 
d="M1468 572q0 118 -119 118q-57 0 -93 -36t-35 -91h-172q4 125 86 200q83 75 213 75t212 -75t80 -185q0 -80 -38 -145t-107 -142l-127 -144h279v-147h-615l244 274q131 152 145 172q47 68 47 126zM381 6l813 1405l109 -61l-814 -1407zM340 547v672h-164v147h336v-819h-172z
" />
    <glyph glyph-name="threequarters" unicode="&#xbe;" horiz-adv-x="1761" 
d="M1604 819v-524h96v-139h-96v-156h-164v156h-408v71l408 592h164zM1440 295v297l-195 -297h195zM483 6l813 1405l109 -61l-813 -1407zM365 676q63 0 97 34t34 86t-35 84t-113 31h-29v136h19q72 0 104 30q31 31 31 75t-31 71q-32 27 -80 27t-78 -32q-30 -30 -32 -75h-160
q10 111 86 176q72 65 196 65t194 -64t69 -144q0 -138 -102 -189q45 -14 75 -45q58 -56 58 -158t-77 -179t-221 -77t-226 81t-87 184h172q18 -117 136 -117z" />
    <glyph glyph-name="questiondown" unicode="&#xbf;" horiz-adv-x="1003" 
d="M711 762q0 -68 -46 -114t-114 -46t-114 46t-46 114t46 114t114 46t114 -46t46 -114zM424 485h254v-401q-33 8 -80 8q-123 0 -192 -69q-54 -57 -54 -135t42 -120t109 -42t107 38t41 123v9h267q0 -166 -103 -277q-111 -115 -313 -115t-309 104t-107 273q0 171 100 271
t238 118v215z" />
    <glyph glyph-name="Agrave" unicode="&#xc0;" horiz-adv-x="1376" 
d="M737 1491l-356 250l184 143l287 -291zM498 504h389l-195 491zM1085 0l-120 287h-551l-121 -287h-289l588 1366h209l571 -1366h-287z" />
    <glyph glyph-name="Aacute" unicode="&#xc1;" horiz-adv-x="1376" 
d="M639 1491l-115 102l287 291l184 -143zM498 504h389l-195 491zM1085 0l-120 287h-551l-121 -287h-289l588 1366h209l571 -1366h-287z" />
    <glyph glyph-name="Acircumflex" unicode="&#xc2;" horiz-adv-x="1376" 
d="M688 1679l-246 -180l-123 131l369 275l369 -275l-123 -131zM498 504h389l-195 491zM1085 0l-120 287h-551l-121 -287h-289l588 1366h209l571 -1366h-287z" />
    <glyph glyph-name="Atilde" unicode="&#xc3;" horiz-adv-x="1376" 
d="M530 1794q49 0 140 -35l80 -33q116 -50 165 0q17 17 33 54l133 -99q-37 -76 -92 -120q-63 -57 -129 -57t-151 34l-72 29q-82 31 -102 30q-68 0 -103 -79l-137 98q94 178 235 178zM498 504h389l-195 491zM1085 0l-120 287h-551l-121 -287h-289l588 1366h209l571 -1366
h-287z" />
    <glyph glyph-name="Adieresis" unicode="&#xc4;" horiz-adv-x="1376" 
d="M770 1661q0 59 44 103t104 44t103 -44q44 -44 44 -103t-44 -103t-103 -44q-60 0 -104 44t-44 103zM311 1661q0 59 44 103q43 44 103 44t104 -44t44 -103t-44 -103t-103 -44t-103 44t-45 103zM498 504h389l-195 491zM1085 0l-120 287h-551l-121 -287h-289l588 1366h209
l571 -1366h-287z" />
    <glyph glyph-name="Aring" unicode="&#xc5;" horiz-adv-x="1376" 
d="M485 1692q1 86 59 144t144 58t144 -58t59 -144q0 -86 -58 -144q-59 -58 -145 -59q-86 1 -144 59t-59 144zM606 1692q0 -35 24 -59q24 -23 58 -23t58 24t24 58t-24 58t-58 24t-58 -24t-24 -58zM498 504h389l-195 491zM1085 0l-120 287h-551l-121 -287h-289l588 1366h209
l571 -1366h-287z" />
    <glyph glyph-name="AE" unicode="&#xc6;" horiz-adv-x="1884" 
d="M504 504h389l-188 491zM1092 0l-121 287h-551l-121 -287h-287l592 1366h721l90 -229h-502l123 -306h494l94 -229h-496l150 -373h504l90 -229h-780z" />
    <glyph glyph-name="Ccedilla" unicode="&#xc7;" horiz-adv-x="1236" 
d="M733 -94l197 -90l-250 -316l-135 74zM809 -31q-299 0 -500 191q-219 210 -219 532t219 525q193 180 502 180q180 0 336 -84v-312q-133 154 -332 154t-325 -140t-126 -346t140 -332q140 -127 328 -127t315 150v-311q-152 -80 -338 -80z" />
    <glyph glyph-name="Egrave" unicode="&#xc8;" horiz-adv-x="1015" 
d="M557 1491l-356 250l184 143l287 -291zM913 1366v-229h-491v-306h471v-229h-471v-373h491v-229h-757v1366h757z" />
    <glyph glyph-name="Eacute" unicode="&#xc9;" horiz-adv-x="1015" 
d="M504 1491l-115 102l287 291l184 -143zM913 1366v-229h-491v-306h471v-229h-471v-373h491v-229h-757v1366h757z" />
    <glyph glyph-name="Ecircumflex" unicode="&#xca;" horiz-adv-x="1015" 
d="M532 1679l-245 -180l-123 131l368 275l369 -275l-123 -131zM913 1366v-229h-491v-306h471v-229h-471v-373h491v-229h-757v1366h757z" />
    <glyph glyph-name="Edieresis" unicode="&#xcb;" horiz-adv-x="1015" 
d="M614 1661q0 59 44 103t104 44t103 -44q44 -44 44 -103t-44 -103t-103 -44q-60 0 -104 44t-44 103zM156 1661q0 59 44 103t103 44t103 -44t45 -103q0 -59 -44 -103q-43 -44 -103 -44t-104 44t-44 103zM913 1366v-229h-491v-306h471v-229h-471v-373h491v-229h-757v1366h757
z" />
    <glyph glyph-name="Igrave" unicode="&#xcc;" horiz-adv-x="577" 
d="M324 1491l-344 233l176 140l278 -275zM156 1366h266v-1366h-266v1366z" />
    <glyph glyph-name="Iacute" unicode="&#xcd;" horiz-adv-x="577" 
d="M422 1864l176 -140l-344 -233l-111 98zM156 1366h266v-1366h-266v1366z" />
    <glyph glyph-name="Icircumflex" unicode="&#xce;" horiz-adv-x="577" 
d="M289 1683l-189 -163l-110 110l299 254l299 -254l-111 -110zM156 1366h266v-1366h-266v1366z" />
    <glyph glyph-name="Idieresis" unicode="&#xcf;" horiz-adv-x="577" 
d="M319 1661q0 59 35 103t84 44t84 -44t35 -103t-35 -103t-84 -44t-84 44t-35 103zM12 1661q0 59 35 103t84 44t84 -44t35 -103t-35 -103t-84 -44t-84 44t-35 103zM156 1366h266v-1366h-266v1366z" />
    <glyph glyph-name="Eth" unicode="&#xd0;" horiz-adv-x="1370" 
d="M422 1137v-285h250v-205h-250v-418h82q344 0 457 245q45 97 45 212t-49 210q-48 95 -119 151q-117 90 -334 90h-82zM156 1366h356q162 0 283 -28t235 -112t182 -230q68 -144 68 -314q0 -354 -272 -551q-111 -79 -226 -105t-274 -26h-352v647h-176v205h176v514z" />
    <glyph glyph-name="Ntilde" unicode="&#xd1;" horiz-adv-x="1593" 
d="M662 1794q49 0 139 -35l80 -33q115 -49 166 0q16 17 32 54l133 -99q-37 -76 -92 -120q-62 -57 -128 -57t-152 34l-72 29q-82 31 -102 30q-68 0 -103 -79l-137 98q94 178 236 178zM422 0h-266v1366h184l831 -911v911h267v-1366h-185l-831 913v-913z" />
    <glyph glyph-name="Ograve" unicode="&#xd2;" horiz-adv-x="1638" 
d="M868 1491l-356 250l184 143l287 -291zM819 211q201 0 328 132t127 339t-128 340t-327 133t-327 -133t-127 -340t127 -339t327 -132zM819 1397q322 0 526 -201q203 -201 203 -514t-204 -513t-525 -200t-525 200t-204 513t204 514t525 201z" />
    <glyph glyph-name="Oacute" unicode="&#xd3;" horiz-adv-x="1638" 
d="M770 1491l-115 102l287 291l184 -143zM819 211q201 0 328 132t127 339t-128 340t-327 133t-327 -133t-127 -340t127 -339t327 -132zM819 1397q322 0 526 -201q203 -201 203 -514t-204 -513t-525 -200t-525 200t-204 513t204 514t525 201z" />
    <glyph glyph-name="Ocircumflex" unicode="&#xd4;" horiz-adv-x="1638" 
d="M819 1679l-246 -180l-122 131l368 275l369 -275l-123 -131zM819 211q201 0 328 132t127 339t-128 340t-327 133t-327 -133t-127 -340t127 -339t327 -132zM819 1397q322 0 526 -201q203 -201 203 -514t-204 -513t-525 -200t-525 200t-204 513t204 514t525 201z" />
    <glyph glyph-name="Otilde" unicode="&#xd5;" horiz-adv-x="1638" 
d="M662 1794q49 0 139 -35l80 -33q115 -49 166 0q16 17 32 54l133 -99q-37 -76 -92 -120q-62 -57 -128 -57t-152 34l-72 29q-82 31 -102 30q-68 0 -103 -79l-137 98q94 178 236 178zM819 211q201 0 328 132t127 339t-128 340t-327 133t-327 -133t-127 -340t127 -339
t327 -132zM819 1397q322 0 526 -201q203 -201 203 -514t-204 -513t-525 -200t-525 200t-204 513t204 514t525 201z" />
    <glyph glyph-name="Odieresis" unicode="&#xd6;" horiz-adv-x="1638" 
d="M901 1661q0 59 44 103q43 44 103 44t104 -44t44 -103t-44 -103t-103 -44t-103 44t-45 103zM442 1661q0 59 44 103t104 44t103 -44q44 -44 44 -103t-44 -103t-103 -44q-60 0 -104 44t-44 103zM819 211q201 0 328 132t127 339t-128 340t-327 133t-327 -133t-127 -340
t127 -339t327 -132zM819 1397q322 0 526 -201q203 -201 203 -514t-204 -513t-525 -200t-525 200t-204 513t204 514t525 201z" />
    <glyph glyph-name="multiply" unicode="&#xd7;" 
d="M90 440l254 254l-254 254l168 168l254 -254l254 254l168 -168l-254 -254l254 -254l-168 -168l-254 254l-254 -254z" />
    <glyph glyph-name="Oslash" unicode="&#xd8;" horiz-adv-x="1662" 
d="M831 1155q-190 0 -322 -127t-132 -352q0 -134 59 -240l649 647q-117 72 -254 72zM831 211q199 0 327 132t128 339q0 131 -59 246l-647 -647q119 -70 251 -70zM831 1397q250 0 439 -127l182 180l150 -150l-181 -180q139 -195 140 -436q0 -307 -199 -511t-531 -204
q-258 0 -438 127l-182 -182l-150 149l181 181q-139 197 -140 438q0 309 203 512t526 203z" />
    <glyph glyph-name="Ugrave" unicode="&#xd9;" horiz-adv-x="1409" 
d="M754 1491l-357 250l185 143l286 -291zM156 1366h266v-858q0 -129 65 -203q77 -94 217 -94t218 94q66 74 65 203v858h266v-836q0 -383 -294 -510q-121 -51 -255 -51t-254 51q-294 125 -294 510v836z" />
    <glyph glyph-name="Uacute" unicode="&#xda;" horiz-adv-x="1409" 
d="M655 1491l-114 102l286 291l185 -143zM156 1366h266v-858q0 -129 65 -203q77 -94 217 -94t218 94q66 74 65 203v858h266v-836q0 -383 -294 -510q-121 -51 -255 -51t-254 51q-294 125 -294 510v836z" />
    <glyph glyph-name="Ucircumflex" unicode="&#xdb;" horiz-adv-x="1409" 
d="M705 1679l-246 -180l-123 131l369 275l368 -275l-123 -131zM156 1366h266v-858q0 -129 65 -203q77 -94 217 -94t218 94q66 74 65 203v858h266v-836q0 -383 -294 -510q-121 -51 -255 -51t-254 51q-294 125 -294 510v836z" />
    <glyph glyph-name="Udieresis" unicode="&#xdc;" horiz-adv-x="1409" 
d="M786 1661q0 59 44 103t104 44t103 -44q44 -44 44 -103t-44 -103t-103 -44q-60 0 -104 44t-44 103zM328 1661q0 59 44 103t103 44t103 -44t45 -103q0 -59 -44 -103q-43 -44 -103 -44t-104 44t-44 103zM156 1366h266v-858q0 -129 65 -203q77 -94 217 -94t218 94
q66 74 65 203v858h266v-836q0 -383 -294 -510q-121 -51 -255 -51t-254 51q-294 125 -294 510v836z" />
    <glyph glyph-name="Yacute" unicode="&#xdd;" horiz-adv-x="1208" 
d="M555 1491l-115 102l287 291l184 -143zM465 0v625l-469 741h315l293 -475l293 475h315l-481 -741v-625h-266z" />
    <glyph glyph-name="Thorn" unicode="&#xde;" horiz-adv-x="1093" 
d="M422 952v-401h108q117 0 183 50q65 49 65 151q-1 199 -264 200h-92zM156 1366h266v-184h131q127 0 208 -22t152 -83q139 -123 139 -323t-116 -316q-117 -117 -342 -116h-172v-322h-266v1366z" />
    <glyph glyph-name="germandbls" unicode="&#xdf;" horiz-adv-x="1163" 
d="M369 0h-250v1073q0 215 115 330q116 115 318 115t316 -113t115 -268q0 -104 -55 -185q-35 -59 -115 -104q88 -25 160 -98q117 -117 117 -308q0 -88 -36 -181q-112 -290 -501 -290h-25v222q147 4 234 92q70 76 69 176q0 154 -124 219q-76 41 -179 41v213q98 0 156 53
t57 135q0 82 -50 128t-132 46t-136 -55t-54 -207v-1034z" />
    <glyph glyph-name="agrave" unicode="&#xe0;" horiz-adv-x="1167" 
d="M633 1044l-307 275l180 115l242 -308zM578 694q-106 0 -177 -71q-69 -73 -69 -179t70 -179t176 -73t176 74q70 72 69 178q0 106 -69 179q-70 71 -176 71zM799 887h250v-887h-250v115q-100 -143 -273 -144q-200 -1 -326 137t-126 338t123 334q123 135 317 135t285 -143
v115z" />
    <glyph glyph-name="aacute" unicode="&#xe1;" horiz-adv-x="1167" 
d="M723 1434l180 -115l-307 -275l-115 82zM578 694q-106 0 -177 -71q-69 -73 -69 -179t70 -179t176 -73t176 74q70 72 69 178q0 106 -69 179q-70 71 -176 71zM799 887h250v-887h-250v115q-100 -143 -273 -144q-200 -1 -326 137t-126 338t123 334q123 135 317 135t285 -143
v115z" />
    <glyph glyph-name="acircumflex" unicode="&#xe2;" horiz-adv-x="1167" 
d="M584 1233l-226 -189l-122 123l348 283l348 -283l-123 -123zM578 694q-106 0 -177 -71q-69 -73 -69 -179t70 -179t176 -73t176 74q70 72 69 178q0 106 -69 179q-70 71 -176 71zM799 887h250v-887h-250v115q-100 -143 -273 -144q-200 -1 -326 137t-126 338t123 334
q123 135 317 135t285 -143v115z" />
    <glyph glyph-name="atilde" unicode="&#xe3;" horiz-adv-x="1167" 
d="M244 1169q86 162 203 162q73 0 141 -26l78 -31q72 -29 108 -29q60 0 94 80l121 -98q-82 -162 -213 -162q-70 0 -145 33l-70 28q-59 25 -94 25t-61 -26t-37 -54zM578 694q-106 0 -177 -71q-69 -73 -69 -179t70 -179t176 -73t176 74q70 72 69 178q0 106 -69 179
q-70 71 -176 71zM799 887h250v-887h-250v115q-100 -143 -273 -144q-200 -1 -326 137t-126 338t123 334q123 135 317 135t285 -143v115z" />
    <glyph glyph-name="adieresis" unicode="&#xe4;" horiz-adv-x="1167" 
d="M684 1200q0 60 44 104t103 44t103 -44t45 -104q0 -60 -44 -103q-43 -44 -103 -44t-104 44t-44 103zM258 1200q0 60 44 104t104 44t103 -44q44 -44 44 -104t-44 -103q-44 -44 -103 -44t-104 44q-44 44 -44 103zM578 694q-106 0 -177 -71q-69 -73 -69 -179t70 -179t176 -73
t176 74q70 72 69 178q0 106 -69 179q-70 71 -176 71zM799 887h250v-887h-250v115q-100 -143 -273 -144q-200 -1 -326 137t-126 338t123 334q123 135 317 135t285 -143v115z" />
    <glyph glyph-name="aring" unicode="&#xe5;" horiz-adv-x="1167" 
d="M500 1229q0 -35 22 -58t58 -23t58 24q22 22 21 57t-23 57t-56 23q-34 -1 -58 -23q-22 -22 -22 -57zM387 1229q0 78 57 135q58 57 136 57t135 -57t57 -135t-57 -135q-57 -58 -135 -58t-136 58t-57 135zM578 694q-106 0 -177 -71q-69 -73 -69 -179t70 -179t176 -73t176 74
q70 72 69 178q0 106 -69 179q-70 71 -176 71zM799 887h250v-887h-250v115q-100 -143 -273 -144q-200 -1 -326 137t-126 338t123 334q123 135 317 135t285 -143v115z" />
    <glyph glyph-name="ae" unicode="&#xe6;" horiz-adv-x="1654" 
d="M1136 739q-76 0 -136 -47t-74 -131h420q-14 86 -74 132t-136 46zM315 267q0 -44 43 -82t134 -38t139 40q47 40 47 83t-45 76t-141 33t-136 -34q-41 -34 -41 -78zM1139 -29q-231 0 -344 168q-127 -168 -357 -168q-174 0 -269 83t-95 206t97 209t278 86q121 0 229 -61l2 43
q6 92 -76 145q-58 37 -164 37t-229 -35v199q207 47 363 25q50 -7 115 -42t106 -100q119 150 339 150t333 -137q114 -136 114 -357v-21h-663q-4 -88 43 -149q61 -84 189 -84t196 117l229 -37q-37 -94 -101 -156q-94 -88 -251 -114q-43 -7 -84 -7z" />
    <glyph glyph-name="ccedilla" unicode="&#xe7;" horiz-adv-x="856" 
d="M455 -94l180 -90l-246 -299l-131 82zM582 694q-120 0 -185 -72t-65 -180q0 -106 72 -178t185 -72q112 0 197 78v-243q-111 -55 -229 -56q-207 0 -345 131t-138 347t153 352q129 115 320 114q128 0 239 -53v-246q-84 78 -204 78z" />
    <glyph glyph-name="egrave" unicode="&#xe8;" horiz-adv-x="1069" 
d="M582 1044l-308 275l181 115l241 -308zM550 739q-76 0 -136 -47t-74 -131h420q-14 86 -74 132t-136 46zM553 -29q-209 0 -344 128t-135 342q0 215 131 345t347 130t330 -137q114 -136 113 -357v-21h-663q0 -90 43 -149q61 -84 189 -84t196 117l229 -37q-27 -71 -110 -161
q-49 -52 -133 -84t-193 -32z" />
    <glyph glyph-name="eacute" unicode="&#xe9;" horiz-adv-x="1069" 
d="M672 1434l180 -115l-307 -275l-115 82zM550 739q-76 0 -136 -47t-74 -131h420q-14 86 -74 132t-136 46zM553 -29q-209 0 -344 128t-135 342q0 215 131 345t347 130t330 -137q114 -136 113 -357v-21h-663q0 -90 43 -149q61 -84 189 -84t196 117l229 -37q-27 -71 -110 -161
q-49 -52 -133 -84t-193 -32z" />
    <glyph glyph-name="ecircumflex" unicode="&#xea;" horiz-adv-x="1069" 
d="M541 1233l-226 -189l-122 123l348 283l348 -283l-123 -123zM550 739q-76 0 -136 -47t-74 -131h420q-14 86 -74 132t-136 46zM553 -29q-209 0 -344 128t-135 342q0 215 131 345t347 130t330 -137q114 -136 113 -357v-21h-663q0 -90 43 -149q61 -84 189 -84t196 117
l229 -37q-27 -71 -110 -161q-49 -52 -133 -84t-193 -32z" />
    <glyph glyph-name="edieresis" unicode="&#xeb;" horiz-adv-x="1069" 
d="M606 1200q0 60 44 104t104 44t103 -44q44 -44 44 -104t-44 -103q-44 -44 -103 -44t-104 44q-44 44 -44 103zM180 1200q0 60 44 104t104 44t103 -44q44 -44 44 -104t-44 -103q-44 -44 -103 -44t-104 44q-44 44 -44 103zM550 739q-76 0 -136 -47t-74 -131h420
q-14 86 -74 132t-136 46zM553 -29q-209 0 -344 128t-135 342q0 215 131 345t347 130t330 -137q114 -136 113 -357v-21h-663q0 -90 43 -149q61 -84 189 -84t196 117l229 -37q-27 -71 -110 -161q-49 -52 -133 -84t-193 -32z" />
    <glyph glyph-name="igrave" unicode="&#xec;" horiz-adv-x="487" 
d="M229 1026l-225 344l205 66l156 -363zM119 887h250v-887h-250v887z" />
    <glyph glyph-name="iacute" unicode="&#xed;" horiz-adv-x="487" 
d="M279 1436l204 -66l-225 -344l-135 47zM119 887h250v-887h-250v887z" />
    <glyph glyph-name="icircumflex" unicode="&#xee;" horiz-adv-x="487" 
d="M244 1233l-178 -160l-115 115l293 262l293 -262l-115 -115zM119 887h250v-887h-250v887z" />
    <glyph glyph-name="idieresis" unicode="&#xef;" horiz-adv-x="487" 
d="M309 1200q0 60 44 104q43 44 103 44t104 -44t44 -104t-44 -103q-44 -44 -103 -44t-104 44q-44 44 -44 103zM-117 1200q0 60 44 104q43 44 103 44t104 -44t44 -104t-44 -103q-44 -44 -103 -44t-104 44q-44 44 -44 103zM119 887h250v-887h-250v887z" />
    <glyph glyph-name="eth" unicode="&#xf0;" horiz-adv-x="1118" 
d="M556 674q-93 0 -159 -64q-65 -64 -65 -176t64 -177q64 -64 160 -64q96 -1 158 67q60 68 60 174t-62 174q-62 66 -156 66zM1044 547q0 -297 -165 -455q-127 -121 -330 -121t-339 134t-136 340t137 331q117 111 280 111t265 -103q-27 195 -193 287l-401 -149l-45 131
l284 98q-133 49 -264 53l68 193q274 -20 467 -135l307 100l47 -145l-207 -66q225 -215 225 -604z" />
    <glyph glyph-name="ntilde" unicode="&#xf1;" horiz-adv-x="1093" 
d="M201 1169q86 162 203 162q73 0 141 -26l78 -31q71 -29 107 -29q60 0 95 80l121 -98q-82 -162 -213 -162q-70 0 -145 33l-70 28q-59 25 -94 25t-61 -26t-37 -54zM119 0v887h250v-115q102 143 275 143t261 -108q70 -86 70 -250v-557h-250v483q0 125 -45 172t-133 47
t-133 -69t-45 -180v-453h-250z" />
    <glyph glyph-name="ograve" unicode="&#xf2;" horiz-adv-x="1163" 
d="M602 1044l-307 275l180 115l242 -308zM582 193q106 -1 178 73t72 177t-72 178q-72 73 -178 73t-179 -73q-71 -73 -71 -177t71 -178q73 -73 179 -73zM582 915q224 1 366 -129t142 -342t-150 -348q-135 -125 -358 -125t-366 130q-142 130 -142 342t142 342t366 130z" />
    <glyph glyph-name="oacute" unicode="&#xf3;" horiz-adv-x="1163" 
d="M692 1434l180 -115l-307 -275l-114 82zM582 193q106 -1 178 73t72 177t-72 178q-72 73 -178 73t-179 -73q-71 -73 -71 -177t71 -178q73 -73 179 -73zM582 915q224 1 366 -129t142 -342t-150 -348q-135 -125 -358 -125t-366 130q-142 130 -142 342t142 342t366 130z" />
    <glyph glyph-name="ocircumflex" unicode="&#xf4;" horiz-adv-x="1163" 
d="M582 1233l-226 -189l-123 123l349 283l348 -283l-123 -123zM582 193q106 -1 178 73t72 177t-72 178q-72 73 -178 73t-179 -73q-71 -73 -71 -177t71 -178q73 -73 179 -73zM582 915q224 1 366 -129t142 -342t-150 -348q-135 -125 -358 -125t-366 130q-142 130 -142 342
t142 342t366 130z" />
    <glyph glyph-name="otilde" unicode="&#xf5;" horiz-adv-x="1163" 
d="M209 1169q85 162 203 162q72 0 141 -26l78 -31q72 -29 102 -29q66 0 101 80l120 -98q-82 -162 -210 -162q-74 0 -148 33l-70 28q-59 25 -94 25q-34 0 -60 -26t-38 -54zM582 193q106 -1 178 73t72 177t-72 178q-72 73 -178 73t-179 -73q-71 -73 -71 -177t71 -178
q73 -73 179 -73zM582 915q224 1 366 -129t142 -342t-150 -348q-135 -125 -358 -125t-366 130q-142 130 -142 342t142 342t366 130z" />
    <glyph glyph-name="odieresis" unicode="&#xf6;" horiz-adv-x="1163" 
d="M647 1200q0 60 44 104q43 44 103 44t104 -44t44 -104t-44 -103q-44 -44 -103 -44t-104 44q-44 44 -44 103zM221 1200q0 60 44 104q43 44 103 44t104 -44t44 -104t-44 -103q-44 -44 -103 -44t-104 44q-44 44 -44 103zM582 193q106 -1 178 73t72 177t-72 178
q-72 73 -178 73t-179 -73q-71 -73 -71 -177t71 -178q73 -73 179 -73zM582 915q224 1 366 -129t142 -342t-150 -348q-135 -125 -358 -125t-366 130q-142 130 -142 342t142 342t366 130z" />
    <glyph glyph-name="divide" unicode="&#xf7;" 
d="M68 580v229h888v-229h-888zM367 342q0 59 43 102t102 43t102 -43t43 -102t-43 -102t-102 -43t-102 43t-43 102zM367 1047q0 59 43 102t102 43t102 -43t43 -102t-43 -103t-102 -43q-59 -1 -102 43t-43 103z" />
    <glyph glyph-name="oslash" unicode="&#xf8;" horiz-adv-x="1179" 
d="M340 440q0 -53 25 -110l337 338q-51 27 -106 26q-112 0 -184 -72t-72 -182zM840 446q0 66 -29 113l-338 -338q55 -29 119 -28q112 1 180 73t68 180zM82 442q0 214 144 344t364 129q166 0 287 -73l139 139l114 -104l-135 -136q102 -131 103 -299q0 -211 -150 -346
q-135 -125 -358 -125q-170 0 -291 76l-135 -135l-115 102l133 133q-100 129 -100 295z" />
    <glyph glyph-name="ugrave" unicode="&#xf9;" horiz-adv-x="1097" 
d="M537 1044l-308 275l181 115l241 -308zM119 887h250v-502q0 -105 52 -153t128 -48t128 47t52 154v502h250v-543q0 -178 -112 -275q-113 -97 -319 -97t-318 96q-112 98 -111 276v543z" />
    <glyph glyph-name="uacute" unicode="&#xfa;" horiz-adv-x="1097" 
d="M688 1434l180 -115l-307 -275l-115 82zM119 887h250v-502q0 -105 52 -153t128 -48t128 47t52 154v502h250v-543q0 -178 -112 -275q-113 -97 -319 -97t-318 96q-112 98 -111 276v543z" />
    <glyph glyph-name="ucircumflex" unicode="&#xfb;" horiz-adv-x="1097" 
d="M549 1233l-225 -189l-123 123l348 283l348 -283l-123 -123zM119 887h250v-502q0 -105 52 -153t128 -48t128 47t52 154v502h250v-543q0 -178 -112 -275q-113 -97 -319 -97t-318 96q-112 98 -111 276v543z" />
    <glyph glyph-name="udieresis" unicode="&#xfc;" horiz-adv-x="1097" 
d="M614 1200q0 60 44 104t104 44t103 -44q44 -44 44 -104t-44 -103q-44 -44 -103 -44t-104 44q-44 44 -44 103zM188 1200q0 60 44 104t104 44t103 -44q44 -44 44 -104t-44 -103q-44 -44 -103 -44t-104 44q-44 44 -44 103zM119 887h250v-502q0 -105 52 -153t128 -48t128 47
t52 154v502h250v-543q0 -178 -112 -275q-113 -97 -319 -97t-318 96q-112 98 -111 276v543z" />
    <glyph glyph-name="yacute" unicode="&#xfd;" horiz-adv-x="1101" 
d="M690 1434l180 -115l-307 -275l-114 82zM100 -469l326 602l-422 754h291l274 -504l246 504h283l-715 -1356h-283z" />
    <glyph glyph-name="thorn" unicode="&#xfe;" horiz-adv-x="1167" 
d="M590 193q106 1 176 73t70 178t-70 178t-176 72t-176 -72t-70 -178t70 -178t176 -73zM119 1493h250v-721q103 143 293 143t311 -133t121 -338t-124 -339t-310 -134t-291 144v-586h-250v1964z" />
    <glyph glyph-name="ydieresis" unicode="&#xff;" horiz-adv-x="1101" 
d="M639 1200q0 60 44 104t103 44q60 0 104 -44t44 -104t-44 -103q-44 -44 -104 -44t-103 44q-44 44 -44 103zM213 1200q0 60 44 104t103 44q60 0 104 -44t44 -104t-44 -103q-44 -44 -104 -44t-103 44q-44 44 -44 103zM100 -469l326 602l-422 754h291l274 -504l246 504h283
l-715 -1356h-283z" />
    <glyph glyph-name="Amacron" unicode="&#x100;" horiz-adv-x="1376" 
d="M313 1526v176h750v-176h-750zM498 504h389l-195 491zM1085 0l-120 287h-551l-121 -287h-289l588 1366h209l571 -1366h-287z" />
    <glyph glyph-name="amacron" unicode="&#x101;" horiz-adv-x="1167" 
d="M238 1104v164h745v-164h-745zM578 694q-106 0 -177 -71q-69 -73 -69 -179t70 -179t176 -73t176 74q70 72 69 178q0 106 -69 179q-70 71 -176 71zM799 887h250v-887h-250v115q-100 -143 -273 -144q-200 -1 -326 137t-126 338t123 334q123 135 317 135t285 -143v115z" />
    <glyph glyph-name="Abreve" unicode="&#x102;" horiz-adv-x="1376" 
d="M688 1487q-144 0 -239 83q-96 83 -109 212h184q25 -123 164 -123t164 123h184q-12 -129 -108 -212t-240 -83zM498 504h389l-195 491zM1085 0l-120 287h-551l-121 -287h-289l588 1366h209l571 -1366h-287z" />
    <glyph glyph-name="abreve" unicode="&#x103;" horiz-adv-x="1167" 
d="M582 1042q-164 0 -260 111q-63 78 -76 178h172q10 -53 49 -91t115 -38t114 38t49 91h173q-12 -100 -76 -178q-96 -111 -260 -111zM578 694q-106 0 -177 -71q-69 -73 -69 -179t70 -179t176 -73t176 74q70 72 69 178q0 106 -69 179q-70 71 -176 71zM799 887h250v-887h-250
v115q-100 -143 -273 -144q-200 -1 -326 137t-126 338t123 334q123 135 317 135t285 -143v115z" />
    <glyph glyph-name="Aogonek" unicode="&#x104;" horiz-adv-x="1376" 
d="M498 504h389l-193 491zM1110 -170q0 -30 22 -52t65 -22q44 0 97 25l-28 -141q-68 -35 -147 -35t-132 51t-53 123q0 126 151 221l-120 287h-551l-121 -287h-289l588 1366h209l571 -1366h-143q-119 -86 -119 -170z" />
    <glyph glyph-name="aogonek" unicode="&#x105;" horiz-adv-x="1167" 
d="M576 694q-106 0 -176 -72q-68 -72 -68 -181t70 -179t178 -70t176 72q68 70 68 182t-72 180q-70 68 -176 68zM684 -221q0 127 152 221h-37v115q-100 -143 -283 -143q-182 0 -312 132q-130 133 -130 345q0 211 131 339t317 128t277 -144v115h250v-887h-82q-55 -35 -86 -74
q-41 -45 -41 -84t28 -60q28 -22 71 -22q44 0 89 25l-29 -137q-55 -35 -136 -35t-130 48t-49 118z" />
    <glyph glyph-name="Cacute" unicode="&#x106;" horiz-adv-x="1236" 
d="M750 1491l-115 102l287 291l184 -143zM809 -31q-299 0 -500 191q-219 210 -219 532t219 525q193 180 502 180q180 0 336 -84v-312q-133 154 -332 154t-325 -140t-126 -346t140 -332q140 -127 328 -127t315 150v-311q-152 -80 -338 -80z" />
    <glyph glyph-name="cacute" unicode="&#x107;" horiz-adv-x="856" 
d="M651 1434l180 -115l-307 -275l-114 82zM582 694q-120 0 -185 -72t-65 -180q0 -106 72 -178t185 -72q112 0 197 78v-243q-111 -55 -229 -56q-207 0 -345 131t-138 347t153 352q129 115 320 114q128 0 239 -53v-246q-84 78 -204 78z" />
    <glyph glyph-name="Ccircumflex" unicode="&#x108;" horiz-adv-x="1236" 
d="M778 1679l-246 -180l-122 131l368 275l369 -275l-123 -131zM809 -31q-299 0 -500 191q-219 210 -219 532t219 525q193 180 502 180q180 0 336 -84v-312q-133 154 -332 154t-325 -140t-126 -346t140 -332q140 -127 328 -127t315 150v-311q-152 -80 -338 -80z" />
    <glyph glyph-name="ccircumflex" unicode="&#x109;" horiz-adv-x="856" 
d="M532 1233l-225 -189l-123 123l348 283l349 -283l-123 -123zM582 694q-120 0 -185 -72t-65 -180q0 -106 72 -178t185 -72q112 0 197 78v-243q-111 -55 -229 -56q-207 0 -345 131t-138 347t153 352q129 115 320 114q128 0 239 -53v-246q-84 78 -204 78z" />
    <glyph glyph-name="Cdotaccent" unicode="&#x10a;" horiz-adv-x="1236" 
d="M653 1673q0 68 46 114t114 46t114 -46t46 -114q0 -67 -46 -113t-114 -46t-114 45q-46 46 -46 114zM809 -31q-299 0 -500 191q-219 210 -219 532t219 525q193 180 502 180q180 0 336 -84v-312q-133 154 -332 154t-325 -140t-126 -346t140 -332q140 -127 328 -127t315 150
v-311q-152 -80 -338 -80z" />
    <glyph glyph-name="cdotaccent" unicode="&#x10b;" horiz-adv-x="856" 
d="M401 1208q0 66 45 111t111 45t111 -45t45 -111t-45 -110t-111 -45q-66 1 -111 45t-45 110zM582 694q-120 0 -185 -72t-65 -180q0 -106 72 -178t185 -72q112 0 197 78v-243q-111 -55 -229 -56q-207 0 -345 131t-138 347t153 352q129 115 320 114q128 0 239 -53v-246
q-84 78 -204 78z" />
    <glyph glyph-name="Ccaron" unicode="&#x10c;" horiz-adv-x="1236" 
d="M778 1724l246 181l123 -131l-369 -275l-368 275l122 131zM809 -31q-299 0 -500 191q-219 210 -219 532t219 525q193 180 502 180q180 0 336 -84v-312q-133 154 -332 154t-325 -140t-126 -346t140 -332q140 -127 328 -127t315 150v-311q-152 -80 -338 -80z" />
    <glyph glyph-name="ccaron" unicode="&#x10d;" horiz-adv-x="856" 
d="M532 1262l226 188l123 -123l-349 -283l-348 283l123 123zM582 694q-120 0 -185 -72t-65 -180q0 -106 72 -178t185 -72q112 0 197 78v-243q-111 -55 -229 -56q-207 0 -345 131t-138 347t153 352q129 115 320 114q128 0 239 -53v-246q-84 78 -204 78z" />
    <glyph glyph-name="Dcaron" unicode="&#x10e;" horiz-adv-x="1372" 
d="M594 1724l246 181l123 -131l-369 -275l-369 275l123 131zM422 1137v-908h82q346 0 459 245q45 97 45 207t-44 207t-124 159q-121 90 -336 90h-82zM156 1366h356q162 0 283 -28t235 -114t184 -228q68 -144 68 -314q0 -358 -274 -551q-111 -79 -226 -105t-274 -26h-352
v1366z" />
    <glyph glyph-name="dcaron" unicode="&#x10f;" horiz-adv-x="1454" 
d="M1147 979l135 434l234 -41l-197 -426zM578 694q-106 0 -177 -71q-69 -73 -69 -179t70 -179t176 -73t176 74q70 72 69 178q0 106 -69 179q-70 71 -176 71zM799 1493h250v-1493h-250v115q-100 -143 -273 -144q-200 -1 -326 137t-126 338t123 334q123 135 317 135t285 -143
v721z" />
    <glyph glyph-name="Dcroat" unicode="&#x110;" horiz-adv-x="1370" 
d="M422 1137v-285h250v-205h-250v-418h82q344 0 457 245q45 97 45 212t-49 210q-48 95 -119 151q-117 90 -334 90h-82zM156 1366h356q162 0 283 -28t235 -112t182 -230q68 -144 68 -314q0 -354 -272 -551q-111 -79 -226 -105t-274 -26h-352v647h-176v205h176v514z" />
    <glyph glyph-name="dcroat" unicode="&#x111;" horiz-adv-x="1167" 
d="M578 694q-106 0 -177 -71q-69 -73 -69 -179t70 -179t176 -73t176 74q70 72 69 178q0 106 -69 179q-70 71 -176 71zM799 1145h-451v160h451v188h250v-188h159v-160h-159v-1145h-250v115q-100 -143 -273 -144q-200 -1 -326 137t-126 338t123 334q123 135 317 135t285 -143
v373z" />
    <glyph glyph-name="Emacron" unicode="&#x112;" horiz-adv-x="1015" 
d="M158 1526v176h749v-176h-749zM913 1366v-229h-491v-306h471v-229h-471v-373h491v-229h-757v1366h757z" />
    <glyph glyph-name="emacron" unicode="&#x113;" horiz-adv-x="1069" 
d="M160 1104v164h745v-164h-745zM550 739q-76 0 -136 -47t-74 -131h420q-14 86 -74 132t-136 46zM553 -29q-209 0 -344 128t-135 342q0 215 131 345t347 130t330 -137q114 -136 113 -357v-21h-663q0 -90 43 -149q61 -84 189 -84t196 117l229 -37q-27 -71 -110 -161
q-49 -52 -133 -84t-193 -32z" />
    <glyph glyph-name="Edotaccent" unicode="&#x116;" horiz-adv-x="1015" 
d="M373 1673q0 68 46 114q45 46 113 46t114 -46t46 -114q0 -67 -46 -113t-114 -46t-114 45q-46 46 -45 114zM913 1366v-229h-491v-306h471v-229h-471v-373h491v-229h-757v1366h757z" />
    <glyph glyph-name="edotaccent" unicode="&#x117;" horiz-adv-x="1069" 
d="M389 1208q0 66 45 111t111 45q67 0 111 -45t44 -111t-45 -110t-111 -45q-66 1 -110 45q-45 44 -45 110zM550 739q-76 0 -136 -47t-74 -131h420q-14 86 -74 132t-136 46zM553 -29q-209 0 -344 128t-135 342q0 215 131 345t347 130t330 -137q114 -136 113 -357v-21h-663
q0 -90 43 -149q61 -84 189 -84t196 117l229 -37q-27 -71 -110 -161q-49 -52 -133 -84t-193 -32z" />
    <glyph glyph-name="Eogonek" unicode="&#x118;" horiz-adv-x="1015" 
d="M537 -221q0 126 151 221h-532v1366h757v-229h-491v-306h471v-229h-471v-373h491v-229h-82q-118 -86 -118 -170q-1 -30 21 -52t66 -22t97 25l-29 -141q-68 -35 -146 -35t-132 51q-53 51 -53 123z" />
    <glyph glyph-name="eogonek" unicode="&#x119;" horiz-adv-x="1069" 
d="M549 739q-80 0 -135 -47q-62 -47 -74 -131h420q-14 82 -72 130t-139 48zM457 -221q0 104 110 192q-221 0 -357 128t-136 342q0 215 131 345t347 130t337 -146q106 -125 106 -348v-21h-663q-4 -86 43 -149q66 -84 178 -84q78 0 131 36t76 81l229 -37q-31 -82 -81 -129
t-135 -99q-161 -99 -161 -182q0 -35 28 -56q28 -22 72 -22t89 25l-29 -137q-59 -35 -139 -35t-128 46t-48 120z" />
    <glyph glyph-name="Ecaron" unicode="&#x11a;" horiz-adv-x="1015" 
d="M532 1724l246 181l123 -131l-369 -275l-368 275l123 131zM913 1366v-229h-491v-306h471v-229h-471v-373h491v-229h-757v1366h757z" />
    <glyph glyph-name="ecaron" unicode="&#x11b;" horiz-adv-x="1069" 
d="M541 1262l225 188l123 -123l-348 -283l-348 283l122 123zM550 739q-76 0 -136 -47t-74 -131h420q-14 86 -74 132t-136 46zM553 -29q-209 0 -344 128t-135 342q0 215 131 345t347 130t330 -137q114 -136 113 -357v-21h-663q0 -90 43 -149q61 -84 189 -84t196 117l229 -37
q-27 -71 -110 -161q-49 -52 -133 -84t-193 -32z" />
    <glyph glyph-name="Gcircumflex" unicode="&#x11c;" horiz-adv-x="1564" 
d="M799 1679l-246 -180l-123 131l369 275l368 -275l-123 -131zM848 502v229h627v-16q0 -367 -201 -565q-180 -180 -488 -180t-502 193q-194 194 -194 509t203 520t536 205q180 0 316 -72q158 -80 256 -250l-232 -125q-55 106 -150 156t-202 49q-193 0 -323 -127t-129 -348
q0 -221 128 -345t299 -124t274 79t134 212h-352z" />
    <glyph glyph-name="gcircumflex" unicode="&#x11d;" horiz-adv-x="1163" 
d="M553 1233l-225 -189l-123 123l348 283l348 -283l-123 -123zM580 694q-102 0 -175 -66t-73 -178q0 -110 68 -184t172 -74t178 68t73 177q0 109 -71 186q-70 71 -172 71zM74 448q0 216 130 342t314 126t277 -144v115h249v-846q0 -125 -24 -218t-98 -169
q-124 -125 -346 -125t-336 102q-109 92 -144 265h271q36 -154 213 -154q92 0 153 58t62 194v125q-97 -147 -277 -147t-303 120q-141 141 -141 356z" />
    <glyph glyph-name="Gbreve" unicode="&#x11e;" horiz-adv-x="1564" 
d="M808 1487q-144 0 -241 83q-96 83 -108 212h184q25 -123 164 -123t164 123h184q-12 -129 -108 -212q-95 -83 -239 -83zM848 502v229h627v-16q0 -367 -201 -565q-180 -180 -488 -180t-502 193q-194 194 -194 509t203 520t536 205q180 0 316 -72q158 -80 256 -250l-232 -125
q-55 106 -150 156t-202 49q-193 0 -323 -127t-129 -348q0 -221 128 -345t299 -124t274 79t134 212h-352z" />
    <glyph glyph-name="gbreve" unicode="&#x11f;" horiz-adv-x="1163" 
d="M553 1042q-164 0 -260 111q-63 78 -76 178h172q10 -53 49 -91t115 -38t115 38t49 91h172q-12 -100 -76 -178q-96 -111 -260 -111zM580 694q-102 0 -175 -66t-73 -178q0 -110 68 -184t172 -74t178 68t73 177q0 109 -71 186q-70 71 -172 71zM74 448q0 216 130 342t314 126
t277 -144v115h249v-846q0 -125 -24 -218t-98 -169q-124 -125 -346 -125t-336 102q-109 92 -144 265h271q36 -154 213 -154q92 0 153 58t62 194v125q-97 -147 -277 -147t-303 120q-141 141 -141 356z" />
    <glyph glyph-name="Gdotaccent" unicode="&#x120;" horiz-adv-x="1564" 
d="M674 1673q0 68 46 114t114 46t114 -46t45 -114q0 -67 -46 -113q-45 -46 -113 -46t-114 45q-46 46 -46 114zM848 502v229h627v-16q0 -367 -201 -565q-180 -180 -488 -180t-502 193q-194 194 -194 509t203 520t536 205q180 0 316 -72q158 -80 256 -250l-232 -125
q-55 106 -150 156t-202 49q-193 0 -323 -127t-129 -348q0 -221 128 -345t299 -124t274 79t134 212h-352z" />
    <glyph glyph-name="gdotaccent" unicode="&#x121;" horiz-adv-x="1163" 
d="M397 1208q0 66 45 111t111 45t111 -45t45 -111t-45 -110t-111 -45q-66 1 -111 45t-45 110zM580 694q-102 0 -175 -66t-73 -178q0 -110 68 -184t172 -74t178 68t73 177q0 109 -71 186q-70 71 -172 71zM74 448q0 216 130 342t314 126t277 -144v115h249v-846
q0 -125 -24 -218t-98 -169q-124 -125 -346 -125t-336 102q-109 92 -144 265h271q36 -154 213 -154q92 0 153 58t62 194v125q-97 -147 -277 -147t-303 120q-141 141 -141 356z" />
    <glyph glyph-name="Gcommaaccent" unicode="&#x122;" horiz-adv-x="1564" 
d="M573 -528l140 426l229 -33l-205 -418zM848 502v229h627v-16q0 -367 -201 -565q-180 -180 -488 -180t-502 193q-194 194 -194 509t203 520t536 205q180 0 316 -72q158 -80 256 -250l-232 -125q-55 106 -150 156t-202 49q-193 0 -323 -127t-129 -348q0 -221 128 -345
t299 -124t274 79t134 212h-352z" />
    <glyph glyph-name="gcommaaccent" unicode="&#x123;" horiz-adv-x="1163" 
d="M766 1413l-139 -426l-230 33l205 418zM580 694q-102 0 -175 -66t-73 -178q0 -110 68 -184t172 -74t178 68t73 177q0 109 -71 186q-70 71 -172 71zM74 448q0 216 130 342t314 126t277 -144v115h249v-846q0 -125 -24 -218t-98 -169q-124 -125 -346 -125t-336 102
q-109 92 -144 265h271q36 -154 213 -154q92 0 153 58t62 194v125q-97 -147 -277 -147t-303 120q-141 141 -141 356z" />
    <glyph glyph-name="Hcircumflex" unicode="&#x124;" horiz-adv-x="1421" 
d="M711 1679l-246 -180l-123 131l369 275l368 -275l-123 -131zM422 1366v-528h577v528h267v-1366h-267v608h-577v-608h-266v1366h266z" />
    <glyph glyph-name="hcircumflex" unicode="&#x125;" horiz-adv-x="1093" 
d="M266 1745l-225 -189l-123 123l348 283l348 -283l-122 -123zM119 0v1493h250v-721q102 143 275 143t261 -108q70 -86 70 -250v-557h-250v483q0 125 -45 172t-133 47t-133 -69t-45 -180v-453h-250z" />
    <glyph glyph-name="Hbar" unicode="&#x126;" horiz-adv-x="1421" 
d="M999 1061h-577v-223h577v223zM422 1366v-109h577v109h267v-109h123v-196h-123v-1061h-267v608h-577v-608h-266v1061h-123v196h123v109h266z" />
    <glyph glyph-name="hbar" unicode="&#x127;" horiz-adv-x="1114" 
d="M139 0v1145h-159v160h159v188h250v-188h410v-160h-410v-373q101 143 275 143t262 -108q70 -86 69 -250v-557h-250v483q0 125 -45 172q-44 47 -132 47t-134 -69t-45 -180v-453h-250z" />
    <glyph glyph-name="Imacron" unicode="&#x12a;" horiz-adv-x="577" 
d="M2 1526v176h573v-176h-573zM156 1366h266v-1366h-266v1366z" />
    <glyph glyph-name="imacron" unicode="&#x12b;" horiz-adv-x="487" 
d="M-6 1104v164h500v-164h-500zM119 887h250v-887h-250v887z" />
    <glyph glyph-name="Iogonek" unicode="&#x12e;" horiz-adv-x="577" 
d="M127 -221q0 127 152 221h-123v1366h266v-1366q-119 -86 -119 -170q0 -30 22 -52q21 -22 65 -22t97 25l-28 -141q-69 -35 -147 -35t-136 53q-49 49 -49 121z" />
    <glyph glyph-name="iogonek" unicode="&#x12f;" horiz-adv-x="487" 
d="M94 1262q0 61 44 105t106 44t105 -44q44 -44 44 -105q0 -62 -44 -106t-105 -44t-106 44q-44 45 -44 106zM86 -221q0 127 152 221h-119v887h250v-887q-55 -35 -86 -74q-41 -45 -41 -84t28 -60q28 -22 71 -22q44 0 89 25l-29 -137q-55 -35 -136 -35t-130 48t-49 118z" />
    <glyph glyph-name="Idotaccent" unicode="&#x130;" horiz-adv-x="577" 
d="M129 1673q0 68 46 114t114 46q67 0 113 -46t46 -114q0 -67 -46 -113t-114 -46t-113 45q-46 46 -46 114zM156 1366h266v-1366h-266v1366z" />
    <glyph glyph-name="dotlessi" unicode="&#x131;" horiz-adv-x="487" 
d="M119 887h250v-887h-250v887z" />
    <glyph glyph-name="Jcircumflex" unicode="&#x134;" horiz-adv-x="798" 
d="M492 1679l-246 -180l-123 131l369 275l368 -275l-123 -131zM377 1366h266v-922q0 -305 -160 -413q-94 -61 -223 -62q-180 0 -313 127l162 195q51 -74 129 -74t108 46t31 222v881z" />
    <glyph glyph-name="jcircumflex" unicode="&#x135;" horiz-adv-x="487" 
d="M244 1233l-178 -160l-115 115l293 262l293 -262l-115 -115zM119 887h250v-1356h-250v1356z" />
    <glyph glyph-name="Kcommaaccent" unicode="&#x136;" horiz-adv-x="1302" 
d="M432 -528l139 426l230 -33l-205 -418zM422 1366v-578l502 578h336l-578 -631l608 -735h-352l-485 612l-31 -30v-582h-266v1366h266z" />
    <glyph glyph-name="kcommaaccent" unicode="&#x137;" horiz-adv-x="1048" 
d="M307 -528l139 426l230 -33l-205 -418zM119 1493h250v-930l331 324h324l-416 -389l449 -498h-332l-330 379l-26 -25v-354h-250v1493z" />
    <glyph glyph-name="Lacute" unicode="&#x139;" horiz-adv-x="872" 
d="M360 1491l-114 102l286 291l185 -143zM156 1366h266v-1137h422v-229h-688v1366z" />
    <glyph glyph-name="lacute" unicode="&#x13a;" horiz-adv-x="487" 
d="M383 1966l180 -115l-307 -274l-115 82zM119 1493h250v-1493h-250v1493z" />
    <glyph glyph-name="Lcommaaccent" unicode="&#x13b;" horiz-adv-x="872" 
d="M266 -528l140 426l229 -33l-205 -418zM156 1366h266v-1137h422v-229h-688v1366z" />
    <glyph glyph-name="lcommaaccent" unicode="&#x13c;" horiz-adv-x="487" 
d="M20 -528l140 426l229 -33l-205 -418zM119 1493h250v-1493h-250v1493z" />
    <glyph glyph-name="Lcaron" unicode="&#x13d;" horiz-adv-x="872" 
d="M532 958l136 435l233 -41l-196 -426zM156 1366h266v-1137h422v-229h-688v1366z" />
    <glyph glyph-name="lcaron" unicode="&#x13e;" horiz-adv-x="774" 
d="M467 979l135 434l234 -41l-197 -426zM119 1493h250v-1493h-250v1493z" />
    <glyph glyph-name="Ldot" unicode="&#x13f;" horiz-adv-x="872" 
d="M561 686q0 68 46 114t114 46t114 -46t46 -114t-46 -114t-114 -46t-114 46t-46 114zM156 1366h266v-1137h422v-229h-688v1366z" />
    <glyph glyph-name="ldot" unicode="&#x140;" horiz-adv-x="790" 
d="M483 748q0 63 45 109t111 46t111 -46t45 -109q0 -64 -45 -110t-111 -46t-111 46t-45 110zM119 1493h250v-1493h-250v1493z" />
    <glyph glyph-name="Lslash" unicode="&#x141;" horiz-adv-x="872" 
d="M156 1366h266v-463l209 133v-205l-209 -133v-469h422v-229h-688v569l-176 -112v205l176 112v592z" />
    <glyph glyph-name="lslash" unicode="&#x142;" horiz-adv-x="487" 
d="M119 1493h250v-428l151 111v-185l-151 -110v-881h-250v745l-152 -110v184l152 111v563z" />
    <glyph glyph-name="Nacute" unicode="&#x143;" horiz-adv-x="1593" 
d="M748 1491l-115 102l287 291l184 -143zM422 0h-266v1366h184l831 -911v911h267v-1366h-185l-831 913v-913z" />
    <glyph glyph-name="nacute" unicode="&#x144;" horiz-adv-x="1093" 
d="M686 1434l180 -115l-307 -275l-115 82zM119 0v887h250v-115q102 143 275 143t261 -108q70 -86 70 -250v-557h-250v483q0 125 -45 172t-133 47t-133 -69t-45 -180v-453h-250z" />
    <glyph glyph-name="Ncommaaccent" unicode="&#x145;" horiz-adv-x="1593" 
d="M571 -528l140 426l229 -33l-205 -418zM422 0h-266v1366h184l831 -911v911h267v-1366h-185l-831 913v-913z" />
    <glyph glyph-name="ncommaaccent" unicode="&#x146;" horiz-adv-x="1093" 
d="M328 -528l139 426l229 -33l-204 -418zM119 0v887h250v-115q102 143 275 143t261 -108q70 -86 70 -250v-557h-250v483q0 125 -45 172t-133 47t-133 -69t-45 -180v-453h-250z" />
    <glyph glyph-name="Ncaron" unicode="&#x147;" horiz-adv-x="1593" 
d="M797 1724l245 181l123 -131l-368 -275l-369 275l123 131zM422 0h-266v1366h184l831 -911v911h267v-1366h-185l-831 913v-913z" />
    <glyph glyph-name="ncaron" unicode="&#x148;" horiz-adv-x="1093" 
d="M594 1262l225 188l123 -123l-348 -283l-348 283l123 123zM119 0v887h250v-115q102 143 275 143t261 -108q70 -86 70 -250v-557h-250v483q0 125 -45 172t-133 47t-133 -69t-45 -180v-453h-250z" />
    <glyph glyph-name="Omacron" unicode="&#x14c;" horiz-adv-x="1638" 
d="M444 1526v176h750v-176h-750zM819 211q201 0 328 132t127 339t-128 340t-327 133t-327 -133t-127 -340t127 -339t327 -132zM819 1397q322 0 526 -201q203 -201 203 -514t-204 -513t-525 -200t-525 200t-204 513t204 514t525 201z" />
    <glyph glyph-name="omacron" unicode="&#x14d;" horiz-adv-x="1163" 
d="M209 1104v164h745v-164h-745zM582 193q106 -1 178 73t72 177t-72 178q-72 73 -178 73t-179 -73q-71 -73 -71 -177t71 -178q73 -73 179 -73zM582 915q224 1 366 -129t142 -342t-150 -348q-135 -125 -358 -125t-366 130q-142 130 -142 342t142 342t366 130z" />
    <glyph glyph-name="Obreve" unicode="&#x14e;" horiz-adv-x="1638" 
d="M820 1487q-144 0 -240 83t-109 212h184q25 -123 164 -123t164 123h184q-12 -129 -108 -212q-95 -83 -239 -83zM819 211q201 0 328 132t127 339t-128 340t-327 133t-327 -133t-127 -340t127 -339t327 -132zM819 1397q322 0 526 -201q203 -201 203 -514t-204 -513
t-525 -200t-525 200t-204 513t204 514t525 201z" />
    <glyph glyph-name="obreve" unicode="&#x14f;" horiz-adv-x="1163" 
d="M582 1042q-164 0 -260 111q-63 78 -76 178h172q10 -53 49 -91t115 -38t114 38t49 91h173q-12 -100 -76 -178q-96 -111 -260 -111zM582 193q106 -1 178 73t72 177t-72 178q-72 73 -178 73t-179 -73q-71 -73 -71 -177t71 -178q73 -73 179 -73zM582 915q224 1 366 -129
t142 -342t-150 -348q-135 -125 -358 -125t-366 130q-142 130 -142 342t142 342t366 130z" />
    <glyph glyph-name="Ohungarumlaut" unicode="&#x150;" horiz-adv-x="1638" 
d="M1122 1884l185 -119l-295 -274l-115 82zM713 1886l184 -121l-295 -274l-115 82zM819 211q201 0 328 132t127 339t-128 340t-327 133t-327 -133t-127 -340t127 -339t327 -132zM819 1397q322 0 526 -201q203 -201 203 -514t-204 -513t-525 -200t-525 200t-204 513t204 514
t525 201z" />
    <glyph glyph-name="ohungarumlaut" unicode="&#x151;" horiz-adv-x="1163" 
d="M872 1411l168 -117l-270 -274l-102 82zM487 1413l168 -119l-270 -274l-102 82zM582 193q106 -1 178 73t72 177t-72 178q-72 73 -178 73t-179 -73q-71 -73 -71 -177t71 -178q73 -73 179 -73zM582 915q224 1 366 -129t142 -342t-150 -348q-135 -125 -358 -125t-366 130
q-142 130 -142 342t142 342t366 130z" />
    <glyph glyph-name="OE" unicode="&#x152;" horiz-adv-x="2125" 
d="M809 211q195 0 319 132t125 339q0 207 -125 340q-124 133 -320 133t-320 -133t-124 -340t126 -339q124 -132 319 -132zM2023 1366v-229h-479v-306h459v-229h-459v-373h479v-229h-745v184q-176 -215 -480 -215t-506 202t-202 510t202 512t511 204q186 0 338 -92
q82 -49 137 -123v184h745z" />
    <glyph glyph-name="oe" unicode="&#x153;" horiz-adv-x="1802" 
d="M1283 739q-75 0 -135 -47t-75 -131h420q-15 86 -75 132t-135 46zM571 193q92 -1 166 67t74 177t-68 183t-172 74t-172 -74q-67 -74 -67 -183q0 -110 74 -177t165 -67zM571 -29q-209 0 -350 125q-147 135 -147 347q0 213 142 343t365 130t355 -162q117 162 339 162
t347 -146q106 -127 107 -348v-21h-664q-4 -88 43 -149q61 -84 189 -84t196 117l229 -37q-31 -77 -94 -144q-125 -133 -349 -133t-341 172q-39 -49 -102 -94q-117 -78 -265 -78z" />
    <glyph glyph-name="Racute" unicode="&#x154;" horiz-adv-x="1175" 
d="M539 1491l-115 102l287 291l184 -143zM760 944q0 205 -258 205h-80v-412h76q68 1 133 23q129 44 129 184zM156 1366h395q225 0 354 -108t129 -312q0 -203 -160 -311q-61 -43 -149 -60l426 -575h-332l-364 549h-33v-549h-266v1366z" />
    <glyph glyph-name="racute" unicode="&#x155;" horiz-adv-x="737" 
d="M528 1434l181 -115l-308 -275l-114 82zM369 426v-426h-250v887h250v-133q85 163 258 161q49 0 106 -20l-33 -233q-47 33 -116 32q-215 0 -215 -268z" />
    <glyph glyph-name="Rcommaaccent" unicode="&#x156;" horiz-adv-x="1175" 
d="M369 -528l139 426l229 -33l-205 -418zM760 944q0 205 -258 205h-80v-412h76q68 1 133 23q129 44 129 184zM156 1366h395q225 0 354 -108t129 -312q0 -203 -160 -311q-61 -43 -149 -60l426 -575h-332l-364 549h-33v-549h-266v1366z" />
    <glyph glyph-name="rcommaaccent" unicode="&#x157;" horiz-adv-x="737" 
d="M184 -528l140 426l229 -33l-205 -418zM369 426v-426h-250v887h250v-133q85 163 258 161q49 0 106 -20l-33 -233q-47 33 -116 32q-215 0 -215 -268z" />
    <glyph glyph-name="Rcaron" unicode="&#x158;" horiz-adv-x="1175" 
d="M553 1724l246 181l123 -131l-369 -275l-369 275l123 131zM760 944q0 205 -258 205h-80v-412h76q68 1 133 23q129 44 129 184zM156 1366h395q225 0 354 -108t129 -312q0 -203 -160 -311q-61 -43 -149 -60l426 -575h-332l-364 549h-33v-549h-266v1366z" />
    <glyph glyph-name="rcaron" unicode="&#x159;" horiz-adv-x="737" 
d="M430 1262l225 188l123 -123l-348 -283l-348 283l123 123zM369 426v-426h-250v887h250v-133q85 163 258 161q49 0 106 -20l-33 -233q-47 33 -116 32q-215 0 -215 -268z" />
    <glyph glyph-name="Sacute" unicode="&#x15a;" horiz-adv-x="1093" 
d="M545 1491l-115 102l287 291l184 -143zM416 1016q0 -59 38 -93q38 -35 205 -93t240 -125q117 -104 117 -296t-132 -316t-343 -124q-295 0 -471 258l174 166q45 -92 125 -137q81 -45 167 -45t146 52q59 52 59 130t-51 126q-51 47 -208 101t-232 121q-109 94 -109 257
t113 281t335 118t378 -160l-140 -182q-88 117 -223 116q-98 0 -143 -48t-45 -107z" />
    <glyph glyph-name="sacute" unicode="&#x15b;" horiz-adv-x="827" 
d="M553 1434l180 -115l-307 -275l-115 82zM457 735q-45 0 -71 -19t-26 -52q0 -53 80 -80l60 -19q174 -55 222 -121t48 -153q0 -135 -100 -227t-264 -93q-207 0 -345 148l132 151q88 -102 196 -102q53 0 88 26t35 70q0 61 -78 90l-57 21q-133 47 -196 113t-63 176t93 188
q79 63 235 63t279 -94l-123 -145q-63 59 -145 59z" />
    <glyph glyph-name="Scircumflex" unicode="&#x15c;" horiz-adv-x="1093" 
d="M573 1679l-245 -180l-123 131l368 275l369 -275l-123 -131zM416 1016q0 -59 38 -93q38 -35 205 -93t240 -125q117 -104 117 -296t-132 -316t-343 -124q-295 0 -471 258l174 166q45 -92 125 -137q81 -45 167 -45t146 52q59 52 59 130t-51 126q-51 47 -208 101t-232 121
q-109 94 -109 257t113 281t335 118t378 -160l-140 -182q-88 117 -223 116q-98 0 -143 -48t-45 -107z" />
    <glyph glyph-name="scircumflex" unicode="&#x15d;" horiz-adv-x="827" 
d="M430 1233l-225 -189l-123 123l348 283l348 -283l-123 -123zM457 735q-45 0 -71 -19t-26 -52q0 -53 80 -80l60 -19q174 -55 222 -121t48 -153q0 -135 -100 -227t-264 -93q-207 0 -345 148l132 151q88 -102 196 -102q53 0 88 26t35 70q0 61 -78 90l-57 21q-133 47 -196 113
t-63 176t93 188q79 63 235 63t279 -94l-123 -145q-63 59 -145 59z" />
    <glyph glyph-name="Scedilla" unicode="&#x15e;" horiz-adv-x="1093" 
d="M500 -94l196 -90l-250 -316l-135 74zM416 1016q0 -59 38 -93q38 -35 205 -93t240 -125q117 -104 117 -296t-132 -316t-343 -124q-295 0 -471 258l174 166q45 -92 125 -137q81 -45 167 -45t146 52q59 52 59 130t-51 126q-51 47 -208 101t-232 121q-109 94 -109 257
t113 281t335 118t378 -160l-140 -182q-88 117 -223 116q-98 0 -143 -48t-45 -107z" />
    <glyph glyph-name="scedilla" unicode="&#x15f;" horiz-adv-x="827" 
d="M373 -94l180 -90l-246 -299l-131 82zM457 735q-45 0 -71 -19t-26 -52q0 -53 80 -80l60 -19q174 -55 222 -121t48 -153q0 -135 -100 -227t-264 -93q-207 0 -345 148l132 151q88 -102 196 -102q53 0 88 26t35 70q0 61 -78 90l-57 21q-133 47 -196 113t-63 176t93 188
q79 63 235 63t279 -94l-123 -145q-63 59 -145 59z" />
    <glyph glyph-name="Scaron" unicode="&#x160;" horiz-adv-x="1093" 
d="M573 1724l246 181l123 -131l-369 -275l-368 275l123 131zM416 1016q0 -59 38 -93q38 -35 205 -93t240 -125q117 -104 117 -296t-132 -316t-343 -124q-295 0 -471 258l174 166q45 -92 125 -137q81 -45 167 -45t146 52q59 52 59 130t-51 126q-51 47 -208 101t-232 121
q-109 94 -109 257t113 281t335 118t378 -160l-140 -182q-88 117 -223 116q-98 0 -143 -48t-45 -107z" />
    <glyph glyph-name="scaron" unicode="&#x161;" horiz-adv-x="827" 
d="M430 1262l225 188l123 -123l-348 -283l-348 283l123 123zM457 735q-45 0 -71 -19t-26 -52q0 -53 80 -80l60 -19q174 -55 222 -121t48 -153q0 -135 -100 -227t-264 -93q-207 0 -345 148l132 151q88 -102 196 -102q53 0 88 26t35 70q0 61 -78 90l-57 21q-133 47 -196 113
t-63 176t93 188q79 63 235 63t279 -94l-123 -145q-63 59 -145 59z" />
    <glyph glyph-name="Tcedilla" unicode="&#x162;" horiz-adv-x="905" 
d="M397 -94l197 -90l-250 -316l-135 74zM893 1137h-307v-1137h-267v1137h-307v229h881v-229z" />
    <glyph glyph-name="tcedilla" unicode="&#x163;" horiz-adv-x="552" 
d="M209 -94l180 -90l-246 -299l-131 82zM541 674h-172v-674h-250v674h-99v213h99v303h250v-303h172v-213z" />
    <glyph glyph-name="Tcaron" unicode="&#x164;" horiz-adv-x="905" 
d="M453 1724l245 181l123 -131l-368 -275l-369 275l123 131zM893 1137h-307v-1137h-267v1137h-307v229h881v-229z" />
    <glyph glyph-name="tcaron" unicode="&#x165;" horiz-adv-x="757" 
d="M451 979l135 434l233 -41l-196 -426zM541 674h-172v-674h-250v674h-99v213h99v303h250v-303h172v-213z" />
    <glyph glyph-name="Utilde" unicode="&#x168;" horiz-adv-x="1409" 
d="M547 1794q49 0 139 -35l80 -33q115 -49 166 0q17 17 33 54l133 -99q-37 -76 -92 -120q-63 -57 -129 -57t-152 34l-72 29q-82 31 -102 30q-69 0 -102 -79l-138 98q94 178 236 178zM156 1366h266v-858q0 -129 65 -203q77 -94 217 -94t218 94q66 74 65 203v858h266v-836
q0 -383 -294 -510q-121 -51 -255 -51t-254 51q-294 125 -294 510v836z" />
    <glyph glyph-name="utilde" unicode="&#x169;" horiz-adv-x="1097" 
d="M176 1169q86 162 204 162q72 0 140 -26l78 -31q72 -29 102 -29q66 0 101 80l121 -98q-82 -162 -213 -162q-70 0 -146 33l-69 28q-58 25 -94 25t-62 -26t-37 -54zM119 887h250v-502q0 -105 52 -153t128 -48t128 47t52 154v502h250v-543q0 -178 -112 -275
q-113 -97 -319 -97t-318 96q-112 98 -111 276v543z" />
    <glyph glyph-name="Umacron" unicode="&#x16a;" horiz-adv-x="1409" 
d="M330 1526v176h749v-176h-749zM156 1366h266v-858q0 -129 65 -203q77 -94 217 -94t218 94q66 74 65 203v858h266v-836q0 -383 -294 -510q-121 -51 -255 -51t-254 51q-294 125 -294 510v836z" />
    <glyph glyph-name="umacron" unicode="&#x16b;" horiz-adv-x="1097" 
d="M176 1104v164h746v-164h-746zM119 887h250v-502q0 -105 52 -153t128 -48t128 47t52 154v502h250v-543q0 -178 -112 -275q-113 -97 -319 -97t-318 96q-112 98 -111 276v543z" />
    <glyph glyph-name="Ubreve" unicode="&#x16c;" horiz-adv-x="1409" 
d="M705 1487q-143 0 -240 83q-96 83 -109 212h185q25 -123 163 -123t164 123h185q-13 -129 -109 -212t-239 -83zM156 1366h266v-858q0 -129 65 -203q77 -94 217 -94t218 94q66 74 65 203v858h266v-836q0 -383 -294 -510q-121 -51 -255 -51t-254 51q-294 125 -294 510v836z
" />
    <glyph glyph-name="ubreve" unicode="&#x16d;" horiz-adv-x="1097" 
d="M549 1042q-164 0 -260 111q-63 78 -76 178h172q10 -53 49 -91t115 -38t115 38t49 91h172q-12 -100 -76 -178q-96 -111 -260 -111zM119 887h250v-502q0 -105 52 -153t128 -48t128 47t52 154v502h250v-543q0 -178 -112 -275q-113 -97 -319 -97t-318 96q-112 98 -111 276
v543z" />
    <glyph glyph-name="Uring" unicode="&#x16e;" horiz-adv-x="1409" 
d="M502 1692q0 86 58 144t144 58t145 -58q58 -58 58 -144t-58 -144t-144 -59q-86 0 -145 58q-58 59 -58 145zM623 1692q-1 -35 23 -59q24 -23 59 -23t59 24t22 58q0 34 -24 58t-58 24t-58 -24t-23 -58zM156 1366h266v-858q0 -129 65 -203q77 -94 217 -94t218 94
q66 74 65 203v858h266v-836q0 -383 -294 -510q-121 -51 -255 -51t-254 51q-294 125 -294 510v836z" />
    <glyph glyph-name="uring" unicode="&#x16f;" horiz-adv-x="1097" 
d="M469 1229q0 -35 23 -58q24 -23 58 -23t56 24q22 22 23 57q0 35 -23 57q-24 22 -58 23q-34 -1 -56 -23t-23 -57zM356 1229q0 78 58 135t135 57q78 0 135 -57t57 -135t-57 -135q-57 -58 -135 -58q-77 0 -135 58t-58 135zM119 887h250v-502q0 -105 52 -153t128 -48t128 47
t52 154v502h250v-543q0 -178 -112 -275q-113 -97 -319 -97t-318 96q-112 98 -111 276v543z" />
    <glyph glyph-name="Uhungarumlaut" unicode="&#x170;" horiz-adv-x="1409" 
d="M1008 1884l184 -119l-295 -274l-115 82zM598 1886l184 -121l-295 -274l-114 82zM156 1366h266v-858q0 -129 65 -203q77 -94 217 -94t218 94q66 74 65 203v858h266v-836q0 -383 -294 -510q-121 -51 -255 -51t-254 51q-294 125 -294 510v836z" />
    <glyph glyph-name="uhungarumlaut" unicode="&#x171;" horiz-adv-x="1097" 
d="M840 1411l168 -117l-271 -274l-102 82zM455 1413l168 -119l-271 -274l-102 82zM119 887h250v-502q0 -105 52 -153t128 -48t128 47t52 154v502h250v-543q0 -178 -112 -275q-113 -97 -319 -97t-318 96q-112 98 -111 276v543z" />
    <glyph glyph-name="Uogonek" unicode="&#x172;" horiz-adv-x="1409" 
d="M156 1366h266v-858q0 -129 65 -203q77 -94 217 -94t218 94q66 74 65 203v858h266v-836q0 -231 -102 -364q-57 -74 -171 -136t-150 -105q-36 -42 -37 -84q0 -85 88 -85q43 0 96 25l-29 -141q-68 -35 -146 -35t-132 49q-54 50 -54 118t29 112t78 85q-313 0 -465 197
q-102 131 -102 364v836z" />
    <glyph glyph-name="uogonek" unicode="&#x173;" horiz-adv-x="1097" 
d="M465 -221q0 103 110 192q-233 -1 -345 97t-111 276v543h250v-502q0 -105 52 -153t128 -48t128 47t52 154v502h250v-543q0 -164 -90 -254q-33 -33 -116 -83t-117 -86t-35 -78t27 -62q28 -21 73 -21t88 25l-29 -137q-61 -35 -140 -35t-127 46t-48 120z" />
    <glyph glyph-name="Ydieresis" unicode="&#x178;" horiz-adv-x="1208" 
d="M686 1661q0 59 44 103t104 44t103 -44q44 -44 44 -103t-44 -103t-103 -44q-60 0 -104 44t-44 103zM227 1661q0 59 44 103q43 44 103 44t104 -44t44 -103t-44 -103t-103 -44t-103 44t-45 103zM465 0v625l-469 741h315l293 -475l293 475h315l-481 -741v-625h-266z" />
    <glyph glyph-name="Zacute" unicode="&#x179;" horiz-adv-x="1196" 
d="M586 1491l-115 102l287 291l184 -143zM1118 229v-229h-1073l664 1137h-559v229h1001l-664 -1137h631z" />
    <glyph glyph-name="zacute" unicode="&#x17a;" horiz-adv-x="991" 
d="M635 1434l180 -115l-307 -275l-115 82zM932 213v-213h-907l503 674h-426v213h865l-504 -674h469z" />
    <glyph glyph-name="Zdotaccent" unicode="&#x17b;" horiz-adv-x="1196" 
d="M475 1673q0 68 46 114t114 46t114 -46t46 -114q0 -67 -46 -113t-114 -46t-114 45q-46 46 -46 114zM1118 229v-229h-1073l664 1137h-559v229h1001l-664 -1137h631z" />
    <glyph glyph-name="zdotaccent" unicode="&#x17c;" horiz-adv-x="991" 
d="M356 1208q0 66 45 111t111 45t111 -45t45 -111t-45 -110t-111 -45q-66 1 -111 45t-45 110zM932 213v-213h-907l503 674h-426v213h865l-504 -674h469z" />
    <glyph glyph-name="Zcaron" unicode="&#x17d;" horiz-adv-x="1196" 
d="M635 1724l246 181l123 -131l-369 -275l-369 275l123 131zM1118 229v-229h-1073l664 1137h-559v229h1001l-664 -1137h631z" />
    <glyph glyph-name="zcaron" unicode="&#x17e;" horiz-adv-x="991" 
d="M512 1262l225 188l123 -123l-348 -283l-348 283l123 123zM932 213v-213h-907l503 674h-426v213h865l-504 -674h469z" />
    <glyph glyph-name="uni018F" unicode="&#x18f;" horiz-adv-x="1560" 
d="M767 211q179 1 287 107t136 249h-799q8 -131 86 -225q111 -131 290 -131zM90 772h1102q-25 168 -145 276q-121 108 -287 107q-227 0 -365 -184l-231 125q114 147 270 224t332 77q309 0 507 -199q197 -199 197 -516t-196 -515t-506 -198q-356 0 -539 267
q-139 201 -139 460v76z" />
    <glyph glyph-name="florin" unicode="&#x192;" horiz-adv-x="1163" 
d="M936 1288q-121 0 -148 -158l-47 -243h222l-33 -176h-221l-95 -545q-30 -158 -62 -253q-96 -282 -458 -282q-53 0 -100 9l39 229q33 -6 65 -6q104 0 167 55t102 287l88 506h-123l33 176h122l50 266q33 178 123 270t249 93q100 0 178 -39l-40 -220q-55 31 -111 31z" />
    <glyph glyph-name="uni01CF" unicode="&#x1cf;" horiz-adv-x="577" 
d="M289 1720l188 164l111 -110l-299 -254l-299 254l110 110zM156 1366h266v-1366h-266v1366z" />
    <glyph glyph-name="uni01D0" unicode="&#x1d0;" horiz-adv-x="487" 
d="M244 1290l178 160l115 -115l-293 -262l-293 262l115 115zM119 887h250v-887h-250v887z" />
    <glyph glyph-name="uni01DD" unicode="&#x1dd;" horiz-adv-x="1069" 
d="M733 346h-428q13 -94 73 -146t142 -52t142 52q60 54 71 146zM524 915q201 -1 336 -129t135 -342t-131 -343q-131 -130 -347 -130t-337 146q-106 127 -106 348v41h663q-2 76 -43 129q-59 84 -183 84t-185 -109l-230 37q113 268 428 268z" />
    <glyph glyph-name="Gcaron" unicode="&#x1e6;" horiz-adv-x="1564" 
d="M782 1724l246 181l123 -131l-369 -275l-368 275l123 131zM848 502v229h627v-16q0 -367 -201 -565q-180 -180 -488 -180t-502 193q-194 194 -194 509t203 520t536 205q180 0 316 -72q158 -80 256 -250l-232 -125q-55 106 -150 156t-202 49q-193 0 -323 -127t-129 -348
q0 -221 128 -345t299 -124t274 79t134 212h-352z" />
    <glyph glyph-name="gcaron" unicode="&#x1e7;" horiz-adv-x="1163" 
d="M582 1262l225 188l123 -123l-348 -283l-349 283l123 123zM580 694q-102 0 -175 -66t-73 -178q0 -110 68 -184t172 -74t178 68t73 177q0 109 -71 186q-70 71 -172 71zM74 448q0 216 130 342t314 126t277 -144v115h249v-846q0 -125 -24 -218t-98 -169q-124 -125 -346 -125
t-336 102q-109 92 -144 265h271q36 -154 213 -154q92 0 153 58t62 194v125q-97 -147 -277 -147t-303 120q-141 141 -141 356z" />
    <glyph glyph-name="AEacute" unicode="&#x1fc;" horiz-adv-x="1884" 
d="M893 1491l-115 102l287 291l184 -143zM504 504h389l-188 491zM1092 0l-121 287h-551l-121 -287h-287l592 1366h721l90 -229h-502l123 -306h494l94 -229h-496l150 -373h504l90 -229h-780z" />
    <glyph glyph-name="aeacute" unicode="&#x1fd;" horiz-adv-x="1654" 
d="M967 1434l180 -115l-307 -275l-115 82zM1136 739q-76 0 -136 -47t-74 -131h420q-14 86 -74 132t-136 46zM315 267q0 -44 43 -82t134 -38t139 40q47 40 47 83t-45 76t-141 33t-136 -34q-41 -34 -41 -78zM1139 -29q-231 0 -344 168q-127 -168 -357 -168q-174 0 -269 83
t-95 206t97 209t278 86q121 0 229 -61l2 43q6 92 -76 145q-58 37 -164 37t-229 -35v199q207 47 363 25q50 -7 115 -42t106 -100q119 150 339 150t333 -137q114 -136 114 -357v-21h-663q-4 -88 43 -149q61 -84 189 -84t196 117l229 -37q-37 -94 -101 -156q-94 -88 -251 -114
q-43 -7 -84 -7z" />
    <glyph glyph-name="Scommaaccent" unicode="&#x218;" horiz-adv-x="1093" 
d="M328 -528l139 426l229 -33l-204 -418zM416 1016q0 -59 38 -93q38 -35 205 -93t240 -125q117 -104 117 -296t-132 -316t-343 -124q-295 0 -471 258l174 166q45 -92 125 -137q81 -45 167 -45t146 52q59 52 59 130t-51 126q-51 47 -208 101t-232 121q-109 94 -109 257
t113 281t335 118t378 -160l-140 -182q-88 117 -223 116q-98 0 -143 -48t-45 -107z" />
    <glyph glyph-name="scommaaccent" unicode="&#x219;" horiz-adv-x="827" 
d="M184 -528l140 426l229 -33l-205 -418zM457 735q-45 0 -71 -19t-26 -52q0 -53 80 -80l60 -19q174 -55 222 -121t48 -153q0 -135 -100 -227t-264 -93q-207 0 -345 148l132 151q88 -102 196 -102q53 0 88 26t35 70q0 61 -78 90l-57 21q-133 47 -196 113t-63 176t93 188
q79 63 235 63t279 -94l-123 -145q-63 59 -145 59z" />
    <glyph glyph-name="Tcommaaccent" unicode="&#x21a;" horiz-adv-x="905" 
d="M205 -528l139 426l229 -33l-204 -418zM893 1137h-307v-1137h-267v1137h-307v229h881v-229z" />
    <glyph glyph-name="tcommaaccent" unicode="&#x21b;" horiz-adv-x="552" 
d="M20 -528l140 426l229 -33l-205 -418zM541 674h-172v-674h-250v674h-99v213h99v303h250v-303h172v-213z" />
    <glyph glyph-name="uni0228" unicode="&#x228;" horiz-adv-x="1015" 
d="M516 -94l197 -90l-250 -316l-135 74zM913 1366v-229h-491v-306h471v-229h-471v-373h491v-229h-757v1366h757z" />
    <glyph glyph-name="uni0229" unicode="&#x229;" horiz-adv-x="1069" 
d="M559 -94l180 -90l-245 -299l-132 82zM550 739q-76 0 -136 -47t-74 -131h420q-14 86 -74 132t-136 46zM553 -29q-209 0 -344 128t-135 342q0 215 131 345t347 130t330 -137q114 -136 113 -357v-21h-663q0 -90 43 -149q61 -84 189 -84t196 117l229 -37q-27 -71 -110 -161
q-49 -52 -133 -84t-193 -32z" />
    <glyph glyph-name="uni0237" unicode="&#x237;" horiz-adv-x="487" 
d="M119 887h250v-1356h-250v1356z" />
    <glyph glyph-name="uni0259" unicode="&#x259;" horiz-adv-x="1069" 
d="M733 346h-428q13 -94 73 -146t142 -52t142 52q60 54 71 146zM524 915q201 -1 336 -129t135 -342t-131 -343q-131 -130 -347 -130t-337 146q-106 127 -106 348v41h663q-2 76 -43 129q-59 84 -183 84t-185 -109l-230 37q113 268 428 268z" />
    <glyph glyph-name="afii57929" unicode="&#x2bc;" 
d="M328 979l135 434l233 -41l-196 -426z" />
    <glyph glyph-name="circumflex" unicode="&#x2c6;" 
d="M512 1233l-225 -189l-123 123l348 283l348 -283l-123 -123z" />
    <glyph glyph-name="caron" unicode="&#x2c7;" 
d="M512 1262l225 188l123 -123l-348 -283l-348 283l123 123z" />
    <glyph glyph-name="uni02C9" unicode="&#x2c9;" 
d="M139 1104v164h746v-164h-746z" />
    <glyph glyph-name="breve" unicode="&#x2d8;" 
d="M512 1042q-164 0 -260 111q-63 78 -76 178h172q10 -53 49 -91t115 -38t115 38t49 91h172q-12 -100 -76 -178q-96 -111 -260 -111z" />
    <glyph glyph-name="dotaccent" unicode="&#x2d9;" 
d="M356 1208q0 66 45 111t111 45t111 -45t45 -111t-45 -110t-111 -45q-66 1 -111 45t-45 110z" />
    <glyph glyph-name="ring" unicode="&#x2da;" 
d="M432 1229q0 -35 23 -58t57 -23t58 24q22 22 22 57t-23 57t-57 23q-34 -1 -58 -23q-22 -22 -22 -57zM319 1229q-1 78 57 135t136 57t135 -57t57 -135t-56 -135q-58 -58 -136 -58t-136 58t-57 135z" />
    <glyph glyph-name="ogonek" unicode="&#x2db;" 
d="M601 -379q-81 0 -130 48t-49 117t48 125t103 89h119q-116 -78 -114 -150q0 -34 24 -58q49 -52 164 1l-29 -137q-55 -35 -136 -35z" />
    <glyph glyph-name="tilde" unicode="&#x2dc;" 
d="M139 1169q85 162 203 162q72 0 141 -26l78 -31q72 -29 108 -29q60 0 95 80l121 -98q-82 -162 -213 -162q-70 0 -146 33l-69 28q-59 25 -95 25t-60 -26q-26 -26 -38 -54z" />
    <glyph glyph-name="hungarumlaut" unicode="&#x2dd;" 
d="M803 1411l168 -117l-271 -274l-102 82zM418 1413l168 -119l-271 -274l-102 82z" />
    <glyph glyph-name="acutecomb" unicode="&#x301;" horiz-adv-x="4" 
d="M-369 1434l181 -115l-308 -275l-114 82z" />
    <glyph glyph-name="uni0394" unicode="&#x394;" horiz-adv-x="1368" 
d="M682 1061l-285 -832h570zM1331 0h-1294l508 1366h270z" />
    <glyph glyph-name="uni0394" unicode="&#x2206;" horiz-adv-x="1368" 
d="M682 1061l-285 -832h570zM1331 0h-1294l508 1366h270z" />
    <glyph glyph-name="uni03A9" unicode="&#x3a9;" horiz-adv-x="1368" 
d="M328 735q0 -367 282 -506v-229h-549v229h291q-94 57 -145 111q-154 158 -154 419t171 449t460 188t460 -188t171 -449t-154 -419q-51 -53 -145 -111h291v-229h-549v229q131 63 203 181q79 136 79 326t-105 304t-251 115q-146 0 -250 -115q-106 -115 -106 -305z" />
    <glyph glyph-name="uni03A9" unicode="&#x2126;" horiz-adv-x="1368" 
d="M328 735q0 -367 282 -506v-229h-549v229h291q-94 57 -145 111q-154 158 -154 419t171 449t460 188t460 -188t171 -449t-154 -419q-51 -53 -145 -111h291v-229h-549v229q131 63 203 181q79 136 79 326t-105 304t-251 115q-146 0 -250 -115q-106 -115 -106 -305z" />
    <glyph glyph-name="pi" unicode="&#x3c0;" horiz-adv-x="1298" 
d="M479 0h-250v674h-155v213h1151v-213h-156v-674h-250v674h-340v-674z" />
    <glyph glyph-name="afii10023" unicode="&#x401;" horiz-adv-x="1015" 
d="M614 1661q0 59 44 103t104 44t103 -44q44 -44 44 -103t-44 -103t-103 -44q-60 0 -104 44t-44 103zM156 1661q0 59 44 103t103 44t103 -44t45 -103q0 -59 -44 -103q-43 -44 -103 -44t-104 44t-44 103zM913 1366v-229h-491v-306h471v-229h-471v-373h491v-229h-757v1366h757
z" />
    <glyph glyph-name="afii10051" unicode="&#x402;" horiz-adv-x="1351" 
d="M1036 406q0 202 -225 200q-123 0 -246 -47v-559h-266v1137h-287v229h1004v-229h-451v-349q133 48 294 48t265 -62q186 -106 186 -356t-155 -355q-109 -76 -301 -75q-63 0 -137 12v229q68 -12 131 -12q188 0 188 189z" />
    <glyph glyph-name="afii10052" unicode="&#x403;" horiz-adv-x="892" 
d="M524 1491l-114 102l286 291l185 -143zM881 1366v-229h-459v-1137h-266v1366h725z" />
    <glyph glyph-name="afii10053" unicode="&#x404;" horiz-adv-x="1251" 
d="M803 -31q-319 0 -510 191q-203 197 -203 522q0 156 54 298t151 237q188 180 510 180q193 0 356 -84v-312q-137 154 -358 154q-170 0 -289 -101t-149 -253h653v-230h-653q31 -170 161 -265t291 -95q207 -1 344 149v-311q-166 -80 -358 -80z" />
    <glyph glyph-name="afii10054" unicode="&#x405;" horiz-adv-x="1093" 
d="M416 1016q0 -59 38 -93q38 -35 205 -93t240 -125q117 -104 117 -296t-132 -316t-343 -124q-295 0 -471 258l174 166q45 -92 125 -137q81 -45 167 -45t146 52q59 52 59 130t-51 126q-51 47 -208 101t-232 121q-109 94 -109 257t113 281t335 118t378 -160l-140 -182
q-88 117 -223 116q-98 0 -143 -48t-45 -107z" />
    <glyph glyph-name="afii10055" unicode="&#x406;" horiz-adv-x="577" 
d="M156 1366h266v-1366h-266v1366z" />
    <glyph glyph-name="afii10056" unicode="&#x407;" horiz-adv-x="577" 
d="M319 1661q0 59 35 103t84 44t84 -44t35 -103t-35 -103t-84 -44t-84 44t-35 103zM12 1661q0 59 35 103t84 44t84 -44t35 -103t-35 -103t-84 -44t-84 44t-35 103zM156 1366h266v-1366h-266v1366z" />
    <glyph glyph-name="afii10057" unicode="&#x408;" horiz-adv-x="798" 
d="M377 1366h266v-922q0 -305 -160 -413q-94 -61 -223 -62q-180 0 -313 127l162 195q51 -74 129 -74t108 46t31 222v881z" />
    <glyph glyph-name="afii10058" unicode="&#x409;" horiz-adv-x="1933" 
d="M1217 602v-373h155q246 0 246 185q0 78 -54 133t-188 55h-159zM287 1366h930v-535h213q214 -1 338 -115t124 -302q0 -139 -73 -246q-115 -168 -387 -168h-482v1137h-397v-607q0 -253 -61 -353q-116 -189 -359 -189q-57 0 -113 12v229q41 -12 76 -12q172 0 189 238
q2 41 2 129v782z" />
    <glyph glyph-name="afii10059" unicode="&#x40a;" horiz-adv-x="1982" 
d="M1266 602v-373h155q246 0 246 185q0 78 -54 133t-188 55h-159zM422 1366v-528h577v528h267v-535h213q213 -1 338 -115t125 -302q0 -139 -74 -246q-115 -168 -387 -168h-482v608h-577v-608h-266v1366h266z" />
    <glyph glyph-name="afii10060" unicode="&#x40b;" horiz-adv-x="1413" 
d="M975 1137h-410v-316q139 14 244 15q248 0 365 -88q137 -102 137 -328v-420h-267v373q0 135 -63 184t-189 49t-227 -14v-592h-266v1137h-287v229h963v-229z" />
    <glyph glyph-name="afii10061" unicode="&#x40c;" horiz-adv-x="1302" 
d="M602 1491l-115 102l287 291l184 -143zM422 1366v-578l502 578h336l-578 -631l608 -735h-352l-485 612l-31 -30v-582h-266v1366h266z" />
    <glyph glyph-name="afii10062" unicode="&#x40e;" horiz-adv-x="1249" 
d="M635 1683q139 0 184 119l185 -73q-40 -105 -136 -167t-233 -62t-233 61q-95 62 -136 168l185 73q45 -119 184 -119zM4 1366h311l347 -688l292 688h291l-633 -1366h-290l190 381z" />
    <glyph glyph-name="afii10145" unicode="&#x40f;" horiz-adv-x="1384" 
d="M156 0v1366h266v-1137h541v1137h266v-1366h-414v-340h-246v340h-413z" />
    <glyph glyph-name="afii10017" unicode="&#x410;" horiz-adv-x="1376" 
d="M498 504h389l-195 491zM1085 0l-120 287h-551l-121 -287h-289l588 1366h209l571 -1366h-287z" />
    <glyph glyph-name="afii10018" unicode="&#x411;" horiz-adv-x="1167" 
d="M422 594v-365h127q254 0 254 179q-1 78 -57 132t-193 54h-131zM156 0v1366h790v-229h-524v-314h184q217 -1 344 -113t127 -300q0 -135 -76 -244q-117 -166 -393 -166h-452z" />
    <glyph glyph-name="afii10019" unicode="&#x412;" horiz-adv-x="1167" 
d="M537 217q266 0 266 195q0 111 -101 155q-57 27 -182 27h-98v-377h115zM422 1149v-350h76q95 0 146 40q59 42 60 134q2 92 -56 134t-148 42h-78zM156 1366h338q223 0 333 -86q127 -98 127 -282t-153 -269q104 -16 178 -86q98 -94 98 -261q-1 -166 -121 -274t-342 -108
h-458v1366z" />
    <glyph glyph-name="afii10020" unicode="&#x413;" horiz-adv-x="892" 
d="M881 1366v-229h-459v-1137h-266v1366h725z" />
    <glyph glyph-name="afii10021" unicode="&#x414;" horiz-adv-x="1372" 
d="M545 1137v-365q0 -256 -42 -366t-112 -177h551v908h-397zM287 1366h921v-1137h144v-536h-246v307h-840v-307h-246v536q142 -3 226 207q42 104 41 336v594z" />
    <glyph glyph-name="afii10022" unicode="&#x415;" horiz-adv-x="1015" 
d="M913 1366v-229h-491v-306h471v-229h-471v-373h491v-229h-757v1366h757z" />
    <glyph glyph-name="afii10024" unicode="&#x416;" horiz-adv-x="1830" 
d="M788 1366h254v-578l455 578h303l-522 -631l541 -735h-308l-438 612l-31 -30v-582h-254v582l-30 30l-439 -612h-307l541 735l-522 631h303l454 -578v578z" />
    <glyph glyph-name="afii10025" unicode="&#x417;" horiz-adv-x="1228" 
d="M586 1397q224 1 346 -97q121 -98 121 -260q0 -195 -168 -288q123 -31 189 -127t65 -226q0 -193 -152 -311t-391 -119q-354 0 -514 258l174 166q45 -102 142 -152q97 -51 215 -51t185 60t66 143q0 209 -299 209h-123v229h123q103 1 165 47t62 125q1 160 -194 160
q-176 1 -274 -108l-140 182q178 160 402 160z" />
    <glyph glyph-name="afii10026" unicode="&#x418;" horiz-adv-x="1515" 
d="M156 1366h266v-909l749 909h189v-1366h-266v913l-750 -913h-188v1366z" />
    <glyph glyph-name="afii10027" unicode="&#x419;" horiz-adv-x="1515" 
d="M758 1683q140 0 184 119l184 -73q-41 -105 -136 -167t-232 -62t-233 61q-95 62 -136 168l184 73q45 -119 185 -119zM156 1366h266v-909l749 909h189v-1366h-266v913l-750 -913h-188v1366z" />
    <glyph glyph-name="afii10028" unicode="&#x41a;" horiz-adv-x="1302" 
d="M422 1366v-578l502 578h336l-578 -631l608 -735h-352l-485 612l-31 -30v-582h-266v1366h266z" />
    <glyph glyph-name="afii10029" unicode="&#x41b;" horiz-adv-x="1372" 
d="M287 1366h930v-1366h-267v1137h-397v-607q0 -253 -61 -353q-116 -189 -359 -189q-57 0 -113 12v229q41 -12 76 -12q172 0 189 238q2 41 2 129v782z" />
    <glyph glyph-name="afii10030" unicode="&#x41c;" horiz-adv-x="1781" 
d="M86 0l254 1366h192l363 -868l379 868h192l230 -1366h-271l-122 842l-367 -842h-90l-350 842l-140 -842h-270z" />
    <glyph glyph-name="afii10031" unicode="&#x41d;" horiz-adv-x="1421" 
d="M422 1366v-528h577v528h267v-1366h-267v608h-577v-608h-266v1366h266z" />
    <glyph glyph-name="afii10032" unicode="&#x41e;" horiz-adv-x="1638" 
d="M819 211q201 0 328 132t127 339t-128 340t-327 133t-327 -133t-127 -340t127 -339t327 -132zM819 1397q322 0 526 -201q203 -201 203 -514t-204 -513t-525 -200t-525 200t-204 513t204 514t525 201z" />
    <glyph glyph-name="afii10033" unicode="&#x41f;" horiz-adv-x="1392" 
d="M156 1366h1081v-1366h-266v1137h-549v-1137h-266v1366z" />
    <glyph glyph-name="afii10034" unicode="&#x420;" horiz-adv-x="1093" 
d="M422 1137v-402h108q117 0 183 50q65 49 65 151q-1 201 -264 201h-92zM156 1366h397q127 0 208 -22t152 -82q139 -123 139 -323q0 -201 -116 -317q-117 -116 -342 -116h-172v-506h-266v1366z" />
    <glyph glyph-name="afii10035" unicode="&#x421;" horiz-adv-x="1236" 
d="M809 -31q-299 0 -500 191q-219 210 -219 532t219 525q193 180 502 180q180 0 336 -84v-312q-133 154 -332 154t-325 -140t-126 -346t140 -332q140 -127 328 -127t315 150v-311q-152 -80 -338 -80z" />
    <glyph glyph-name="afii10036" unicode="&#x422;" horiz-adv-x="905" 
d="M893 1137h-307v-1137h-267v1137h-307v229h881v-229z" />
    <glyph glyph-name="afii10037" unicode="&#x423;" horiz-adv-x="1249" 
d="M4 1366h311l347 -688l292 688h291l-633 -1366h-290l190 381z" />
    <glyph glyph-name="afii10038" unicode="&#x424;" horiz-adv-x="1699" 
d="M983 1032v-614h41q129 0 203 57q109 84 109 252t-109 248q-78 57 -203 57h-41zM717 418v614h-41q-123 0 -201 -57q-111 -82 -111 -247t111 -253q74 -57 201 -57h41zM717 0v188h-37q-240 0 -385 103q-205 145 -205 434t205 434q145 102 385 103h37v159h266v-159h37
q240 0 385 -103q205 -145 205 -434t-205 -434q-145 -102 -385 -103h-37v-188h-266z" />
    <glyph glyph-name="afii10039" unicode="&#x425;" horiz-adv-x="1310" 
d="M16 0l484 721l-408 645h320l239 -424l252 424h320l-420 -645l467 -721h-320l-299 500l-315 -500h-320z" />
    <glyph glyph-name="afii10040" unicode="&#x426;" horiz-adv-x="1413" 
d="M156 0v1366h266v-1137h541v1137h266v-1137h164v-536h-246v307h-991z" />
    <glyph glyph-name="afii10041" unicode="&#x427;" horiz-adv-x="1269" 
d="M848 0v545q-139 -14 -244 -15q-248 0 -364 88q-137 102 -138 328v420h267v-373q0 -135 63 -184q64 -49 190 -49t226 14v592h266v-1366h-266z" />
    <glyph glyph-name="afii10042" unicode="&#x428;" horiz-adv-x="1986" 
d="M156 0v1366h266v-1137h438v1137h266v-1137h439v1137h266v-1366h-1675z" />
    <glyph glyph-name="afii10043" unicode="&#x429;" horiz-adv-x="2015" 
d="M156 0v1366h266v-1137h438v1137h266v-1137h439v1137h266v-1137h164v-536h-246v307h-1593z" />
    <glyph glyph-name="afii10044" unicode="&#x42a;" horiz-adv-x="1282" 
d="M565 602v-373h156q246 0 246 185q-1 78 -55 133t-187 55h-160zM299 0v1137h-287v229h553v-535h213q213 -1 338 -115t125 -302q0 -139 -74 -246q-115 -168 -387 -168h-481z" />
    <glyph glyph-name="afii10045" unicode="&#x42b;" horiz-adv-x="1638" 
d="M1217 1366h266v-1366h-266v1366zM422 602v-373h156q246 0 245 185q0 78 -54 133t-187 55h-160zM156 0v1366h266v-535h213q213 -1 338 -115t125 -302q0 -139 -74 -246q-115 -168 -387 -168h-481z" />
    <glyph glyph-name="afii10046" unicode="&#x42c;" horiz-adv-x="1138" 
d="M422 602v-373h156q246 0 245 185q0 78 -54 133t-187 55h-160zM156 0v1366h266v-535h213q213 -1 338 -115t125 -302q0 -139 -74 -246q-115 -168 -387 -168h-481z" />
    <glyph glyph-name="afii10047" unicode="&#x42d;" horiz-adv-x="1251" 
d="M274 571v230h609q-29 168 -150 261t-272 93q-219 0 -371 -154v312q164 84 356 84q501 0 661 -417q54 -142 54 -298q0 -326 -203 -522q-190 -190 -509 -191q-193 0 -359 80v311q147 -150 361 -149q159 0 283 94t153 266h-613z" />
    <glyph glyph-name="afii10048" unicode="&#x42e;" horiz-adv-x="2101" 
d="M1307 211q193 0 311 131t119 350q0 219 -130 341t-300 122t-300 -122t-130 -341q1 -219 119 -350t311 -131zM422 838h188q35 201 172 350q194 209 516 209t518 -201t196 -513t-196 -513t-507 -201q-311 1 -499 183t-208 456h-180v-608h-266v1366h266v-528z" />
    <glyph glyph-name="afii10049" unicode="&#x42f;" horiz-adv-x="1163" 
d="M741 1149h-82q-258 0 -258 -206t263 -206h77v412zM1008 1366v-1366h-267v528h-49l-348 -528h-319l405 553q-82 12 -149 61q-154 111 -154 320q0 208 127 320t358 112h396z" />
    <glyph glyph-name="afii10065" unicode="&#x430;" horiz-adv-x="1167" 
d="M578 694q-106 0 -177 -71q-69 -73 -69 -179t70 -179t176 -73t176 74q70 72 69 178q0 106 -69 179q-70 71 -176 71zM799 887h250v-887h-250v115q-100 -143 -273 -144q-200 -1 -326 137t-126 338t123 334q123 135 317 135t285 -143v115z" />
    <glyph glyph-name="afii10066" unicode="&#x431;" horiz-adv-x="1179" 
d="M598 193q110 -1 180 71t70 180t-70 179t-180 71t-180 -72t-70 -178q0 -108 70 -180t180 -71zM1106 446q0 -214 -144 -344q-144 -131 -363 -131q-220 0 -349 117q-160 143 -160 449q0 412 135 598q53 73 133 121t131 64t143 34t135 46q44 28 60 75h230q-41 -246 -291 -320
l-92 -27q-186 -37 -252 -106q-90 -84 -100 -227h4q47 61 133 91t178 29q205 1 337 -127t132 -342z" />
    <glyph glyph-name="afii10067" unicode="&#x432;" horiz-adv-x="933" 
d="M369 375v-178h116q127 0 125 94q0 82 -118 84h-123zM369 535h114q39 0 69 18t30 60q0 41 -24 59t-79 18h-110v-155zM119 887h391q141 1 219 -59t78 -169q0 -57 -32 -107t-91 -75q66 -12 126 -65t58 -168q0 -116 -86 -180t-207 -64h-456v887z" />
    <glyph glyph-name="afii10068" unicode="&#x433;" horiz-adv-x="696" 
d="M119 0v887h565v-213h-315v-674h-250z" />
    <glyph glyph-name="afii10069" unicode="&#x434;" horiz-adv-x="1085" 
d="M688 213v461h-262v-197q0 -180 -98 -264h360zM201 887h737v-674h131v-471h-225v258h-611v-258h-225v471q104 6 158 113q35 76 35 227v334z" />
    <glyph glyph-name="afii10070" unicode="&#x435;" horiz-adv-x="1069" 
d="M550 739q-76 0 -136 -47t-74 -131h420q-14 86 -74 132t-136 46zM553 -29q-209 0 -344 128t-135 342q0 215 131 345t347 130t330 -137q114 -136 113 -357v-21h-663q0 -90 43 -149q61 -84 189 -84t196 117l229 -37q-27 -71 -110 -161q-49 -52 -133 -84t-193 -32z" />
    <glyph glyph-name="afii10072" unicode="&#x436;" horiz-adv-x="1368" 
d="M571 887h226v-344l266 344h291l-338 -404l356 -483h-303l-240 348l-32 -37v-311h-226v311l-32 37l-240 -348h-303l356 483l-338 404h291l266 -344v344z" />
    <glyph glyph-name="afii10073" unicode="&#x437;" horiz-adv-x="901" 
d="M412 547q129 0 129 82q0 90 -125 90t-207 -70l-115 156q139 111 336 110q150 1 243 -63t93 -186t-123 -189q65 -16 125 -68t59 -155q0 -129 -102 -206t-291 -77q-238 0 -381 148l123 151q100 -94 238 -94q86 0 121 31t35 75q-1 83 -154 85h-105v180h101z" />
    <glyph glyph-name="afii10074" unicode="&#x438;" horiz-adv-x="1146" 
d="M119 887h250v-547l409 547h250v-887h-250v547l-409 -547h-250v887z" />
    <glyph glyph-name="afii10075" unicode="&#x439;" horiz-adv-x="1146" 
d="M571 1202q61 0 111 33q49 33 63 96l164 -78q-41 -115 -137 -163q-201 -99 -397 1q-96 48 -137 162l163 78q13 -55 61 -92t109 -37zM119 887h250v-547l409 547h250v-887h-250v547l-409 -547h-250v887z" />
    <glyph glyph-name="afii10076" unicode="&#x43a;" 
d="M119 887h250v-344l331 344h312l-402 -395l422 -492h-319l-307 367l-37 -37v-330h-250v887z" />
    <glyph glyph-name="afii10077" unicode="&#x43b;" 
d="M55 209q135 0 133 156v522h717v-887h-250v674h-241v-326q0 -172 -84 -264t-240 -92q-41 0 -74 8v213q25 -4 39 -4z" />
    <glyph glyph-name="afii10078" unicode="&#x43c;" horiz-adv-x="1228" 
d="M25 0l161 887h185l243 -510l244 510h184l162 -887h-250l-73 481l-222 -481h-90l-221 481l-74 -481h-249z" />
    <glyph glyph-name="afii10079" unicode="&#x43d;" horiz-adv-x="1085" 
d="M119 0v887h250v-314h348v314h250v-887h-250v360h-348v-360h-250z" />
    <glyph glyph-name="afii10080" unicode="&#x43e;" horiz-adv-x="1163" 
d="M582 193q106 -1 178 73t72 177t-72 178q-72 73 -178 73t-179 -73q-71 -73 -71 -177t71 -178q73 -73 179 -73zM582 915q224 1 366 -129t142 -342t-150 -348q-135 -125 -358 -125t-366 130q-142 130 -142 342t142 342t366 130z" />
    <glyph glyph-name="afii10081" unicode="&#x43f;" horiz-adv-x="1077" 
d="M119 887h839v-887h-249v674h-340v-674h-250v887z" />
    <glyph glyph-name="afii10082" unicode="&#x440;" horiz-adv-x="1167" 
d="M344 443q0 -120 75 -185t173 -65q98 -1 171 67t73 184t-73 182q-73 68 -171 68t-164 -59q-84 -72 -84 -192zM369 -469h-250v1356h250v-115q100 143 286 143q187 1 313 -125t126 -348t-132 -347q-132 -123 -309 -123q-178 0 -284 143v-584z" />
    <glyph glyph-name="afii10083" unicode="&#x441;" horiz-adv-x="856" 
d="M582 694q-120 0 -185 -72t-65 -180q0 -106 72 -178t185 -72q112 0 197 78v-243q-111 -55 -229 -56q-207 0 -345 131t-138 347t153 352q129 115 320 114q128 0 239 -53v-246q-84 78 -204 78z" />
    <glyph glyph-name="afii10084" unicode="&#x442;" horiz-adv-x="765" 
d="M754 674h-246v-674h-250v674h-246v213h742v-213z" />
    <glyph glyph-name="afii10085" unicode="&#x443;" horiz-adv-x="1101" 
d="M100 -469l326 602l-422 754h291l274 -504l246 504h283l-715 -1356h-283z" />
    <glyph glyph-name="afii10086" unicode="&#x444;" horiz-adv-x="1413" 
d="M831 209q98 0 160 43q90 59 90 190t-92 195q-66 45 -158 41v-469zM582 209v469q-92 4 -158 -41q-92 -63 -92 -195t90 -190q62 -43 160 -43zM582 -469v457h-21q-188 0 -311 88q-176 122 -176 366t176 371q123 86 311 86h21v467h249v-467h21q190 0 311 -86
q176 -127 176 -371t-176 -366q-123 -88 -311 -88h-21v-457h-249z" />
    <glyph glyph-name="afii10087" unicode="&#x445;" horiz-adv-x="1159" 
d="M4 0l422 483l-340 404h315l181 -230l184 230h315l-346 -404l420 -483h-319l-254 309l-258 -309h-320z" />
    <glyph glyph-name="afii10088" unicode="&#x446;" horiz-adv-x="1110" 
d="M119 0v887h250v-674h331v674h250v-674h144v-471h-226v258h-749z" />
    <glyph glyph-name="afii10089" unicode="&#x447;" horiz-adv-x="991" 
d="M623 0v303q-106 -20 -209 -20q-162 0 -245 79t-83 211v314h250v-262q0 -68 33 -99q56 -53 254 -18v379h249v-887h-249z" />
    <glyph glyph-name="afii10090" unicode="&#x448;" horiz-adv-x="1560" 
d="M119 0v887h250v-674h286v674h250v-674h287v674h250v-887h-1323z" />
    <glyph glyph-name="afii10091" unicode="&#x449;" horiz-adv-x="1601" 
d="M119 0v887h250v-674h286v674h250v-674h287v674h250v-674h143v-471h-225v258h-1241z" />
    <glyph glyph-name="afii10092" unicode="&#x44a;" horiz-adv-x="1032" 
d="M721 291q0 82 -119 84h-123v-178h117q125 0 125 94zM12 887h467v-316h195q156 0 237 -90q68 -71 68 -203t-94 -212q-76 -66 -199 -66h-457v674h-217v213z" />
    <glyph glyph-name="afii10093" unicode="&#x44b;" horiz-adv-x="1331" 
d="M963 887h249v-887h-249v887zM369 375v-178h116q127 0 125 94q0 82 -118 84h-123zM119 887h250v-316h194q156 0 238 -90q67 -71 67 -203t-94 -212q-76 -66 -199 -66h-456v887z" />
    <glyph glyph-name="afii10094" unicode="&#x44c;" horiz-adv-x="921" 
d="M369 375v-178h116q127 0 125 94q0 82 -118 84h-123zM119 887h250v-316h194q156 0 238 -90q67 -71 67 -203t-94 -212q-76 -66 -199 -66h-456v887z" />
    <glyph glyph-name="afii10095" unicode="&#x44d;" horiz-adv-x="888" 
d="M328 174q106 0 164 49q55 49 59 135h-367v181h367q-12 80 -68 125q-61 55 -179 55t-230 -76v217q133 55 270 55q221 0 346 -131t125 -346t-129 -342t-342 -127q-159 0 -274 49v242q106 -86 258 -86z" />
    <glyph glyph-name="afii10096" unicode="&#x44e;" horiz-adv-x="1536" 
d="M963 193q104 1 173 73q68 72 68 177t-68 179q-69 72 -173 72t-173 -72t-69 -178t69 -178t173 -73zM369 553h120q23 137 127 238q132 125 348 125t357 -130q141 -128 141 -340t-141 -344q-141 -131 -356 -131t-349 125q-104 100 -127 244h-120v-340h-250v887h250v-334z
" />
    <glyph glyph-name="afii10097" unicode="&#x44f;" horiz-adv-x="942" 
d="M573 492v198h-108q-57 0 -87 -28t-30 -75q0 -97 117 -95h108zM90 599q0 128 100 208t281 80h352v-887h-250v311h-28l-217 -311h-287l262 332q-85 12 -149 76t-64 191z" />
    <glyph glyph-name="afii10071" unicode="&#x451;" horiz-adv-x="1069" 
d="M610 1200q0 60 44 104t104 44t103 -44q44 -44 44 -104t-44 -103q-44 -44 -103 -44t-104 44q-44 44 -44 103zM184 1200q0 60 44 104t104 44t103 -44q44 -44 44 -104t-44 -103q-44 -44 -103 -44t-104 44q-44 44 -44 103zM550 739q-76 0 -136 -47t-74 -131h420
q-14 86 -74 132t-136 46zM553 -29q-209 0 -344 128t-135 342q0 215 131 345t347 130t330 -137q114 -136 113 -357v-21h-663q0 -90 43 -149q61 -84 189 -84t196 117l229 -37q-27 -71 -110 -161q-49 -52 -133 -84t-193 -32z" />
    <glyph glyph-name="afii10099" unicode="&#x452;" horiz-adv-x="1114" 
d="M995 -176q0 -295 -317 -295q-78 0 -141 18v222q49 -19 107 -19t79 38q22 38 22 130v483q0 125 -45 172q-44 47 -132 47t-134 -68q-46 -70 -45 -181v-371h-250v1063h-159v160h159v270h250v-270h410v-160h-410v-373q101 144 275 144t262 -109q70 -86 69 -250v-651z" />
    <glyph glyph-name="afii10100" unicode="&#x453;" horiz-adv-x="696" 
d="M528 1434l181 -115l-308 -275l-114 82zM119 0v887h565v-213h-315v-674h-250z" />
    <glyph glyph-name="afii10101" unicode="&#x454;" horiz-adv-x="888" 
d="M332 352q16 -176 273 -176q130 0 214 78v-242q-96 -41 -237 -41q-231 0 -365 119q-67 62 -105 156t-38 190q0 207 138 343t363 136q139 0 240 -61v-217q-105 82 -217 82q-112 1 -178 -55t-88 -132h393v-180h-393z" />
    <glyph glyph-name="afii10102" unicode="&#x455;" horiz-adv-x="827" 
d="M457 735q-45 0 -71 -19t-26 -52q0 -53 80 -80l60 -19q174 -55 222 -121t48 -153q0 -135 -100 -227t-264 -93q-207 0 -345 148l132 151q88 -102 196 -102q53 0 88 26t35 70q0 61 -78 90l-57 21q-133 47 -196 113t-63 176t93 188q79 63 235 63t279 -94l-123 -145
q-63 59 -145 59z" />
    <glyph glyph-name="afii10103" unicode="&#x456;" horiz-adv-x="487" 
d="M94 1262q0 61 44 105t106 44t105 -44q44 -44 44 -105q0 -62 -44 -106t-105 -44t-106 44q-44 45 -44 106zM119 887h250v-887h-250v887z" />
    <glyph glyph-name="afii10104" unicode="&#x457;" horiz-adv-x="561" 
d="M309 1264q0 66 36 106t83 41q47 0 82 -44t35 -103q0 -60 -35 -104t-82 -44t-83 41t-36 107zM16 1264q0 59 35 103t82 44t83 -41q36 -40 36 -106t-36 -107t-83 -41t-82 44t-35 104zM156 887h250v-887h-250v887z" />
    <glyph glyph-name="afii10105" unicode="&#x458;" horiz-adv-x="487" 
d="M94 1262q0 61 44 105t106 44t105 -44q44 -44 44 -105q0 -62 -44 -106t-105 -44t-106 44q-44 45 -44 106zM119 887h250v-1356h-250v1356z" />
    <glyph glyph-name="afii10106" unicode="&#x459;" horiz-adv-x="1458" 
d="M1147 291q0 82 -119 84h-123v-178h117q125 0 125 94zM55 209q135 0 133 156v522h717v-316h195q156 0 237 -90q68 -71 68 -203t-94 -212q-76 -66 -199 -66h-457v674h-241v-326q0 -172 -84 -264t-240 -92q-41 0 -74 8v213q25 -4 39 -4z" />
    <glyph glyph-name="afii10107" unicode="&#x45a;" horiz-adv-x="1519" 
d="M967 375v-178h116q127 0 125 94q0 82 -118 84h-123zM119 0v887h250v-314h348v314h250v-316h194q156 0 238 -90q67 -71 67 -203t-94 -212q-76 -66 -198 -66h-457v360h-348v-360h-250z" />
    <glyph glyph-name="afii10108" unicode="&#x45b;" horiz-adv-x="1114" 
d="M139 0v1063h-159v160h159v270h250v-270h410v-160h-410v-373q101 144 275 144t262 -109q70 -86 69 -250v-475h-250v401q0 125 -45 172q-44 47 -132 47t-134 -68q-46 -70 -45 -181v-371h-250z" />
    <glyph glyph-name="afii10109" unicode="&#x45c;" 
d="M651 1434l180 -115l-307 -275l-114 82zM119 887h250v-344l331 344h312l-402 -395l422 -492h-319l-307 367l-37 -37v-330h-250v887z" />
    <glyph glyph-name="afii10110" unicode="&#x45e;" horiz-adv-x="1101" 
d="M559 1202q61 0 111 33q49 33 63 96l164 -78q-41 -115 -137 -163q-201 -99 -398 1q-96 48 -137 162l164 78q13 -55 61 -92t109 -37zM100 -469l326 602l-422 754h291l274 -504l246 504h283l-715 -1356h-283z" />
    <glyph glyph-name="afii10193" unicode="&#x45f;" horiz-adv-x="1069" 
d="M119 0v887h250v-674h331v674h250v-887h-303v-279h-225v279h-303z" />
    <glyph glyph-name="afii10146" unicode="&#x462;" horiz-adv-x="1269" 
d="M553 594v-377h156q246 0 245 189q0 78 -54 133t-187 55h-160zM287 0v1018h-307v205h307v198h266v-198h410v-205h-410v-219h213q213 0 338 -109t125 -282q0 -139 -74 -244q-117 -164 -387 -164h-481z" />
    <glyph glyph-name="afii10194" unicode="&#x463;" horiz-adv-x="1032" 
d="M721 291q0 82 -119 84h-123v-178h117q125 0 125 94zM479 555h195q160 0 239 -90q66 -73 66 -197t-94 -205q-76 -63 -199 -63h-457v707h-217v180h217v479h250v-479h287v-180h-287v-152z" />
    <glyph glyph-name="afii10147" unicode="&#x472;" horiz-adv-x="1634" 
d="M817 1155q-163 0 -287 -97t-157 -261h889q-33 164 -158 261t-287 97zM817 211q180 -1 302 109t147 272h-897q25 -162 147 -272t301 -109zM817 1397q323 0 525 -201t202 -513t-204 -513t-523 -201t-523 201t-204 513t202 513t525 201z" />
    <glyph glyph-name="afii10195" unicode="&#x473;" horiz-adv-x="1163" 
d="M582 719q-84 0 -154 -49t-88 -133h483q-18 84 -88 133q-69 49 -153 49zM582 168q92 0 164 58t85 151h-499q14 -93 86 -151t164 -58zM582 915q224 1 366 -129t142 -342t-150 -348q-135 -125 -358 -125t-366 130q-142 130 -142 342t142 342t366 130z" />
    <glyph glyph-name="afii10148" unicode="&#x474;" horiz-adv-x="1318" 
d="M4 1366h291l364 -917l365 917h291l-578 -1366h-159z" />
    <glyph glyph-name="afii10196" unicode="&#x475;" horiz-adv-x="1032" 
d="M4 887h279l233 -500l234 500h278l-446 -887h-131z" />
    <glyph glyph-name="afii10050" unicode="&#x490;" horiz-adv-x="974" 
d="M156 0v1366h561v307h246v-536h-541v-1137h-266z" />
    <glyph glyph-name="afii10098" unicode="&#x491;" horiz-adv-x="778" 
d="M119 0v887h422v258h225v-471h-397v-674h-250z" />
    <glyph glyph-name="uni0492" unicode="&#x492;" horiz-adv-x="892" 
d="M156 0v631h-197v205h197v530h725v-229h-459v-301h328v-205h-328v-631h-266z" />
    <glyph glyph-name="uni0493" unicode="&#x493;" horiz-adv-x="696" 
d="M119 0v324h-139v176h139v387h565v-213h-315v-174h204v-176h-204v-324h-250z" />
    <glyph glyph-name="uni0494" unicode="&#x494;" horiz-adv-x="1208" 
d="M1167 418q0 -432 -456 -430q-63 0 -138 12v229q68 -12 132 -12q188 0 188 189q0 202 -225 200q-123 0 -246 -47v-559h-266v1366h716v-229h-450v-349q134 48 294 48t265 -62q186 -106 186 -356z" />
    <glyph glyph-name="uni0495" unicode="&#x495;" horiz-adv-x="933" 
d="M119 0v887h565v-213h-315v-191h37q184 0 288 -67q166 -104 166 -344q0 -195 -139 -335t-352 -163v221q92 12 153 74q80 77 80 185q0 216 -217 216h-16v-270h-250z" />
    <glyph glyph-name="uni0496" unicode="&#x496;" horiz-adv-x="1830" 
d="M788 1366h254v-578l455 578h303l-522 -631l371 -506h170v-536h-246v307h-62l-438 612l-31 -30v-582h-254v582l-30 30l-439 -612h-307l541 735l-522 631h303l454 -578v578z" />
    <glyph glyph-name="uni0497" unicode="&#x497;" horiz-adv-x="1368" 
d="M571 887h226v-344l266 344h291l-338 -404l198 -270h154v-471h-225v258h-74l-240 348l-32 -37v-311h-226v311l-32 37l-240 -348h-303l356 483l-338 404h291l266 -344v344z" />
    <glyph glyph-name="uni0498" unicode="&#x498;" horiz-adv-x="1228" 
d="M184 1237q182 160 416 160q235 0 361 -125q92 -92 92 -234q0 -100 -43 -175t-125 -111q127 -35 190 -127t64 -215q0 -168 -115 -288t-291 -138v-324h-246v317q-121 5 -226 73t-179 177l174 166q41 -83 126 -143t217 -60q133 0 199 60t66 146t-64 146t-235 60h-123v229
h123q113 -1 170 49t58 121q0 162 -203 162q-145 1 -266 -108z" />
    <glyph glyph-name="uni0499" unicode="&#x499;" horiz-adv-x="901" 
d="M541 629q0 88 -125 89t-207 -69l-115 156q61 47 135 78q91 33 221 33t216 -60q100 -66 100 -191t-123 -188q66 -16 117 -59q68 -63 68 -170t-85 -184q-84 -77 -196 -82v-261h-225v263q-156 18 -269 135l123 151q45 -42 110 -68q64 -26 132 -26t110 27t41 75q0 48 -40 68
t-113 21h-105v180h101q129 0 129 82z" />
    <glyph glyph-name="uni049A" unicode="&#x49a;" horiz-adv-x="1302" 
d="M156 1366h266v-578l502 578h336l-578 -631l418 -506h190v-536h-246v307h-106l-485 612l-31 -30v-582h-266v1366z" />
    <glyph glyph-name="uni049B" unicode="&#x49b;" 
d="M119 887h250v-344l331 344h312l-402 -395l240 -279h174v-471h-225v258h-86l-307 367l-37 -37v-330h-250v887z" />
    <glyph glyph-name="uni049C" unicode="&#x49c;" horiz-adv-x="1474" 
d="M156 1366h266v-549h141v328h197v-328l389 549h295l-467 -631l485 -735h-311l-391 612v-348h-197v348h-141v-612h-266v1366z" />
    <glyph glyph-name="uni049D" unicode="&#x49d;" horiz-adv-x="1175" 
d="M119 887h250v-338h98v205h164v-205l254 338h278l-315 -395l315 -492h-286l-246 389v-246h-164v246h-98v-389h-250v887z" />
    <glyph glyph-name="uni04A0" unicode="&#x4a0;" horiz-adv-x="1445" 
d="M299 0v1137h-287v229h553v-578l502 578h336l-578 -631l609 -735h-353l-485 612l-31 -30v-582h-266z" />
    <glyph glyph-name="uni04A1" unicode="&#x4a1;" horiz-adv-x="1196" 
d="M229 0v674h-217v213h467v-344l332 344h311l-401 -395l422 -492h-320l-307 367l-37 -37v-330h-250z" />
    <glyph glyph-name="uni04A2" unicode="&#x4a2;" horiz-adv-x="1449" 
d="M156 0v1366h266v-528h577v528h267v-1137h164v-536h-246v307h-185v608h-577v-608h-266z" />
    <glyph glyph-name="uni04A3" unicode="&#x4a3;" horiz-adv-x="1126" 
d="M119 0v887h250v-314h348v314h250v-674h143v-471h-225v258h-168v360h-348v-360h-250z" />
    <glyph glyph-name="uni04A4" unicode="&#x4a4;" horiz-adv-x="1736" 
d="M156 0v1366h266v-528h577v528h725v-229h-458v-1137h-267v608h-577v-608h-266z" />
    <glyph glyph-name="uni04A5" unicode="&#x4a5;" horiz-adv-x="1294" 
d="M119 0v887h250v-314h348v314h565v-213h-315v-674h-250v360h-348v-360h-250z" />
    <glyph glyph-name="uni04AA" unicode="&#x4aa;" horiz-adv-x="1236" 
d="M934 -340h-246v317q-231 29 -397 201q-201 208 -201 520t219 519q193 180 502 180q180 0 336 -84v-312q-133 154 -323 154t-310 -117q-150 -143 -150 -354t132 -342q132 -132 328 -132t323 150v-311q-92 -55 -213 -69v-320z" />
    <glyph glyph-name="uni04AB" unicode="&#x4ab;" horiz-adv-x="856" 
d="M589 694q-111 0 -188 -69q-69 -70 -69 -182q0 -111 74 -181t184 -70t196 78v-243q-49 -29 -120 -45v-261h-226v265q-133 27 -225 114q-141 133 -141 349t153 352q131 115 328 114q125 0 231 -53v-246q-86 78 -197 78z" />
    <glyph glyph-name="uni04AE" unicode="&#x4ae;" horiz-adv-x="1208" 
d="M465 0v625l-469 741h315l293 -475l293 475h315l-481 -741v-625h-266z" />
    <glyph glyph-name="uni04AF" unicode="&#x4af;" horiz-adv-x="1032" 
d="M641 -469h-250v586l-387 770h279l233 -500l234 500h278l-387 -770v-586z" />
    <glyph glyph-name="uni04B0" unicode="&#x4b0;" horiz-adv-x="1208" 
d="M465 0v420h-369v205h369l-469 741h315l293 -475l293 475h315l-481 -741h369v-205h-369v-420h-266z" />
    <glyph glyph-name="uni04B1" unicode="&#x4b1;" horiz-adv-x="1032" 
d="M641 41h287v-197h-287v-313h-250v313h-287v197h287v76l-387 770h279l233 -500l234 500h278l-387 -770v-76z" />
    <glyph glyph-name="uni04B2" unicode="&#x4b2;" horiz-adv-x="1310" 
d="M1270 229v-536h-246v307h-74l-299 500l-315 -500h-320l484 721l-408 645h320l239 -424l252 424h320l-420 -645l317 -492h150z" />
    <glyph glyph-name="uni04B3" unicode="&#x4b3;" horiz-adv-x="1155" 
d="M1151 213v-471h-225v258h-90l-254 309l-258 -309h-320l422 483l-340 404h315l181 -230l184 230h315l-346 -404l234 -270h182z" />
    <glyph glyph-name="uni04B6" unicode="&#x4b6;" horiz-adv-x="1298" 
d="M848 0v545q-139 -14 -244 -15q-248 0 -364 88q-137 102 -138 328v420h267v-373q0 -135 63 -184q64 -49 190 -49t226 14v592h266v-1137h164v-536h-246v307h-184z" />
    <glyph glyph-name="uni04B7" unicode="&#x4b7;" horiz-adv-x="1032" 
d="M623 0v303q-106 -20 -209 -20q-162 0 -245 79t-83 211v314h250v-262q0 -68 33 -99q56 -53 254 -18v379h249v-674h144v-471h-225v258h-168z" />
    <glyph glyph-name="uni04B8" unicode="&#x4b8;" horiz-adv-x="1351" 
d="M930 0v569q-104 -8 -168 -10v-307h-197v307q-209 0 -325 84q-137 98 -138 303v420h267v-373q0 -137 59 -183t137 -46v369h197v-369q72 0 168 10v592h266v-1366h-266z" />
    <glyph glyph-name="uni04B9" unicode="&#x4b9;" horiz-adv-x="1105" 
d="M737 0v328q-53 -8 -110 -13v-184h-164v184q-185 0 -281 74t-96 213v285h250v-262q0 -68 38 -97t89 -32v217h164v-221q55 0 110 16v379h250v-887h-250z" />
    <glyph glyph-name="uni04BA" unicode="&#x4ba;" horiz-adv-x="1269" 
d="M422 1366v-504q139 14 244 15q248 0 364 -89q137 -102 137 -327v-461h-266v414q0 135 -63 184q-64 49 -190 49t-226 -14v-633h-266v1366h266z" />
    <glyph glyph-name="uni04BB" unicode="&#x4bb;" horiz-adv-x="1093" 
d="M119 0v1493h250v-721q102 143 275 143t261 -108q70 -86 70 -250v-557h-250v483q0 125 -45 172t-133 47t-133 -69t-45 -180v-453h-250z" />
    <glyph glyph-name="uni04C0" unicode="&#x4c0;" horiz-adv-x="577" 
d="M156 1366h266v-1366h-266v1366z" />
    <glyph glyph-name="uni04C1" unicode="&#x4c1;" horiz-adv-x="1830" 
d="M915 1683q139 0 185 119l184 -73q-41 -105 -136 -167q-94 -62 -232 -62t-233 61q-95 62 -136 168l184 73q45 -119 184 -119zM788 1366h254v-578l455 578h303l-522 -631l541 -735h-308l-438 612l-31 -30v-582h-254v582l-30 30l-439 -612h-307l541 735l-522 631h303
l454 -578v578z" />
    <glyph glyph-name="uni04C2" unicode="&#x4c2;" horiz-adv-x="1368" 
d="M682 1202q62 0 111 33t63 96l164 -78q-41 -115 -137 -163q-201 -99 -398 1q-96 48 -137 162l164 78q12 -55 60 -92t110 -37zM571 887h226v-344l266 344h291l-338 -404l356 -483h-303l-240 348l-32 -37v-311h-226v311l-32 37l-240 -348h-303l356 483l-338 404h291
l266 -344v344z" />
    <glyph glyph-name="uni04C3" unicode="&#x4c3;" horiz-adv-x="1269" 
d="M156 1366h266v-578l502 578h336l-498 -541q217 1 332 -115q114 -116 114 -311t-111 -309t-294 -113q-139 0 -262 62l69 211q72 -43 151 -43t126 47t47 139t-60 153t-217 60q-106 0 -235 -14v-592h-266v1366z" />
    <glyph glyph-name="uni04C4" unicode="&#x4c4;" horiz-adv-x="983" 
d="M653 86q0 205 -231 205h-53v-291h-250v887h250v-371l303 371h311l-387 -416q123 -23 201 -96q115 -109 115 -305t-140 -334q-139 -139 -352 -162v221q88 12 160 82t73 209z" />
    <glyph glyph-name="uni04C7" unicode="&#x4c7;" horiz-adv-x="1421" 
d="M156 0v1366h266v-528h577v528h267v-1542q0 -141 -75 -218t-226 -77q-94 0 -174 18v230q47 -19 98 -19t81 31t29 137v682h-577v-608h-266z" />
    <glyph glyph-name="uni04C8" unicode="&#x4c8;" horiz-adv-x="1085" 
d="M967 -176q0 -295 -318 -295q-78 0 -141 18v222q48 -19 106 -19t80 38t23 130v442h-348v-360h-250v887h250v-314h348v314h250v-1063z" />
    <glyph glyph-name="uni04D0" unicode="&#x4d0;" horiz-adv-x="1376" 
d="M688 1683q139 0 184 119l185 -73q-41 -105 -136 -167t-233 -62t-232 61q-96 62 -137 168l185 73q45 -119 184 -119zM498 504h389l-195 491zM1085 0l-120 287h-551l-121 -287h-289l588 1366h209l571 -1366h-287z" />
    <glyph glyph-name="uni04D1" unicode="&#x4d1;" horiz-adv-x="1167" 
d="M582 1202q62 0 110 33q50 33 64 96l164 -78q-42 -115 -138 -163q-201 -99 -397 1q-96 48 -137 162l164 78q12 -55 60 -92t110 -37zM578 694q-106 0 -177 -71q-69 -73 -69 -179t70 -179t176 -73t176 74q70 72 69 178q0 106 -69 179q-70 71 -176 71zM799 887h250v-887h-250
v115q-100 -143 -273 -144q-200 -1 -326 137t-126 338t123 334q123 135 317 135t285 -143v115z" />
    <glyph glyph-name="uni04D2" unicode="&#x4d2;" horiz-adv-x="1376" 
d="M770 1661q0 59 44 103t104 44t103 -44q44 -44 44 -103t-44 -103t-103 -44q-60 0 -104 44t-44 103zM311 1661q0 59 44 103q43 44 103 44t104 -44t44 -103t-44 -103t-103 -44t-103 44t-45 103zM498 504h389l-195 491zM1085 0l-120 287h-551l-121 -287h-289l588 1366h209
l571 -1366h-287z" />
    <glyph glyph-name="uni04D3" unicode="&#x4d3;" horiz-adv-x="1167" 
d="M649 1200q0 60 44 104q43 44 103 44t104 -44t44 -104t-44 -103q-44 -44 -103 -44t-104 44q-44 44 -44 103zM223 1200q0 60 44 104q43 44 103 44t104 -44t44 -104t-44 -103q-44 -44 -103 -44t-104 44q-44 44 -44 103zM578 694q-106 0 -177 -71q-69 -73 -69 -179t70 -179
t176 -73t176 74q70 72 69 178q0 106 -69 179q-70 71 -176 71zM799 887h250v-887h-250v115q-100 -143 -273 -144q-200 -1 -326 137t-126 338t123 334q123 135 317 135t285 -143v115z" />
    <glyph glyph-name="uni04D4" unicode="&#x4d4;" horiz-adv-x="1884" 
d="M504 504h389l-188 491zM1092 0l-121 287h-551l-121 -287h-287l592 1366h721l90 -229h-502l123 -306h494l94 -229h-496l150 -373h504l90 -229h-780z" />
    <glyph glyph-name="uni04D5" unicode="&#x4d5;" horiz-adv-x="1654" 
d="M1136 739q-76 0 -136 -47t-74 -131h420q-14 86 -74 132t-136 46zM315 267q0 -44 43 -82t134 -38t139 40q47 40 47 83t-45 76t-141 33t-136 -34q-41 -34 -41 -78zM1139 -29q-231 0 -344 168q-127 -168 -357 -168q-174 0 -269 83t-95 206t97 209t278 86q121 0 229 -61l2 43
q6 92 -76 145q-58 37 -164 37t-229 -35v199q207 47 363 25q50 -7 115 -42t106 -100q119 150 339 150t333 -137q114 -136 114 -357v-21h-663q-4 -88 43 -149q61 -84 189 -84t196 117l229 -37q-37 -94 -101 -156q-94 -88 -251 -114q-43 -7 -84 -7z" />
    <glyph glyph-name="uni04D6" unicode="&#x4d6;" horiz-adv-x="1015" 
d="M532 1683q139 0 185 119l184 -73q-41 -105 -136 -167t-233 -62t-232 61q-95 62 -136 168l184 73q45 -119 184 -119zM913 1366v-229h-491v-306h471v-229h-471v-373h491v-229h-757v1366h757z" />
    <glyph glyph-name="uni04D7" unicode="&#x4d7;" horiz-adv-x="1069" 
d="M542 1202q62 0 112 33t63 96l164 -78q-41 -115 -137 -163q-201 -99 -398 1q-96 48 -137 162l164 78q12 -55 60 -92q47 -37 109 -37zM550 739q-76 0 -136 -47t-74 -131h420q-14 86 -74 132t-136 46zM553 -29q-209 0 -344 128t-135 342q0 215 131 345t347 130t330 -137
q114 -136 113 -357v-21h-663q0 -90 43 -149q61 -84 189 -84t196 117l229 -37q-27 -71 -110 -161q-49 -52 -133 -84t-193 -32z" />
    <glyph glyph-name="uni04D8" unicode="&#x4d8;" horiz-adv-x="1560" 
d="M767 211q179 1 287 107t136 249h-799q8 -131 86 -225q111 -131 290 -131zM90 772h1102q-25 168 -145 276q-121 108 -287 107q-227 0 -365 -184l-231 125q114 147 270 224t332 77q309 0 507 -199q197 -199 197 -516t-196 -515t-506 -198q-356 0 -539 267
q-139 201 -139 460v76z" />
    <glyph glyph-name="afii10846" unicode="&#x4d9;" horiz-adv-x="1069" 
d="M733 346h-428q13 -94 73 -146t142 -52t142 52q60 54 71 146zM524 915q201 -1 336 -129t135 -342t-131 -343q-131 -130 -347 -130t-337 146q-106 127 -106 348v41h663q-2 76 -43 129q-59 84 -183 84t-185 -109l-230 37q113 268 428 268z" />
    <glyph glyph-name="uni04DA" unicode="&#x4da;" horiz-adv-x="1560" 
d="M864 1661q0 59 44 103t104 44t103 -44q44 -44 44 -103t-44 -103t-103 -44q-60 0 -104 44t-44 103zM406 1661q0 59 44 103t103 44t103 -44t44 -103t-44 -103t-103 -44t-103 44t-44 103zM767 211q179 1 287 107t136 249h-799q8 -131 86 -225q111 -131 290 -131zM90 772
h1102q-25 168 -145 276q-121 108 -287 107q-227 0 -365 -184l-231 125q114 147 270 224t332 77q309 0 507 -199q197 -199 197 -516t-196 -515t-506 -198q-356 0 -539 267q-139 201 -139 460v76z" />
    <glyph glyph-name="uni04DB" unicode="&#x4db;" horiz-adv-x="1069" 
d="M598 1200q0 60 44 104t103 44t103 -44t45 -104q0 -60 -44 -103q-43 -44 -103 -44t-104 44t-44 103zM172 1200q0 60 44 104t103 44t103 -44t45 -104q0 -60 -44 -103q-43 -44 -103 -44t-104 44t-44 103zM733 346h-428q13 -94 73 -146t142 -52t142 52q60 54 71 146zM524 915
q201 -1 336 -129t135 -342t-131 -343q-131 -130 -347 -130t-337 146q-106 127 -106 348v41h663q-2 76 -43 129q-59 84 -183 84t-185 -109l-230 37q113 268 428 268z" />
    <glyph glyph-name="uni04DC" unicode="&#x4dc;" horiz-adv-x="1830" 
d="M997 1661q0 59 44 103q43 44 103 44t104 -44t44 -103t-44 -103t-103 -44t-103 44t-45 103zM539 1661q0 59 44 103t103 44q60 0 104 -44t44 -103t-44 -103t-104 -44t-103 44q-44 44 -44 103zM788 1366h254v-578l455 578h303l-522 -631l541 -735h-308l-438 612l-31 -30
v-582h-254v582l-30 30l-439 -612h-307l541 735l-522 631h303l454 -578v578z" />
    <glyph glyph-name="uni04DD" unicode="&#x4dd;" horiz-adv-x="1368" 
d="M750 1200q0 60 44 104t103 44t103 -44t44 -104t-44 -103q-44 -44 -103 -44t-103 44t-44 103zM324 1200q0 60 44 104t103 44t103 -44t44 -104t-44 -103q-44 -44 -103 -44t-103 44t-44 103zM571 887h226v-344l266 344h291l-338 -404l356 -483h-303l-240 348l-32 -37v-311
h-226v311l-32 37l-240 -348h-303l356 483l-338 404h291l266 -344v344z" />
    <glyph glyph-name="uni04DE" unicode="&#x4de;" horiz-adv-x="1228" 
d="M696 1661q0 59 44 103t104 44t103 -44q44 -44 44 -103t-44 -103t-103 -44q-60 0 -104 44t-44 103zM238 1661q0 59 44 103t103 44t103 -44t44 -103t-44 -103t-103 -44t-103 44t-44 103zM586 1397q224 1 346 -97q121 -98 121 -260q0 -195 -168 -288q123 -31 189 -127
t65 -226q0 -193 -152 -311t-391 -119q-354 0 -514 258l174 166q45 -102 142 -152q97 -51 215 -51t185 60t66 143q0 209 -299 209h-123v229h123q103 1 165 47t62 125q1 160 -194 160q-176 1 -274 -108l-140 182q178 160 402 160z" />
    <glyph glyph-name="uni04DF" unicode="&#x4df;" horiz-adv-x="901" 
d="M504 1200q0 60 44 104t103 44t103 -44t45 -104q0 -60 -44 -103q-43 -44 -103 -44t-104 44t-44 103zM78 1200q0 60 44 104t103 44t103 -44t45 -104q0 -60 -44 -103q-43 -44 -103 -44t-104 44t-44 103zM412 547q129 0 129 82q0 90 -125 90t-207 -70l-115 156
q139 111 336 110q150 1 243 -63t93 -186t-123 -189q65 -16 125 -68t59 -155q0 -129 -102 -206t-291 -77q-238 0 -381 148l123 151q100 -94 238 -94q86 0 121 31t35 75q-1 83 -154 85h-105v180h101z" />
    <glyph glyph-name="uni04E2" unicode="&#x4e2;" horiz-adv-x="1515" 
d="M403 1526v176h750v-176h-750zM156 1366h266v-909l749 909h189v-1366h-266v913l-750 -913h-188v1366z" />
    <glyph glyph-name="uni04E3" unicode="&#x4e3;" horiz-adv-x="1146" 
d="M201 1104v164h745v-164h-745zM119 887h250v-547l409 547h250v-887h-250v547l-409 -547h-250v887z" />
    <glyph glyph-name="uni04E4" unicode="&#x4e4;" horiz-adv-x="1515" 
d="M860 1661q0 59 44 103t104 44t103 -44q44 -44 44 -103t-44 -103t-103 -44q-60 0 -104 44t-44 103zM401 1661q0 59 44 103q43 44 103 44t104 -44t44 -103t-44 -103t-103 -44t-103 44t-45 103zM156 1366h266v-909l749 909h189v-1366h-266v913l-750 -913h-188v1366z" />
    <glyph glyph-name="uni04E5" unicode="&#x4e5;" horiz-adv-x="1146" 
d="M639 1200q0 60 44 104t103 44q60 0 104 -44t44 -104t-44 -103q-44 -44 -104 -44t-103 44q-44 44 -44 103zM213 1200q0 60 44 104t103 44q60 0 104 -44t44 -104t-44 -103q-44 -44 -104 -44t-103 44q-44 44 -44 103zM119 887h250v-547l409 547h250v-887h-250v547l-409 -547
h-250v887z" />
    <glyph glyph-name="uni04E6" unicode="&#x4e6;" horiz-adv-x="1638" 
d="M901 1661q0 59 44 103q43 44 103 44t104 -44t44 -103t-44 -103t-103 -44t-103 44t-45 103zM442 1661q0 59 44 103t104 44t103 -44q44 -44 44 -103t-44 -103t-103 -44q-60 0 -104 44t-44 103zM819 211q201 0 328 132t127 339t-128 340t-327 133t-327 -133t-127 -340
t127 -339t327 -132zM819 1397q322 0 526 -201q203 -201 203 -514t-204 -513t-525 -200t-525 200t-204 513t204 514t525 201z" />
    <glyph glyph-name="uni04E7" unicode="&#x4e7;" horiz-adv-x="1163" 
d="M647 1200q0 60 44 104q43 44 103 44t104 -44t44 -104t-44 -103q-44 -44 -103 -44t-104 44q-44 44 -44 103zM221 1200q0 60 44 104q43 44 103 44t104 -44t44 -104t-44 -103q-44 -44 -103 -44t-104 44q-44 44 -44 103zM582 193q106 -1 178 73t72 177t-72 178
q-72 73 -178 73t-179 -73q-71 -73 -71 -177t71 -178q73 -73 179 -73zM582 915q224 1 366 -129t142 -342t-150 -348q-135 -125 -358 -125t-366 130q-142 130 -142 342t142 342t366 130z" />
    <glyph glyph-name="uni04E8" unicode="&#x4e8;" horiz-adv-x="1634" 
d="M817 1155q-163 0 -287 -97t-157 -261h889q-33 164 -158 261t-287 97zM817 211q180 -1 302 109t147 272h-897q25 -162 147 -272t301 -109zM817 1397q323 0 525 -201t202 -513t-204 -513t-523 -201t-523 201t-204 513t202 513t525 201z" />
    <glyph glyph-name="uni04E9" unicode="&#x4e9;" horiz-adv-x="1163" 
d="M582 719q-84 0 -154 -49t-88 -133h483q-18 84 -88 133q-69 49 -153 49zM582 168q92 0 164 58t85 151h-499q14 -93 86 -151t164 -58zM582 915q224 1 366 -129t142 -342t-150 -348q-135 -125 -358 -125t-366 130q-142 130 -142 342t142 342t366 130z" />
    <glyph glyph-name="uni04EA" unicode="&#x4ea;" horiz-adv-x="1634" 
d="M901 1661q0 59 44 103q43 44 103 44t104 -44t44 -103t-44 -103t-103 -44t-103 44t-45 103zM442 1661q0 59 44 103t104 44t103 -44q44 -44 44 -103t-44 -103t-103 -44q-60 0 -104 44t-44 103zM817 1155q-163 0 -287 -97t-157 -261h889q-33 164 -158 261t-287 97zM817 211
q180 -1 302 109t147 272h-897q25 -162 147 -272t301 -109zM817 1397q323 0 525 -201t202 -513t-204 -513t-523 -201t-523 201t-204 513t202 513t525 201z" />
    <glyph glyph-name="uni04EB" unicode="&#x4eb;" horiz-adv-x="1163" 
d="M647 1200q0 60 44 104q43 44 103 44t104 -44t44 -104t-44 -103q-44 -44 -103 -44t-104 44q-44 44 -44 103zM221 1200q0 60 44 104q43 44 103 44t104 -44t44 -104t-44 -103q-44 -44 -103 -44t-104 44q-44 44 -44 103zM582 719q-84 0 -154 -49t-88 -133h483q-18 84 -88 133
q-69 49 -153 49zM582 168q92 0 164 58t85 151h-499q14 -93 86 -151t164 -58zM582 915q224 1 366 -129t142 -342t-150 -348q-135 -125 -358 -125t-366 130q-142 130 -142 342t142 342t366 130z" />
    <glyph glyph-name="uni04EE" unicode="&#x4ee;" horiz-adv-x="1249" 
d="M260 1526v176h750v-176h-750zM4 1366h311l347 -688l292 688h291l-633 -1366h-290l190 381z" />
    <glyph glyph-name="uni04EF" unicode="&#x4ef;" horiz-adv-x="1101" 
d="M178 1104v164h746v-164h-746zM100 -469l326 602l-422 754h291l274 -504l246 504h283l-715 -1356h-283z" />
    <glyph glyph-name="uni04F0" unicode="&#x4f0;" horiz-adv-x="1249" 
d="M737 1661q0 59 44 103q43 44 103 44t104 -44t44 -103t-44 -103t-103 -44t-103 44t-45 103zM279 1661q0 59 44 103t103 44t103 -44t44 -103t-44 -103t-103 -44t-103 44t-44 103zM4 1366h311l347 -688l292 688h291l-633 -1366h-290l190 381z" />
    <glyph glyph-name="uni04F1" unicode="&#x4f1;" horiz-adv-x="1101" 
d="M616 1200q0 60 44 104t104 44t103 -44q44 -44 44 -104t-44 -103q-44 -44 -103 -44t-104 44q-44 44 -44 103zM190 1200q0 60 44 104t104 44t103 -44q44 -44 44 -104t-44 -103q-44 -44 -103 -44t-104 44q-44 44 -44 103zM100 -469l326 602l-422 754h291l274 -504l246 504
h283l-715 -1356h-283z" />
    <glyph glyph-name="uni04F2" unicode="&#x4f2;" horiz-adv-x="1249" 
d="M958 1884l185 -119l-295 -274l-115 82zM549 1886l184 -121l-295 -274l-114 82zM4 1366h311l347 -688l292 688h291l-633 -1366h-290l190 381z" />
    <glyph glyph-name="uni04F3" unicode="&#x4f3;" horiz-adv-x="1101" 
d="M842 1411l168 -117l-271 -274l-102 82zM457 1413l168 -119l-271 -274l-102 82zM100 -469l326 602l-422 754h291l274 -504l246 504h283l-715 -1356h-283z" />
    <glyph glyph-name="uni04F4" unicode="&#x4f4;" horiz-adv-x="1269" 
d="M705 1661q0 59 44 103t103 44t103 -44t44 -103t-44 -103t-103 -44t-103 44t-44 103zM246 1661q0 59 44 103t103 44t103 -44t45 -103q0 -59 -44 -103q-43 -44 -103 -44t-104 44t-44 103zM848 0v545q-139 -14 -244 -15q-248 0 -364 88q-137 102 -138 328v420h267v-373
q0 -135 63 -184q64 -49 190 -49t226 14v592h266v-1366h-266z" />
    <glyph glyph-name="uni04F5" unicode="&#x4f5;" horiz-adv-x="991" 
d="M549 1200q0 60 44 104t103 44q60 0 104 -44t44 -104t-44 -103q-44 -44 -104 -44t-103 44q-44 44 -44 103zM123 1200q0 60 44 104t103 44q60 0 104 -44t44 -104t-44 -103q-44 -44 -104 -44t-103 44q-44 44 -44 103zM623 0v303q-106 -20 -209 -20q-162 0 -245 79t-83 211
v314h250v-262q0 -68 33 -99q56 -53 254 -18v379h249v-887h-249z" />
    <glyph glyph-name="uni04F8" unicode="&#x4f8;" horiz-adv-x="1638" 
d="M901 1661q0 59 44 103q43 44 103 44t104 -44t44 -103t-44 -103t-103 -44t-103 44t-45 103zM442 1661q0 59 44 103t104 44t103 -44q44 -44 44 -103t-44 -103t-103 -44q-60 0 -104 44t-44 103zM1217 1366h266v-1366h-266v1366zM422 602v-373h156q246 0 245 185
q0 78 -54 133t-187 55h-160zM156 0v1366h266v-535h213q213 -1 338 -115t125 -302q0 -139 -74 -246q-115 -168 -387 -168h-481z" />
    <glyph glyph-name="uni04F9" unicode="&#x4f9;" horiz-adv-x="1331" 
d="M731 1200q0 60 44 104q43 44 103 44t104 -44t44 -104t-44 -103q-44 -44 -103 -44t-104 44q-44 44 -44 103zM305 1200q0 60 44 104q43 44 103 44t104 -44t44 -104t-44 -103q-44 -44 -103 -44t-104 44q-44 44 -44 103zM963 887h249v-887h-249v887zM369 375v-178h116
q127 0 125 94q0 82 -118 84h-123zM119 887h250v-316h194q156 0 238 -90q67 -71 67 -203t-94 -212q-76 -66 -199 -66h-456v887z" />
    <glyph glyph-name="uni1E9E" unicode="&#x1e9e;" horiz-adv-x="1175" 
d="M811 408q0 94 -57 148t-164 65v190l155 193q0 96 -46 136q-47 40 -117 40t-115 -49t-45 -150v-981h-266v958q0 201 119 320t296 119t277 -72q160 -113 160 -334l-203 -219q282 -78 280 -389q-1 -68 -35 -150t-98 -137q-133 -119 -362 -125v217q221 13 221 220z" />
    <glyph glyph-name="uni2010" unicode="&#x2010;" horiz-adv-x="737" 
d="M102 356v230h533v-230h-533z" />
    <glyph glyph-name="uni2011" unicode="&#x2011;" horiz-adv-x="737" 
d="M102 356v230h533v-230h-533z" />
    <glyph glyph-name="figuredash" unicode="&#x2012;" horiz-adv-x="1310" 
d="M143 592v213h1024v-213h-1024z" />
    <glyph glyph-name="endash" unicode="&#x2013;" horiz-adv-x="1310" 
d="M143 365v213h1024v-213h-1024z" />
    <glyph glyph-name="emdash" unicode="&#x2014;" horiz-adv-x="1720" 
d="M143 365v213h1434v-213h-1434z" />
    <glyph glyph-name="afii00208" unicode="&#x2015;" horiz-adv-x="1720" 
d="M143 365v213h1434v-213h-1434z" />
    <glyph glyph-name="quoteleft" unicode="&#x2018;" horiz-adv-x="622" 
d="M532 1366l-217 -551l-229 27l289 542z" />
    <glyph glyph-name="quoteright" unicode="&#x2019;" horiz-adv-x="622" 
d="M86 842l217 551l229 -27l-288 -543z" />
    <glyph glyph-name="quotesinglbase" unicode="&#x201a;" horiz-adv-x="757" 
d="M86 -268l217 551l229 -27l-288 -543z" />
    <glyph glyph-name="quotedblleft" unicode="&#x201c;" horiz-adv-x="1007" 
d="M532 1366l-217 -551l-229 27l289 542zM918 1366l-218 -551l-229 27l289 542z" />
    <glyph glyph-name="quotedblright" unicode="&#x201d;" horiz-adv-x="1007" 
d="M471 842l217 551l230 -27l-289 -543zM86 842l217 551l229 -27l-288 -543z" />
    <glyph glyph-name="quotedblbase" unicode="&#x201e;" horiz-adv-x="1167" 
d="M471 -268l217 551l230 -27l-289 -543zM86 -268l217 551l229 -27l-288 -543z" />
    <glyph glyph-name="dagger" unicode="&#x2020;" horiz-adv-x="1163" 
d="M463 1067v426h237v-426h324v-213h-324v-1223h-237v1223h-324v213h324z" />
    <glyph glyph-name="daggerdbl" unicode="&#x2021;" horiz-adv-x="1163" 
d="M463 1067v426h237v-426h324v-213h-324v-494h324v-213h-324v-516h-237v516h-324v213h324v494h-324v213h324z" />
    <glyph glyph-name="bullet" unicode="&#x2022;" horiz-adv-x="2048" 
d="M737 696q0 119 84 203t203 84t203 -84t84 -203q0 -118 -84 -202t-203 -84t-203 84t-84 202z" />
    <glyph glyph-name="ellipsis" unicode="&#x2026;" horiz-adv-x="1732" 
d="M1284 133q0 68 46 114t114 46t114 -46t46 -114t-46 -114t-114 -46t-114 46t-46 114zM707 133q0 68 46 114q45 46 113 46t114 -46t46 -114t-46 -114t-114 -46t-114 46t-45 114zM129 133q0 68 46 114t114 46q67 0 113 -46t46 -114t-46 -114t-114 -46t-113 46
q-46 46 -46 114z" />
    <glyph glyph-name="perthousand" unicode="&#x2030;" horiz-adv-x="2396" 
d="M1991 127q76 0 124 49t48 127t-48 127t-124 49t-124 -49t-48 -127t48 -127t124 -49zM1991 627q158 0 251 -91q93 -90 93 -232t-93 -233t-251 -91t-251 91t-93 232t93 233t251 91zM1180 127q76 0 124 49t48 127t-48 127t-124 49t-124 -49t-48 -127t48 -127t124 -49z
M1180 627q158 0 251 -91q93 -90 93 -232t-93 -233t-251 -91t-251 91t-93 232t93 233t251 91zM332 6l813 1405l108 -61l-813 -1407zM406 883q76 0 124 49t48 127t-48 127t-124 49t-124 -49t-48 -127t48 -127t124 -49zM406 1382q158 0 250 -91t94 -232q0 -141 -94 -233
t-250 -91q-158 0 -251 91q-93 90 -93 232t92 233q94 91 252 91z" />
    <glyph glyph-name="guilsinglleft" unicode="&#x2039;" horiz-adv-x="651" 
d="M299 449l250 -336l-143 -103l-324 439l324 438l143 -103z" />
    <glyph glyph-name="guilsinglright" unicode="&#x203a;" horiz-adv-x="651" 
d="M352 449l-250 335l144 103l323 -438l-323 -439l-144 103z" />
    <glyph glyph-name="fraction" unicode="&#x2044;" horiz-adv-x="512" 
d="M-205 6l813 1405l109 -61l-813 -1407z" />
    <glyph glyph-name="uni2080" unicode="&#x2080;" horiz-adv-x="778" 
d="M389 690q-63 0 -111 -68t-48 -218t52 -212t107 -63q55 0 108 62q52 62 52 212t-48 219q-49 68 -112 68zM389 -18q-135 0 -233 112t-99 316q1 204 99 316t233 112t233 -113t99 -315q0 -202 -98 -316q-99 -112 -234 -112z" />
    <glyph glyph-name="uni2081" unicode="&#x2081;" horiz-adv-x="778" 
d="M340 0v672h-164v147h336v-819h-172z" />
    <glyph glyph-name="uni2082" unicode="&#x2082;" horiz-adv-x="778" 
d="M485 572q0 118 -119 118q-58 0 -94 -36t-34 -91h-172q4 125 86 200t212 75t212 -75t81 -185q1 -80 -37 -145t-108 -142l-127 -144h279v-147h-615l244 274q131 152 145 172q47 68 47 126z" />
    <glyph glyph-name="uni2083" unicode="&#x2083;" horiz-adv-x="778" 
d="M637 616q0 -123 -102 -176q133 -45 133 -196q0 -111 -79 -187q-79 -75 -214 -75t-221 70t-97 194h172q6 -53 42 -85t98 -32q63 0 95 36t32 84t-33 82t-103 34h-41v135h41q55 0 84 30t29 72q0 41 -28 71q-29 29 -79 29t-81 -30t-33 -76h-160q12 117 87 179q75 63 199 63
t192 -66t67 -156z" />
    <glyph glyph-name="uni2084" unicode="&#x2084;" horiz-adv-x="778" 
d="M457 285v313l-203 -313h203zM621 834v-549h96v-140h-96v-145h-164v145h-408v72l408 617h164z" />
    <glyph glyph-name="uni2085" unicode="&#x2085;" horiz-adv-x="778" 
d="M627 819v-147h-277l-26 -119q33 4 55 4q137 0 211 -80q74 -79 74 -201t-85 -208t-246 -86t-267 104l53 147q86 -104 207 -104q80 0 123 45q43 44 43 106t-48 106t-138 44q-89 0 -159 -53h-10l99 442h391z" />
    <glyph glyph-name="uni2086" unicode="&#x2086;" horiz-adv-x="778" 
d="M389 117q63 0 108 41q44 41 44 102t-44 102q-43 41 -107 41t-108 -41t-44 -102t44 -102t107 -41zM713 274q0 -124 -83 -208t-238 -84q-154 0 -240 82t-86 200q0 119 100 256l252 344l127 -96l-195 -248q47 18 96 19q109 0 188 -71t79 -194z" />
    <glyph glyph-name="uni2087" unicode="&#x2087;" horiz-adv-x="778" 
d="M70 672v147h688l-498 -842l-145 76l370 619h-415z" />
    <glyph glyph-name="uni2088" unicode="&#x2088;" horiz-adv-x="778" 
d="M389 354q-53 0 -89 -35t-36 -85t36 -83q36 -34 89 -34t89 34t36 84q0 51 -36 85t-89 34zM389 702q-43 0 -79 -28t-36 -78q0 -51 36 -79t79 -28t79 28t36 79q0 50 -36 78t-79 28zM121 610q0 96 70 162q71 66 198 66t198 -66t70 -162q0 -129 -116 -182q73 -25 109 -82
t36 -123q0 -104 -82 -173q-82 -68 -215 -68t-215 68t-82 173q0 66 36 123t110 82q-117 53 -117 182z" />
    <glyph glyph-name="uni2089" unicode="&#x2089;" horiz-adv-x="778" 
d="M389 702q-63 0 -107 -40t-44 -102t44 -103t107 -41t108 41q44 41 44 102t-44 103q-45 40 -108 40zM332 281q-109 1 -188 71q-78 70 -78 193t82 208q83 85 238 85t241 -82t86 -205t-97 -252l-256 -344l-127 96l195 248q-47 -18 -96 -18z" />
    <glyph glyph-name="Euro" unicode="&#x20ac;" horiz-adv-x="1163" 
d="M717 -31q-307 0 -471 178q-111 119 -133 285h-154l74 184h61q-8 68 0 129h-135l74 185h86q39 174 164 293q180 174 477 174q199 0 354 -90l-104 -224q-113 72 -276 72t-245 -86q-62 -66 -86 -139h549l-73 -185h-510q-8 -74 0 -129h473l-74 -184h-360q28 -113 122 -167
t215 -54q220 0 349 141v-299q-156 -84 -377 -84z" />
    <glyph glyph-name="uni20B4" unicode="&#x20b4;" horiz-adv-x="1163" 
d="M973 1094q0 -88 -53 -164h143v-185h-291l-133 -129h424v-184h-567q-37 -43 -37 -100t45 -89t112 -32q161 0 263 158l163 -181q-176 -219 -471 -219q-172 0 -272 85t-100 212q0 96 43 166h-152v184h283l133 129h-416v185h565q49 47 49 109q0 63 -44 99t-118 36t-140 -39
q-68 -39 -109 -80l-139 182q191 158 410 159t314 -90t95 -212z" />
    <glyph glyph-name="uni20B6" unicode="&#x20b6;" horiz-adv-x="1163" 
d="M473 1137v-402h109q116 0 182 50q66 49 66 151q-1 201 -265 201h-92zM604 1366q127 0 208 -22t153 -82q139 -124 139 -320t-113 -309q-125 -121 -346 -121h-172v-129h377v-184h-377v-199h-266v199h-144v184h144v129h-144v223h144v631h397z" />
    <glyph glyph-name="uni20B6" unicode="&#x20cf;" horiz-adv-x="1163" 
d="M473 1137v-402h109q116 0 182 50q66 49 66 151q-1 201 -265 201h-92zM604 1366q127 0 208 -22t153 -82q139 -124 139 -320t-113 -309q-125 -121 -346 -121h-172v-129h377v-184h-377v-199h-266v199h-144v184h144v129h-144v223h144v631h397z" />
    <glyph glyph-name="uni20B6" unicode="&#x20ce;" horiz-adv-x="1163" 
d="M473 1137v-402h109q116 0 182 50q66 49 66 151q-1 201 -265 201h-92zM604 1366q127 0 208 -22t153 -82q139 -124 139 -320t-113 -309q-125 -121 -346 -121h-172v-129h377v-184h-377v-199h-266v199h-144v184h144v129h-144v223h144v631h397z" />
    <glyph glyph-name="uni20B6" unicode="&#x20cd;" horiz-adv-x="1163" 
d="M473 1137v-402h109q116 0 182 50q66 49 66 151q-1 201 -265 201h-92zM604 1366q127 0 208 -22t153 -82q139 -124 139 -320t-113 -309q-125 -121 -346 -121h-172v-129h377v-184h-377v-199h-266v199h-144v184h144v129h-144v223h144v631h397z" />
    <glyph glyph-name="uni20B6" unicode="&#x20cc;" horiz-adv-x="1163" 
d="M473 1137v-402h109q116 0 182 50q66 49 66 151q-1 201 -265 201h-92zM604 1366q127 0 208 -22t153 -82q139 -124 139 -320t-113 -309q-125 -121 -346 -121h-172v-129h377v-184h-377v-199h-266v199h-144v184h144v129h-144v223h144v631h397z" />
    <glyph glyph-name="uni20B6" unicode="&#x20cb;" horiz-adv-x="1163" 
d="M473 1137v-402h109q116 0 182 50q66 49 66 151q-1 201 -265 201h-92zM604 1366q127 0 208 -22t153 -82q139 -124 139 -320t-113 -309q-125 -121 -346 -121h-172v-129h377v-184h-377v-199h-266v199h-144v184h144v129h-144v223h144v631h397z" />
    <glyph glyph-name="uni20B6" unicode="&#x20ca;" horiz-adv-x="1163" 
d="M473 1137v-402h109q116 0 182 50q66 49 66 151q-1 201 -265 201h-92zM604 1366q127 0 208 -22t153 -82q139 -124 139 -320t-113 -309q-125 -121 -346 -121h-172v-129h377v-184h-377v-199h-266v199h-144v184h144v129h-144v223h144v631h397z" />
    <glyph glyph-name="uni20B6" unicode="&#x20c9;" horiz-adv-x="1163" 
d="M473 1137v-402h109q116 0 182 50q66 49 66 151q-1 201 -265 201h-92zM604 1366q127 0 208 -22t153 -82q139 -124 139 -320t-113 -309q-125 -121 -346 -121h-172v-129h377v-184h-377v-199h-266v199h-144v184h144v129h-144v223h144v631h397z" />
    <glyph glyph-name="uni20B6" unicode="&#x20c8;" horiz-adv-x="1163" 
d="M473 1137v-402h109q116 0 182 50q66 49 66 151q-1 201 -265 201h-92zM604 1366q127 0 208 -22t153 -82q139 -124 139 -320t-113 -309q-125 -121 -346 -121h-172v-129h377v-184h-377v-199h-266v199h-144v184h144v129h-144v223h144v631h397z" />
    <glyph glyph-name="uni20B6" unicode="&#x20c7;" horiz-adv-x="1163" 
d="M473 1137v-402h109q116 0 182 50q66 49 66 151q-1 201 -265 201h-92zM604 1366q127 0 208 -22t153 -82q139 -124 139 -320t-113 -309q-125 -121 -346 -121h-172v-129h377v-184h-377v-199h-266v199h-144v184h144v129h-144v223h144v631h397z" />
    <glyph glyph-name="uni20B6" unicode="&#x20c6;" horiz-adv-x="1163" 
d="M473 1137v-402h109q116 0 182 50q66 49 66 151q-1 201 -265 201h-92zM604 1366q127 0 208 -22t153 -82q139 -124 139 -320t-113 -309q-125 -121 -346 -121h-172v-129h377v-184h-377v-199h-266v199h-144v184h144v129h-144v223h144v631h397z" />
    <glyph glyph-name="uni20B6" unicode="&#x20c5;" horiz-adv-x="1163" 
d="M473 1137v-402h109q116 0 182 50q66 49 66 151q-1 201 -265 201h-92zM604 1366q127 0 208 -22t153 -82q139 -124 139 -320t-113 -309q-125 -121 -346 -121h-172v-129h377v-184h-377v-199h-266v199h-144v184h144v129h-144v223h144v631h397z" />
    <glyph glyph-name="uni20B6" unicode="&#x20c4;" horiz-adv-x="1163" 
d="M473 1137v-402h109q116 0 182 50q66 49 66 151q-1 201 -265 201h-92zM604 1366q127 0 208 -22t153 -82q139 -124 139 -320t-113 -309q-125 -121 -346 -121h-172v-129h377v-184h-377v-199h-266v199h-144v184h144v129h-144v223h144v631h397z" />
    <glyph glyph-name="uni20B6" unicode="&#x20c3;" horiz-adv-x="1163" 
d="M473 1137v-402h109q116 0 182 50q66 49 66 151q-1 201 -265 201h-92zM604 1366q127 0 208 -22t153 -82q139 -124 139 -320t-113 -309q-125 -121 -346 -121h-172v-129h377v-184h-377v-199h-266v199h-144v184h144v129h-144v223h144v631h397z" />
    <glyph glyph-name="uni20B6" unicode="&#x20c2;" horiz-adv-x="1163" 
d="M473 1137v-402h109q116 0 182 50q66 49 66 151q-1 201 -265 201h-92zM604 1366q127 0 208 -22t153 -82q139 -124 139 -320t-113 -309q-125 -121 -346 -121h-172v-129h377v-184h-377v-199h-266v199h-144v184h144v129h-144v223h144v631h397z" />
    <glyph glyph-name="uni20B6" unicode="&#x20c1;" horiz-adv-x="1163" 
d="M473 1137v-402h109q116 0 182 50q66 49 66 151q-1 201 -265 201h-92zM604 1366q127 0 208 -22t153 -82q139 -124 139 -320t-113 -309q-125 -121 -346 -121h-172v-129h377v-184h-377v-199h-266v199h-144v184h144v129h-144v223h144v631h397z" />
    <glyph glyph-name="uni20B6" unicode="&#x20c0;" horiz-adv-x="1163" 
d="M473 1137v-402h109q116 0 182 50q66 49 66 151q-1 201 -265 201h-92zM604 1366q127 0 208 -22t153 -82q139 -124 139 -320t-113 -309q-125 -121 -346 -121h-172v-129h377v-184h-377v-199h-266v199h-144v184h144v129h-144v223h144v631h397z" />
    <glyph glyph-name="uni20B6" unicode="&#x20bf;" horiz-adv-x="1163" 
d="M473 1137v-402h109q116 0 182 50q66 49 66 151q-1 201 -265 201h-92zM604 1366q127 0 208 -22t153 -82q139 -124 139 -320t-113 -309q-125 -121 -346 -121h-172v-129h377v-184h-377v-199h-266v199h-144v184h144v129h-144v223h144v631h397z" />
    <glyph glyph-name="uni20B6" unicode="&#x20be;" horiz-adv-x="1163" 
d="M473 1137v-402h109q116 0 182 50q66 49 66 151q-1 201 -265 201h-92zM604 1366q127 0 208 -22t153 -82q139 -124 139 -320t-113 -309q-125 -121 -346 -121h-172v-129h377v-184h-377v-199h-266v199h-144v184h144v129h-144v223h144v631h397z" />
    <glyph glyph-name="uni20B6" unicode="&#x20bd;" horiz-adv-x="1163" 
d="M473 1137v-402h109q116 0 182 50q66 49 66 151q-1 201 -265 201h-92zM604 1366q127 0 208 -22t153 -82q139 -124 139 -320t-113 -309q-125 -121 -346 -121h-172v-129h377v-184h-377v-199h-266v199h-144v184h144v129h-144v223h144v631h397z" />
    <glyph glyph-name="uni20B6" unicode="&#x20bc;" horiz-adv-x="1163" 
d="M473 1137v-402h109q116 0 182 50q66 49 66 151q-1 201 -265 201h-92zM604 1366q127 0 208 -22t153 -82q139 -124 139 -320t-113 -309q-125 -121 -346 -121h-172v-129h377v-184h-377v-199h-266v199h-144v184h144v129h-144v223h144v631h397z" />
    <glyph glyph-name="uni20B6" unicode="&#x20bb;" horiz-adv-x="1163" 
d="M473 1137v-402h109q116 0 182 50q66 49 66 151q-1 201 -265 201h-92zM604 1366q127 0 208 -22t153 -82q139 -124 139 -320t-113 -309q-125 -121 -346 -121h-172v-129h377v-184h-377v-199h-266v199h-144v184h144v129h-144v223h144v631h397z" />
    <glyph glyph-name="uni20B6" unicode="&#x20ba;" horiz-adv-x="1163" 
d="M473 1137v-402h109q116 0 182 50q66 49 66 151q-1 201 -265 201h-92zM604 1366q127 0 208 -22t153 -82q139 -124 139 -320t-113 -309q-125 -121 -346 -121h-172v-129h377v-184h-377v-199h-266v199h-144v184h144v129h-144v223h144v631h397z" />
    <glyph glyph-name="uni20B6" unicode="&#x20b9;" horiz-adv-x="1163" 
d="M473 1137v-402h109q116 0 182 50q66 49 66 151q-1 201 -265 201h-92zM604 1366q127 0 208 -22t153 -82q139 -124 139 -320t-113 -309q-125 -121 -346 -121h-172v-129h377v-184h-377v-199h-266v199h-144v184h144v129h-144v223h144v631h397z" />
    <glyph glyph-name="uni20B6" unicode="&#x20b7;" horiz-adv-x="1163" 
d="M473 1137v-402h109q116 0 182 50q66 49 66 151q-1 201 -265 201h-92zM604 1366q127 0 208 -22t153 -82q139 -124 139 -320t-113 -309q-125 -121 -346 -121h-172v-129h377v-184h-377v-199h-266v199h-144v184h144v129h-144v223h144v631h397z" />
    <glyph glyph-name="uni20B8" unicode="&#x20b8;" horiz-adv-x="1163" 
d="M1022 1178h-881v188h881v-188zM1022 856h-307v-856h-266v856h-308v229h881v-229z" />
    <glyph glyph-name="afii61352" unicode="&#x2116;" horiz-adv-x="2211" 
d="M1479 403v177h606v-177h-606zM1782 1219q-76 1 -124 -49t-48 -128t48 -127t124 -49t124 49t48 127t-48 128t-124 49zM1782 1366q158 0 251 -91t93 -233t-93 -232q-93 -91 -251 -91t-251 91t-93 232q0 140 93 232t251 92zM422 0h-266v1366h266l627 -920v920h266v-1366
h-266l-627 920v-920z" />
    <glyph glyph-name="uni2117" unicode="&#x2117;" horiz-adv-x="1556" 
d="M879 842q0 104 -117 102h-68v-211h62q63 0 93 30t30 79zM539 1079h247q126 0 190 -63t64 -173q0 -109 -58 -173t-204 -64h-84v-293h-155v766zM778 96q225 0 396 166q172 166 172 418t-170 421t-399 169q-230 0 -398 -169t-168 -415q0 -127 47 -240q47 -112 121 -186
t180 -119t219 -45zM780 1397q295 0 502 -206t207 -505t-198 -508t-508 -209t-513 204q-202 204 -202 516t219 517q198 191 493 191z" />
    <glyph glyph-name="trademark" unicode="&#x2122;" horiz-adv-x="1474" 
d="M707 588h-175l140 792h127l190 -473l201 473h127l125 -792h-174l-60 428l-184 -438h-70l-180 438zM506 1210h-168v-622h-174v622h-168v156h510v-156z" />
    <glyph glyph-name="partialdiff" unicode="&#x2202;" horiz-adv-x="1118" 
d="M553 674q-90 0 -156 -66q-65 -66 -65 -178t66 -175q66 -62 160 -62t157 69q59 68 59 168q0 116 -87 201q-44 43 -134 43zM1044 578q0 -332 -167 -490q-127 -117 -329 -117t-338 131t-136 336t126 327t289 122t267 -103q-55 180 -238 281q-147 82 -346 98l33 215
q178 -10 346 -79t280 -179q213 -210 213 -542z" />
    <glyph glyph-name="product" unicode="&#x220f;" horiz-adv-x="1495" 
d="M82 1307v229h1331v-229h-168v-1590h168v-229h-582v229h164v1590h-495v-1590h164v-229h-582v229h168v1590h-168z" />
    <glyph glyph-name="summation" unicode="&#x2211;" horiz-adv-x="1368" 
d="M45 1536h1219v-500h-230l-20 271h-682l508 -760l-508 -830h700l21 277h229v-506h-1237v250l500 809l-500 739v250z" />
    <glyph glyph-name="minus" unicode="&#x2212;" 
d="M68 580v229h888v-229h-888z" />
    <glyph glyph-name="uni2215" unicode="&#x2215;" horiz-adv-x="1337" 
d="M-41 -348l1075 1902l180 -81l-1075 -1903z" />
    <glyph glyph-name="uni2219" unicode="&#x2219;" horiz-adv-x="409" 
d="M16 586q0 78 56 133t133 55q78 0 133 -55t55 -133t-55 -133t-133 -55q-77 0 -133 54q-56 56 -56 134z" />
    <glyph glyph-name="radical" unicode="&#x221a;" horiz-adv-x="1368" 
d="M1368 1694v-226h-371l-354 -1468h-328l-122 561h-193v225h397l43 -186q16 -76 21 -145l10 -125v-25h23q27 291 100 608l186 781h588z" />
    <glyph glyph-name="infinity" unicode="&#x221e;" horiz-adv-x="1368" 
d="M293 693q0 -45 33 -75t79 -30t88 32t68 74q-61 109 -155 109q-53 0 -83 -33t-30 -77zM963 803q-88 0 -156 -109q72 -106 156 -106q53 0 83 33t30 77t-34 75q-34 30 -79 30zM35 694q0 144 92 238t233 94q188 0 320 -168q137 168 321 168q145 0 239 -92t93 -238
q0 -146 -93 -238q-93 -93 -234 -93q-193 -1 -316 167q-135 -168 -325 -167q-143 0 -237 92q-93 92 -93 237z" />
    <glyph glyph-name="integral" unicode="&#x222b;" 
d="M385 -109v1242q0 188 70 284q86 119 284 119q80 0 176 -20l-47 -224q-140 48 -194 -10q-35 -37 -35 -149v-1242q0 -188 -70 -284q-86 -119 -284 -119q-80 0 -176 20l47 224q140 -48 194 10q35 37 35 149z" />
    <glyph glyph-name="approxequal" unicode="&#x2248;" 
d="M304 422q-44 0 -85 -34t-63 -95l-144 82q61 176 158 243q57 44 137 44q79 0 227 -54t183 -53q94 0 151 111l144 -82q-114 -269 -310 -269q-72 -1 -213 53t-185 54zM12 780q99 287 295 287q79 0 227 -53t183 -53q94 -1 151 110l144 -82q-113 -268 -310 -268q-72 0 -213 53
t-185 53t-85 -33t-63 -96z" />
    <glyph glyph-name="notequal" unicode="&#x2260;" 
d="M68 766v217h485l100 213h197l-100 -213h206v-217h-309l-67 -143h376v-217h-479l-106 -226h-197l107 226h-213v217h315l68 143h-383z" />
    <glyph glyph-name="lessequal" unicode="&#x2264;" 
d="M68 242h888v-226h-888v226zM313 805l643 -275v-233l-888 403v209l888 428v-233z" />
    <glyph glyph-name="greaterequal" unicode="&#x2265;" 
d="M956 242v-226h-888v226h888zM711 805l-643 299v233l888 -428v-209l-888 -403v233z" />
    <glyph glyph-name="dotmath" unicode="&#x22c5;" horiz-adv-x="409" 
d="M16 586q0 78 56 133t133 55q78 0 133 -55t55 -133t-55 -133t-133 -55q-77 0 -133 54q-56 56 -56 134z" />
    <glyph glyph-name="lozenge" unicode="&#x25ca;" horiz-adv-x="1433" 
d="M958 684l-241 332l-242 -332l242 -332zM184 684l533 737l532 -737l-532 -737z" />
    <glyph glyph-name="openbullet" unicode="&#x25e6;" 
d="M512 1208q-72 0 -117 -45t-45 -115t45 -114q45 -45 117 -45t117 45t45 115q0 71 -45 115t-117 44zM512 1356q133 0 223 -87t90 -220t-90 -221t-223 -87q-133 0 -223 87q-90 86 -90 220t90 221t223 87z" />
    <glyph glyph-name="uniF400" unicode="&#xf400;" horiz-adv-x="4" 
d="M-369 1434l181 -115l-308 -275l-114 82z" />
    <glyph glyph-name="uniF401" unicode="&#xf401;" horiz-adv-x="4" 
d="M-639 1491l-115 102l287 291l184 -143z" />
    <glyph glyph-name="uniF406" unicode="&#xf406;" 
d="M512 1487q-144 0 -240 83t-108 212h184q25 -123 164 -123t164 123h184q-12 -129 -108 -212t-240 -83z" />
    <glyph glyph-name="uniF407" unicode="&#xf407;" 
d="M520 -94l197 -90l-250 -316l-135 74z" />
    <glyph glyph-name="uniF408" unicode="&#xf408;" 
d="M512 1679l-246 -180l-123 131l369 275l369 -275l-123 -131z" />
    <glyph glyph-name="uniF409" unicode="&#xf409;" 
d="M328 -528l139 426l229 -33l-204 -418z" />
    <glyph glyph-name="uniF40A" unicode="&#xf40a;" 
d="M328 958l135 435l233 -41l-196 -426z" />
    <glyph glyph-name="uniF40B" unicode="&#xf40b;" 
d="M352 1673q0 68 46 114t114 46t114 -46t46 -114q0 -67 -46 -113t-114 -46t-114 45q-46 46 -46 114z" />
    <glyph glyph-name="uniF40C" unicode="&#xf40c;" 
d="M309 1692q1 86 59 144t144 58t144 -58t58 -144t-58 -144t-144 -59q-86 1 -144 59t-59 144zM430 1692q0 -35 24 -59q24 -23 58 -23t58 24t24 58t-24 58t-58 24t-58 -24t-24 -58z" />
    <glyph glyph-name="uniF40D" unicode="&#xf40d;" 
d="M354 1794q49 0 140 -35l79 -33q116 -50 166 0q17 17 33 54l133 -99q-37 -76 -92 -120q-63 -57 -129 -57t-152 34l-71 29q-82 31 -103 30q-67 0 -102 -79l-137 98q94 178 235 178z" />
    <glyph glyph-name="uniF40E" unicode="&#xf40e;" 
d="M582 -150q0 -36 24 -62t67 -26q44 0 97 25l-29 -141q-57 -35 -143 -35t-137 51t-51 122t48 127t103 89h135q-114 -77 -114 -150z" />
    <glyph glyph-name="uniF4C6" unicode="&#xf4c6;" horiz-adv-x="1269" 
d="M369 1366v-373q0 -135 63 -184q64 -49 190 -49t226 14v592h266v-1536q0 -145 -75 -222t-226 -77q-94 0 -174 18v230q123 -45 178 10q31 33 31 139v617q-139 -14 -244 -15q-248 0 -364 88q-137 102 -138 328v420h267z" />
    <glyph glyph-name="uniF4C7" unicode="&#xf4c7;" horiz-adv-x="991" 
d="M872 -176q0 -295 -317 -295q-78 0 -141 18v222q48 -19 106 -19t80 38t23 130v385q-106 -20 -209 -20q-162 0 -245 79t-83 211v314h250v-262q0 -68 33 -99q56 -53 254 -18v379h249v-1063z" />
    <glyph glyph-name="uniF4CC" unicode="&#xf4cc;" horiz-adv-x="1249" 
d="M575 1491l-114 102l287 291l184 -143zM4 1366h311l347 -688l292 688h291l-633 -1366h-290l190 381z" />
    <glyph glyph-name="uniF4CD" unicode="&#xf4cd;" horiz-adv-x="1101" 
d="M690 1434l180 -115l-307 -275l-114 82zM100 -469l326 602l-422 754h291l274 -504l246 504h283l-715 -1356h-283z" />
    <glyph glyph-name="dollar.fitted" unicode="&#xf5f5;" horiz-adv-x="989" 
d="M688 398q0 73 -47 116q-27 28 -187 98t-233 140q-96 90 -96 235t92 250q88 96 217 125v205h168v-205q86 -6 169 -49t138 -105l-135 -172q-90 111 -215 111q-92 0 -135 -44q-43 -43 -43 -101t47 -93t153 -79q107 -44 125 -54t58 -29q39 -19 86 -65q104 -98 104 -269
t-123 -290q-92 -92 -229 -119v-229h-168v225q-144 16 -246 84t-163 160l153 157q120 -178 303 -180q99 0 153 52t54 125z" />
    <glyph glyph-name="Euro.fitted" unicode="&#xf5f6;" horiz-adv-x="1265" 
d="M797 -31q-307 0 -471 178q-111 119 -133 285h-154l74 184h61q-10 68 0 129h-135l74 185h86q39 174 163 293q180 174 478 174q199 0 354 -90l-104 -224q-113 72 -276 72t-245 -86q-62 -66 -86 -139h549l-74 -185h-509q-8 -74 0 -129h473l-74 -184h-361q27 -113 122 -167
t216 -54q220 0 349 141v-299q-156 -84 -377 -84z" />
    <glyph glyph-name="cent.fitted" unicode="&#xf5f7;" horiz-adv-x="788" 
d="M403 1341h168v-190q88 -4 166 -45v-252q-74 90 -185 90t-184 -68t-73 -194q-1 -126 69 -190t188 -64t185 90v-254q-80 -39 -166 -43v-194h-168v190q-147 20 -247 125q-127 133 -127 343t135 345q100 100 239 125v186z" />
    <glyph glyph-name="sterling.fitted" unicode="&#xf5f8;" horiz-adv-x="1222" 
d="M113 504v180h133q-76 137 -76 262q0 193 134 322t358 129t348 -125q125 -125 125 -346v-25h-271q2 10 2 35q0 113 -57 170t-153 57q-96 -1 -158 -63t-62 -157t47 -193l33 -66h303v-180h-246q35 -132 -10 -238l76 -26q164 -57 217 -58q98 0 125 111l182 -39
q-68 -285 -311 -285q-92 0 -249 52t-218 53q-106 0 -139 -92l-193 34q29 109 107 181t182 86q41 91 2 221h-231z" />
    <glyph glyph-name="yen.fitted" unicode="&#xf5f9;" horiz-adv-x="1218" 
d="M1096 930v-185h-291l-74 -129h365v-184h-365v-432h-246v432h-364v184h364l-73 129h-291v185h180l-264 436h295l276 -479l277 479h295l-265 -436h181z" />
    <glyph glyph-name="florin.fitted" unicode="&#xf5fa;" horiz-adv-x="1128" 
d="M958 1288q-122 0 -147 -158l-47 -243h221l-33 -176h-221l-94 -545q-29 -158 -62 -253q-98 -282 -458 -282q-53 0 -101 9l39 229q33 -6 66 -6q104 0 167 55t101 287l88 506h-123l33 176h123l49 266q33 178 123 270t250 93q100 0 178 -39l-41 -220q-55 31 -111 31z" />
    <glyph glyph-name="uni20B4.fitted" unicode="&#xf5fb;" horiz-adv-x="1062" 
d="M926 1094q0 -88 -54 -164h144v-185h-291l-133 -129h424v-184h-567q-37 -43 -37 -100t45 -89t112 -32q162 0 262 158l164 -181q-176 -219 -471 -219q-172 0 -272 85t-100 212q0 96 43 166h-152v184h283l133 129h-416v185h565q49 47 49 109q0 63 -44 99q-43 36 -117 36
t-142 -39t-108 -80l-140 182q191 158 410 159q220 1 315 -90t95 -212z" />
    <glyph glyph-name="uni20B6.fitted" unicode="&#xf5fc;" horiz-adv-x="1116" 
d="M457 1137v-402h108q117 0 183 50q66 49 65 151q0 200 -264 201h-92zM588 1366q127 0 208 -22t152 -82q139 -124 139 -320t-112 -309q-125 -121 -346 -121h-172v-129h377v-184h-377v-199h-267v199h-143v184h143v129h-143v223h143v631h398z" />
    <glyph glyph-name="uni20B8.fitted" unicode="&#xf5fd;" horiz-adv-x="937" 
d="M909 1178h-880v188h880v-188zM909 856h-307v-856h-266v856h-307v229h880v-229z" />
    <glyph glyph-name="uniF639" unicode="&#xf639;" horiz-adv-x="1175" 
d="M588 1167q-100 1 -181 -119t-81 -364t80 -365t182 -121t182 122q80 120 80 364t-81 364t-181 119zM588 -31q-219 -1 -374 189t-155 525t155 524t374 189t374 -188q154 -190 154 -525t-154 -525t-374 -189z" />
    <glyph glyph-name="uniF63A" unicode="&#xf63a;" horiz-adv-x="1114" 
d="M768 956q0 96 -58 154q-58 57 -150 57q-92 -1 -150 -67q-57 -66 -62 -160h-274q8 207 141 332t348 125t343 -129t128 -305q0 -99 -45 -197t-86 -148t-117 -133l-235 -256h493v-229h-991l402 457q197 229 233 284q80 119 80 215z" />
    <glyph glyph-name="uniF63B" unicode="&#xf63b;" horiz-adv-x="1085" 
d="M975 1006q0 -186 -158 -273q209 -86 209 -325q0 -205 -138 -322t-344 -117t-343 116t-154 308h266q11 -88 71 -141t162 -53q102 1 157 65q57 64 57 151t-56 150t-172 64h-34v192h37q92 1 139 55t47 134t-49 129t-128 49q-80 0 -134 -47t-58 -131h-250q18 182 142 284
t312 102t304 -102t115 -288z" />
    <glyph glyph-name="uniF63C" unicode="&#xf63c;" horiz-adv-x="1140" 
d="M680 471v520l-352 -520h352zM930 1366v-895h160v-213h-160v-258h-250v258h-668v119l678 989h240z" />
    <glyph glyph-name="uniF63D" unicode="&#xf63d;" horiz-adv-x="1081" 
d="M131 373q128 -174 353 -174q118 0 193 79q75 78 75 198t-80 191t-220 71t-288 -89l162 717h630v-229h-454l-49 -215q53 8 92 8q219 0 346 -130t127 -341t-139 -350t-375 -140q-178 1 -280 51t-181 123z" />
    <glyph glyph-name="uniF63E" unicode="&#xf63e;" horiz-adv-x="1120" 
d="M560 182q106 0 178 72t71 184q0 112 -72 180q-73 68 -181 68t-180 -75t-71 -183q0 -108 74 -178q75 -68 181 -68zM648 899q78 0 159 -31q82 -31 139 -86q129 -122 129 -322t-125 -335q-143 -156 -391 -156q-248 1 -384 137t-136 334t172 426l401 537l215 -105l-331 -432
q74 33 152 33z" />
    <glyph glyph-name="uniF63F" unicode="&#xf63f;" horiz-adv-x="1134" 
d="M74 1137v229h1052l-821 -1407l-225 100l629 1078h-635z" />
    <glyph glyph-name="uniF640" unicode="&#xf640;" horiz-adv-x="1069" 
d="M535 178q90 0 149 60t59 153t-59 153t-149 60q-89 0 -149 -60t-60 -152t60 -154q60 -60 149 -60zM535 823q84 -1 137 53t53 138t-53 137t-137 53q-83 0 -137 -53t-54 -137t54 -138t137 -53zM1010 373q0 -174 -130 -289t-345 -115t-346 115q-130 115 -130 289
q0 119 66 211t178 129q-86 43 -141 120t-56 183q0 160 113 270t316 111q203 0 315 -111t113 -270q1 -106 -55 -183t-142 -120q112 -37 178 -129t66 -211z" />
    <glyph glyph-name="uniF641" unicode="&#xf641;" horiz-adv-x="1120" 
d="M560 1184q-106 0 -178 -72t-71 -184q0 -112 72 -180t179 -68t180 76t73 182t-74 176q-75 70 -181 70zM468 467q-70 0 -154 31q-83 31 -140 86q-129 122 -129 322t125 335q143 156 391 156q248 -1 384 -137t136 -334t-172 -426l-401 -537l-215 105l325 426
q-80 -27 -150 -27z" />
    <glyph glyph-name="uniF6BA" unicode="&#xf6ba;" horiz-adv-x="737" 
d="M102 584v229h533v-229h-533z" />
    <glyph glyph-name="uniF6BB" unicode="&#xf6bb;" horiz-adv-x="1310" 
d="M143 592v213h1024v-213h-1024z" />
    <glyph glyph-name="uniF6BC" unicode="&#xf6bc;" horiz-adv-x="1720" 
d="M143 592v213h1434v-213h-1434z" />
    <glyph glyph-name="uniF6C3" unicode="&#xf6c3;" 
d="M328 -528l139 426l229 -33l-204 -418z" />
    <glyph glyph-name="uniF6C9" unicode="&#xf6c9;" 
d="M463 1491l-115 102l287 291l184 -143z" />
    <glyph glyph-name="uniF6CA" unicode="&#xf6ca;" 
d="M512 1724l246 181l123 -131l-369 -275l-369 275l123 131z" />
    <glyph glyph-name="uniF6CB" unicode="&#xf6cb;" 
d="M594 1661q0 59 44 103t103 44t103 -44t45 -103q0 -59 -44 -103q-43 -44 -103 -44t-104 44t-44 103zM135 1661q0 59 44 103q43 44 103 44t104 -44t44 -103t-44 -103t-103 -44t-103 44t-45 103z" />
    <glyph glyph-name="uniF6CE" unicode="&#xf6ce;" 
d="M561 1491l-356 250l184 143l287 -291z" />
    <glyph glyph-name="uniF6CF" unicode="&#xf6cf;" 
d="M815 1884l184 -119l-294 -274l-115 82zM406 1886l184 -121l-295 -274l-115 82z" />
    <glyph glyph-name="uniF6D0" unicode="&#xf6d0;" 
d="M137 1526v176h750v-176h-750z" />
    <glyph glyph-name="uniF6D1" unicode="&#xf6d1;" 
d="M512 1683q139 0 184 119l185 -73q-41 -105 -137 -167t-232 -62t-232 61q-96 62 -137 168l185 73q45 -119 184 -119z" />
    <glyph glyph-name="uniF6D4" unicode="&#xf6d4;" 
d="M510 1202q62 0 111 33t63 96l164 -78q-41 -115 -137 -163q-201 -99 -398 1q-96 48 -137 162l164 78q12 -55 60 -92t110 -37z" />
    <glyph glyph-name="uniF6DC" unicode="&#xf6dc;" horiz-adv-x="581" 
d="M229 0v1137h-196v229h463v-1366h-267z" />
    <glyph glyph-name="uniF6DE" unicode="&#xf6de;" horiz-adv-x="1290" 
d="M106 365v213h1076v-213h-1076z" />
    <glyph glyph-name="nbspace" horiz-adv-x="477" 
 />
    <glyph glyph-name="hyphenminus" horiz-adv-x="737" 
d="M102 356v230h533v-230h-533z" />
    <glyph glyph-name="dotlessi1" horiz-adv-x="487" 
d="M119 887h250v-887h-250v887z" />
    </font>
</defs>
</svg>
