<?xml version="1.0" standalone="no"?>
<!DOCTYPE svg PUBLIC "-//W3C//DTD SVG 1.1//EN" "http://www.w3.org/Graphics/SVG/1.1/DTD/svg11.dtd" >
<svg xmlns="http://www.w3.org/2000/svg" xmlns:xlink="http://www.w3.org/1999/xlink" version="1.1">
<metadata>
Created by FontForge 20170731 at Tue Jan 27 12:39:44 2015
 By Aleksey,,,
Copyright (c) 1995 ParaGraph Intl., (c) 1998 ParaType Inc., ParaType Ltd. All rights reserved.
</metadata>
<defs>
<font id="FuturaPT-Book" horiz-adv-x="1024" >
  <font-face 
    font-family="FuturaPT-Book"
    font-weight="400"
    font-stretch="normal"
    units-per-em="2048"
    panose-1="2 11 5 2 2 2 4 2 3 3"
    ascent="1563"
    descent="-485"
    x-height="850"
    cap-height="1366"
    bbox="-741 -512 2103 1896"
    underline-thickness="102"
    underline-position="-306"
    unicode-range="U+0020-FB02"
  />
<missing-glyph horiz-adv-x="477" 
 />
    <glyph glyph-name="afii10017.var.accented" unicode="&#x410;`" horiz-adv-x="1273" 
d="M805 1806l143 -92l-313 -239l-88 65zM408 528h462l-229 547zM1090 0l-160 385h-582l-164 -385h-168l629 1432l612 -1432h-167z" />
    <glyph glyph-name="afii10022.var.accented" unicode="&#x415;`" horiz-adv-x="987" 
d="M662 1806l143 -92l-313 -239l-89 65zM885 1366v-143h-557v-406h540v-143h-540v-531h557v-143h-709v1366h709z" />
    <glyph glyph-name="afii10026.var.accented" unicode="&#x418;`" horiz-adv-x="1454" 
d="M895 1806l143 -92l-313 -239l-88 65zM1126 0v1042l-950 -1103v1427h152v-1047l950 1104v-1423h-152z" />
    <glyph glyph-name="afii10032.var.accented" unicode="&#x41e;`" horiz-adv-x="1626" 
d="M981 1806l143 -92l-313 -239l-88 65zM813 1245q-231 0 -393 -164q-162 -163 -162 -399t162 -400t393 -163q231 0 393 164q162 163 162 399t-162 400t-393 163zM813 -25q-299 0 -505 203t-206 505t207 504t504 202t504 -202t207 -504t-206 -505t-505 -203z" />
    <glyph glyph-name="afii10037.var.accented" unicode="&#x423;`" horiz-adv-x="1163" 
d="M750 1806l143 -92l-313 -239l-88 65zM16 1366h185l426 -805l356 805h164l-617 -1366h-163l174 381z" />
    <glyph glyph-name="afii10045.var.accented" unicode="&#x42b;`" horiz-adv-x="1454" 
d="M895 1806l143 -92l-313 -239l-88 65zM1126 1366h152v-1366h-152v1366zM504 143q325 0 323 271q0 147 -110 207q-63 35 -230 34h-159v-512h176zM176 0v1366h152v-567h184q471 0 471 -385q0 -194 -120 -304t-322 -110h-365z" />
    <glyph glyph-name="afii10047.var.accented" unicode="&#x42d;`" horiz-adv-x="1320" 
d="M692 1806l144 -92l-314 -239l-88 65zM557 1245q-275 0 -455 -180v188q197 135 445 136q305 0 488 -200t183 -508t-180 -507t-483 -199q-246 0 -453 134v188q61 -63 180 -121t273 -57q207 0 359 145t149 371h-797v143h791q-17 199 -155 333t-345 134z" />
    <glyph glyph-name="afii10048.var.accented" unicode="&#x42e;`" horiz-adv-x="2027" 
d="M1182 1806l143 -92l-313 -239l-88 65zM1227 1245q-227 0 -384 -162q-157 -161 -157 -401t157 -402t384 -161q227 0 385 162q158 161 158 401t-158 402t-385 161zM328 797h209q37 256 228 424t478 168t485 -199t197 -506q0 -307 -199 -508q-200 -201 -498 -201t-493 199
t-205 479h-202v-653h-152v1366h152v-569z" />
    <glyph glyph-name="afii10049.var.accented" unicode="&#x42f;`" horiz-adv-x="1044" 
d="M690 1806l144 -92l-314 -239l-88 65zM717 1223h-148q-163 0 -231 -71q-68 -70 -68 -184t76 -174t211 -61h160v490zM549 1366h319v-1366h-151v598h-82l-389 -598h-185l402 606q-139 14 -230 86q-119 96 -119 272t95 279q111 123 340 123z" />
    <glyph glyph-name="afii10023.var.accented" unicode="&#x401;`" horiz-adv-x="987" 
d="M686 1622q0 39 27 70q27 30 71 30t73 -28q28 -28 28 -72q0 -45 -31 -72q-31 -26 -70 -26q-38 0 -68 30t-30 68zM176 1622q0 45 28 73q28 27 72 27t72 -30q27 -30 27 -70q0 -39 -30 -69q-30 -29 -69 -29q-40 0 -70 26t-30 72zM596 1806l113 -75l-254 -242l-70 51z
M885 1366v-143h-557v-406h540v-143h-540v-531h557v-143h-709v1366h709z" />
    <glyph glyph-name="afii10065.var.accented" unicode="&#x430;`" horiz-adv-x="1077" 
d="M666 1364l151 -70l-274 -276l-92 49zM799 434q0 142 -86 224t-200 81q-114 0 -195 -83q-80 -83 -80 -227t74 -233q74 -90 204 -90q129 0 206 92q77 94 77 236zM791 850h147v-850h-147v119q-111 -143 -287 -143t-297 118q-121 119 -121 330t120 329q120 117 300 117
t285 -141v121z" />
    <glyph glyph-name="afii10070.var.accented" unicode="&#x435;`" horiz-adv-x="985" 
d="M618 1364l152 -70l-274 -276l-93 49zM498 739q-92 -1 -163 -63t-87 -158h500q-18 100 -88 160t-162 61zM86 407q0 207 112 335t312 128t309 -155q86 -123 80 -320h-661q2 -129 80 -209t184 -80t172 56t96 123l123 -68q-127 -241 -391 -241q-168 0 -292 111
q-124 112 -124 320z" />
    <glyph glyph-name="afii10074.var.accented" unicode="&#x438;`" horiz-adv-x="1007" 
d="M631 1364l151 -70l-274 -276l-92 49zM139 850h148v-561l581 626v-915h-147v567l-582 -626v909z" />
    <glyph glyph-name="afii10080.var.accented" unicode="&#x43e;`" horiz-adv-x="1073" 
d="M664 1364l151 -70l-274 -276l-92 49zM537 739q-125 0 -212 -85t-87 -232q0 -148 88 -232t211 -84t211 84t88 233t-87 233t-212 83zM537 -25q-195 0 -323 127t-128 321q0 195 128 321t323 126t323 -127t127 -321q1 -194 -127 -320q-128 -127 -323 -127z" />
    <glyph glyph-name="afii10085.var.accented" unicode="&#x443;`" horiz-adv-x="942" 
d="M598 1364l152 -70l-275 -276l-92 49zM137 -471l271 551l-392 770h168l301 -608l277 608h164l-625 -1321h-164z" />
    <glyph glyph-name="afii10093.var.accented" unicode="&#x44b;`" horiz-adv-x="1150" 
d="M702 1364l152 -70l-274 -276l-93 49zM864 0v850h148v-850h-148zM287 131h137q92 0 131 23q55 38 55 110t-53 105q-37 25 -131 24h-139v-262zM139 0v850h148v-326h151q176 0 258 -84q66 -66 66 -182t-76 -186q-76 -72 -250 -72h-297z" />
    <glyph glyph-name="afii10095.var.accented" unicode="&#x44d;`" horiz-adv-x="866" 
d="M457 1364l151 -70l-274 -276l-92 49zM317 870q215 0 339 -125t124 -323t-126 -322q-126 -125 -326 -125q-127 0 -242 48v143q113 -60 236 -60q122 0 208 73t99 190h-449v131h449q-25 113 -109 176t-200 63t-234 -55v143q106 43 231 43z" />
    <glyph glyph-name="afii10096.var.accented" unicode="&#x44e;`" horiz-adv-x="1413" 
d="M834 1364l151 -70l-274 -276l-93 49zM878 739q-124 0 -209 -85q-85 -86 -85 -234t86 -231t208 -83t210 84t88 232t-87 232q-87 85 -211 85zM287 502h153q20 143 115 241q121 127 320 127t325 -127t127 -321q0 -194 -128 -320q-129 -127 -337 -127t-336 160
q-82 102 -94 232h-145v-367h-148v850h148v-348z" />
    <glyph glyph-name="afii10097.var.accented" unicode="&#x44f;`" horiz-adv-x="835" 
d="M545 1364l151 -70l-274 -276l-92 49zM549 465v254h-137q-96 0 -141 -29q-45 -28 -45 -98q-1 -129 184 -127h139zM399 850h297v-850h-147v342h-90l-242 -342h-176l264 350q-37 0 -87 20q-145 60 -144 218q0 122 76 192t249 70z" />
    <glyph glyph-name="afii10071.var.accented" unicode="&#x451;`" horiz-adv-x="985" 
d="M596 1364l125 -55l-275 -277l-65 35zM631 1126q0 41 31 72q32 31 72 31t71 -31t31 -72q0 -42 -31 -72t-72 -30t-71 30t-31 72zM160 1126q0 41 30 72q31 31 72 31t72 -31t31 -72q0 -42 -31 -72t-72 -30q-42 0 -72 30t-30 72zM248 518h500q-14 84 -76 150q-72 72 -174 72
t-167 -68q-65 -66 -83 -154zM86 424q0 215 135 342q111 104 277 104q217 0 321 -155q86 -123 80 -320h-661q-2 -127 79 -208t188 -81t171 56t94 123l123 -68q-125 -241 -395 -241q-176 0 -294 116q-118 117 -118 332z" />
    <glyph glyph-name="fi" unicode="fi" horiz-adv-x="942" 
d="M655 850h148v-850h-148v850zM500 715h-209v-715h-148v715h-82v135h82v319q0 154 50 224q85 125 283 125t278 -125q49 -80 49 -224v-34h-148v34q0 88 -28 134q-43 65 -154 65t-154 -65q-29 -41 -28 -134v-319h209v-135z" />
    <glyph glyph-name="fl" unicode="fl" horiz-adv-x="942" 
d="M500 715h-209v-715h-148v715h-82v135h82v319q0 154 50 224q85 125 283 125t278 -125q49 -80 49 -224v-1169h-148v1169q0 88 -28 134q-43 65 -154 65t-154 -65q-29 -41 -28 -134v-319h209v-135z" />
    <glyph glyph-name=".notdef" horiz-adv-x="477" 
 />
    <glyph glyph-name=".null" horiz-adv-x="0" 
 />
    <glyph glyph-name="nonmarkingreturn" horiz-adv-x="681" 
 />
    <glyph glyph-name="space" unicode=" " horiz-adv-x="477" 
 />
    <glyph glyph-name="exclam" unicode="!" horiz-adv-x="573" 
d="M184 82q0 41 31 72q31 30 72 30t71 -30t31 -72q0 -41 -31 -72q-32 -30 -72 -30t-71 30t-31 72zM360 276h-147v1090h147v-1090z" />
    <glyph glyph-name="quotedbl" unicode="&#x22;" horiz-adv-x="675" 
d="M565 1366l-26 -549h-111l-27 549h164zM274 1366l-26 -549h-111l-26 549h163z" />
    <glyph glyph-name="numbersign" unicode="#" horiz-adv-x="1228" 
d="M743 559l41 272h-278l-41 -272h278zM807 0h-150l66 424h-279l-65 -424h-150l66 424h-225l20 135h225l41 272h-225l21 136h225l61 399h150l-62 -399h279l61 399h150l-62 -399h226l-21 -136h-225l-41 -272h225l-20 -135h-226z" />
    <glyph glyph-name="dollar" unicode="$" horiz-adv-x="1163" 
d="M379 1040q0 -130 168 -198v399q-80 -11 -124 -69t-44 -132zM850 393q0 158 -180 230v-496q82 23 131 99t49 167zM670 -207h-123v182q-154 5 -255 105t-134 248l147 41q14 -109 82 -174q70 -72 160 -76v561q-147 59 -233 140t-86 220q0 140 91 236q92 96 228 108v179h123
v-179q86 -8 162 -61t124 -147l-120 -80q-65 129 -166 145v-455q162 -63 239 -143q97 -99 97 -247t-90 -268t-246 -144v-191z" />
    <glyph glyph-name="percent" unicode="%" horiz-adv-x="1454" 
d="M1091 98q73 0 123 54t50 131q0 76 -50 130t-124 54q-72 0 -123 -54t-51 -130q0 -77 50 -131q52 -54 125 -54zM1090 580q124 0 210 -86t86 -211t-86 -211t-210 -86t-211 86q-86 86 -86 211t86 211t211 86zM289 20l796 1373l80 -45l-796 -1375zM366 897q72 0 122 54t51 130
q-1 76 -51 130q-50 55 -122 55t-124 -54t-52 -131q0 -76 52 -130t124 -54zM365 1378q125 0 211 -86t86 -211t-86 -211t-212 -86q-124 0 -210 86t-86 211t86 211t211 86z" />
    <glyph glyph-name="ampersand" unicode="&#x26;" horiz-adv-x="1302" 
d="M770 1108q0 76 -44 113t-105 37t-105 -44q-44 -43 -45 -104q0 -61 55 -137l62 -84l90 69q92 74 92 150zM262 360q0 -106 69 -176t173 -69q153 0 350 188l-303 391q-109 -68 -199 -148t-90 -186zM328 1099q0 118 79 204t216 86t214 -82t76 -193q0 -156 -164 -277
q-24 -17 -73 -59l285 -366q104 110 155 180l111 -92q-68 -92 -174 -203l229 -297h-188l-148 190q-94 -94 -212 -154t-228 -61q-168 0 -282 109q-114 110 -114 270t123 283q63 63 230 170q-135 174 -135 292z" />
    <glyph glyph-name="quotesingle" unicode="'" horiz-adv-x="385" 
d="M274 1366l-26 -549h-111l-26 549h163z" />
    <glyph glyph-name="parenleft" unicode="(" horiz-adv-x="602" 
d="M164 608q0 266 51 486q51 221 127 422l129 -60q-154 -404 -155 -854t155 -891l-129 -59q-94 248 -136 469t-42 487z" />
    <glyph glyph-name="parenright" unicode=")" horiz-adv-x="602" 
d="M287 597q0 451 -156 859l129 60q76 -200 127 -422t51 -487t-42 -486t-136 -469l-129 59q156 435 156 886z" />
    <glyph glyph-name="asterisk" unicode="*" horiz-adv-x="1163" 
d="M285 1327l237 -88l-10 254h139l-10 -254l238 88l43 -129l-246 -70l158 -198l-111 -80l-141 211l-142 -211l-110 80l157 198l-245 70z" />
    <glyph glyph-name="plus" unicode="+" 
d="M68 614v136h370v352h148v-352h370v-136h-370v-352h-148v352h-370z" />
    <glyph glyph-name="comma" unicode="," horiz-adv-x="561" 
d="M49 -272l168 473l135 -49l-207 -463z" />
    <glyph glyph-name="hyphen" unicode="-" horiz-adv-x="655" 
d="M102 360v152h451v-152h-451z" />
    <glyph glyph-name="period" unicode="." horiz-adv-x="466" 
d="M131 82q0 41 31 72q32 30 72 30t71 -30t31 -72q0 -41 -31 -72q-31 -30 -72 -30t-71 30t-31 72z" />
    <glyph glyph-name="slash" unicode="/" horiz-adv-x="1212" 
d="M0 -348l1053 1902l118 -61l-1052 -1899z" />
    <glyph glyph-name="zero" unicode="0" horiz-adv-x="1163" 
d="M582 1249q-140 1 -238 -155t-98 -412t97 -412t239 -156t238 156q97 156 98 412q0 256 -98 412t-238 155zM582 -25q-208 0 -348 202t-140 505t139 505t349 202t348 -202q139 -202 139 -505t-139 -505t-348 -202z" />
    <glyph glyph-name="one" unicode="1" horiz-adv-x="1163" 
d="M545 0v1223h-230l80 143h301v-1366h-151z" />
    <glyph glyph-name="two" unicode="2" horiz-adv-x="1163" 
d="M985 0h-883l498 575q127 150 160 199q76 110 76 218t-76 183t-197 74q-147 0 -227 -121q-43 -66 -45 -161h-152q8 174 103 282q123 139 314 139t311 -115q120 -116 120 -292q0 -137 -108 -293q-55 -76 -187 -227l-284 -322h577v-139z" />
    <glyph glyph-name="three" unicode="3" horiz-adv-x="1163" 
d="M557 1389q181 0 283 -109t102 -260q0 -215 -176 -303q52 -19 102 -69q95 -95 95 -271t-120 -289t-300 -113q-121 1 -225 57t-156 179q-27 66 -31 143h152q10 -84 49 -137q70 -102 197 -102t205 81t77 195q0 168 -135 230q-68 33 -156 28v135q88 -6 156 29q115 59 115 203
q1 100 -57 167t-175 67t-171 -70t-60 -152h-152q6 109 64 201q102 160 317 160z" />
    <glyph glyph-name="four" unicode="4" horiz-adv-x="1163" 
d="M741 397v604l-432 -604h432zM893 397h168v-139h-168v-258h-152v258h-700l852 1184v-1045z" />
    <glyph glyph-name="five" unicode="5" horiz-adv-x="1163" 
d="M981 1366v-139h-438l-88 -295q35 8 86 8q203 0 327 -135t123 -347q0 -212 -144 -347q-145 -135 -337 -135t-322 106q-74 63 -118 139l120 86q31 -61 93 -110q100 -82 232 -82t228 102q97 103 97 249t-96 240t-232 95q-137 0 -272 -94l198 659h543z" />
    <glyph glyph-name="six" unicode="6" horiz-adv-x="1163" 
d="M580 756q-138 0 -228 -90t-90 -228t90 -230q90 -93 229 -93q140 0 230 93t90 231q0 137 -91 227t-230 90zM610 895q195 0 319 -129t124 -328q0 -198 -132 -330t-337 -133q-152 0 -264 73q-210 137 -209 392q0 156 112 314l465 645l115 -86l-314 -436q57 18 121 18z" />
    <glyph glyph-name="seven" unicode="7" horiz-adv-x="1163" 
d="M135 1227v139h1004l-914 -1399l-119 80l777 1180h-748z" />
    <glyph glyph-name="eight" unicode="8" horiz-adv-x="1163" 
d="M582 115q118 1 192 75t74 190t-75 188t-191 73q-116 0 -192 -73q-75 -72 -75 -188t74 -190t193 -75zM582 772q100 0 167 68t67 172t-70 172q-68 66 -164 66t-165 -68q-69 -66 -69 -170t67 -172t167 -68zM582 -25q-198 0 -309 116q-110 116 -109 286q0 242 207 334
q-166 96 -166 299q0 156 100 268q101 112 277 111q176 0 276 -112t100 -267q1 -203 -165 -299q207 -92 206 -334q1 -170 -109 -286t-308 -116z" />
    <glyph glyph-name="nine" unicode="9" horiz-adv-x="1163" 
d="M583 1249q-141 0 -231 -93t-90 -231q0 -137 91 -227t231 -90t228 90q89 90 89 228t-89 230q-89 93 -229 93zM553 469q-195 0 -319 129t-124 328q0 198 133 330q132 132 337 133q152 0 264 -73q210 -137 209 -392q0 -158 -113 -314l-465 -643l-115 84l314 436
q-59 -18 -121 -18z" />
    <glyph glyph-name="colon" unicode=":" horiz-adv-x="466" 
d="M131 78q0 41 31 72q32 30 72 30t71 -30t31 -72q0 -41 -31 -72t-72 -31t-71 31t-31 72zM131 768q0 41 31 72q32 30 72 30t71 -30t31 -72q0 -41 -31 -72q-31 -30 -72 -30t-71 30t-31 72z" />
    <glyph glyph-name="semicolon" unicode=";" horiz-adv-x="561" 
d="M49 -272l168 473l135 -49l-207 -463zM160 768q0 41 30 72q31 30 72 30t72 -30t31 -72q0 -41 -31 -72q-31 -30 -72 -30t-72 30q-30 31 -30 72z" />
    <glyph glyph-name="less" unicode="&#x3c;" 
d="M225 676l731 -332v-147l-888 415v127l888 416v-147z" />
    <glyph glyph-name="equal" unicode="=" 
d="M68 471v135h888v-135h-888zM68 786v136h888v-136h-888z" />
    <glyph glyph-name="greater" unicode="&#x3e;" 
d="M799 676l-731 332v147l888 -416v-127l-888 -415v147z" />
    <glyph glyph-name="question" unicode="?" horiz-adv-x="892" 
d="M344 78q0 41 31 72q31 30 71 30t72 -30q31 -30 31 -72q0 -41 -31 -72t-72 -31q-42 0 -72 31t-30 72zM592 592h147q0 -142 -81 -228t-213 -86t-214 82t-81 211q0 176 172 254q41 17 101 35t71 23q131 47 131 180q-1 94 -51 140t-131 46t-130 -47t-49 -133q0 -45 12 -86
h-151q-8 39 -8 90q0 139 82 227q83 88 241 88t247 -88q89 -90 89 -226t-63 -209q-69 -81 -210 -125q-75 -24 -102 -35q-100 -47 -100 -144q0 -67 39 -105t102 -38q62 0 106 43t44 131z" />
    <glyph glyph-name="at" unicode="@" horiz-adv-x="1501" 
d="M709 397q104 -1 170 97q65 98 65 214t-51 164q-51 49 -125 50q-104 0 -177 -92t-73 -202q0 -111 56 -171t135 -60zM1096 385q80 0 156 111t75 280q0 226 -159 368q-158 142 -400 142t-419 -177t-177 -433q0 -217 135 -397q159 -207 521 -207q196 0 399 94l30 -94
q-205 -98 -460 -99q-319 0 -525 197q-204 197 -204 501t205 509q205 204 489 204t474 -169t189 -437q0 -205 -103 -344t-230 -139q-63 0 -105 38q-41 38 -45 99q-94 -145 -256 -145q-129 0 -208 94q-79 93 -79 249q-1 156 101 279t258 123q88 0 144 -44t81 -114l27 132h106
q-78 -330 -96 -510v-17q6 -94 76 -94z" />
    <glyph glyph-name="A" unicode="A" horiz-adv-x="1273" 
d="M408 528h462l-229 547zM1090 0l-160 385h-582l-164 -385h-168l629 1432l612 -1432h-167z" />
    <glyph glyph-name="B" unicode="B" horiz-adv-x="1085" 
d="M502 143q329 -1 329 253q0 130 -116 194q-74 41 -232 41h-155v-488h174zM442 766q265 0 269 227q0 63 -25 109t-66 77q-60 44 -174 44h-118v-457h114zM176 1366h246q205 0 313 -86q123 -94 123 -276t-135 -275q131 -33 196 -132t65 -201t-41 -181q-40 -78 -99 -125
q-115 -90 -328 -90h-340v1366z" />
    <glyph glyph-name="C" unicode="C" horiz-adv-x="1323" 
d="M806 1245q-236 0 -392 -165q-156 -166 -156 -414t171 -398t380 -149q131 0 235 53t177 125v-188q-186 -133 -412 -134q-303 0 -505 203t-202 504t204 504t511 203q226 -1 404 -136v-188q-180 180 -415 180z" />
    <glyph glyph-name="D" unicode="D" horiz-adv-x="1294" 
d="M328 1223v-1080h133q244 0 391 123q184 156 184 409t-157 400q-158 147 -418 148h-133zM176 0v1366h279q315 0 503 -160q234 -195 234 -519t-240 -529q-98 -84 -211 -121t-288 -37h-277z" />
    <glyph glyph-name="E" unicode="E" horiz-adv-x="987" 
d="M885 1366v-143h-557v-406h540v-143h-540v-531h557v-143h-709v1366h709z" />
    <glyph glyph-name="F" unicode="F" horiz-adv-x="888" 
d="M799 1366v-143h-471v-404h454v-143h-454v-676h-152v1366h623z" />
    <glyph glyph-name="G" unicode="G" horiz-adv-x="1552" 
d="M817 1245q-243 0 -401 -162t-158 -403q0 -176 86 -308t210 -192t259 -61q135 0 247 62q112 63 167 159t59 203h-405v143h569v-33q0 -254 -131 -432q-183 -246 -497 -246t-517 204t-203 503t204 503t509 204q354 0 576 -297l-113 -103q-180 256 -461 256z" />
    <glyph glyph-name="H" unicode="H" horiz-adv-x="1355" 
d="M328 1366v-555h700v555h152v-1366h-152v668h-700v-668h-152v1366h152z" />
    <glyph glyph-name="I" unicode="I" horiz-adv-x="503" 
d="M176 1366h152v-1366h-152v1366z" />
    <glyph glyph-name="J" unicode="J" horiz-adv-x="626" 
d="M299 1366h152v-983q1 -74 -3 -118q-10 -128 -86 -209t-222 -81t-234 101l84 119q70 -76 144 -76t120 45t45 215v987z" />
    <glyph glyph-name="K" unicode="K" horiz-adv-x="1163" 
d="M328 1366v-586l581 586h205l-639 -637l660 -729h-209l-559 627l-39 -39v-588h-152v1366h152z" />
    <glyph glyph-name="L" unicode="L" horiz-adv-x="733" 
d="M176 1366h152v-1223h377v-143h-529v1366z" />
    <glyph glyph-name="M" unicode="M" horiz-adv-x="1767" 
d="M285 0h-156l227 1442l525 -1153l534 1155l213 -1444h-155l-130 950l-464 -1007l-459 1007z" />
    <glyph glyph-name="N" unicode="N" horiz-adv-x="1568" 
d="M328 0h-152v1423l1065 -1116v1059h152v-1427l-1065 1116v-1055z" />
    <glyph glyph-name="O" unicode="O" horiz-adv-x="1626" 
d="M813 1245q-231 0 -393 -164q-162 -163 -162 -399t162 -400t393 -163q231 0 393 164q162 163 162 399t-162 400t-393 163zM813 -25q-299 0 -505 203t-206 505t207 504t504 202t504 -202t207 -504t-206 -505t-505 -203z" />
    <glyph glyph-name="P" unicode="P" horiz-adv-x="933" 
d="M328 1223v-486h125q135 0 212 66t76 182q0 238 -301 238h-112zM176 1366h248q233 0 351 -101t118 -275t-108 -284q-108 -112 -324 -112h-133v-594h-152v1366z" />
    <glyph glyph-name="Q" unicode="Q" horiz-adv-x="1626" 
d="M1368 688q0 227 -163 392t-393 165t-392 -164q-162 -163 -162 -399t162 -400t393 -163q166 0 303 90l-330 340h197l240 -246q145 158 145 385zM813 -25q-297 0 -504 203t-207 505t207 504t504 202t504 -202t207 -497t-193 -497l201 -207h-197l-110 114
q-184 -125 -412 -125z" />
    <glyph glyph-name="R" unicode="R" horiz-adv-x="1028" 
d="M328 1223v-490h96q141 0 221 66q80 67 80 195t-109 190q-70 39 -196 39h-92zM176 1366h219q221 0 332 -76q150 -100 150 -303q1 -158 -95 -262t-250 -115l435 -610h-185l-415 598h-39v-598h-152v1366z" />
    <glyph glyph-name="S" unicode="S" horiz-adv-x="1060" 
d="M548 1245q-98 0 -160 -58q-64 -59 -64 -141t46 -127t148 -90l131 -57q145 -63 211 -129q98 -98 98 -248q0 -186 -122 -303t-308 -117t-299 111q-92 90 -127 242l148 41q14 -102 82 -174q76 -76 202 -76t197 79q72 79 72 184t-68 167q-39 37 -164 94l-122 57
q-125 57 -183 113q-94 89 -94 235t108 243t255 97q263 1 372 -212l-121 -80q-33 63 -79 102q-61 47 -159 47z" />
    <glyph glyph-name="T" unicode="T" horiz-adv-x="872" 
d="M844 1223h-332v-1223h-152v1223h-331v143h815v-143z" />
    <glyph glyph-name="U" unicode="U" horiz-adv-x="1323" 
d="M328 1366v-838q0 -78 3 -120t29 -106q26 -62 76 -105q92 -78 226 -78t225 78q51 43 77 105t28 106t3 120v838h152v-879q0 -209 -86 -327q-63 -86 -167 -135t-232 -49t-232 48q-104 50 -168 136q-86 119 -86 327v879h152z" />
    <glyph glyph-name="V" unicode="V" horiz-adv-x="1138" 
d="M16 1366h168l385 -1042l385 1042h168l-553 -1448z" />
    <glyph glyph-name="W" unicode="W" horiz-adv-x="1961" 
d="M16 1366h168l361 -1024l428 1094l405 -1094l400 1024h168l-574 -1438l-401 1094l-430 -1094z" />
    <glyph glyph-name="X" unicode="X" horiz-adv-x="1032" 
d="M29 0l403 707l-366 659h172l282 -514l291 514h172l-375 -659l396 -707h-173l-313 561l-317 -561h-172z" />
    <glyph glyph-name="Y" unicode="Y" horiz-adv-x="1085" 
d="M465 0v588l-449 778h177l348 -610l352 610h176l-453 -778v-588h-151z" />
    <glyph glyph-name="Z" unicode="Z" horiz-adv-x="1097" 
d="M1028 143v-143h-979l746 1223h-650v143h904l-746 -1223h725z" />
    <glyph glyph-name="bracketleft" unicode="[" horiz-adv-x="593" 
d="M508 1358h-197v-1571h197v-135h-344v1841h344v-135z" />
    <glyph glyph-name="backslash" unicode="\" horiz-adv-x="1222" 
d="M1223 -348l-119 -58l-1063 1899l119 61z" />
    <glyph glyph-name="bracketright" unicode="]" horiz-adv-x="593" 
d="M86 -213h197v1571h-197v135h344v-1841h-344v135z" />
    <glyph glyph-name="asciicircum" unicode="^" 
d="M512 1253l-299 -505h-160l363 618h192l363 -618h-160z" />
    <glyph glyph-name="underscore" unicode="_" 
d="M0 -270v131h1024v-131h-1024z" />
    <glyph glyph-name="grave" unicode="`" 
d="M510 1018l-277 276l152 70l215 -297z" />
    <glyph glyph-name="a" unicode="a" horiz-adv-x="1077" 
d="M799 434q0 142 -86 224t-200 81q-114 0 -195 -83q-80 -83 -80 -227t74 -233q74 -90 204 -90q129 0 206 92q77 94 77 236zM791 850h147v-850h-147v119q-111 -143 -287 -143t-297 118q-121 119 -121 330t120 329q120 117 300 117t285 -141v121z" />
    <glyph glyph-name="b" unicode="b" horiz-adv-x="1077" 
d="M561 739q-111 0 -197 -86t-85 -225q1 -138 79 -230t204 -92t202 92t76 230q0 139 -84 225t-195 86zM287 0h-148v1493h148v-762q113 139 297 139t296 -134t112 -317t-111 -314q-111 -129 -297 -129t-297 143v-119z" />
    <glyph glyph-name="c" unicode="c" horiz-adv-x="897" 
d="M539 739q-125 0 -213 -85t-88 -232q0 -148 88 -232t211 -84q164 0 274 134v-177q-121 -88 -270 -88q-199 0 -327 126t-128 320q0 193 129 321t326 128q147 0 264 -82v-176q-100 127 -266 127z" />
    <glyph glyph-name="d" unicode="d" horiz-adv-x="1077" 
d="M799 434q0 142 -86 224t-200 81q-114 0 -195 -83q-80 -83 -80 -227t74 -233q74 -90 204 -90q129 0 206 92q77 94 77 236zM791 1493h147v-1493h-147v119q-111 -143 -287 -143t-297 118q-121 119 -121 330t120 329q120 117 300 117t285 -141v764z" />
    <glyph glyph-name="e" unicode="e" horiz-adv-x="985" 
d="M498 739q-92 -1 -163 -63t-87 -158h500q-18 100 -88 160t-162 61zM86 407q0 207 112 335t312 128t309 -155q86 -123 80 -320h-661q2 -129 80 -209t184 -80t172 56t96 123l123 -68q-127 -241 -391 -241q-168 0 -292 111q-124 112 -124 320z" />
    <glyph glyph-name="f" unicode="f" horiz-adv-x="491" 
d="M500 715h-209v-715h-148v715h-82v135h82v371q0 170 74 232t178 63q55 0 105 -19v-143q-45 18 -105 18t-82 -38t-22 -130v-354h209v-135z" />
    <glyph glyph-name="g" unicode="g" horiz-adv-x="1077" 
d="M518 739q-116 0 -198 -84q-82 -83 -82 -237t96 -242q76 -70 186 -70t182 72q96 92 97 246q0 154 -83 234t-198 81zM791 850h147v-830q0 -223 -82 -333q-117 -158 -340 -158q-188 0 -301 113t-113 276h146q0 -102 70 -180t212 -78t213 119q47 76 48 217v123
q-111 -143 -289 -143t-297 118q-119 119 -119 329t121 329q121 118 298 118t286 -141v121z" />
    <glyph glyph-name="h" unicode="h" horiz-adv-x="962" 
d="M676 522q0 217 -178 217q-94 -1 -152 -69t-59 -226v-444h-148v1493h148v-741q91 118 249 118t238 -116q49 -72 49 -228v-526h-147v522z" />
    <glyph glyph-name="i" unicode="i" horiz-adv-x="425" 
d="M109 1171q0 43 30 74q31 31 74 31t74 -31t31 -74t-32 -73q-30 -30 -73 -31q-43 1 -73 31t-31 73zM139 850h148v-850h-148v850z" />
    <glyph glyph-name="j" unicode="j" horiz-adv-x="425" 
d="M109 1171q0 43 30 74q31 31 74 31t74 -31t31 -74t-32 -73q-30 -30 -73 -31q-43 1 -73 31t-31 73zM139 850h148v-1321h-148v1321z" />
    <glyph glyph-name="k" unicode="k" horiz-adv-x="864" 
d="M139 1493h148v-958l311 315h193l-365 -365l430 -485h-192l-340 387l-37 -37v-350h-148v1493z" />
    <glyph glyph-name="l" unicode="l" horiz-adv-x="425" 
d="M139 1493h148v-1493h-148v1493z" />
    <glyph glyph-name="m" unicode="m" horiz-adv-x="1402" 
d="M139 0v850h148v-90q77 110 221 110t221 -137q88 137 256 137q276 0 277 -331v-539h-148v516q0 62 -7 104t-43 80t-101 39q-188 0 -189 -266v-473h-147v504q0 236 -154 235q-186 0 -186 -276v-463h-148z" />
    <glyph glyph-name="n" unicode="n" horiz-adv-x="962" 
d="M676 522q0 217 -178 217q-94 -1 -152 -69t-59 -226v-444h-148v850h148v-98q91 118 249 118t238 -116q49 -72 49 -228v-526h-147v522z" />
    <glyph glyph-name="o" unicode="o" horiz-adv-x="1073" 
d="M537 739q-125 0 -212 -85t-87 -232q0 -148 88 -232t211 -84t211 84t88 233t-87 233t-212 83zM537 -25q-195 0 -323 127t-128 321q0 195 128 321t323 126t323 -127t127 -321q1 -194 -127 -320q-128 -127 -323 -127z" />
    <glyph glyph-name="p" unicode="p" horiz-adv-x="1077" 
d="M561 739q-111 0 -197 -86t-85 -225q1 -138 79 -230t204 -92t202 92t76 230q0 139 -84 225t-195 86zM287 -471h-148v1321h148v-119q113 139 297 139t296 -134t112 -317t-111 -314q-111 -129 -297 -129t-297 143v-590z" />
    <glyph glyph-name="q" unicode="q" horiz-adv-x="1077" 
d="M799 434q0 142 -86 224t-200 81q-114 0 -195 -83q-80 -83 -80 -227t74 -233q74 -90 204 -90q129 0 206 92q77 94 77 236zM791 850h147v-1321h-147v590q-111 -143 -287 -143t-297 118q-121 119 -121 330t120 329q120 117 300 117t285 -141v121z" />
    <glyph glyph-name="r" unicode="r" horiz-adv-x="606" 
d="M139 0v850h148v-92q72 113 192 112q61 0 131 -34l-69 -134q-41 29 -86 29q-78 1 -123 -59t-45 -223v-449h-148z" />
    <glyph glyph-name="s" unicode="s" horiz-adv-x="720" 
d="M371 739q-43 -1 -73 -25t-30 -69t28 -67t110 -56q162 -68 210 -127t48 -141q0 -129 -83 -204t-210 -75q-51 1 -117 23q-132 45 -180 195l127 53q51 -139 172 -140q67 0 103 41t36 83q0 71 -36 97t-101 56q-164 72 -205 123q-41 50 -41 144t69 157t179 63q161 1 233 -153
l-121 -64q-35 86 -118 86z" />
    <glyph glyph-name="t" unicode="t" horiz-adv-x="438" 
d="M438 715h-147v-715h-148v715h-90v135h90v307h148v-307h147v-135z" />
    <glyph glyph-name="u" unicode="u" horiz-adv-x="954" 
d="M287 850v-496q0 -128 46 -188t144 -60q99 0 145 60t46 188v496h147v-512q0 -172 -78 -256q-100 -106 -260 -106t-260 106q-78 84 -78 256v512h148z" />
    <glyph glyph-name="v" unicode="v" horiz-adv-x="868" 
d="M16 850h164l254 -574l254 574h164l-418 -905z" />
    <glyph glyph-name="w" unicode="w" horiz-adv-x="1396" 
d="M16 850h164l252 -578l266 643l265 -643l254 578h163l-422 -909l-262 634l-262 -634z" />
    <glyph glyph-name="x" unicode="x" horiz-adv-x="929" 
d="M16 0l363 455l-309 395h180l219 -289l223 289h180l-311 -397l352 -453h-180l-268 346l-268 -346h-181z" />
    <glyph glyph-name="y" unicode="y" horiz-adv-x="942" 
d="M137 -471l271 551l-392 770h168l301 -608l277 608h164l-625 -1321h-164z" />
    <glyph glyph-name="z" unicode="z" horiz-adv-x="942" 
d="M901 135v-135h-885l615 715h-496v135h791l-615 -715h590z" />
    <glyph glyph-name="braceleft" unicode="{" horiz-adv-x="1026" 
d="M563 1190v-385q1 -97 -29 -149t-96 -83q66 -31 96 -82t29 -149v-387q0 -104 39 -141t127 -37h31v-125h-55q-129 0 -191 41q-98 66 -98 237v402q0 80 -30 129t-87 53v119q57 4 87 53t30 129v399q0 172 98 238q61 41 191 41h55v-125h-31q-88 0 -127 -37t-39 -141z" />
    <glyph glyph-name="bar" unicode="|" 
d="M438 -512v2048h148v-2048h-148z" />
    <glyph glyph-name="braceright" unicode="}" horiz-adv-x="1026" 
d="M463 805v385q0 104 -39 141t-127 37h-31v125h56q129 0 190 -41q98 -66 98 -238v-399q0 -80 30 -129t87 -53v-119q-57 -4 -87 -53t-30 -129v-402q0 -172 -98 -237q-61 -41 -190 -41h-56v125h31q88 0 127 37t39 141v387q-1 98 29 149t96 82q-66 31 -96 83t-29 149z" />
    <glyph glyph-name="asciitilde" unicode="~" 
d="M723 600q122 0 190 139l91 -53q-39 -90 -103 -149q-80 -80 -196 -80q-71 -1 -217 67t-199 68q-114 0 -178 -148l-91 54q47 100 108 168t158 69t240 -67t197 -68z" />
    <glyph glyph-name="uni00A0" unicode="&#xa0;" horiz-adv-x="477" 
 />
    <glyph glyph-name="exclamdown" unicode="&#xa1;" horiz-adv-x="573" 
d="M389 813q0 -41 -31 -72q-32 -31 -72 -31t-71 32q-31 30 -31 71t31 72t72 31t71 -32q30 -30 31 -71zM213 618h147v-1089h-147v1089z" />
    <glyph glyph-name="cent" unicode="&#xa2;" horiz-adv-x="1163" 
d="M352 700q0 -148 90 -239q56 -56 140 -74v619q-82 -10 -142 -70q-88 -88 -88 -236zM705 1341v-198q119 -14 215 -80v-176q-92 111 -215 125v-627q127 14 221 129v-176q-98 -72 -221 -86v-223h-123v227q-156 22 -268 132t-113 306q0 196 127 324q100 100 254 121v202h123z
" />
    <glyph glyph-name="sterling" unicode="&#xa3;" horiz-adv-x="1163" 
d="M1020 938h-150v20q0 144 -70 214t-176 70q-107 0 -177 -68t-70 -167t55 -203q26 -50 53 -106l29 -57h258v-115h-207q23 -59 23 -141t-60 -176l121 -45q111 -43 158 -43t91 43t67 98l125 -74q-37 -86 -111 -148t-164 -63q-90 0 -184 37l-80 31q-103 39 -159 39t-102 -36
t-63 -75l-116 80q49 74 109 124t155 50q57 85 57 161t-26 138h-230v115h176l-41 76q-90 166 -90 284q0 166 109 275q109 108 287 108t280 -102q123 -119 123 -326v-18z" />
    <glyph glyph-name="currency" unicode="&#xa4;" horiz-adv-x="1200" 
d="M600 387q147 0 246 98q98 98 98 250t-98 250t-246 98t-246 -98t-98 -250t98 -250t246 -98zM599 1214q175 0 298 -104l195 193l82 -82l-195 -195q104 -123 104 -292t-104 -290l192 -192l-81 -82l-193 190q-123 -104 -298 -104t-296 104l-192 -190l-82 82l192 192
q-104 121 -104 291t104 291l-194 195l82 82l194 -193q121 104 296 104z" />
    <glyph glyph-name="yen" unicode="&#xa5;" horiz-adv-x="1163" 
d="M1061 786h-289l-104 -180h393v-114h-406v-492h-151v492h-400v114h388l-105 180h-283v115h218l-269 465h178l349 -610l352 610h178l-272 -465h223v-115z" />
    <glyph glyph-name="brokenbar" unicode="&#xa6;" 
d="M438 -512v737h148v-737h-148zM438 799v737h148v-737h-148z" />
    <glyph glyph-name="section" unicode="&#xa7;" horiz-adv-x="1163" 
d="M582 797q-96 1 -160 -63t-64 -162t66 -160t162 -62t155 64q63 63 64 159t-63 160t-160 64zM242 1147q0 158 101 252t251 94t248 -90q68 -63 88 -131t20 -156v-10h-147v10q0 129 -68 193q-51 49 -139 49t-147 -58q-59 -53 -59 -131t54 -133q55 -55 210 -108q30 -10 38 -14
t35 -15q27 -10 39 -17t44 -25t56 -44q90 -88 90 -227q0 -225 -206 -330q86 -41 130 -110t44 -154q0 -144 -98 -242t-263 -98q-166 0 -260 102q-90 97 -90 277h147q0 -121 58 -183t150 -61q92 0 148 53q56 54 56 136t-43 128t-153 88t-141 55q-228 99 -228 333q0 98 55 186
q59 88 152 125q-172 98 -172 256z" />
    <glyph glyph-name="dieresis" unicode="&#xa8;" 
d="M588 1126q0 41 30 72q31 31 72 31t72 -31t31 -72q0 -42 -31 -72t-72 -30q-42 0 -72 30t-30 72zM231 1126q0 41 31 72t72 31t72 -31q30 -31 30 -72q0 -42 -30 -72t-72 -30q-41 0 -72 30t-31 72z" />
    <glyph glyph-name="copyright" unicode="&#xa9;" horiz-adv-x="1515" 
d="M803 973q-117 0 -200 -81t-83 -219t84 -216t197 -78q154 0 258 125v-166q-113 -82 -254 -82q-184 0 -305 117t-121 298t122 303t304 122q142 0 248 -78v-164q-49 61 -119 90t-131 29zM1350 683q0 245 -173 418t-419 173t-419 -173t-173 -418t173 -418t419 -173t419 173
t173 418zM51 683q0 292 208 499t499 207q290 0 498 -207t208 -499t-208 -499t-498 -207t-499 207q-208 207 -208 499z" />
    <glyph glyph-name="ordfeminine" unicode="&#xaa;" horiz-adv-x="763" 
d="M102 682h543v-86h-543v86zM366 1276q-75 0 -128 -56q-54 -56 -54 -142t56 -141q56 -54 128 -54q73 0 126 53t53 141t-55 148q-51 51 -126 51zM82 1081q0 133 76 209t204 76q58 0 106 -24t73 -58v70h104v-545h-104v65q-69 -83 -187 -82q-116 0 -194 78t-78 211z" />
    <glyph glyph-name="guillemotleft" unicode="&#xab;" horiz-adv-x="880" 
d="M532 434l246 -299l-94 -74l-307 373l307 385l94 -76zM229 434l246 -299l-94 -74l-307 373l307 385l94 -76z" />
    <glyph glyph-name="logicalnot" unicode="&#xac;" 
d="M956 0h-143v416h-745v131h888v-547z" />
    <glyph glyph-name="uni00AD" unicode="&#xad;" horiz-adv-x="655" 
d="M102 360v152h451v-152h-451z" />
    <glyph glyph-name="registered" unicode="&#xae;" horiz-adv-x="1515" 
d="M653 965v-246h45q168 0 168 121q0 94 -82 115q-39 10 -90 10h-41zM653 297h-110v766h139q295 0 295 -219q0 -86 -55 -144t-144 -69l264 -334h-139l-250 324v-324zM1346 680q0 252 -168 420t-420 168t-420 -168t-168 -420t168 -420t420 -168t420 168t168 420zM55 680
q0 301 201 502q201 200 502 200t502 -200q200 -200 200 -502q0 -301 -200 -502t-502 -201q-301 0 -502 201t-201 502z" />
    <glyph glyph-name="macron" unicode="&#xaf;" 
d="M203 1051v123h618v-123h-618z" />
    <glyph glyph-name="degree" unicode="&#xb0;" horiz-adv-x="1009" 
d="M324 1087q0 -88 56 -138t124 -50t124 50t56 138q0 89 -56 139t-124 50t-124 -50t-56 -139zM221 1087q0 121 81 202t202 81t202 -81q80 -81 80 -202t-80 -201t-202 -81q-121 1 -202 81t-81 201z" />
    <glyph glyph-name="plusminus" unicode="&#xb1;" 
d="M68 137v135h888v-135h-888zM68 707v135h370v350h148v-350h370v-135h-370v-351h-148v351h-370z" />
    <glyph glyph-name="twosuperior" unicode="&#xb2;" horiz-adv-x="716" 
d="M608 547h-542l299 346q72 84 94 119q45 66 45 126t-42 103t-124 43t-123 -70q-25 -43 -25 -98h-102q6 110 70 186t184 76t195 -68q73 -68 73 -161q0 -94 -65 -188q-31 -45 -113 -138l-158 -182h334v-94z" />
    <glyph glyph-name="threesuperior" unicode="&#xb3;" horiz-adv-x="716" 
d="M338 1378q132 0 187 -68q56 -68 57 -151q0 -133 -107 -182q119 -45 119 -199q0 -104 -71 -175t-177 -71q-189 0 -248 142q-16 41 -20 96h102q2 -45 29 -82q45 -61 118 -61t117 44t43 111q0 98 -79 133q-39 18 -95 15v94q53 -4 95 16q68 35 67 117q0 53 -33 90
q-32 37 -100 37t-98 -38t-35 -93h-103q4 76 39 131q61 94 193 94z" />
    <glyph glyph-name="acute" unicode="&#xb4;" 
d="M639 1364l152 -70l-275 -276l-92 49z" />
    <glyph glyph-name="mu" unicode="&#xb5;" horiz-adv-x="1071" 
d="M287 426q0 -320 241 -320q135 0 207 121q49 80 49 217v406h148v-850h-148v176q-32 -90 -100 -145t-149 -55t-138 34q-57 35 -76 62t-34 53v-596h-148v1321h148v-424z" />
    <glyph glyph-name="mu" unicode="&#x3bc;" horiz-adv-x="1071" 
d="M287 426q0 -320 241 -320q135 0 207 121q49 80 49 217v406h148v-850h-148v176q-32 -90 -100 -145t-149 -55t-138 34q-57 35 -76 62t-34 53v-596h-148v1321h148v-424z" />
    <glyph glyph-name="paragraph" unicode="&#xb6;" horiz-adv-x="1187" 
d="M578 -195h-127v838h-31q-80 0 -158 29q-217 81 -217 321q0 181 114 277t337 96h548v-119h-122v-1442h-127v1442h-217v-1442z" />
    <glyph glyph-name="periodcentered" unicode="&#xb7;" horiz-adv-x="409" 
d="M74 696q0 53 39 92t92 39t92 -39t39 -92t-39 -92t-92 -39t-92 39t-39 92z" />
    <glyph glyph-name="cedilla" unicode="&#xb8;" 
d="M545 -106l135 -56l-207 -262l-100 49z" />
    <glyph glyph-name="onesuperior" unicode="&#xb9;" horiz-adv-x="716" 
d="M340 547v725h-160l49 94h217v-819h-106z" />
    <glyph glyph-name="ordmasculine" unicode="&#xba;" horiz-adv-x="765" 
d="M383 1276q-88 0 -142 -54q-55 -54 -55 -140t54 -141q54 -54 143 -54q88 0 142 56q55 56 55 142q0 87 -54 139t-143 52zM106 682h556v-86h-556v86zM682 1080q0 -116 -80 -200t-216 -83q-136 0 -219 81q-83 82 -83 198t82 203t216 87t222 -88q78 -82 78 -198z" />
    <glyph glyph-name="guillemotright" unicode="&#xbb;" horiz-adv-x="880" 
d="M651 446l-245 299l94 74l307 -373l-307 -385l-94 76zM348 446l-246 299l95 74l307 -373l-307 -385l-95 76z" />
    <glyph glyph-name="onequarter" unicode="&#xbc;" horiz-adv-x="1556" 
d="M1288 250v317l-231 -317h231zM1391 250h100v-94h-100v-156h-103v156h-420l523 708v-614zM383 20l795 1373l77 -45l-794 -1375zM340 547v725h-160l49 94h217v-819h-106z" />
    <glyph glyph-name="onehalf" unicode="&#xbd;" horiz-adv-x="1556" 
d="M1448 0h-543l299 346q72 84 94 119q45 66 45 126t-41 103q-42 43 -124 43t-123 -69q-25 -43 -25 -99h-102q6 111 61 179q72 84 193 84q120 0 194 -68t74 -162t-66 -188q-31 -45 -112 -138l-158 -182h334v-94zM301 20l795 1373l78 -45l-795 -1375zM340 547v725h-160l49 94
h217v-819h-106z" />
    <glyph glyph-name="threequarters" unicode="&#xbe;" horiz-adv-x="1556" 
d="M1288 250v317l-231 -317h231zM1391 250h100v-94h-100v-156h-103v156h-420l523 708v-614zM424 20l795 1373l77 -45l-794 -1375zM594 778q0 -102 -70 -174t-192 -72t-186 69q-66 69 -68 169h102q6 -57 46 -100t110 -43t110 42q40 41 41 115q0 74 -45 110t-120 36h-9v94h9
q76 0 114 36t39 97q0 61 -37 94t-96 33t-90 -31q-39 -33 -43 -100h-103q2 97 64 161t176 64q115 0 175 -64t61 -155q0 -129 -107 -182q119 -58 119 -199z" />
    <glyph glyph-name="questiondown" unicode="&#xbf;" horiz-adv-x="892" 
d="M549 813q0 -41 -31 -72t-72 -31q-42 0 -72 32q-30 30 -30 71t31 72t71 31t72 -32q31 -30 31 -71zM301 301h-147q0 143 81 228t213 85t214 -82t81 -210q0 -176 -172 -254q-41 -18 -101 -36t-71 -22q-131 -47 -131 -180q0 -94 50 -140t132 -46q80 0 129 47t50 133
q0 45 -13 86h152q8 -39 8 -90q0 -139 -82 -227q-82 -89 -240 -89t-248 89q-89 89 -89 225t63 210q69 80 210 124q75 24 102 36q100 47 100 144q0 66 -39 104t-102 39q-63 0 -107 -43t-43 -131z" />
    <glyph glyph-name="Agrave" unicode="&#xc0;" horiz-adv-x="1273" 
d="M657 1475l-313 239l143 92l258 -266zM408 528h462l-229 547zM1090 0l-160 385h-582l-164 -385h-168l629 1432l612 -1432h-167z" />
    <glyph glyph-name="Aacute" unicode="&#xc1;" horiz-adv-x="1273" 
d="M805 1806l143 -92l-313 -239l-88 65zM408 528h462l-229 547zM1090 0l-160 385h-582l-164 -385h-168l629 1432l612 -1432h-167z" />
    <glyph glyph-name="Acircumflex" unicode="&#xc2;" horiz-adv-x="1273" 
d="M643 1632l-180 -155l-107 84l287 243l287 -243l-107 -84zM408 528h462l-229 547zM1090 0l-160 385h-582l-164 -385h-168l629 1432l612 -1432h-167z" />
    <glyph glyph-name="Atilde" unicode="&#xc3;" horiz-adv-x="1273" 
d="M503 1591q-32 0 -59 -26q-27 -31 -34 -64l-91 74q21 53 69 100t112 47t147 -43q84 -43 119 -43q36 0 62 26t38 62l88 -71q-18 -49 -53 -84q-61 -63 -143 -64q-47 0 -135 43t-120 43zM408 528h462l-229 547zM1090 0l-160 385h-582l-164 -385h-168l629 1432l612 -1432h-167
z" />
    <glyph glyph-name="Adieresis" unicode="&#xc4;" horiz-adv-x="1273" 
d="M733 1606q0 44 31 74t74 30q44 0 74 -31t30 -73t-31 -74q-31 -31 -73 -31t-74 31q-31 31 -31 74zM344 1606q0 44 31 74t74 30t73 -31t31 -73q0 -42 -31 -74q-32 -31 -74 -31t-73 31t-31 74zM408 528h462l-229 547zM1090 0l-160 385h-582l-164 -385h-168l629 1432
l612 -1432h-167z" />
    <glyph glyph-name="Aring" unicode="&#xc5;" horiz-adv-x="1273" 
d="M559 1677q0 -35 26 -61q27 -26 61 -25q34 0 60 26q26 27 26 61t-26 60t-61 26t-61 -26t-25 -61zM465 1675q0 74 53 127t127 53t127 -53t53 -127t-53 -127t-127 -53t-127 53t-53 127zM408 528h462l-229 547zM1090 0l-160 385h-582l-164 -385h-168l629 1432l612 -1432h-167
z" />
    <glyph glyph-name="AE" unicode="&#xc6;" horiz-adv-x="1843" 
d="M424 526h457l-226 535zM1102 0l-162 383h-582l-161 -383h-168l608 1366h600l59 -143h-551l170 -406h541l60 -143h-537l221 -531h555l60 -143h-713z" />
    <glyph glyph-name="Ccedilla" unicode="&#xc7;" horiz-adv-x="1323" 
d="M745 -106l144 -62l-213 -262l-103 53zM806 1245q-236 0 -392 -165q-156 -166 -156 -414t171 -398t380 -149q131 0 235 53t177 125v-188q-186 -133 -412 -134q-303 0 -505 203t-202 504t204 504t511 203q226 -1 404 -136v-188q-180 180 -415 180z" />
    <glyph glyph-name="Egrave" unicode="&#xc8;" horiz-adv-x="987" 
d="M555 1475l-313 239l143 92l258 -266zM885 1366v-143h-557v-406h540v-143h-540v-531h557v-143h-709v1366h709z" />
    <glyph glyph-name="Eacute" unicode="&#xc9;" horiz-adv-x="987" 
d="M680 1806l143 -92l-313 -239l-88 65zM885 1366v-143h-557v-406h540v-143h-540v-531h557v-143h-709v1366h709z" />
    <glyph glyph-name="Ecircumflex" unicode="&#xca;" horiz-adv-x="987" 
d="M532 1632l-180 -155l-106 84l286 243l287 -243l-106 -84zM885 1366v-143h-557v-406h540v-143h-540v-531h557v-143h-709v1366h709z" />
    <glyph glyph-name="Edieresis" unicode="&#xcb;" horiz-adv-x="987" 
d="M623 1606q1 44 31 74t73 30t74 -31t31 -73t-32 -74q-30 -31 -73 -31t-74 31q-30 31 -30 74zM233 1606q0 44 31 74t74 30t74 -31q30 -31 30 -73t-30 -74q-30 -31 -74 -31q-43 0 -74 31t-31 74zM885 1366v-143h-557v-406h540v-143h-540v-531h557v-143h-709v1366h709z" />
    <glyph glyph-name="Igrave" unicode="&#xcc;" horiz-adv-x="503" 
d="M256 1475l-313 239l143 92l258 -266zM176 1366h152v-1366h-152v1366z" />
    <glyph glyph-name="Iacute" unicode="&#xcd;" horiz-adv-x="503" 
d="M436 1806l144 -92l-314 -239l-88 65zM176 1366h152v-1366h-152v1366z" />
    <glyph glyph-name="Icircumflex" unicode="&#xce;" horiz-adv-x="503" 
d="M252 1632l-180 -155l-107 84l287 243l287 -243l-107 -84zM174 1366h152v-1366h-152v1366z" />
    <glyph glyph-name="Idieresis" unicode="&#xcf;" horiz-adv-x="503" 
d="M289 1606q1 44 27 74t65 30t65 -31t27 -73q0 -42 -27 -74q-28 -31 -66 -31t-65 31q-26 31 -26 74zM31 1606q1 44 27 74t65 30t65 -31t27 -73q0 -42 -27 -74q-28 -31 -66 -31t-65 31q-26 31 -26 74zM176 1366h152v-1366h-152v1366z" />
    <glyph glyph-name="Eth" unicode="&#xd0;" horiz-adv-x="1294" 
d="M328 1223v-404h278v-131h-278v-545h133q244 0 391 123q184 156 184 409t-157 400q-158 147 -418 148h-133zM176 0v688h-176v131h176v547h279q315 0 503 -160q234 -195 234 -519t-240 -529q-98 -84 -211 -121t-288 -37h-277z" />
    <glyph glyph-name="Ntilde" unicode="&#xd1;" horiz-adv-x="1568" 
d="M650 1591q-32 -1 -58 -29t-35 -61l-90 74q20 53 68 100q47 47 111 47t148 -43t120 -43q34 0 61 26t39 62l88 -71q-18 -49 -53 -84q-61 -63 -144 -64q-47 0 -135 43t-120 43zM328 0h-152v1423l1065 -1116v1059h152v-1427l-1065 1116v-1055z" />
    <glyph glyph-name="Ograve" unicode="&#xd2;" horiz-adv-x="1626" 
d="M842 1475l-314 239l144 92l258 -266zM813 1245q-231 0 -393 -164q-162 -163 -162 -399t162 -400t393 -163q231 0 393 164q162 163 162 399t-162 400t-393 163zM813 -25q-299 0 -505 203t-206 505t207 504t504 202t504 -202t207 -504t-206 -505t-505 -203z" />
    <glyph glyph-name="Oacute" unicode="&#xd3;" horiz-adv-x="1626" 
d="M946 1806l144 -92l-314 -239l-88 65zM813 1245q-231 0 -393 -164q-162 -163 -162 -399t162 -400t393 -163q231 0 393 164q162 163 162 399t-162 400t-393 163zM813 -25q-299 0 -505 203t-206 505t207 504t504 202t504 -202t207 -504t-206 -505t-505 -203z" />
    <glyph glyph-name="Ocircumflex" unicode="&#xd4;" horiz-adv-x="1626" 
d="M813 1632l-180 -155l-107 84l287 243l287 -243l-107 -84zM813 1245q-231 0 -393 -164q-162 -163 -162 -399t162 -400t393 -163q231 0 393 164q162 163 162 399t-162 400t-393 163zM813 -25q-299 0 -505 203t-206 505t207 504t504 202t504 -202t207 -504t-206 -505
t-505 -203z" />
    <glyph glyph-name="Otilde" unicode="&#xd5;" horiz-adv-x="1626" 
d="M679 1591q-33 -1 -59 -29t-34 -61l-90 74q20 53 68 100t112 47t147 -43q84 -43 119 -43q36 0 62 26t38 62l88 -71q-18 -49 -53 -84q-61 -63 -143 -64q-47 0 -135 43t-120 43zM813 1245q-231 0 -393 -164q-162 -163 -162 -399t162 -400t393 -163q231 0 393 164
q162 163 162 399t-162 400t-393 163zM813 -25q-299 0 -505 203t-206 505t207 504t504 202t504 -202t207 -504t-206 -505t-505 -203z" />
    <glyph glyph-name="Odieresis" unicode="&#xd6;" horiz-adv-x="1626" 
d="M903 1606q0 44 31 74t74 30q44 0 74 -31t30 -73t-31 -74q-31 -31 -73 -31t-74 31q-31 31 -31 74zM514 1606q0 44 31 74t73 30t74 -31q31 -31 31 -73t-31 -74q-31 -31 -74 -31q-44 0 -74 31t-30 74zM813 1245q-231 0 -393 -164q-162 -163 -162 -399t162 -400t393 -163
q231 0 393 164q162 163 162 399t-162 400t-393 163zM813 -25q-299 0 -505 203t-206 505t207 504t504 202t504 -202t207 -504t-206 -505t-505 -203z" />
    <glyph glyph-name="multiply" unicode="&#xd7;" 
d="M123 389l293 293l-305 305l96 96l305 -305l305 305l96 -96l-305 -305l293 -293l-96 -96l-293 293l-293 -293z" />
    <glyph glyph-name="Oslash" unicode="&#xd8;" horiz-adv-x="1626" 
d="M813 119q229 0 392 165q163 164 163 382t-123 370l-772 -800q152 -117 340 -117zM258 682q0 -195 115 -342l768 797q-141 109 -328 108q-231 0 -393 -164t-162 -399zM1524 682q0 -301 -207 -504t-487 -203t-474 160l-163 -162l-103 103l164 162q-152 193 -152 444
q0 303 207 505t504 202q252 0 447 -150l161 164l103 -103l-162 -163q162 -193 162 -455z" />
    <glyph glyph-name="Ugrave" unicode="&#xd9;" horiz-adv-x="1323" 
d="M678 1475l-313 239l143 92l258 -266zM328 1366v-838q0 -78 3 -120t29 -106q26 -62 76 -105q92 -78 226 -78t225 78q51 43 77 105t28 106t3 120v838h152v-879q0 -209 -86 -327q-63 -86 -167 -135t-232 -49t-232 48q-104 50 -168 136q-86 119 -86 327v879h152z" />
    <glyph glyph-name="Uacute" unicode="&#xda;" horiz-adv-x="1323" 
d="M815 1806l143 -92l-313 -239l-88 65zM328 1366v-838q0 -78 3 -120t29 -106q26 -62 76 -105q92 -78 226 -78t225 78q51 43 77 105t28 106t3 120v838h152v-879q0 -209 -86 -327q-63 -86 -167 -135t-232 -49t-232 48q-104 50 -168 136q-86 119 -86 327v879h152z" />
    <glyph glyph-name="Ucircumflex" unicode="&#xdb;" horiz-adv-x="1323" 
d="M662 1632l-181 -155l-106 84l287 243l286 -243l-106 -84zM328 1366v-838q0 -78 3 -120t29 -106q26 -62 76 -105q92 -78 226 -78t225 78q51 43 77 105t28 106t3 120v838h152v-879q0 -209 -86 -327q-63 -86 -167 -135t-232 -49t-232 48q-104 50 -168 136q-86 119 -86 327
v879h152z" />
    <glyph glyph-name="Udieresis" unicode="&#xdc;" horiz-adv-x="1323" 
d="M752 1606q0 44 30 74t74 30q43 0 74 -31t31 -73t-31 -74q-31 -31 -74 -31t-74 31q-30 31 -30 74zM362 1606q0 44 31 74t74 30t74 -31t31 -73t-32 -74q-30 -31 -73 -31t-74 31t-31 74zM328 1366v-838q0 -78 3 -120t29 -106q26 -62 76 -105q92 -78 226 -78t225 78
q51 43 77 105t28 106t3 120v838h152v-879q0 -209 -86 -327q-63 -86 -167 -135t-232 -49t-232 48q-104 50 -168 136q-86 119 -86 327v879h152z" />
    <glyph glyph-name="Yacute" unicode="&#xdd;" horiz-adv-x="1085" 
d="M711 1806l143 -92l-313 -239l-88 65zM465 0v588l-449 778h177l348 -610l352 610h176l-453 -778v-588h-151z" />
    <glyph glyph-name="Thorn" unicode="&#xde;" horiz-adv-x="933" 
d="M328 1018v-486h125q135 0 212 66t76 182q0 238 -301 238h-112zM176 1366h152v-205h96q233 0 351 -101q118 -100 118 -274t-108 -286t-324 -111h-133v-389h-152v1366z" />
    <glyph glyph-name="germandbls" unicode="&#xdf;" horiz-adv-x="1089" 
d="M868 1174q0 -212 -157 -287q113 -39 180 -113q113 -116 113 -306t-144 -338t-375 -155v144q167 11 265 113t98 243t-99 237t-264 99v131q113 0 181 70q51 54 51 162q-1 108 -57 160t-156 52t-150 -72q-51 -72 -51 -247v-1067h-147v715h-144v135h144v274q0 193 97 293
q97 101 260 101t259 -98t96 -246z" />
    <glyph glyph-name="agrave" unicode="&#xe0;" horiz-adv-x="1077" 
d="M510 1018l-277 276l152 70l215 -297zM799 434q0 142 -86 224t-200 81q-114 0 -195 -83q-80 -83 -80 -227t74 -233q74 -90 204 -90q129 0 206 92q77 94 77 236zM791 850h147v-850h-147v119q-111 -143 -287 -143t-297 118q-121 119 -121 330t120 329q120 117 300 117
t285 -141v121z" />
    <glyph glyph-name="aacute" unicode="&#xe1;" horiz-adv-x="1077" 
d="M639 1364l152 -70l-275 -276l-92 49zM799 434q0 142 -86 224t-200 81q-114 0 -195 -83q-80 -83 -80 -227t74 -233q74 -90 204 -90q129 0 206 92q77 94 77 236zM791 850h147v-850h-147v119q-111 -143 -287 -143t-297 118q-121 119 -121 330t120 329q120 117 300 117
t285 -141v121z" />
    <glyph glyph-name="acircumflex" unicode="&#xe2;" horiz-adv-x="1077" 
d="M524 1184l-188 -166l-94 74l282 247l283 -247l-94 -74zM799 434q0 142 -86 224t-200 81q-114 0 -195 -83q-80 -83 -80 -227t74 -233q74 -90 204 -90q129 0 206 92q77 94 77 236zM791 850h147v-850h-147v119q-111 -143 -287 -143t-297 118q-121 119 -121 330t120 329
q120 117 300 117t285 -141v121z" />
    <glyph glyph-name="atilde" unicode="&#xe3;" horiz-adv-x="1077" 
d="M438 1106q-54 0 -102 -88l-86 69q35 55 69 93q51 49 115 49t144 -41t116 -41q60 0 103 88l84 -70q-16 -43 -54 -80q-59 -61 -123 -61t-150 41q-87 41 -116 41zM799 434q0 142 -86 224t-200 81q-114 0 -195 -83q-80 -83 -80 -227t74 -233q74 -90 204 -90q129 0 206 92
q77 94 77 236zM791 850h147v-850h-147v119q-111 -143 -287 -143t-297 118q-121 119 -121 330t120 329q120 117 300 117t285 -141v121z" />
    <glyph glyph-name="adieresis" unicode="&#xe4;" horiz-adv-x="1077" 
d="M623 1126q0 41 30 72q31 31 72 31t72 -31t31 -72q0 -42 -32 -72q-30 -30 -71 -30t-71 30t-31 72zM266 1126q0 41 31 72t72 31t71 -31t31 -72q0 -42 -31 -72q-32 -30 -72 -30t-71 30t-31 72zM799 434q0 142 -86 224t-200 81q-114 0 -195 -83q-80 -83 -80 -227t74 -233
q74 -90 204 -90q129 0 206 92q77 94 77 236zM791 850h147v-850h-147v119q-111 -143 -287 -143t-297 118q-121 119 -121 330t120 329q120 117 300 117t285 -141v121z" />
    <glyph glyph-name="aring" unicode="&#xe5;" horiz-adv-x="1077" 
d="M463 1194q1 -34 27 -60t59 -26t59 26t27 60q0 34 -27 60q-28 26 -60 26t-58 -26t-27 -60zM373 1194q0 72 52 124t124 52t124 -52t52 -124t-52 -124t-124 -52t-124 52t-52 124zM799 434q0 142 -86 224t-200 81q-114 0 -195 -83q-80 -83 -80 -227t74 -233q74 -90 204 -90
q129 0 206 92q77 94 77 236zM791 850h147v-850h-147v119q-111 -143 -287 -143t-297 118q-121 119 -121 330t120 329q120 117 300 117t285 -141v121z" />
    <glyph glyph-name="ae" unicode="&#xe6;" horiz-adv-x="1585" 
d="M458 401q-110 0 -166 -42q-58 -42 -58 -103t50 -105q50 -45 166 -45t171 46t55 103q0 56 -54 101t-164 45zM1098 739q-96 1 -166 -59t-86 -162h502q-14 102 -84 162t-166 59zM1106 -25q-219 0 -334 170q-96 -170 -319 -170q-158 0 -263 72q-104 72 -104 205t100 207
q100 73 248 73t250 -71q4 111 -39 180q-57 98 -203 98q-115 0 -262 -53v139q137 45 264 45q240 0 322 -172q106 172 328 172q186 0 296 -126t109 -334v-15h-663q4 -125 80 -207t174 -82t168 52t108 129l123 -74q-125 -238 -383 -238z" />
    <glyph glyph-name="ccedilla" unicode="&#xe7;" horiz-adv-x="897" 
d="M504 -106l135 -56l-207 -262l-100 49zM539 739q-125 0 -213 -85t-88 -232q0 -148 88 -232t211 -84q164 0 274 134v-177q-121 -88 -270 -88q-199 0 -327 126t-128 320q0 193 129 321t326 128q147 0 264 -82v-176q-100 127 -266 127z" />
    <glyph glyph-name="egrave" unicode="&#xe8;" horiz-adv-x="985" 
d="M510 1018l-277 276l152 70l215 -297zM498 739q-92 -1 -163 -63t-87 -158h500q-18 100 -88 160t-162 61zM86 407q0 207 112 335t312 128t309 -155q86 -123 80 -320h-661q2 -129 80 -209t184 -80t172 56t96 123l123 -68q-127 -241 -391 -241q-168 0 -292 111
q-124 112 -124 320z" />
    <glyph glyph-name="eacute" unicode="&#xe9;" horiz-adv-x="985" 
d="M598 1364l152 -70l-275 -276l-92 49zM498 739q-92 -1 -163 -63t-87 -158h500q-18 100 -88 160t-162 61zM86 407q0 207 112 335t312 128t309 -155q86 -123 80 -320h-661q2 -129 80 -209t184 -80t172 56t96 123l123 -68q-127 -241 -391 -241q-168 0 -292 111
q-124 112 -124 320z" />
    <glyph glyph-name="ecircumflex" unicode="&#xea;" horiz-adv-x="985" 
d="M496 1184l-189 -166l-94 74l283 247l282 -247l-94 -74zM498 739q-92 -1 -163 -63t-87 -158h500q-18 100 -88 160t-162 61zM86 407q0 207 112 335t312 128t309 -155q86 -123 80 -320h-661q2 -129 80 -209t184 -80t172 56t96 123l123 -68q-127 -241 -391 -241
q-168 0 -292 111q-124 112 -124 320z" />
    <glyph glyph-name="edieresis" unicode="&#xeb;" horiz-adv-x="985" 
d="M571 1126q0 41 31 72t72 31q42 0 72 -31t30 -72q0 -42 -31 -72t-71 -30t-72 30q-31 30 -31 72zM215 1126q0 41 31 72q32 31 72 31t71 -31t31 -72q0 -42 -31 -72t-72 -30t-71 30t-31 72zM498 739q-92 -1 -163 -63t-87 -158h500q-18 100 -88 160t-162 61zM86 407
q0 207 112 335t312 128t309 -155q86 -123 80 -320h-661q2 -129 80 -209t184 -80t172 56t96 123l123 -68q-127 -241 -391 -241q-168 0 -292 111q-124 112 -124 320z" />
    <glyph glyph-name="igrave" unicode="&#xec;" horiz-adv-x="425" 
d="M223 1010l-252 301l158 55l186 -313zM139 850h148v-850h-148v850z" />
    <glyph glyph-name="iacute" unicode="&#xed;" horiz-adv-x="425" 
d="M297 1366l158 -55l-252 -301l-97 43zM139 850h148v-850h-148v850z" />
    <glyph glyph-name="icircumflex" unicode="&#xee;" horiz-adv-x="425" 
d="M213 1171l-154 -137l-88 72l242 217l242 -217l-88 -72zM139 850h148v-850h-148v850z" />
    <glyph glyph-name="idieresis" unicode="&#xef;" horiz-adv-x="425" 
d="M289 1126q0 41 30 72q31 31 72 31t72 -31t31 -72q0 -42 -31 -72t-72 -30t-71 30t-31 72zM-68 1126q0 41 31 72t72 31t71 -31t31 -72q0 -42 -31 -72q-32 -30 -72 -30t-71 30t-31 72zM139 850h148v-850h-148v850z" />
    <glyph glyph-name="eth" unicode="&#xf0;" horiz-adv-x="1073" 
d="M836 443q0 159 -99 249q-75 72 -195 72t-212 -87t-92 -241t90 -242t209 -88t198 80q101 98 101 257zM987 516q0 -197 -72 -323q-125 -217 -378 -218q-195 0 -323 130t-128 334t126 330t301 126t288 -100q-50 177 -207 301l-367 -121l-37 110l275 91q-127 59 -295 77
l35 125q238 -20 432 -145l264 86l37 -111l-195 -63q244 -217 244 -629z" />
    <glyph glyph-name="ntilde" unicode="&#xf1;" horiz-adv-x="962" 
d="M344 1106q-54 0 -102 -88l-86 69q35 55 69 93q51 49 115 49t143 -41q80 -41 117 -41q59 0 102 88l84 -70q-16 -43 -53 -80q-59 -61 -123 -61t-150 41q-87 41 -116 41zM676 522q0 217 -178 217q-94 -1 -152 -69t-59 -226v-444h-148v850h148v-98q91 118 249 118t238 -116
q49 -72 49 -228v-526h-147v522z" />
    <glyph glyph-name="ograve" unicode="&#xf2;" horiz-adv-x="1073" 
d="M535 1018l-277 276l152 70l215 -297zM537 739q-125 0 -212 -85t-87 -232q0 -148 88 -232t211 -84t211 84t88 233t-87 233t-212 83zM537 -25q-195 0 -323 127t-128 321q0 195 128 321t323 126t323 -127t127 -321q1 -194 -127 -320q-128 -127 -323 -127z" />
    <glyph glyph-name="oacute" unicode="&#xf3;" horiz-adv-x="1073" 
d="M664 1364l151 -70l-274 -276l-92 49zM537 739q-125 0 -212 -85t-87 -232q0 -148 88 -232t211 -84t211 84t88 233t-87 233t-212 83zM537 -25q-195 0 -323 127t-128 321q0 195 128 321t323 126t323 -127t127 -321q1 -194 -127 -320q-128 -127 -323 -127z" />
    <glyph glyph-name="ocircumflex" unicode="&#xf4;" horiz-adv-x="1073" 
d="M537 1184l-189 -166l-94 74l283 247l282 -247l-94 -74zM537 739q-125 0 -212 -85t-87 -232q0 -148 88 -232t211 -84t211 84t88 233t-87 233t-212 83zM537 -25q-195 0 -323 127t-128 321q0 195 128 321t323 126t323 -127t127 -321q1 -194 -127 -320q-128 -127 -323 -127z
" />
    <glyph glyph-name="otilde" unicode="&#xf5;" horiz-adv-x="1073" 
d="M410 1106q-55 0 -103 -88l-86 69q33 55 77 99t108 43q64 0 143 -41q80 -41 117 -41q59 0 102 88l84 -70q-16 -43 -53 -80q-59 -61 -123 -61t-150 41q-88 41 -116 41zM537 739q-125 0 -212 -85t-87 -232q0 -148 88 -232t211 -84t211 84t88 233t-87 233t-212 83zM537 -25
q-195 0 -323 127t-128 321q0 195 128 321t323 126t323 -127t127 -321q1 -194 -127 -320q-128 -127 -323 -127z" />
    <glyph glyph-name="odieresis" unicode="&#xf6;" horiz-adv-x="1073" 
d="M612 1126q0 41 31 72t72 31t71 -31t31 -72q0 -42 -31 -72q-32 -30 -72 -30t-71 30t-31 72zM256 1126q0 41 31 72t71 31t72 -31q31 -31 31 -72q0 -42 -31 -72t-72 -30q-42 0 -72 30t-30 72zM537 739q-125 0 -212 -85t-87 -232q0 -148 88 -232t211 -84t211 84t88 233
t-87 233t-212 83zM537 -25q-195 0 -323 127t-128 321q0 195 128 321t323 126t323 -127t127 -321q1 -194 -127 -320q-128 -127 -323 -127z" />
    <glyph glyph-name="divide" unicode="&#xf7;" 
d="M68 614v136h888v-136h-888zM412 309q0 41 29 71q30 30 71 30t71 -30q29 -30 29 -71t-30 -71t-70 -29q-40 -1 -70 29t-30 71zM412 1055q0 41 30 71t70 29q41 0 71 -30q29 -31 29 -71t-30 -70t-70 -30q-41 0 -71 30q-29 30 -29 71z" />
    <glyph glyph-name="oslash" unicode="&#xf8;" horiz-adv-x="1073" 
d="M836 422q0 96 -45 176l-424 -438q73 -54 183 -54t198 83t88 233zM520 739q-108 0 -195 -84t-87 -233q-1 -90 38 -168l424 438q-72 47 -180 47zM987 406q0 -179 -128 -305t-304 -126t-293 86l-125 -122l-94 92l125 123q-82 115 -82 268q0 196 128 322t323 126
q158 0 266 -82l125 123l90 -92l-121 -121q90 -113 90 -292z" />
    <glyph glyph-name="ugrave" unicode="&#xf9;" horiz-adv-x="954" 
d="M489 1018l-276 276l152 70l215 -297zM287 850v-496q0 -128 46 -188t144 -60q99 0 145 60t46 188v496h147v-512q0 -172 -78 -256q-100 -106 -260 -106t-260 106q-78 84 -78 256v512h148z" />
    <glyph glyph-name="uacute" unicode="&#xfa;" horiz-adv-x="954" 
d="M586 1364l151 -70l-274 -276l-92 49zM287 850v-496q0 -128 46 -188t144 -60q99 0 145 60t46 188v496h147v-512q0 -172 -78 -256q-100 -106 -260 -106t-260 106q-78 84 -78 256v512h148z" />
    <glyph glyph-name="ucircumflex" unicode="&#xfb;" horiz-adv-x="954" 
d="M477 1184l-188 -166l-94 74l282 247l283 -247l-94 -74zM287 850v-496q0 -128 46 -188t144 -60q99 0 145 60t46 188v496h147v-512q0 -172 -78 -256q-100 -106 -260 -106t-260 106q-78 84 -78 256v512h148z" />
    <glyph glyph-name="udieresis" unicode="&#xfc;" horiz-adv-x="954" 
d="M553 1126q0 41 31 72q32 31 72 31t71 -31t31 -72q0 -42 -31 -72t-72 -30t-71 30t-31 72zM197 1126q0 41 30 72q31 31 72 31t72 -31t31 -72q0 -42 -32 -72q-30 -30 -71 -30t-71 30t-31 72zM287 850v-496q0 -128 46 -188t144 -60q99 0 145 60t46 188v496h147v-512
q0 -172 -78 -256q-100 -106 -260 -106t-260 106q-78 84 -78 256v512h148z" />
    <glyph glyph-name="yacute" unicode="&#xfd;" horiz-adv-x="942" 
d="M598 1364l152 -70l-275 -276l-92 49zM137 -471l271 551l-392 770h168l301 -608l277 608h164l-625 -1321h-164z" />
    <glyph glyph-name="thorn" unicode="&#xfe;" horiz-adv-x="1077" 
d="M561 739q-111 0 -197 -86t-85 -225q1 -138 79 -230t204 -92t202 92t76 230q0 139 -84 225t-195 86zM287 -471h-148v1964h148v-762q113 139 297 139t296 -134t112 -317t-111 -314q-111 -129 -297 -129t-297 143v-590z" />
    <glyph glyph-name="ydieresis" unicode="&#xff;" horiz-adv-x="942" 
d="M567 1126q0 41 31 72t72 31q42 0 72 -31t30 -72q0 -42 -31 -72t-71 -30t-72 30q-31 30 -31 72zM211 1126q0 41 31 72q32 31 72 31t71 -31t31 -72q0 -42 -31 -72t-72 -30t-71 30t-31 72zM137 -471l271 551l-392 770h168l301 -608l277 608h164l-625 -1321h-164z" />
    <glyph glyph-name="Amacron" unicode="&#x100;" horiz-adv-x="1273" 
d="M317 1501v131h656v-131h-656zM408 528h462l-229 547zM1090 0l-160 385h-582l-164 -385h-168l629 1432l612 -1432h-167z" />
    <glyph glyph-name="amacron" unicode="&#x101;" horiz-adv-x="1077" 
d="M231 1051v123h619v-123h-619zM799 434q0 142 -86 224t-200 81q-114 0 -195 -83q-80 -83 -80 -227t74 -233q74 -90 204 -90q129 0 206 92q77 94 77 236zM791 850h147v-850h-147v119q-111 -143 -287 -143t-297 118q-121 119 -121 330t120 329q120 117 300 117t285 -141v121
z" />
    <glyph glyph-name="Abreve" unicode="&#x102;" horiz-adv-x="1273" 
d="M645 1608q78 0 123 34t59 80h136q-14 -80 -64 -137q-94 -109 -254 -109t-254 109q-49 57 -63 137h135q14 -46 59 -80t123 -34zM408 528h462l-229 547zM1090 0l-160 385h-582l-164 -385h-168l629 1432l612 -1432h-167z" />
    <glyph glyph-name="abreve" unicode="&#x103;" horiz-adv-x="1077" 
d="M549 1141q74 0 116 38t56 85h125q-12 -66 -60 -138q-84 -108 -238 -108t-237 108q-47 72 -59 138h125q14 -47 56 -85t116 -38zM799 434q0 142 -86 224t-200 81q-114 0 -195 -83q-80 -83 -80 -227t74 -233q74 -90 204 -90q129 0 206 92q77 94 77 236zM791 850h147v-850
h-147v119q-111 -143 -287 -143t-297 118q-121 119 -121 330t120 329q120 117 300 117t285 -141v121z" />
    <glyph glyph-name="Aogonek" unicode="&#x104;" horiz-adv-x="1273" 
d="M408 528h462l-229 547zM1073 -182q0 -35 27 -60q27 -24 79 -24t99 26l-16 -120q-55 -29 -132 -29q-76 0 -132 51t-56 122t44 127t104 89l-160 385h-582l-164 -385h-168l629 1432l612 -1432h-40q-144 -89 -144 -182z" />
    <glyph glyph-name="aogonek" unicode="&#x105;" horiz-adv-x="1077" 
d="M799 422q0 144 -80 230q-80 87 -200 87q-121 0 -201 -87q-80 -86 -80 -238t84 -230t196 -78t189 76q92 96 92 240zM495 -25q-171 0 -288 117q-121 127 -121 335t118 326q118 117 298 117t289 -141v121h147v-850h-29q-49 -29 -96 -81t-47 -103q0 -84 106 -82q55 0 99 26
l-17 -112q-48 -29 -128 -29t-132 51t-51 121q0 123 148 209v119q-125 -144 -296 -144z" />
    <glyph glyph-name="Cacute" unicode="&#x106;" horiz-adv-x="1323" 
d="M926 1806l143 -92l-313 -239l-88 65zM806 1245q-236 0 -392 -165q-156 -166 -156 -414t171 -398t380 -149q131 0 235 53t177 125v-188q-186 -133 -412 -134q-303 0 -505 203t-202 504t204 504t511 203q226 -1 404 -136v-188q-180 180 -415 180z" />
    <glyph glyph-name="cacute" unicode="&#x107;" horiz-adv-x="897" 
d="M598 1364l152 -70l-275 -276l-92 49zM539 739q-125 0 -213 -85t-88 -232q0 -148 88 -232t211 -84q164 0 274 134v-177q-121 -88 -270 -88q-199 0 -327 126t-128 320q0 193 129 321t326 128q147 0 264 -82v-176q-100 127 -266 127z" />
    <glyph glyph-name="Ccircumflex" unicode="&#x108;" horiz-adv-x="1323" 
d="M819 1632l-180 -155l-107 84l287 243l287 -243l-107 -84zM806 1245q-236 0 -392 -165q-156 -166 -156 -414t171 -398t380 -149q131 0 235 53t177 125v-188q-186 -133 -412 -134q-303 0 -505 203t-202 504t204 504t511 203q226 -1 404 -136v-188q-180 180 -415 180z" />
    <glyph glyph-name="ccircumflex" unicode="&#x109;" horiz-adv-x="897" 
d="M532 1184l-188 -166l-94 74l282 247l283 -247l-94 -74zM539 739q-125 0 -213 -85t-88 -232q0 -148 88 -232t211 -84q164 0 274 134v-177q-121 -88 -270 -88q-199 0 -327 126t-128 320q0 193 129 321t326 128q147 0 264 -82v-176q-100 127 -266 127z" />
    <glyph glyph-name="Cdotaccent" unicode="&#x10a;" horiz-adv-x="1323" 
d="M692 1606q0 49 32 81q32 31 81 31t81 -32t32 -80q0 -49 -32 -81t-81 -32t-81 32t-32 81zM806 1245q-236 0 -392 -165q-156 -166 -156 -414t171 -398t380 -149q131 0 235 53t177 125v-188q-186 -133 -412 -134q-303 0 -505 203t-202 504t204 504t511 203q226 -1 404 -136
v-188q-180 180 -415 180z" />
    <glyph glyph-name="cdotaccent" unicode="&#x10b;" horiz-adv-x="897" 
d="M432 1133q0 47 32 77t77 31q45 0 77 -31q32 -32 31 -78q0 -46 -32 -77q-33 -31 -77 -31t-76 31t-32 78zM539 739q-125 0 -213 -85t-88 -232q0 -148 88 -232t211 -84q164 0 274 134v-177q-121 -88 -270 -88q-199 0 -327 126t-128 320q0 193 129 321t326 128q147 0 264 -82
v-176q-100 127 -266 127z" />
    <glyph glyph-name="Ccaron" unicode="&#x10c;" horiz-adv-x="1323" 
d="M819 1649l180 155l107 -84l-287 -243l-287 243l107 84zM806 1245q-236 0 -392 -165q-156 -166 -156 -414t171 -398t380 -149q131 0 235 53t177 125v-188q-186 -133 -412 -134q-303 0 -505 203t-202 504t204 504t511 203q226 -1 404 -136v-188q-180 180 -415 180z" />
    <glyph glyph-name="ccaron" unicode="&#x10d;" horiz-adv-x="897" 
d="M532 1174l189 165l94 -73l-283 -248l-282 248l94 73zM539 739q-125 0 -213 -85t-88 -232q0 -148 88 -232t211 -84q164 0 274 134v-177q-121 -88 -270 -88q-199 0 -327 126t-128 320q0 193 129 321t326 128q147 0 264 -82v-176q-100 127 -266 127z" />
    <glyph glyph-name="Dcaron" unicode="&#x10e;" horiz-adv-x="1294" 
d="M573 1649l181 155l106 -84l-287 -243l-286 243l106 84zM328 1223v-1080h133q244 0 391 123q184 156 184 409t-157 400q-158 147 -418 148h-133zM176 0v1366h279q315 0 503 -160q234 -195 234 -519t-240 -529q-98 -84 -211 -121t-288 -37h-277z" />
    <glyph glyph-name="dcaron" unicode="&#x10f;" horiz-adv-x="1220" 
d="M1024 1085l106 328l132 -49l-144 -320zM799 434q0 142 -86 224t-200 81q-114 0 -195 -83q-80 -83 -80 -227t74 -233q74 -90 204 -90q129 0 206 92q77 94 77 236zM791 1493h147v-1493h-147v119q-111 -143 -287 -143t-297 118q-121 119 -121 330t120 329q120 117 300 117
t285 -141v764z" />
    <glyph glyph-name="Dcroat" unicode="&#x110;" horiz-adv-x="1294" 
d="M328 1223v-404h278v-131h-278v-545h133q244 0 391 123q184 156 184 409t-157 400q-158 147 -418 148h-133zM176 0v688h-176v131h176v547h279q315 0 503 -160q234 -195 234 -519t-240 -529q-98 -84 -211 -121t-288 -37h-277z" />
    <glyph glyph-name="dcroat" unicode="&#x111;" horiz-adv-x="1077" 
d="M799 436q0 144 -84 224t-200 79q-116 0 -197 -83q-80 -83 -80 -227t74 -233q74 -90 204 -90q129 0 206 92q77 94 77 238zM791 1135h-410v122h410v236h147v-236h139v-122h-139v-1135h-147v119q-111 -143 -287 -143t-297 118q-121 119 -121 330t120 329q120 117 300 117
t285 -141v406z" />
    <glyph glyph-name="Emacron" unicode="&#x112;" horiz-adv-x="987" 
d="M205 1501v131h655v-131h-655zM885 1366v-143h-557v-406h540v-143h-540v-531h557v-143h-709v1366h709z" />
    <glyph glyph-name="emacron" unicode="&#x113;" horiz-adv-x="985" 
d="M186 1051v123h619v-123h-619zM498 739q-92 -1 -163 -63t-87 -158h500q-18 100 -88 160t-162 61zM86 407q0 207 112 335t312 128t309 -155q86 -123 80 -320h-661q2 -129 80 -209t184 -80t172 56t96 123l123 -68q-127 -241 -391 -241q-168 0 -292 111q-124 112 -124 320z
" />
    <glyph glyph-name="Edotaccent" unicode="&#x116;" horiz-adv-x="987" 
d="M420 1606q0 49 32 81q32 31 80 31t81 -32q32 -32 32 -80q0 -49 -32 -81t-81 -32q-48 0 -80 32t-32 81zM885 1366v-143h-557v-406h540v-143h-540v-531h557v-143h-709v1366h709z" />
    <glyph glyph-name="edotaccent" unicode="&#x117;" horiz-adv-x="985" 
d="M387 1133q0 47 32 77t77 31q44 0 76 -31q32 -32 32 -78t-32 -77t-76 -31t-77 31q-32 31 -32 78zM498 739q-92 -1 -163 -63t-87 -158h500q-18 100 -88 160t-162 61zM86 407q0 207 112 335t312 128t309 -155q86 -123 80 -320h-661q2 -129 80 -209t184 -80t172 56t96 123
l123 -68q-127 -241 -391 -241q-168 0 -292 111q-124 112 -124 320z" />
    <glyph glyph-name="Eogonek" unicode="&#x118;" horiz-adv-x="987" 
d="M659 -182q0 -35 27 -60q27 -24 79 -24t99 26l-16 -120q-55 -29 -132 -29q-76 0 -132 51t-56 124t38 120t102 94h-492v1366h709v-143h-557v-406h540v-143h-540v-531h557v-143h-82q-144 -89 -144 -182z" />
    <glyph glyph-name="eogonek" unicode="&#x119;" horiz-adv-x="987" 
d="M250 518h500q-16 94 -83 158t-170 64t-166 -68q-63 -66 -81 -154zM510 106q172 0 262 179l123 -68q-35 -74 -90 -122t-129 -92q-164 -97 -164 -177q0 -94 106 -92q47 0 99 26l-17 -112q-52 -29 -130 -29t-130 49t-51 123q0 102 109 184q-170 0 -291 117t-121 329t119 331
q119 118 296 118t289 -114t111 -361h-663q4 -131 78 -210t194 -79z" />
    <glyph glyph-name="Ecaron" unicode="&#x11a;" horiz-adv-x="987" 
d="M532 1649l181 155l106 -84l-287 -243l-286 243l106 84zM885 1366v-143h-557v-406h540v-143h-540v-531h557v-143h-709v1366h709z" />
    <glyph glyph-name="ecaron" unicode="&#x11b;" horiz-adv-x="985" 
d="M496 1174l188 165l94 -73l-282 -248l-283 248l94 73zM498 739q-92 -1 -163 -63t-87 -158h500q-18 100 -88 160t-162 61zM86 407q0 207 112 335t312 128t309 -155q86 -123 80 -320h-661q2 -129 80 -209t184 -80t172 56t96 123l123 -68q-127 -241 -391 -241
q-168 0 -292 111q-124 112 -124 320z" />
    <glyph glyph-name="Gcircumflex" unicode="&#x11c;" horiz-adv-x="1552" 
d="M811 1632l-180 -155l-107 84l287 243l287 -243l-107 -84zM817 1245q-243 0 -401 -162t-158 -403q0 -176 86 -308t210 -192t259 -61q135 0 247 62q112 63 167 159t59 203h-405v143h569v-33q0 -254 -131 -432q-183 -246 -497 -246t-517 204t-203 503t204 503t509 204
q354 0 576 -297l-113 -103q-180 256 -461 256z" />
    <glyph glyph-name="gcircumflex" unicode="&#x11d;" horiz-adv-x="1077" 
d="M539 1184l-189 -166l-94 74l283 247l282 -247l-94 -74zM518 739q-116 0 -198 -84q-82 -83 -82 -237t96 -242q76 -70 186 -70t182 72q96 92 97 246q0 154 -83 234t-198 81zM791 850h147v-830q0 -223 -82 -333q-117 -158 -340 -158q-188 0 -301 113t-113 276h146
q0 -102 70 -180t212 -78t213 119q47 76 48 217v123q-111 -143 -289 -143t-297 118q-119 119 -119 329t121 329q121 118 298 118t286 -141v121z" />
    <glyph glyph-name="Gbreve" unicode="&#x11e;" horiz-adv-x="1552" 
d="M811 1608q78 0 123 34t59 80h135q-14 -80 -63 -137q-94 -109 -254 -109t-254 109q-49 57 -63 137h135q14 -46 59 -80t123 -34zM817 1245q-243 0 -401 -162t-158 -403q0 -176 86 -308t210 -192t259 -61q135 0 247 62q112 63 167 159t59 203h-405v143h569v-33
q0 -254 -131 -432q-183 -246 -497 -246t-517 204t-203 503t204 503t509 204q354 0 576 -297l-113 -103q-180 256 -461 256z" />
    <glyph glyph-name="gbreve" unicode="&#x11f;" horiz-adv-x="1077" 
d="M539 1141q74 0 116 38t56 85h125q-12 -66 -60 -138q-84 -108 -238 -108t-237 108q-47 72 -59 138h125q14 -47 56 -85t116 -38zM518 739q-116 0 -198 -84q-82 -83 -82 -237t96 -242q76 -70 186 -70t182 72q96 92 97 246q0 154 -83 234t-198 81zM791 850h147v-830
q0 -223 -82 -333q-117 -158 -340 -158q-188 0 -301 113t-113 276h146q0 -102 70 -180t212 -78t213 119q47 76 48 217v123q-111 -143 -289 -143t-297 118q-119 119 -119 329t121 329q121 118 298 118t286 -141v121z" />
    <glyph glyph-name="Gdotaccent" unicode="&#x120;" horiz-adv-x="1552" 
d="M705 1606q0 49 31 81q32 31 81 31t81 -32t32 -80q0 -49 -32 -81t-81 -32t-81 32q-31 32 -31 81zM817 1245q-243 0 -401 -162t-158 -403q0 -176 86 -308t210 -192t259 -61q135 0 247 62q112 63 167 159t59 203h-405v143h569v-33q0 -254 -131 -432q-183 -246 -497 -246
t-517 204t-203 503t204 503t509 204q354 0 576 -297l-113 -103q-180 256 -461 256z" />
    <glyph glyph-name="gdotaccent" unicode="&#x121;" horiz-adv-x="1077" 
d="M395 1133q0 47 32 77t77 31q45 0 77 -31q31 -32 31 -78t-32 -77t-76 -31q-45 0 -77 31t-32 78zM518 739q-116 0 -198 -84q-82 -83 -82 -237t96 -242q76 -70 186 -70t182 72q96 92 97 246q0 154 -83 234t-198 81zM791 850h147v-830q0 -223 -82 -333q-117 -158 -340 -158
q-188 0 -301 113t-113 276h146q0 -102 70 -180t212 -78t213 119q47 76 48 217v123q-111 -143 -289 -143t-297 118q-119 119 -119 329t121 329q121 118 298 118t286 -141v121z" />
    <glyph glyph-name="Gcommaaccent" unicode="&#x122;" horiz-adv-x="1552" 
d="M651 -430l115 328l131 -50l-143 -319zM817 1245q-243 0 -401 -162t-158 -403q0 -176 86 -308t210 -192t259 -61q135 0 247 62q112 63 167 159t59 203h-405v143h569v-33q0 -254 -131 -432q-183 -246 -497 -246t-517 204t-203 503t204 503t509 204q354 0 576 -297
l-113 -103q-180 256 -461 256z" />
    <glyph glyph-name="gcommaaccent" unicode="&#x123;" horiz-adv-x="1077" 
d="M645 1331l-115 -327l-131 49l144 319zM518 739q-116 0 -198 -84q-82 -83 -82 -237t96 -242q76 -70 186 -70t182 72q96 92 97 246q0 154 -83 234t-198 81zM791 850h147v-830q0 -223 -82 -333q-117 -158 -340 -158q-188 0 -301 113t-113 276h146q0 -102 70 -180t212 -78
t213 119q47 76 48 217v123q-111 -143 -289 -143t-297 118q-119 119 -119 329t121 329q121 118 298 118t286 -141v121z" />
    <glyph glyph-name="Hcircumflex" unicode="&#x124;" horiz-adv-x="1355" 
d="M678 1632l-180 -155l-107 84l287 243l287 -243l-107 -84zM328 1366v-555h700v555h152v-1366h-152v668h-700v-668h-152v1366h152z" />
    <glyph glyph-name="hcircumflex" unicode="&#x125;" horiz-adv-x="962" 
d="M217 1675l-188 -166l-95 74l283 248l283 -248l-94 -74zM676 522q0 217 -178 217q-94 -1 -152 -69t-59 -226v-444h-148v1493h148v-741q91 118 249 118t238 -116q49 -72 49 -228v-526h-147v522z" />
    <glyph glyph-name="Hbar" unicode="&#x126;" horiz-adv-x="1355" 
d="M1028 1130h-700v-319h700v319zM328 1366v-109h700v109h152v-109h123v-127h-123v-1130h-152v668h-700v-668h-152v1130h-123v127h123v109h152z" />
    <glyph glyph-name="hbar" unicode="&#x127;" horiz-adv-x="962" 
d="M676 522q0 217 -178 217q-94 -1 -152 -69t-59 -226v-444h-148v1135h-139v122h139v236h148v-236h409v-122h-409v-383q91 118 249 118t238 -116q49 -72 49 -228v-526h-147v522z" />
    <glyph glyph-name="Imacron" unicode="&#x12a;" horiz-adv-x="503" 
d="M0 1501v131h504v-131h-504zM176 1366h152v-1366h-152v1366z" />
    <glyph glyph-name="imacron" unicode="&#x12b;" horiz-adv-x="425" 
d="M0 1051v123h426v-123h-426zM139 850h148v-850h-148v850z" />
    <glyph glyph-name="Iogonek" unicode="&#x12e;" horiz-adv-x="503" 
d="M184 -184q0 -82 107 -82q53 0 98 26l-16 -120q-57 -29 -129 -29t-131 48t-59 124t42 130q43 54 105 87h-25v1366h152v-1366q-144 -94 -144 -184z" />
    <glyph glyph-name="iogonek" unicode="&#x12f;" horiz-adv-x="425" 
d="M109 1171q0 43 30 74q31 31 74 31t74 -31t31 -74t-32 -73q-30 -30 -73 -31q-43 1 -73 31t-31 73zM143 -184q0 -82 107 -82q53 0 98 26l-16 -112q-55 -29 -125 -29t-128 47q-59 47 -59 120t44 129t104 85h-29v850h148v-850q-144 -94 -144 -184z" />
    <glyph glyph-name="Idotaccent" unicode="&#x130;" horiz-adv-x="503" 
d="M139 1606q0 49 32 81q32 31 81 31t81 -32t32 -80q0 -49 -32 -81t-81 -32t-81 32t-32 81zM176 1366h152v-1366h-152v1366z" />
    <glyph glyph-name="dotlessi" unicode="&#x131;" horiz-adv-x="425" 
d="M139 850h148v-850h-148v850z" />
    <glyph glyph-name="Jcircumflex" unicode="&#x134;" horiz-adv-x="626" 
d="M369 1632l-181 -155l-106 84l287 243l286 -243l-106 -84zM299 1366h152v-983q1 -74 -3 -118q-10 -128 -86 -209t-222 -81t-234 101l84 119q70 -76 144 -76t120 45t45 215v987z" />
    <glyph glyph-name="jcircumflex" unicode="&#x135;" horiz-adv-x="425" 
d="M213 1171l-154 -137l-88 72l242 217l242 -217l-88 -72zM139 850h148v-1321h-148v1321z" />
    <glyph glyph-name="Kcommaaccent" unicode="&#x136;" horiz-adv-x="1163" 
d="M414 -430l114 328l131 -50l-143 -319zM328 1366v-586l581 586h205l-639 -637l660 -729h-209l-559 627l-39 -39v-588h-152v1366h152z" />
    <glyph glyph-name="kcommaaccent" unicode="&#x137;" horiz-adv-x="864" 
d="M268 -430l115 328l131 -50l-143 -319zM139 1493h148v-958l311 315h193l-365 -365l430 -485h-192l-340 387l-37 -37v-350h-148v1493z" />
    <glyph glyph-name="Lacute" unicode="&#x139;" horiz-adv-x="733" 
d="M496 1806l143 -92l-313 -239l-88 65zM176 1366h152v-1223h377v-143h-529v1366z" />
    <glyph glyph-name="lacute" unicode="&#x13a;" horiz-adv-x="425" 
d="M352 1896l152 -69l-275 -277l-92 49zM139 1493h148v-1493h-148v1493z" />
    <glyph glyph-name="Lcommaaccent" unicode="&#x13b;" horiz-adv-x="733" 
d="M283 -430l114 328l131 -50l-143 -319zM176 1366h152v-1223h377v-143h-529v1366z" />
    <glyph glyph-name="lcommaaccent" unicode="&#x13c;" horiz-adv-x="425" 
d="M49 -430l115 328l131 -50l-143 -319zM139 1493h148v-1493h-148v1493z" />
    <glyph glyph-name="Lcaron" unicode="&#x13d;" horiz-adv-x="733" 
d="M512 1065l106 328l132 -50l-144 -319zM176 1366h152v-1223h377v-143h-529v1366z" />
    <glyph glyph-name="lcaron" unicode="&#x13e;" horiz-adv-x="569" 
d="M373 1085l106 328l131 -49l-143 -320zM139 1493h148v-1493h-148v1493z" />
    <glyph glyph-name="Ldot" unicode="&#x13f;" horiz-adv-x="731" 
d="M496 684q0 49 31 81q32 32 81 32t81 -32t32 -81t-32 -81t-81 -32t-81 32q-31 32 -31 81zM176 1366h152v-1223h377v-143h-529v1366z" />
    <glyph glyph-name="ldot" unicode="&#x140;" horiz-adv-x="643" 
d="M426 748q0 48 31 78t78 30t77 -31t31 -77q0 -46 -31 -78q-32 -31 -78 -31t-77 31t-31 78zM139 1493h148v-1493h-148v1493z" />
    <glyph glyph-name="Lslash" unicode="&#x141;" horiz-adv-x="733" 
d="M176 1366h152v-535l204 132v-132l-204 -131v-557h377v-143h-529v625l-176 -113v131l176 113v610z" />
    <glyph glyph-name="lslash" unicode="&#x142;" horiz-adv-x="425" 
d="M139 1493h148v-471l139 108v-122l-139 -109v-899h-148v805l-139 -109v123l139 109v565z" />
    <glyph glyph-name="Nacute" unicode="&#x143;" horiz-adv-x="1568" 
d="M952 1806l144 -92l-314 -239l-88 65zM328 0h-152v1423l1065 -1116v1059h152v-1427l-1065 1116v-1055z" />
    <glyph glyph-name="nacute" unicode="&#x144;" horiz-adv-x="962" 
d="M639 1364l152 -70l-275 -276l-92 49zM676 522q0 217 -178 217q-94 -1 -152 -69t-59 -226v-444h-148v850h148v-98q91 118 249 118t238 -116q49 -72 49 -228v-526h-147v522z" />
    <glyph glyph-name="Ncommaaccent" unicode="&#x145;" horiz-adv-x="1568" 
d="M631 -430l114 328l132 -50l-144 -319zM328 0h-152v1423l1065 -1116v1059h152v-1427l-1065 1116v-1055z" />
    <glyph glyph-name="ncommaaccent" unicode="&#x146;" horiz-adv-x="962" 
d="M317 -430l115 328l131 -50l-143 -319zM676 522q0 217 -178 217q-94 -1 -152 -69t-59 -226v-444h-148v850h148v-98q91 118 249 118t238 -116q49 -72 49 -228v-526h-147v522z" />
    <glyph glyph-name="Ncaron" unicode="&#x147;" horiz-adv-x="1568" 
d="M784 1649l181 155l106 -84l-287 -243l-286 243l106 84zM328 0h-152v1423l1065 -1116v1059h152v-1427l-1065 1116v-1055z" />
    <glyph glyph-name="ncaron" unicode="&#x148;" horiz-adv-x="962" 
d="M512 1174l188 165l95 -73l-283 -248l-283 248l95 73zM676 522q0 217 -178 217q-94 -1 -152 -69t-59 -226v-444h-148v850h148v-98q91 118 249 118t238 -116q49 -72 49 -228v-526h-147v522z" />
    <glyph glyph-name="Omacron" unicode="&#x14c;" horiz-adv-x="1626" 
d="M485 1501v131h656v-131h-656zM813 1245q-231 0 -393 -164q-162 -163 -162 -399t162 -400t393 -163q231 0 393 164q162 163 162 399t-162 400t-393 163zM813 -25q-299 0 -505 203t-206 505t207 504t504 202t504 -202t207 -504t-206 -505t-505 -203z" />
    <glyph glyph-name="omacron" unicode="&#x14d;" horiz-adv-x="1073" 
d="M227 1051v123h619v-123h-619zM537 739q-125 0 -212 -85t-87 -232q0 -148 88 -232t211 -84t211 84t88 233t-87 233t-212 83zM537 -25q-195 0 -323 127t-128 321q0 195 128 321t323 126t323 -127t127 -321q1 -194 -127 -320q-128 -127 -323 -127z" />
    <glyph glyph-name="Obreve" unicode="&#x14e;" horiz-adv-x="1626" 
d="M813 1608q78 0 123 34t59 80h135q-14 -80 -63 -137q-94 -109 -254 -109t-254 109q-49 57 -63 137h135q14 -46 59 -80t123 -34zM813 1245q-231 0 -393 -164q-162 -163 -162 -399t162 -400t393 -163q231 0 393 164q162 163 162 399t-162 400t-393 163zM813 -25
q-299 0 -505 203t-206 505t207 504t504 202t504 -202t207 -504t-206 -505t-505 -203z" />
    <glyph glyph-name="obreve" unicode="&#x14f;" horiz-adv-x="1073" 
d="M537 1141q73 0 115 38t57 85h125q-12 -66 -60 -138q-84 -108 -238 -108t-237 108q-47 72 -59 138h125q14 -47 56 -85t116 -38zM537 739q-125 0 -212 -85t-87 -232q0 -148 88 -232t211 -84t211 84t88 233t-87 233t-212 83zM537 -25q-195 0 -323 127t-128 321
q0 195 128 321t323 126t323 -127t127 -321q1 -194 -127 -320q-128 -127 -323 -127z" />
    <glyph glyph-name="Ohungarumlaut" unicode="&#x150;" horiz-adv-x="1626" 
d="M1128 1806l144 -82l-301 -249l-88 53zM821 1806l144 -82l-301 -249l-89 53zM813 1245q-231 0 -393 -164q-162 -163 -162 -399t162 -400t393 -163q231 0 393 164q162 163 162 399t-162 400t-393 163zM813 -25q-299 0 -505 203t-206 505t207 504t504 202t504 -202t207 -504
t-206 -505t-505 -203z" />
    <glyph glyph-name="ohungarumlaut" unicode="&#x151;" horiz-adv-x="1073" 
d="M811 1364l143 -66l-276 -278l-84 47zM537 1364l147 -66l-281 -278l-84 47zM537 739q-125 0 -212 -85t-87 -232q0 -148 88 -232t211 -84t211 84t88 233t-87 233t-212 83zM537 -25q-195 0 -323 127t-128 321q0 195 128 321t323 126t323 -127t127 -321q1 -194 -127 -320
q-128 -127 -323 -127z" />
    <glyph glyph-name="OE" unicode="&#x152;" horiz-adv-x="2162" 
d="M810 1245q-228 0 -390 -167t-162 -397t161 -396t390 -166t391 165t162 396t-162 398t-390 167zM2060 1366v-143h-547v-406h533v-143h-533v-531h547v-143h-698v262q-96 -145 -242 -216t-299 -71q-301 0 -510 208t-209 498t209 499t504 209q164 0 307 -75t240 -216v268h698
z" />
    <glyph glyph-name="oe" unicode="&#x153;" horiz-adv-x="1744" 
d="M536 739q-138 0 -218 -94t-80 -223t80 -222q80 -94 208 -94q127 0 216 82t89 226t-78 234q-79 91 -217 91zM1255 739q-96 -1 -165 -59t-89 -160h506q-14 98 -85 158t-167 61zM1659 428v-31h-670q4 -121 82 -206q77 -85 181 -85t170 52t102 131l125 -72
q-57 -106 -157 -174t-230 -68q-60 1 -136 23q-146 43 -221 180q-133 -203 -373 -203q-190 0 -318 129t-128 320q0 190 129 318t324 128q244 0 366 -202q109 203 342 202q190 0 301 -120t111 -322z" />
    <glyph glyph-name="Racute" unicode="&#x154;" horiz-adv-x="1028" 
d="M639 1806l143 -92l-313 -239l-88 65zM328 1223v-490h96q141 0 221 66q80 67 80 195t-109 190q-70 39 -196 39h-92zM176 1366h219q221 0 332 -76q150 -100 150 -303q1 -158 -95 -262t-250 -115l435 -610h-185l-415 598h-39v-598h-152v1366z" />
    <glyph glyph-name="racute" unicode="&#x155;" horiz-adv-x="606" 
d="M516 1364l152 -70l-275 -276l-92 49zM139 0v850h148v-92q72 113 192 112q61 0 131 -34l-69 -134q-41 29 -86 29q-78 1 -123 -59t-45 -223v-449h-148z" />
    <glyph glyph-name="Rcommaaccent" unicode="&#x156;" horiz-adv-x="1028" 
d="M365 -430l114 328l131 -50l-143 -319zM328 1223v-490h96q141 0 221 66q80 67 80 195t-109 190q-70 39 -196 39h-92zM176 1366h219q221 0 332 -76q150 -100 150 -303q1 -158 -95 -262t-250 -115l435 -610h-185l-415 598h-39v-598h-152v1366z" />
    <glyph glyph-name="rcommaaccent" unicode="&#x157;" horiz-adv-x="606" 
d="M133 -430l115 328l131 -50l-143 -319zM139 0v850h148v-92q72 113 192 112q61 0 131 -34l-69 -134q-41 29 -86 29q-78 1 -123 -59t-45 -223v-449h-148z" />
    <glyph glyph-name="Rcaron" unicode="&#x158;" horiz-adv-x="1028" 
d="M471 1649l180 155l107 -84l-287 -243l-287 243l107 84zM328 1223v-490h96q141 0 221 66q80 67 80 195t-109 190q-70 39 -196 39h-92zM176 1366h219q221 0 332 -76q150 -100 150 -303q1 -158 -95 -262t-250 -115l435 -610h-185l-415 598h-39v-598h-152v1366z" />
    <glyph glyph-name="rcaron" unicode="&#x159;" horiz-adv-x="606" 
d="M410 1174l188 165l94 -73l-282 -248l-283 248l94 73zM139 0v850h148v-92q72 113 192 112q61 0 131 -34l-69 -134q-41 29 -86 29q-78 1 -123 -59t-45 -223v-449h-148z" />
    <glyph glyph-name="Sacute" unicode="&#x15a;" horiz-adv-x="1060" 
d="M698 1806l144 -92l-314 -239l-88 65zM548 1245q-98 0 -160 -58q-64 -59 -64 -141t46 -127t148 -90l131 -57q145 -63 211 -129q98 -98 98 -248q0 -186 -122 -303t-308 -117t-299 111q-92 90 -127 242l148 41q14 -102 82 -174q76 -76 202 -76t197 79q72 79 72 184t-68 167
q-39 37 -164 94l-122 57q-125 57 -183 113q-94 89 -94 235t108 243t255 97q263 1 372 -212l-121 -80q-33 63 -79 102q-61 47 -159 47z" />
    <glyph glyph-name="sacute" unicode="&#x15b;" horiz-adv-x="720" 
d="M487 1364l152 -70l-274 -276l-93 49zM371 739q-43 -1 -73 -25t-30 -69t28 -67t110 -56q162 -68 210 -127t48 -141q0 -129 -83 -204t-210 -75q-51 1 -117 23q-132 45 -180 195l127 53q51 -139 172 -140q67 0 103 41t36 83q0 71 -36 97t-101 56q-164 72 -205 123
q-41 50 -41 144t69 157t179 63q161 1 233 -153l-121 -64q-35 86 -118 86z" />
    <glyph glyph-name="Scircumflex" unicode="&#x15c;" horiz-adv-x="1060" 
d="M561 1632l-180 -155l-107 84l287 243l287 -243l-107 -84zM548 1245q-98 0 -160 -58q-64 -59 -64 -141t46 -127t148 -90l131 -57q145 -63 211 -129q98 -98 98 -248q0 -186 -122 -303t-308 -117t-299 111q-92 90 -127 242l148 41q14 -102 82 -174q76 -76 202 -76t197 79
q72 79 72 184t-68 167q-39 37 -164 94l-122 57q-125 57 -183 113q-94 89 -94 235t108 243t255 97q263 1 372 -212l-121 -80q-33 63 -79 102q-61 47 -159 47z" />
    <glyph glyph-name="scircumflex" unicode="&#x15d;" horiz-adv-x="720" 
d="M377 1184l-189 -166l-94 74l283 247l282 -247l-94 -74zM371 739q-43 -1 -73 -25t-30 -69t28 -67t110 -56q162 -68 210 -127t48 -141q0 -129 -83 -204t-210 -75q-51 1 -117 23q-132 45 -180 195l127 53q51 -139 172 -140q67 0 103 41t36 83q0 71 -36 97t-101 56
q-164 72 -205 123q-41 50 -41 144t69 157t179 63q161 1 233 -153l-121 -64q-35 86 -118 86z" />
    <glyph glyph-name="Scedilla" unicode="&#x15e;" horiz-adv-x="1060" 
d="M520 -106l144 -62l-213 -262l-103 53zM548 1245q-98 0 -160 -58q-64 -59 -64 -141t46 -127t148 -90l131 -57q145 -63 211 -129q98 -98 98 -248q0 -186 -122 -303t-308 -117t-299 111q-92 90 -127 242l148 41q14 -102 82 -174q76 -76 202 -76t197 79q72 79 72 184t-68 167
q-39 37 -164 94l-122 57q-125 57 -183 113q-94 89 -94 235t108 243t255 97q263 1 372 -212l-121 -80q-33 63 -79 102q-61 47 -159 47z" />
    <glyph glyph-name="scedilla" unicode="&#x15f;" horiz-adv-x="720" 
d="M360 -106l136 -56l-207 -262l-101 49zM371 739q-43 -1 -73 -25t-30 -69t28 -67t110 -56q162 -68 210 -127t48 -141q0 -129 -83 -204t-210 -75q-51 1 -117 23q-132 45 -180 195l127 53q51 -139 172 -140q67 0 103 41t36 83q0 71 -36 97t-101 56q-164 72 -205 123
q-41 50 -41 144t69 157t179 63q161 1 233 -153l-121 -64q-35 86 -118 86z" />
    <glyph glyph-name="Scaron" unicode="&#x160;" horiz-adv-x="1060" 
d="M561 1649l180 155l107 -84l-287 -243l-287 243l107 84zM548 1245q-98 0 -160 -58q-64 -59 -64 -141t46 -127t148 -90l131 -57q145 -63 211 -129q98 -98 98 -248q0 -186 -122 -303t-308 -117t-299 111q-92 90 -127 242l148 41q14 -102 82 -174q76 -76 202 -76t197 79
q72 79 72 184t-68 167q-39 37 -164 94l-122 57q-125 57 -183 113q-94 89 -94 235t108 243t255 97q263 1 372 -212l-121 -80q-33 63 -79 102q-61 47 -159 47z" />
    <glyph glyph-name="scaron" unicode="&#x161;" horiz-adv-x="720" 
d="M377 1174l188 165l94 -73l-282 -248l-283 248l94 73zM371 739q-43 -1 -73 -25t-30 -69t28 -67t110 -56q162 -68 210 -127t48 -141q0 -129 -83 -204t-210 -75q-51 1 -117 23q-132 45 -180 195l127 53q51 -139 172 -140q67 0 103 41t36 83q0 71 -36 97t-101 56
q-164 72 -205 123q-41 50 -41 144t69 157t179 63q161 1 233 -153l-121 -64q-35 86 -118 86z" />
    <glyph glyph-name="Tcedilla" unicode="&#x162;" horiz-adv-x="872" 
d="M418 -106l143 -62l-213 -262l-102 53zM844 1223h-332v-1223h-152v1223h-331v143h815v-143z" />
    <glyph glyph-name="tcedilla" unicode="&#x163;" horiz-adv-x="438" 
d="M197 -106l135 -56l-207 -262l-100 49zM438 715h-147v-715h-148v715h-90v135h90v307h148v-307h147v-135z" />
    <glyph glyph-name="Tcaron" unicode="&#x164;" horiz-adv-x="872" 
d="M436 1649l180 155l107 -84l-287 -243l-286 243l106 84zM844 1223h-332v-1223h-152v1223h-331v143h815v-143z" />
    <glyph glyph-name="tcaron" unicode="&#x165;" horiz-adv-x="565" 
d="M369 1085l106 328l131 -49l-143 -320zM438 715h-147v-715h-148v715h-90v135h90v307h148v-307h147v-135z" />
    <glyph glyph-name="Utilde" unicode="&#x168;" horiz-adv-x="1323" 
d="M527 1591q-33 -1 -59 -29t-34 -61l-90 74q20 53 68 100t112 47t148 -43t118 -43t62 26q27 26 39 62l88 -71q-18 -49 -53 -84q-61 -63 -144 -64q-47 0 -135 43t-120 43zM328 1366v-838q0 -78 3 -120t29 -106q26 -62 76 -105q92 -78 226 -78t225 78q51 43 77 105t28 106
t3 120v838h152v-879q0 -209 -86 -327q-63 -86 -167 -135t-232 -49t-232 48q-104 50 -168 136q-86 119 -86 327v879h152z" />
    <glyph glyph-name="utilde" unicode="&#x169;" horiz-adv-x="954" 
d="M350 1106q-54 0 -102 -88l-86 69q35 55 69 93q51 49 115 49t144 -41t116 -41q60 0 103 88l84 -70q-16 -43 -54 -80q-59 -61 -123 -61t-150 41q-87 41 -116 41zM287 850v-496q0 -128 46 -188t144 -60q99 0 145 60t46 188v496h147v-512q0 -172 -78 -256
q-100 -106 -260 -106t-260 106q-78 84 -78 256v512h148z" />
    <glyph glyph-name="Umacron" unicode="&#x16a;" horiz-adv-x="1323" 
d="M334 1501v131h655v-131h-655zM328 1366v-838q0 -78 3 -120t29 -106q26 -62 76 -105q92 -78 226 -78t225 78q51 43 77 105t28 106t3 120v838h152v-879q0 -209 -86 -327q-63 -86 -167 -135t-232 -49t-232 48q-104 50 -168 136q-86 119 -86 327v879h152z" />
    <glyph glyph-name="umacron" unicode="&#x16b;" horiz-adv-x="954" 
d="M168 1051v123h618v-123h-618zM287 850v-496q0 -128 46 -188t144 -60q99 0 145 60t46 188v496h147v-512q0 -172 -78 -256q-100 -106 -260 -106t-260 106q-78 84 -78 256v512h148z" />
    <glyph glyph-name="Ubreve" unicode="&#x16c;" horiz-adv-x="1323" 
d="M662 1608q78 0 123 34t59 80h135q-14 -80 -64 -137q-93 -109 -253 -109t-254 109q-49 57 -64 137h135q14 -46 59 -80q46 -34 124 -34zM328 1366v-838q0 -78 3 -120t29 -106q26 -62 76 -105q92 -78 226 -78t225 78q51 43 77 105t28 106t3 120v838h152v-879
q0 -209 -86 -327q-63 -86 -167 -135t-232 -49t-232 48q-104 50 -168 136q-86 119 -86 327v879h152z" />
    <glyph glyph-name="ubreve" unicode="&#x16d;" horiz-adv-x="954" 
d="M477 1141q74 0 116 38t56 85h125q-12 -66 -59 -138q-84 -108 -238 -108t-237 108q-48 72 -60 138h125q14 -47 56 -85t116 -38zM287 850v-496q0 -128 46 -188t144 -60q99 0 145 60t46 188v496h147v-512q0 -172 -78 -256q-100 -106 -260 -106t-260 106q-78 84 -78 256v512
h148z" />
    <glyph glyph-name="Uring" unicode="&#x16e;" horiz-adv-x="1323" 
d="M575 1677q0 -35 26 -61t61 -25q34 0 60 26q26 27 26 61t-26 60t-60 26t-61 -26q-26 -26 -26 -61zM481 1675q-1 74 53 127t128 53t126 -53t54 -127q0 -74 -54 -127t-126 -53q-74 0 -128 53t-53 127zM328 1366v-838q0 -78 3 -120t29 -106q26 -62 76 -105q92 -78 226 -78
t225 78q51 43 77 105t28 106t3 120v838h152v-879q0 -209 -86 -327q-63 -86 -167 -135t-232 -49t-232 48q-104 50 -168 136q-86 119 -86 327v879h152z" />
    <glyph glyph-name="uring" unicode="&#x16f;" horiz-adv-x="954" 
d="M391 1194q0 -34 26 -60q27 -26 61 -26t60 26t26 60t-26 60t-61 26t-61 -26t-25 -60zM301 1194q0 72 52 124t124 52t124 -52t52 -124t-52 -124t-124 -52t-124 52t-52 124zM287 850v-496q0 -128 46 -188t144 -60q99 0 145 60t46 188v496h147v-512q0 -172 -78 -256
q-100 -106 -260 -106t-260 106q-78 84 -78 256v512h148z" />
    <glyph glyph-name="Uhungarumlaut" unicode="&#x170;" horiz-adv-x="1323" 
d="M977 1806l143 -82l-301 -249l-88 53zM670 1806l143 -82l-301 -249l-88 53zM328 1366v-838q0 -78 3 -120t29 -106q26 -62 76 -105q92 -78 226 -78t225 78q51 43 77 105t28 106t3 120v838h152v-879q0 -209 -86 -327q-63 -86 -167 -135t-232 -49t-232 48q-104 50 -168 136
q-86 119 -86 327v879h152z" />
    <glyph glyph-name="uhungarumlaut" unicode="&#x171;" horiz-adv-x="954" 
d="M752 1364l143 -66l-277 -278l-83 47zM477 1364l148 -66l-281 -278l-84 47zM287 850v-496q0 -128 46 -188t144 -60q99 0 145 60t46 188v496h147v-512q0 -172 -78 -256q-100 -106 -260 -106t-260 106q-78 84 -78 256v512h148z" />
    <glyph glyph-name="Uogonek" unicode="&#x172;" horiz-adv-x="1323" 
d="M328 1366v-864q0 -195 88 -285q42 -43 110 -71t136 -27q133 0 225 78q49 43 76 105t29 102q3 40 3 102v860h152v-879q0 -246 -117 -366q-33 -33 -182 -121q-90 -49 -126 -91t-36 -85t27 -67q27 -23 79 -23t99 26l-17 -120q-58 -29 -136 -29t-140 61q-43 46 -43 112
t36 116t71 75q-115 0 -224 45q-262 108 -262 467v879h152z" />
    <glyph glyph-name="uogonek" unicode="&#x173;" horiz-adv-x="954" 
d="M348 -211q0 103 109 186q-145 8 -240 107q-78 84 -78 256v512h148v-496q0 -128 46 -188t144 -60q99 0 145 60t46 188v496h147v-512q0 -176 -78 -256q-29 -29 -109 -77q-157 -94 -157 -189q0 -39 28 -61q28 -21 79 -21t98 26l-17 -112q-49 -29 -129 -29t-130 51
q-52 51 -52 119z" />
    <glyph glyph-name="Ydieresis" unicode="&#x178;" horiz-adv-x="1085" 
d="M633 1606q0 44 31 74q32 30 74 30t73 -31t31 -73t-31 -74q-31 -31 -74 -31t-73 31t-31 74zM244 1606q0 44 30 74t74 30q43 0 74 -31t31 -73t-31 -74q-31 -31 -74 -31t-74 31q-30 31 -30 74zM465 0v588l-449 778h177l348 -610l352 610h176l-453 -778v-588h-151z" />
    <glyph glyph-name="Zacute" unicode="&#x179;" horiz-adv-x="1097" 
d="M717 1806l143 -92l-313 -239l-88 65zM1028 143v-143h-979l746 1223h-650v143h904l-746 -1223h725z" />
    <glyph glyph-name="zacute" unicode="&#x17a;" horiz-adv-x="942" 
d="M598 1364l152 -70l-275 -276l-92 49zM901 135v-135h-885l615 715h-496v135h791l-615 -715h590z" />
    <glyph glyph-name="Zdotaccent" unicode="&#x17b;" horiz-adv-x="1097" 
d="M461 1606q0 49 32 81q33 31 81 31t80 -32t32 -80q0 -49 -32 -81t-81 -32t-81 32t-31 81zM1028 143v-143h-979l746 1223h-650v143h904l-746 -1223h725z" />
    <glyph glyph-name="zdotaccent" unicode="&#x17c;" horiz-adv-x="942" 
d="M403 1133q0 47 32 77t77 31q45 0 77 -31q32 -32 32 -78t-32 -77t-77 -31t-77 31t-32 78zM901 135v-135h-885l615 715h-496v135h791l-615 -715h590z" />
    <glyph glyph-name="Zcaron" unicode="&#x17d;" horiz-adv-x="1097" 
d="M573 1649l181 155l106 -84l-287 -243l-286 243l106 84zM1028 143v-143h-979l746 1223h-650v143h904l-746 -1223h725z" />
    <glyph glyph-name="zcaron" unicode="&#x17e;" horiz-adv-x="942" 
d="M512 1174l188 165l95 -73l-283 -248l-283 248l95 73zM901 135v-135h-885l615 715h-496v135h791l-615 -715h590z" />
    <glyph glyph-name="uni018F" unicode="&#x18f;" horiz-adv-x="1548" 
d="M731 119q197 0 351 120t194 304h-1018q4 -107 59 -203t167 -158t247 -63zM1446 682q0 -299 -202 -503t-503 -204q-170 0 -300 70t-208 176q-131 178 -131 432v33h1188q0 233 -157 396q-158 163 -402 163q-281 0 -461 -256l-112 103q218 296 575 297q305 0 509 -204
t204 -503z" />
    <glyph glyph-name="florin" unicode="&#x192;" horiz-adv-x="1163" 
d="M117 -348q-37 0 -86 8l28 131q29 -4 52 -4q121 0 183 61t97 261l113 618h-148l19 123h151l68 367q28 159 98 229t191 70q70 0 131 -21l-27 -137q-115 50 -184 -10q-41 -41 -66 -172l-61 -326h217l-19 -123h-221l-125 -674q-36 -214 -130 -307q-95 -94 -281 -94z" />
    <glyph glyph-name="uni01CF" unicode="&#x1cf;" horiz-adv-x="503" 
d="M252 1649l180 155l107 -84l-287 -243l-287 243l107 84zM174 1366h152v-1366h-152v1366z" />
    <glyph glyph-name="uni01D0" unicode="&#x1d0;" horiz-adv-x="425" 
d="M213 1186l154 137l88 -72l-242 -217l-242 217l88 72zM139 850h148v-850h-148v850z" />
    <glyph glyph-name="uni01DD" unicode="&#x1dd;" horiz-adv-x="987" 
d="M737 328h-499q16 -98 84 -160t162 -62t166 63q71 63 87 159zM482 870q170 0 294 -112q125 -112 125 -320q0 -207 -113 -335q-112 -128 -312 -128t-312 156q-92 131 -78 320h664q-2 129 -80 209t-188 79q-110 0 -172 -55q-64 -55 -95 -123l-123 68q127 241 390 241z" />
    <glyph glyph-name="Gcaron" unicode="&#x1e6;" horiz-adv-x="1552" 
d="M776 1649l180 155l107 -84l-287 -243l-287 243l107 84zM817 1245q-243 0 -401 -162t-158 -403q0 -176 86 -308t210 -192t259 -61q135 0 247 62q112 63 167 159t59 203h-405v143h569v-33q0 -254 -131 -432q-183 -246 -497 -246t-517 204t-203 503t204 503t509 204
q354 0 576 -297l-113 -103q-180 256 -461 256z" />
    <glyph glyph-name="gcaron" unicode="&#x1e7;" horiz-adv-x="1077" 
d="M539 1174l188 165l94 -73l-282 -248l-283 248l94 73zM518 739q-116 0 -198 -84q-82 -83 -82 -237t96 -242q76 -70 186 -70t182 72q96 92 97 246q0 154 -83 234t-198 81zM791 850h147v-830q0 -223 -82 -333q-117 -158 -340 -158q-188 0 -301 113t-113 276h146
q0 -102 70 -180t212 -78t213 119q47 76 48 217v123q-111 -143 -289 -143t-297 118q-119 119 -119 329t121 329q121 118 298 118t286 -141v121z" />
    <glyph glyph-name="AEacute" unicode="&#x1fc;" horiz-adv-x="1843" 
d="M1090 1806l143 -92l-313 -239l-89 65zM424 526h457l-226 535zM1102 0l-162 383h-582l-161 -383h-168l608 1366h600l59 -143h-551l170 -406h541l60 -143h-537l221 -531h555l60 -143h-713z" />
    <glyph glyph-name="aeacute" unicode="&#x1fd;" horiz-adv-x="1585" 
d="M920 1364l151 -70l-274 -276l-92 49zM458 401q-110 0 -166 -42q-58 -42 -58 -103t50 -105q50 -45 166 -45t171 46t55 103q0 56 -54 101t-164 45zM1098 739q-96 1 -166 -59t-86 -162h502q-14 102 -84 162t-166 59zM1106 -25q-219 0 -334 170q-96 -170 -319 -170
q-158 0 -263 72q-104 72 -104 205t100 207q100 73 248 73t250 -71q4 111 -39 180q-57 98 -203 98q-115 0 -262 -53v139q137 45 264 45q240 0 322 -172q106 172 328 172q186 0 296 -126t109 -334v-15h-663q4 -125 80 -207t174 -82t168 52t108 129l123 -74
q-125 -238 -383 -238z" />
    <glyph glyph-name="Scommaaccent" unicode="&#x218;" horiz-adv-x="1060" 
d="M385 -430l115 328l131 -50l-144 -319zM548 1245q-98 0 -160 -58q-64 -59 -64 -141t46 -127t148 -90l131 -57q145 -63 211 -129q98 -98 98 -248q0 -186 -122 -303t-308 -117t-299 111q-92 90 -127 242l148 41q14 -102 82 -174q76 -76 202 -76t197 79q72 79 72 184t-68 167
q-39 37 -164 94l-122 57q-125 57 -183 113q-94 89 -94 235t108 243t255 97q263 1 372 -212l-121 -80q-33 63 -79 102q-61 47 -159 47z" />
    <glyph glyph-name="scommaaccent" unicode="&#x219;" horiz-adv-x="720" 
d="M225 -430l115 328l131 -50l-143 -319zM371 739q-43 -1 -73 -25t-30 -69t28 -67t110 -56q162 -68 210 -127t48 -141q0 -129 -83 -204t-210 -75q-51 1 -117 23q-132 45 -180 195l127 53q51 -139 172 -140q67 0 103 41t36 83q0 71 -36 97t-101 56q-164 72 -205 123
q-41 50 -41 144t69 157t179 63q161 1 233 -153l-121 -64q-35 86 -118 86z" />
    <glyph glyph-name="Tcommaaccent" unicode="&#x21a;" horiz-adv-x="872" 
d="M262 -430l115 328l131 -50l-143 -319zM844 1223h-332v-1223h-152v1223h-331v143h815v-143z" />
    <glyph glyph-name="tcommaaccent" unicode="&#x21b;" horiz-adv-x="438" 
d="M61 -430l115 328l131 -50l-143 -319zM438 715h-147v-715h-148v715h-90v135h90v307h148v-307h147v-135z" />
    <glyph glyph-name="uni0228" unicode="&#x228;" horiz-adv-x="987" 
d="M522 -106l144 -62l-213 -262l-103 53zM885 1366v-143h-557v-406h540v-143h-540v-531h557v-143h-709v1366h709z" />
    <glyph glyph-name="uni0229" unicode="&#x229;" horiz-adv-x="985" 
d="M524 -106l135 -56l-206 -262l-101 49zM498 739q-92 -1 -163 -63t-87 -158h500q-18 100 -88 160t-162 61zM86 407q0 207 112 335t312 128t309 -155q86 -123 80 -320h-661q2 -129 80 -209t184 -80t172 56t96 123l123 -68q-127 -241 -391 -241q-168 0 -292 111
q-124 112 -124 320z" />
    <glyph glyph-name="uni0237" unicode="&#x237;" horiz-adv-x="425" 
d="M139 850h148v-1321h-148v1321z" />
    <glyph glyph-name="uni0259" unicode="&#x259;" horiz-adv-x="987" 
d="M737 328h-499q16 -98 84 -160t162 -62t166 63q71 63 87 159zM482 870q170 0 294 -112q125 -112 125 -320q0 -207 -113 -335q-112 -128 -312 -128t-312 156q-92 131 -78 320h664q-2 129 -80 209t-188 79q-110 0 -172 -55q-64 -55 -95 -123l-123 68q127 241 390 241z" />
    <glyph glyph-name="afii57929" unicode="&#x2bc;" 
d="M389 1085l107 328l131 -49l-144 -320z" />
    <glyph glyph-name="circumflex" unicode="&#x2c6;" 
d="M512 1184l-188 -166l-95 74l283 247l283 -247l-95 -74z" />
    <glyph glyph-name="caron" unicode="&#x2c7;" 
d="M512 1174l188 165l95 -73l-283 -248l-283 248l95 73z" />
    <glyph glyph-name="uni02C9" unicode="&#x2c9;" 
d="M203 1051v123h618v-123h-618z" />
    <glyph glyph-name="breve" unicode="&#x2d8;" 
d="M512 1141q74 0 116 38t56 85h125q-12 -66 -59 -138q-84 -108 -238 -108t-238 108q-47 72 -59 138h125q14 -47 56 -85t116 -38z" />
    <glyph glyph-name="dotaccent" unicode="&#x2d9;" 
d="M403 1133q0 47 32 77t77 31q45 0 77 -31q32 -32 32 -78t-32 -77t-77 -31t-77 31t-32 78z" />
    <glyph glyph-name="ring" unicode="&#x2da;" 
d="M426 1194q0 -34 27 -60t59 -26t60 26q26 26 26 60t-27 60t-59 26t-60 -26q-26 -26 -26 -60zM336 1194q0 72 52 124t124 52t124 -52t52 -124t-52 -124t-124 -52t-124 52t-52 124z" />
    <glyph glyph-name="ogonek" unicode="&#x2db;" 
d="M541 -184q0 -82 106 -82q53 -1 98 26l-16 -112q-55 -29 -125 -29t-128 47t-58 120t44 129t103 85h119q-143 -93 -143 -184z" />
    <glyph glyph-name="tilde" unicode="&#x2dc;" 
d="M385 1106q-54 0 -102 -88l-86 69q33 55 69 93q50 49 114 49t144 -41t117 -41q59 0 102 88l84 -70q-16 -43 -53 -80q-58 -61 -122 -61t-151 41t-116 41z" />
    <glyph glyph-name="hungarumlaut" unicode="&#x2dd;" 
d="M786 1364l144 -66l-277 -278l-84 47zM512 1364l147 -66l-280 -278l-84 47z" />
    <glyph glyph-name="acutecomb" unicode="&#x301;" horiz-adv-x="4" 
d="M-381 1364l152 -70l-275 -276l-92 49z" />
    <glyph glyph-name="uni0394" unicode="&#x394;" horiz-adv-x="1368" 
d="M684 1176l-410 -1033h820zM1311 0h-1254l549 1366h156z" />
    <glyph glyph-name="uni0394" unicode="&#x2206;" horiz-adv-x="1368" 
d="M684 1176l-410 -1033h820zM1311 0h-1254l549 1366h156z" />
    <glyph glyph-name="uni03A9" unicode="&#x3a9;" horiz-adv-x="1368" 
d="M215 721q0 -378 377 -578v-143h-533v143h367q-152 80 -248 211q-119 164 -119 381q0 301 189 486q168 168 436 168t436 -168q188 -184 189 -486q0 -217 -119 -381q-96 -131 -248 -211h367v-143h-533v143q174 92 273 232q104 152 104 346q0 256 -156 403
q-129 121 -313 121t-313 -121q-156 -147 -156 -403z" />
    <glyph glyph-name="uni03A9" unicode="&#x2126;" horiz-adv-x="1368" 
d="M215 721q0 -378 377 -578v-143h-533v143h367q-152 80 -248 211q-119 164 -119 381q0 301 189 486q168 168 436 168t436 -168q188 -184 189 -486q0 -217 -119 -381q-96 -131 -248 -211h367v-143h-533v143q174 92 273 232q104 152 104 346q0 256 -156 403
q-129 121 -313 121t-313 -121q-156 -147 -156 -403z" />
    <glyph glyph-name="pi" unicode="&#x3c0;" horiz-adv-x="1101" 
d="M356 0h-147v715h-152v135h987v-135h-151v-715h-148v715h-389v-715z" />
    <glyph glyph-name="afii10023" unicode="&#x401;" horiz-adv-x="987" 
d="M618 1606q0 44 31 74t74 30t74 -31t31 -73t-32 -74q-30 -31 -73 -31t-74 31t-31 74zM229 1606q0 44 31 74t74 30t74 -31q30 -31 30 -73t-30 -74q-30 -31 -74 -31q-43 0 -74 31t-31 74zM885 1366v-143h-557v-406h540v-143h-540v-531h557v-143h-709v1366h709z" />
    <glyph glyph-name="afii10051" unicode="&#x402;" horiz-adv-x="1323" 
d="M1081 399q0 293 -307 293q-131 0 -266 -47v-645h-152v1223h-327v143h893v-143h-414v-435q145 47 280 48q246 0 359 -138q90 -111 90 -301q0 -229 -143 -334q-100 -76 -275 -75q-57 0 -139 12v143q57 -12 129 -12q272 0 272 268z" />
    <glyph glyph-name="afii10052" unicode="&#x403;" horiz-adv-x="827" 
d="M659 1806l144 -92l-314 -239l-88 65zM176 0v1366h623v-143h-471v-1223h-152z" />
    <glyph glyph-name="afii10053" unicode="&#x404;" horiz-adv-x="1320" 
d="M764 1245q-207 0 -345 -134t-155 -333h791v-143h-797q-2 -225 150 -371t358 -145q154 0 272 57t181 121v-188q-207 -133 -453 -134q-303 0 -483 199q-181 199 -181 507t184 508t488 200q248 -1 445 -136v-188q-180 180 -455 180z" />
    <glyph glyph-name="afii10054" unicode="&#x405;" horiz-adv-x="1060" 
d="M548 1245q-98 0 -160 -58q-64 -59 -64 -141t46 -127t148 -90l131 -57q145 -63 211 -129q98 -98 98 -248q0 -186 -122 -303t-308 -117t-299 111q-92 90 -127 242l148 41q14 -102 82 -174q76 -76 202 -76t197 79q72 79 72 184t-68 167q-39 37 -164 94l-122 57
q-125 57 -183 113q-94 89 -94 235t108 243t255 97q263 1 372 -212l-121 -80q-33 63 -79 102q-61 47 -159 47z" />
    <glyph glyph-name="afii10055" unicode="&#x406;" horiz-adv-x="503" 
d="M176 1366h152v-1366h-152v1366z" />
    <glyph glyph-name="afii10056" unicode="&#x407;" horiz-adv-x="503" 
d="M289 1606q1 44 27 74t65 30t65 -31t27 -73q0 -42 -27 -74q-28 -31 -66 -31t-65 31q-26 31 -26 74zM31 1606q1 44 27 74t65 30t65 -31t27 -73q0 -42 -27 -74q-28 -31 -66 -31t-65 31q-26 31 -26 74zM176 1366h152v-1366h-152v1366z" />
    <glyph glyph-name="afii10057" unicode="&#x408;" horiz-adv-x="626" 
d="M299 1366h152v-983q1 -74 -3 -118q-10 -128 -86 -209t-222 -81t-234 101l84 119q70 -76 144 -76t120 45t45 215v987z" />
    <glyph glyph-name="afii10058" unicode="&#x409;" horiz-adv-x="1888" 
d="M1323 143q324 0 324 271q0 147 -111 207q-63 35 -229 34h-160v-512h176zM315 1366h832v-567h184q471 0 471 -385q0 -194 -120 -304t-322 -110h-365v1223h-528v-734q0 -96 -2 -144t-32 -135t-89 -140q-92 -82 -233 -82q-33 0 -82 12v143q41 -12 75 -12q80 0 126 45t63 114
q18 69 20 116t2 145v815z" />
    <glyph glyph-name="afii10059" unicode="&#x40a;" horiz-adv-x="1921" 
d="M1356 143q325 0 323 271q0 147 -110 207q-63 35 -230 34h-159v-512h176zM328 1366v-567h700v567h152v-567h184q471 0 471 -385q0 -194 -120 -304t-322 -110h-365v655h-700v-655h-152v1366h152z" />
    <glyph glyph-name="afii10060" unicode="&#x40b;" horiz-adv-x="1388" 
d="M922 1223h-414v-402q190 14 283 15q244 0 337 -74q125 -96 125 -318v-444h-151v424q0 166 -82 225q-57 43 -208 43t-304 -14v-678h-152v1223h-327v143h893v-143z" />
    <glyph glyph-name="afii10061" unicode="&#x40c;" horiz-adv-x="1163" 
d="M750 1806l143 -92l-313 -239l-88 65zM328 1366v-586l581 586h205l-639 -637l660 -729h-209l-559 627l-39 -39v-588h-152v1366h152z" />
    <glyph glyph-name="afii10062" unicode="&#x40e;" horiz-adv-x="1163" 
d="M588 1608q20 0 36 3q73 13 103 43q29 30 41 68l143 -47q-17 -49 -63 -99q-92 -101 -254 -100q-163 1 -244 89q-58 65 -74 110l144 47q24 -79 106 -102q42 -12 62 -12zM16 1366h185l426 -805l356 805h164l-617 -1366h-163l174 381z" />
    <glyph glyph-name="afii10145" unicode="&#x40f;" horiz-adv-x="1347" 
d="M176 0v1366h152v-1223h692v1223h151v-1366h-426v-328h-143v328h-426z" />
    <glyph glyph-name="afii10017" unicode="&#x410;" horiz-adv-x="1273" 
d="M408 528h462l-229 547zM1090 0l-160 385h-582l-164 -385h-168l629 1432l612 -1432h-167z" />
    <glyph glyph-name="afii10018" unicode="&#x411;" horiz-adv-x="1085" 
d="M504 143q325 0 323 271q0 147 -110 207q-63 35 -230 34h-159v-512h176zM176 0v1366h678v-143h-526v-424h184q471 0 471 -385q0 -194 -120 -304t-322 -110h-365z" />
    <glyph glyph-name="afii10019" unicode="&#x412;" horiz-adv-x="1085" 
d="M502 143q329 -1 329 253q0 130 -116 194q-74 41 -232 41h-155v-488h174zM442 766q265 0 269 227q0 63 -25 109t-66 77q-60 44 -174 44h-118v-457h114zM176 1366h246q205 0 313 -86q123 -94 123 -276t-135 -275q131 -33 196 -132t65 -201t-41 -181q-40 -78 -99 -125
q-115 -90 -328 -90h-340v1366z" />
    <glyph glyph-name="afii10020" unicode="&#x413;" horiz-adv-x="827" 
d="M176 0v1366h623v-143h-471v-1223h-152z" />
    <glyph glyph-name="afii10021" unicode="&#x414;" horiz-adv-x="1310" 
d="M446 1223v-537q0 -252 -42 -362t-111 -181h682v1080h-529zM295 1366h831v-1223h156v-430h-143v287h-967v-287h-143v430q142 -3 225 207q41 104 41 336v680z" />
    <glyph glyph-name="afii10022" unicode="&#x415;" horiz-adv-x="987" 
d="M885 1366v-143h-557v-406h540v-143h-540v-531h557v-143h-709v1366h709z" />
    <glyph glyph-name="afii10024" unicode="&#x416;" horiz-adv-x="1658" 
d="M754 1366h151v-586l520 586h189l-574 -637l590 -729h-192l-500 625l-33 -37v-588h-151v588l-33 37l-500 -625h-192l589 729l-573 637h188l521 -586v586z" />
    <glyph glyph-name="afii10025" unicode="&#x417;" horiz-adv-x="1179" 
d="M596 1389q184 -1 290 -97t105 -252q0 -100 -52 -175t-136 -113q133 -31 204 -127t70 -226q0 -213 -170 -333q-131 -90 -314 -90t-306 94t-185 233l148 66q41 -115 135 -183t218 -68t208 58q111 78 111 219q0 268 -365 269h-123v143h123q135 -1 207 65t72 160t-58 154
t-182 59q-172 0 -274 -147l-117 92q133 199 391 199z" />
    <glyph glyph-name="afii10026" unicode="&#x418;" horiz-adv-x="1454" 
d="M1126 0v1042l-950 -1103v1427h152v-1047l950 1104v-1423h-152z" />
    <glyph glyph-name="afii10027" unicode="&#x419;" horiz-adv-x="1454" 
d="M721 1608q21 0 37 3q73 13 102 43t41 68l143 -47q-17 -49 -63 -99q-92 -101 -254 -100q-163 1 -244 89q-57 63 -73 110l143 47q24 -79 106 -102q42 -12 62 -12zM1126 0v1042l-950 -1103v1427h152v-1047l950 1104v-1423h-152z" />
    <glyph glyph-name="afii10028" unicode="&#x41a;" horiz-adv-x="1163" 
d="M328 1366v-586l581 586h205l-639 -637l660 -729h-209l-559 627l-39 -39v-588h-152v1366h152z" />
    <glyph glyph-name="afii10029" unicode="&#x41b;" horiz-adv-x="1323" 
d="M315 1366h832v-1366h-152v1223h-528v-734q0 -96 -2 -144t-32 -135t-89 -140q-92 -82 -233 -82q-33 0 -82 12v143q41 -12 75 -12q80 0 126 45t63 114q18 69 20 116t2 145v815z" />
    <glyph glyph-name="afii10030" unicode="&#x41c;" horiz-adv-x="1767" 
d="M285 0h-156l227 1442l525 -1153l534 1155l213 -1444h-155l-130 950l-464 -1007l-459 1007z" />
    <glyph glyph-name="afii10031" unicode="&#x41d;" horiz-adv-x="1355" 
d="M328 1366v-555h700v555h152v-1366h-152v668h-700v-668h-152v1366h152z" />
    <glyph glyph-name="afii10032" unicode="&#x41e;" horiz-adv-x="1626" 
d="M813 1245q-231 0 -393 -164q-162 -163 -162 -399t162 -400t393 -163q231 0 393 164q162 163 162 399t-162 400t-393 163zM813 -25q-299 0 -505 203t-206 505t207 504t504 202t504 -202t207 -504t-206 -505t-505 -203z" />
    <glyph glyph-name="afii10033" unicode="&#x41f;" horiz-adv-x="1355" 
d="M176 1366h1004v-1366h-152v1223h-700v-1223h-152v1366z" />
    <glyph glyph-name="afii10034" unicode="&#x420;" horiz-adv-x="933" 
d="M328 1223v-486h125q135 0 212 66t76 182q0 238 -301 238h-112zM176 1366h248q233 0 351 -101t118 -275t-108 -284q-108 -112 -324 -112h-133v-594h-152v1366z" />
    <glyph glyph-name="afii10035" unicode="&#x421;" horiz-adv-x="1323" 
d="M806 1245q-236 0 -392 -165q-156 -166 -156 -414t171 -398t380 -149q131 0 235 53t177 125v-188q-186 -133 -412 -134q-303 0 -505 203t-202 504t204 504t511 203q226 -1 404 -136v-188q-180 180 -415 180z" />
    <glyph glyph-name="afii10036" unicode="&#x422;" horiz-adv-x="872" 
d="M844 1223h-332v-1223h-152v1223h-331v143h815v-143z" />
    <glyph glyph-name="afii10037" unicode="&#x423;" horiz-adv-x="1163" 
d="M16 1366h185l426 -805l356 805h164l-617 -1366h-163l174 381z" />
    <glyph glyph-name="afii10038" unicode="&#x424;" horiz-adv-x="1683" 
d="M918 1114v-778h40q134 0 230 35t145 95q94 115 93 259t-93 259q-49 60 -145 95t-230 35h-40zM766 336v778h-41q-362 0 -445 -254q-22 -63 -22 -135q0 -142 92 -259q50 -60 146 -95t229 -35h41zM766 0v193h-37q-145 1 -259 35t-182 87q-183 143 -186 410q0 157 75 283
q44 74 112 127q67 53 181 88t259 34h37v164h152v-164h36q145 -1 259 -35t182 -87q67 -53 111 -127q74 -127 75 -285q0 -158 -75 -281q-44 -74 -112 -127t-181 -88q-114 -35 -259 -34h-36v-193h-152z" />
    <glyph glyph-name="afii10039" unicode="&#x425;" horiz-adv-x="1032" 
d="M29 0l403 707l-366 659h172l282 -514l291 514h172l-375 -659l396 -707h-173l-313 561l-317 -561h-172z" />
    <glyph glyph-name="afii10040" unicode="&#x426;" horiz-adv-x="1355" 
d="M176 0v1366h152v-1223h692v1223h151v-1223h156v-430h-143v287h-1008z" />
    <glyph glyph-name="afii10041" unicode="&#x427;" horiz-adv-x="1208" 
d="M881 0v586q-190 -14 -283 -15q-244 0 -338 74q-125 96 -125 318v403h152v-383q0 -166 82 -225q57 -43 207 -43t305 14v637h151v-1366h-151z" />
    <glyph glyph-name="afii10042" unicode="&#x428;" horiz-adv-x="1888" 
d="M176 0v1366h152v-1223h540v1223h152v-1223h541v1223h151v-1366h-1536z" />
    <glyph glyph-name="afii10043" unicode="&#x429;" horiz-adv-x="1896" 
d="M176 0v1366h152v-1223h540v1223h152v-1223h541v1223h151v-1223h156v-430h-144v287h-1548z" />
    <glyph glyph-name="afii10044" unicode="&#x42a;" horiz-adv-x="1249" 
d="M684 143q324 0 324 271q0 147 -111 207q-63 35 -229 34h-160v-512h176zM356 0v1223h-327v143h479v-567h184q471 0 471 -385q0 -194 -120 -304t-322 -110h-365z" />
    <glyph glyph-name="afii10045" unicode="&#x42b;" horiz-adv-x="1454" 
d="M1126 1366h152v-1366h-152v1366zM504 143q325 0 323 271q0 147 -110 207q-63 35 -230 34h-159v-512h176zM176 0v1366h152v-567h184q471 0 471 -385q0 -194 -120 -304t-322 -110h-365z" />
    <glyph glyph-name="afii10046" unicode="&#x42c;" horiz-adv-x="1069" 
d="M504 143q325 0 323 271q0 147 -110 207q-63 35 -230 34h-159v-512h176zM176 0v1366h152v-567h184q471 0 471 -385q0 -194 -120 -304t-322 -110h-365z" />
    <glyph glyph-name="afii10047" unicode="&#x42d;" horiz-adv-x="1320" 
d="M557 1245q-275 0 -455 -180v188q197 135 445 136q305 0 488 -200t183 -508t-180 -507t-483 -199q-246 0 -453 134v188q61 -63 180 -121t273 -57q207 0 359 145t149 371h-797v143h791q-17 199 -155 333t-345 134z" />
    <glyph glyph-name="afii10048" unicode="&#x42e;" horiz-adv-x="2027" 
d="M1227 1245q-227 0 -384 -162q-157 -161 -157 -401t157 -402t384 -161q227 0 385 162q158 161 158 401t-158 402t-385 161zM328 797h209q37 256 228 424t478 168t485 -199t197 -506q0 -307 -199 -508q-200 -201 -498 -201t-493 199t-205 479h-202v-653h-152v1366h152v-569
z" />
    <glyph glyph-name="afii10049" unicode="&#x42f;" horiz-adv-x="1044" 
d="M717 1223h-148q-163 0 -231 -71q-68 -70 -68 -184t76 -174t211 -61h160v490zM549 1366h319v-1366h-151v598h-82l-389 -598h-185l402 606q-139 14 -230 86q-119 96 -119 272t95 279q111 123 340 123z" />
    <glyph glyph-name="afii10065" unicode="&#x430;" horiz-adv-x="1077" 
d="M799 434q0 142 -86 224t-200 81q-114 0 -195 -83q-80 -83 -80 -227t74 -233q74 -90 204 -90q129 0 206 92q77 94 77 236zM791 850h147v-850h-147v119q-111 -143 -287 -143t-297 118q-121 119 -121 330t120 329q120 117 300 117t285 -141v121z" />
    <glyph glyph-name="afii10066" unicode="&#x431;" horiz-adv-x="1073" 
d="M537 739q-125 0 -212 -85t-87 -232q0 -148 88 -232t211 -84t211 84t88 233t-87 233t-212 83zM987 420q0 -192 -129 -318q-130 -127 -322 -127t-307 107q-143 131 -143 438q0 616 325 744q24 10 40 17t46 14t41 11t45 10q34 7 79 17q105 23 133 101h163q-22 -76 -76 -128
t-98 -70q-50 -21 -161 -47t-151 -47t-62 -38q-78 -58 -126 -164t-53 -225h5q92 155 296 155t329 -129q126 -129 126 -321z" />
    <glyph glyph-name="afii10067" unicode="&#x432;" horiz-adv-x="880" 
d="M651 254q0 127 -176 127h-188v-250h182q94 0 138 33t44 90zM287 504h155q60 0 98 28t38 81q0 54 -41 85q-31 20 -119 21h-131v-215zM139 850h322q117 0 185 -54t67 -160q0 -106 -92 -165q63 -16 106 -57q68 -66 68 -176t-88 -181q-76 -57 -201 -57h-367v850z" />
    <glyph glyph-name="afii10068" unicode="&#x433;" horiz-adv-x="651" 
d="M139 0v850h504v-135h-356v-715h-148z" />
    <glyph glyph-name="afii10069" unicode="&#x434;" horiz-adv-x="942" 
d="M651 135v580h-303v-320q0 -170 -102 -260h405zM201 471v379h598v-715h127v-360h-135v225h-648v-225h-135v360q193 4 193 336z" />
    <glyph glyph-name="afii10070" unicode="&#x435;" horiz-adv-x="985" 
d="M498 739q-92 -1 -163 -63t-87 -158h500q-18 100 -88 160t-162 61zM86 407q0 207 112 335t312 128t309 -155q86 -123 80 -320h-661q2 -129 80 -209t184 -80t172 56t96 123l123 -68q-127 -241 -391 -241q-168 0 -292 111q-124 112 -124 320z" />
    <glyph glyph-name="afii10072" unicode="&#x436;" horiz-adv-x="1220" 
d="M537 850h147v-348l320 348h172l-369 -393l405 -457h-184l-315 358l-29 -28v-330h-147v330l-29 28l-315 -358h-185l406 457l-369 393h172l320 -348v348z" />
    <glyph glyph-name="afii10073" unicode="&#x437;" horiz-adv-x="864" 
d="M442 870q129 0 202 -61t73 -170t-96 -168q61 -14 98 -55q59 -63 59 -156q0 -137 -100 -211t-244 -74t-235 72q-70 51 -113 146l127 53q23 -57 78 -98t137 -42q201 0 203 152q0 127 -191 127h-86v135h72q156 0 156 101q0 120 -146 118q-127 0 -186 -106l-103 84
q104 153 295 153z" />
    <glyph glyph-name="afii10074" unicode="&#x438;" horiz-adv-x="1007" 
d="M139 850h148v-561l581 626v-915h-147v567l-582 -626v909z" />
    <glyph glyph-name="afii10075" unicode="&#x439;" horiz-adv-x="1007" 
d="M510 1141q137 0 174 123l123 -47q-33 -91 -112 -145t-185 -54t-185 54t-112 145l123 47q37 -123 174 -123zM139 850h148v-561l581 626v-915h-147v567l-582 -626v909z" />
    <glyph glyph-name="afii10076" unicode="&#x43a;" horiz-adv-x="864" 
d="M139 850h148v-348l344 348h180l-369 -379l414 -471h-192l-332 373l-45 -43v-330h-148v850z" />
    <glyph glyph-name="afii10077" unicode="&#x43b;" horiz-adv-x="921" 
d="M49 131q137 0 135 201v518h598v-850h-147v715h-303v-383q0 -166 -70 -251t-201 -85q-16 0 -45 4v135q20 -4 33 -4z" />
    <glyph glyph-name="afii10078" unicode="&#x43c;" horiz-adv-x="1187" 
d="M41 0l205 915l352 -692l344 692l205 -915h-152l-112 526l-289 -585l-293 585l-108 -526h-152z" />
    <glyph glyph-name="afii10079" unicode="&#x43d;" horiz-adv-x="974" 
d="M139 0v850h148v-348h401v348h148v-850h-148v367h-401v-367h-148z" />
    <glyph glyph-name="afii10080" unicode="&#x43e;" horiz-adv-x="1073" 
d="M537 739q-125 0 -212 -85t-87 -232q0 -148 88 -232t211 -84t211 84t88 233t-87 233t-212 83zM537 -25q-195 0 -323 127t-128 321q0 195 128 321t323 126t323 -127t127 -321q1 -194 -127 -320q-128 -127 -323 -127z" />
    <glyph glyph-name="afii10081" unicode="&#x43f;" horiz-adv-x="962" 
d="M139 850h684v-850h-147v715h-389v-715h-148v850z" />
    <glyph glyph-name="afii10082" unicode="&#x440;" horiz-adv-x="1077" 
d="M561 739q-111 0 -197 -86t-85 -225q1 -138 79 -230t204 -92t202 92t76 230q0 139 -84 225t-195 86zM287 -471h-148v1321h148v-119q113 139 297 139t296 -134t112 -317t-111 -314q-111 -129 -297 -129t-297 143v-590z" />
    <glyph glyph-name="afii10083" unicode="&#x441;" horiz-adv-x="897" 
d="M539 739q-125 0 -213 -85t-88 -232q0 -148 88 -232t211 -84q164 0 274 134v-177q-121 -88 -270 -88q-199 0 -327 126t-128 320q0 193 129 321t326 128q147 0 264 -82v-176q-100 127 -266 127z" />
    <glyph glyph-name="afii10084" unicode="&#x442;" horiz-adv-x="712" 
d="M696 715h-266v-715h-147v715h-267v135h680v-135z" />
    <glyph glyph-name="afii10085" unicode="&#x443;" horiz-adv-x="942" 
d="M137 -471l271 551l-392 770h168l301 -608l277 608h164l-625 -1321h-164z" />
    <glyph glyph-name="afii10086" unicode="&#x444;" horiz-adv-x="1331" 
d="M739 733v-616q150 0 236 61q119 84 119 253t-127 249q-83 53 -228 53zM592 117v616q-145 0 -227 -53q-127 -80 -127 -249t118 -253q86 -61 236 -61zM592 -471v457q-222 0 -364 114t-142 325q0 210 145 329q131 111 361 110v502h147v-502q229 0 367 -114t139 -325
q0 -210 -141 -325t-365 -114v-457h-147z" />
    <glyph glyph-name="afii10087" unicode="&#x445;" horiz-adv-x="929" 
d="M16 0l363 455l-309 395h180l219 -289l223 289h180l-311 -397l352 -453h-180l-268 346l-268 -346h-181z" />
    <glyph glyph-name="afii10088" unicode="&#x446;" horiz-adv-x="970" 
d="M139 0v850h148v-715h381v715h147v-715h139v-360h-135v225h-680z" />
    <glyph glyph-name="afii10089" unicode="&#x447;" horiz-adv-x="880" 
d="M594 0v334q-121 -18 -201 -19q-139 1 -209 63t-69 208v264h147v-244q0 -70 19 -100q29 -55 124 -55t189 18v381h147v-850h-147z" />
    <glyph glyph-name="afii10090" unicode="&#x448;" horiz-adv-x="1376" 
d="M139 0v850h148v-715h327v715h148v-715h328v715h147v-850h-1098z" />
    <glyph glyph-name="afii10091" unicode="&#x449;" horiz-adv-x="1392" 
d="M139 0v850h148v-715h327v715h148v-715h328v715h147v-715h139v-360h-135v225h-1102z" />
    <glyph glyph-name="afii10092" unicode="&#x44a;" horiz-adv-x="880" 
d="M348 131h137q92 0 131 23q56 38 56 110t-54 105q-37 25 -131 24h-139v-262zM201 0v715h-185v135h332v-326h152q176 0 258 -84q66 -66 66 -182t-76 -186q-76 -72 -250 -72h-297z" />
    <glyph glyph-name="afii10093" unicode="&#x44b;" horiz-adv-x="1150" 
d="M864 0v850h148v-850h-148zM287 131h137q92 0 131 23q55 38 55 110t-53 105q-37 25 -131 24h-139v-262zM139 0v850h148v-326h151q176 0 258 -84q66 -66 66 -182t-76 -186q-76 -72 -250 -72h-297z" />
    <glyph glyph-name="afii10094" unicode="&#x44c;" horiz-adv-x="819" 
d="M287 131h137q92 0 131 23q55 38 55 110t-53 105q-37 25 -131 24h-139v-262zM139 0v850h148v-326h151q176 0 258 -84q66 -66 66 -182t-76 -186q-76 -72 -250 -72h-297z" />
    <glyph glyph-name="afii10095" unicode="&#x44d;" horiz-adv-x="866" 
d="M317 870q215 0 339 -125t124 -323t-126 -322q-126 -125 -326 -125q-127 0 -242 48v143q113 -60 236 -60q122 0 208 73t99 190h-449v131h449q-25 113 -109 176t-200 63t-234 -55v143q106 43 231 43z" />
    <glyph glyph-name="afii10096" unicode="&#x44e;" horiz-adv-x="1413" 
d="M878 739q-124 0 -209 -85q-85 -86 -85 -234t86 -231t208 -83t210 84t88 232t-87 232q-87 85 -211 85zM287 502h153q20 143 115 241q121 127 320 127t325 -127t127 -321q0 -194 -128 -320q-129 -127 -337 -127t-336 160q-82 102 -94 232h-145v-367h-148v850h148v-348z" />
    <glyph glyph-name="afii10097" unicode="&#x44f;" horiz-adv-x="835" 
d="M549 465v254h-137q-96 0 -141 -29q-45 -28 -45 -98q-1 -129 184 -127h139zM399 850h297v-850h-147v342h-90l-242 -342h-176l264 350q-37 0 -87 20q-145 60 -144 218q0 122 76 192t249 70z" />
    <glyph glyph-name="afii10071" unicode="&#x451;" horiz-adv-x="985" 
d="M582 1126q0 41 30 72q31 31 72 31t72 -31q30 -31 30 -72q0 -42 -30 -72t-72 -30t-72 30t-30 72zM225 1126q0 41 31 72t72 31q42 0 72 -31t30 -72q0 -42 -31 -72t-71 -30t-72 30q-31 30 -31 72zM498 739q-92 -1 -163 -63t-87 -158h500q-18 100 -88 160t-162 61zM86 407
q0 207 112 335t312 128t309 -155q86 -123 80 -320h-661q2 -129 80 -209t184 -80t172 56t96 123l123 -68q-127 -241 -391 -241q-168 0 -292 111q-124 112 -124 320z" />
    <glyph glyph-name="afii10099" unicode="&#x452;" horiz-adv-x="962" 
d="M676 440q0 217 -178 217q-94 -1 -152 -69t-59 -226v-362h-148v1053h-139v123h139v317h148v-317h409v-123h-409v-383q91 118 249 118t238 -116q49 -72 49 -228v-620q1 -154 -67 -224t-185 -71q-55 0 -104 18v144q143 -50 190 26q18 31 19 123v600z" />
    <glyph glyph-name="afii10100" unicode="&#x453;" horiz-adv-x="651" 
d="M516 1364l152 -70l-275 -276l-92 49zM139 0v850h504v-135h-356v-715h-148z" />
    <glyph glyph-name="afii10101" unicode="&#x454;" horiz-adv-x="897" 
d="M539 739q-104 0 -190 -64q-85 -65 -105 -175h444v-131h-446q14 -117 98 -190t197 -73q164 0 274 134v-177q-121 -88 -270 -88q-199 0 -327 126t-128 320q0 193 129 321t326 128q147 0 264 -82v-176q-106 127 -266 127z" />
    <glyph glyph-name="afii10102" unicode="&#x455;" horiz-adv-x="720" 
d="M371 739q-43 -1 -73 -25t-30 -69t28 -67t110 -56q162 -68 210 -127t48 -141q0 -129 -83 -204t-210 -75q-51 1 -117 23q-132 45 -180 195l127 53q51 -139 172 -140q67 0 103 41t36 83q0 71 -36 97t-101 56q-164 72 -205 123q-41 50 -41 144t69 157t179 63q161 1 233 -153
l-121 -64q-35 86 -118 86z" />
    <glyph glyph-name="afii10103" unicode="&#x456;" horiz-adv-x="425" 
d="M109 1171q0 43 30 74q31 31 74 31t74 -31t31 -74t-32 -73q-30 -30 -73 -31q-43 1 -73 31t-31 73zM139 850h148v-850h-148v850z" />
    <glyph glyph-name="afii10104" unicode="&#x457;" horiz-adv-x="425" 
d="M236 1174q0 42 26 72t60 30t60 -31t26 -71t-26 -72q-26 -31 -60 -31t-61 31q-25 31 -25 72zM18 1174q0 42 26 72t60 30t61 -31q25 -31 25 -71t-26 -72q-26 -31 -60 -31t-60 31t-26 72zM139 850h148v-850h-148v850z" />
    <glyph glyph-name="afii10105" unicode="&#x458;" horiz-adv-x="425" 
d="M109 1171q0 43 30 74q31 31 74 31t74 -31t31 -74t-32 -73q-30 -30 -73 -31q-43 1 -73 31t-31 73zM139 850h148v-1321h-148v1321z" />
    <glyph glyph-name="afii10106" unicode="&#x459;" horiz-adv-x="1314" 
d="M782 131h138q92 0 131 23q55 38 55 110t-53 105q-37 25 -131 24h-140v-262zM49 131q137 0 135 201v518h598v-326h152q176 0 258 -84q66 -66 66 -182t-76 -186q-76 -72 -250 -72h-297v715h-303v-383q0 -166 -70 -251t-201 -85q-16 0 -45 4v135q20 -4 33 -4z" />
    <glyph glyph-name="afii10107" unicode="&#x45a;" horiz-adv-x="1368" 
d="M836 131h137q92 0 131 23q55 38 55 110t-53 105q-37 25 -131 24h-139v-262zM139 0v850h148v-322h401v322h148v-326h151q176 0 258 -84q66 -66 66 -182t-76 -186q-76 -72 -250 -72h-297v393h-401v-393h-148z" />
    <glyph glyph-name="afii10108" unicode="&#x45b;" horiz-adv-x="962" 
d="M676 440q0 217 -178 217q-94 -1 -152 -69t-59 -226v-362h-148v1053h-139v123h139v317h148v-317h409v-123h-409v-383q91 118 249 118t238 -116q49 -72 49 -228v-444h-147v440z" />
    <glyph glyph-name="afii10109" unicode="&#x45c;" horiz-adv-x="864" 
d="M559 1364l152 -70l-275 -276l-92 49zM139 850h148v-348l344 348h180l-369 -379l414 -471h-192l-332 373l-45 -43v-330h-148v850z" />
    <glyph glyph-name="afii10110" unicode="&#x45e;" horiz-adv-x="942" 
d="M492 1141q138 0 174 123l122 -47q-33 -92 -111 -146q-79 -53 -185 -53t-186 53q-78 54 -111 146l122 47q37 -123 175 -123zM137 -471l271 551l-392 770h168l301 -608l277 608h164l-625 -1321h-164z" />
    <glyph glyph-name="afii10193" unicode="&#x45f;" horiz-adv-x="954" 
d="M139 0v850h148v-715h381v715h147v-850h-270v-246h-135v246h-271z" />
    <glyph glyph-name="afii10146" unicode="&#x462;" horiz-adv-x="1249" 
d="M684 143q324 0 324 271q0 147 -111 207q-63 35 -229 34h-160v-512h176zM356 0v1059h-327v143h327v219h152v-219h369v-143h-369v-260h184q471 0 471 -385q0 -194 -120 -304t-322 -110h-365z" />
    <glyph glyph-name="afii10194" unicode="&#x463;" horiz-adv-x="880" 
d="M348 131h137q92 0 131 23q56 38 56 110t-54 105q-37 25 -131 24h-139v-262zM16 850h185v516h147v-516h246v-135h-246v-191h152q176 0 258 -84q66 -66 66 -182t-76 -186q-76 -72 -250 -72h-297v715h-185v135z" />
    <glyph glyph-name="afii10147" unicode="&#x472;" horiz-adv-x="1622" 
d="M811 119q211 -1 372 143t181 373h-1106q20 -229 181 -373t372 -143zM811 1245q-190 0 -350 -125t-197 -342h1094q-37 217 -197 342t-350 125zM811 -25q-297 0 -503 203t-206 505t206 504t503 202t503 -202t206 -504t-206 -505t-503 -203z" />
    <glyph glyph-name="afii10195" unicode="&#x473;" horiz-adv-x="1073" 
d="M537 106q113 0 197 73t97 190h-589q10 -117 96 -190t199 -73zM537 739q-103 0 -187 -63t-104 -176h581q-20 113 -103 176t-187 63zM537 -25q-195 0 -323 127t-128 321q0 195 128 321t323 126t323 -127t127 -321q1 -194 -127 -320q-128 -127 -323 -127z" />
    <glyph glyph-name="afii10148" unicode="&#x474;" horiz-adv-x="1138" 
d="M16 1366h168l385 -1042l385 1042h168l-553 -1448z" />
    <glyph glyph-name="afii10196" unicode="&#x475;" horiz-adv-x="868" 
d="M16 850h164l254 -574l254 574h164l-418 -905z" />
    <glyph glyph-name="afii10050" unicode="&#x490;" horiz-adv-x="827" 
d="M176 0v1366h479v287h144v-430h-471v-1223h-152z" />
    <glyph glyph-name="afii10098" unicode="&#x491;" horiz-adv-x="671" 
d="M139 0v850h369v225h135v-360h-356v-715h-148z" />
    <glyph glyph-name="uni0492" unicode="&#x492;" horiz-adv-x="827" 
d="M176 0v684h-176v135h176v547h623v-143h-471v-404h278v-135h-278v-684h-152z" />
    <glyph glyph-name="uni0493" unicode="&#x493;" horiz-adv-x="651" 
d="M139 0v385h-139v123h139v342h504v-135h-356v-207h205v-123h-205v-385h-148z" />
    <glyph glyph-name="uni0494" unicode="&#x494;" horiz-adv-x="1142" 
d="M901 399q0 293 -307 293q-131 0 -266 -47v-645h-152v1366h647v-143h-495v-435q145 47 280 48q246 0 359 -138q90 -111 90 -301q0 -229 -144 -334q-100 -76 -274 -75q-57 0 -139 12v143q57 -12 129 -12q272 0 272 268z" />
    <glyph glyph-name="uni0495" unicode="&#x495;" horiz-adv-x="880" 
d="M139 0v850h504v-135h-356v-232h61q225 0 342 -116q104 -109 105 -285q0 -223 -162 -373q-127 -117 -299 -135v143q111 14 196 99q109 102 109 252t-75 216q-75 64 -216 64h-61v-348h-148z" />
    <glyph glyph-name="uni0496" unicode="&#x496;" horiz-adv-x="1658" 
d="M754 1366h151v-586l520 586h189l-574 -637l473 -586h117v-430h-143v287h-49l-500 625l-33 -37v-588h-151v588l-33 37l-500 -625h-192l589 729l-573 637h188l521 -586v586z" />
    <glyph glyph-name="uni0497" unicode="&#x497;" horiz-adv-x="1220" 
d="M537 850h147v-348l320 348h172l-369 -393l287 -322h118v-360h-135v225h-49l-315 358l-29 -28v-330h-147v330l-29 28l-315 -358h-185l406 457l-369 393h172l320 -348v348z" />
    <glyph glyph-name="uni0498" unicode="&#x498;" horiz-adv-x="1179" 
d="M991 1042q0 -104 -55 -180t-133 -110q106 -25 178 -97q96 -97 96 -259q1 -162 -115 -283t-290 -133v-308h-144v308q-158 14 -266 107t-160 216l148 66q33 -92 96 -150q102 -100 257 -100t237 80q82 81 82 199t-80 192t-285 74h-123v143h123q135 0 207 61q72 62 72 160
t-60 158t-180 59q-175 0 -274 -147l-117 92q135 197 383 199q197 1 300 -99t103 -248z" />
    <glyph glyph-name="uni0499" unicode="&#x499;" horiz-adv-x="864" 
d="M451 870q121 0 193 -60t73 -172q0 -112 -96 -167q57 -14 107 -64q50 -51 50 -153t-79 -185t-193 -89v-226h-135v226q-188 16 -285 213l127 53q66 -138 215 -140q201 0 203 152q0 127 -191 127h-86v135h72q74 0 115 27t41 78t-37 83t-107 32q-128 -1 -188 -107l-103 84
q104 153 304 153z" />
    <glyph glyph-name="uni049A" unicode="&#x49a;" horiz-adv-x="1163" 
d="M176 1366h152v-586l581 586h205l-639 -637l531 -586h129v-430h-144v287h-65l-559 627l-39 -39v-588h-152v1366z" />
    <glyph glyph-name="uni049B" unicode="&#x49b;" horiz-adv-x="864" 
d="M139 850h148v-348l344 348h180l-369 -379l295 -336h119v-360h-135v225h-57l-332 373l-45 -43v-330h-148v850z" />
    <glyph glyph-name="uni049C" unicode="&#x49c;" horiz-adv-x="1318" 
d="M176 1366h152v-596h164v287h135v-287l477 596h168l-522 -645l540 -721h-180l-483 635v-307h-135v307h-164v-635h-152v1366z" />
    <glyph glyph-name="uni049D" unicode="&#x49d;" horiz-adv-x="921" 
d="M139 850h148v-348h102v205h123v-205l223 348h160l-268 -408l286 -442h-163l-238 379v-225h-123v225h-102v-379h-148v850z" />
    <glyph glyph-name="uni04A0" unicode="&#x4a0;" horiz-adv-x="1343" 
d="M356 0v1223h-327v143h479v-586l582 586h204l-639 -637l660 -729h-209l-559 627l-39 -39v-588h-152z" />
    <glyph glyph-name="uni04A1" unicode="&#x4a1;" horiz-adv-x="925" 
d="M201 0v715h-185v135h332v-348l344 348h180l-368 -379l414 -471h-193l-332 373l-45 -43v-330h-147z" />
    <glyph glyph-name="uni04A2" unicode="&#x4a2;" horiz-adv-x="1363" 
d="M176 0v1366h152v-555h700v555h152v-1223h155v-430h-143v287h-164v668h-700v-668h-152z" />
    <glyph glyph-name="uni04A3" unicode="&#x4a3;" horiz-adv-x="991" 
d="M139 0v850h148v-348h401v348h148v-715h139v-360h-135v225h-152v367h-401v-367h-148z" />
    <glyph glyph-name="uni04A4" unicode="&#x4a4;" horiz-adv-x="1679" 
d="M176 0v1366h152v-555h700v555h623v-143h-471v-1223h-152v668h-700v-668h-152z" />
    <glyph glyph-name="uni04A5" unicode="&#x4a5;" horiz-adv-x="1200" 
d="M139 0v850h148v-348h401v348h504v-135h-356v-715h-148v367h-401v-367h-148z" />
    <glyph glyph-name="uni04AA" unicode="&#x4aa;" horiz-adv-x="1323" 
d="M810 1245q-232 0 -392 -162q-160 -163 -160 -405t159 -400t387 -159q228 0 417 178v-188q-131 -100 -334 -129v-308h-144v308q-261 16 -451 210t-190 488q0 295 197 503t518 208q240 -1 404 -136v-188q-179 180 -411 180z" />
    <glyph glyph-name="uni04AB" unicode="&#x4ab;" horiz-adv-x="897" 
d="M539 739q-129 0 -215 -86t-86 -225t80 -230q80 -92 232 -92q151 0 261 134v-177q-82 -72 -193 -81v-228h-135v226q-165 12 -281 128t-116 312q0 194 128 322t333 128q141 0 258 -82v-176q-102 127 -266 127z" />
    <glyph glyph-name="uni04AE" unicode="&#x4ae;" horiz-adv-x="1085" 
d="M465 0v588l-449 778h177l348 -610l352 610h176l-453 -778v-588h-151z" />
    <glyph glyph-name="uni04AF" unicode="&#x4af;" horiz-adv-x="868" 
d="M508 -471h-148v575l-344 746h164l254 -574l254 574h164l-344 -746v-575z" />
    <glyph glyph-name="uni04B0" unicode="&#x4b0;" horiz-adv-x="1085" 
d="M465 0v453h-389v135h389l-449 778h177l348 -610l352 610h176l-453 -778h390v-135h-390v-453h-151z" />
    <glyph glyph-name="uni04B1" unicode="&#x4b1;" horiz-adv-x="868" 
d="M508 0h246v-135h-246v-336h-148v336h-245v135h245v104l-344 746h164l254 -574l254 574h164l-344 -746v-104z" />
    <glyph glyph-name="uni04B2" unicode="&#x4b2;" horiz-adv-x="1064" 
d="M1036 143v-430h-143v287h-62l-313 561l-317 -561h-172l403 707l-366 659h172l282 -514l291 514h172l-375 -659l316 -564h112z" />
    <glyph glyph-name="uni04B3" unicode="&#x4b3;" horiz-adv-x="929" 
d="M913 135v-360h-135v225h-45l-268 346l-268 -346h-181l363 455l-309 395h180l219 -289l223 289h180l-311 -397l248 -318h104z" />
    <glyph glyph-name="uni04B6" unicode="&#x4b6;" horiz-adv-x="1216" 
d="M881 0v586q-190 -14 -283 -15q-244 0 -338 74q-125 96 -125 318v403h152v-383q0 -166 82 -225q57 -43 207 -43t305 14v637h151v-1223h156v-430h-144v287h-163z" />
    <glyph glyph-name="uni04B7" unicode="&#x4b7;" horiz-adv-x="897" 
d="M594 0v334q-121 -18 -201 -19q-139 1 -209 63t-69 208v264h147v-244q0 -70 19 -100q29 -55 124 -55t189 18v381h147v-715h140v-360h-136v225h-151z" />
    <glyph glyph-name="uni04B8" unicode="&#x4b8;" horiz-adv-x="1269" 
d="M942 0v586q-96 -6 -237 -13v-286h-136v284q-213 0 -309 74q-125 94 -125 318v403h152v-383q0 -166 82 -225q66 -49 200 -43v301h136v-299q133 4 237 12v637h152v-1366h-152z" />
    <glyph glyph-name="uni04B9" unicode="&#x4b9;" horiz-adv-x="942" 
d="M655 0v334q-61 -12 -131 -12v-209h-123v202q-135 -9 -211 57t-75 214v264h147v-244q0 -72 19 -100q35 -57 120 -53v213h123v-211q59 0 131 14v381h148v-850h-148z" />
    <glyph glyph-name="uni04BA" unicode="&#x4ba;" horiz-adv-x="1208" 
d="M328 1366v-545q190 14 282 15q244 0 338 -74q125 -96 125 -318v-444h-151v424q0 166 -82 225q-57 43 -208 43t-304 -14v-678h-152v1366h152z" />
    <glyph glyph-name="uni04BB" unicode="&#x4bb;" horiz-adv-x="962" 
d="M676 522q0 217 -178 217q-94 -1 -152 -69t-59 -226v-444h-148v1493h148v-741q91 118 249 118t238 -116q49 -72 49 -228v-526h-147v522z" />
    <glyph glyph-name="uni04C0" unicode="&#x4c0;" horiz-adv-x="503" 
d="M176 1366h152v-1366h-152v1366z" />
    <glyph glyph-name="uni04C1" unicode="&#x4c1;" horiz-adv-x="1658" 
d="M751 1623q53 -15 79 -15q25 0 78 15q71 20 96 99l143 -47q-17 -48 -63 -98q-93 -102 -256 -101t-242 89q-58 65 -74 110l143 47q24 -79 96 -99zM754 1366h151v-586l520 586h189l-574 -637l590 -729h-192l-500 625l-33 -37v-588h-151v588l-33 37l-500 -625h-192l589 729
l-573 637h188l521 -586v586z" />
    <glyph glyph-name="uni04C2" unicode="&#x4c2;" horiz-adv-x="1220" 
d="M610 1141q137 0 174 123l123 -47q-33 -92 -111 -146q-80 -53 -186 -53t-185 54t-112 145l123 47q37 -123 174 -123zM537 850h147v-348l320 348h172l-369 -393l405 -457h-184l-315 358l-29 -28v-330h-147v330l-29 28l-315 -358h-185l406 457l-369 393h172l320 -348v348z
" />
    <glyph glyph-name="uni04C3" unicode="&#x4c3;" horiz-adv-x="1196" 
d="M956 207q0 469 -395 469q-113 0 -233 -27v-649h-152v1366h152v-627l581 627h205l-532 -557q248 0 372 -125q156 -154 156 -455t-137 -442q-111 -115 -309 -115q-119 0 -228 43l43 146q78 -45 176 -45q301 0 301 391z" />
    <glyph glyph-name="uni04C4" unicode="&#x4c4;" horiz-adv-x="847" 
d="M139 850h148v-348l344 348h180l-373 -379q158 -10 257 -109t100 -272q0 -231 -162 -381q-127 -117 -299 -135v143q111 14 196 99q109 104 109 252t-80 219q-72 61 -211 61h-61v-348h-148v850z" />
    <glyph glyph-name="uni04C7" unicode="&#x4c7;" horiz-adv-x="1355" 
d="M176 0v1366h152v-555h700v555h152v-1542q0 -162 -66 -228t-186 -67q-61 0 -109 18v148q39 -19 93 -19t85 29t31 111v852h-700v-668h-152z" />
    <glyph glyph-name="uni04C8" unicode="&#x4c8;" horiz-adv-x="974" 
d="M139 0v850h148v-348h401v348h148v-1026q0 -154 -68 -224t-184 -71q-55 0 -105 18v144q142 -50 191 26q18 31 18 123v527h-401v-367h-148z" />
    <glyph glyph-name="uni04D0" unicode="&#x4d0;" horiz-adv-x="1273" 
d="M639 1608q21 0 37 3q73 13 102 43t41 68l144 -47q-17 -48 -63 -98q-93 -102 -255 -101q-163 1 -244 89q-57 63 -73 110l143 47q24 -79 106 -102q42 -12 62 -12zM408 528h462l-229 547zM1090 0l-160 385h-582l-164 -385h-168l629 1432l612 -1432h-167z" />
    <glyph glyph-name="uni04D1" unicode="&#x4d1;" horiz-adv-x="1077" 
d="M520 1141q137 0 174 123l123 -47q-33 -92 -111 -146q-80 -53 -186 -53t-185 54t-112 145l123 47q37 -123 174 -123zM799 434q0 142 -86 224t-200 81q-114 0 -195 -83q-80 -83 -80 -227t74 -233q74 -90 204 -90q129 0 206 92q77 94 77 236zM791 850h147v-850h-147v119
q-111 -143 -287 -143t-297 118q-121 119 -121 330t120 329q120 117 300 117t285 -141v121z" />
    <glyph glyph-name="uni04D2" unicode="&#x4d2;" horiz-adv-x="1273" 
d="M735 1606q0 44 31 74t74 30q44 0 74 -31t30 -73t-31 -74q-31 -31 -73 -31t-74 31q-31 31 -31 74zM346 1606q0 44 31 74t74 30t73 -31t31 -73q0 -42 -31 -74q-32 -31 -74 -31t-73 31t-31 74zM408 528h462l-229 547zM1090 0l-160 385h-582l-164 -385h-168l629 1432
l612 -1432h-167z" />
    <glyph glyph-name="uni04D3" unicode="&#x4d3;" horiz-adv-x="1077" 
d="M567 1126q0 41 31 72t72 31q42 0 72 -31t30 -72q0 -42 -31 -72t-71 -30t-72 30q-31 30 -31 72zM211 1126q0 41 31 72q32 31 72 31t71 -31t31 -72q0 -42 -31 -72t-72 -30t-71 30t-31 72zM799 434q0 142 -86 224t-200 81q-114 0 -195 -83q-80 -83 -80 -227t74 -233
q74 -90 204 -90q129 0 206 92q77 94 77 236zM791 850h147v-850h-147v119q-111 -143 -287 -143t-297 118q-121 119 -121 330t120 329q120 117 300 117t285 -141v121z" />
    <glyph glyph-name="uni04D4" unicode="&#x4d4;" horiz-adv-x="1843" 
d="M424 526h457l-226 535zM1102 0l-162 383h-582l-161 -383h-168l608 1366h600l59 -143h-551l170 -406h541l60 -143h-537l221 -531h555l60 -143h-713z" />
    <glyph glyph-name="uni04D5" unicode="&#x4d5;" horiz-adv-x="1585" 
d="M458 401q-110 0 -166 -42q-58 -42 -58 -103t50 -105q50 -45 166 -45t171 46t55 103q0 56 -54 101t-164 45zM1098 739q-96 1 -166 -59t-86 -162h502q-14 102 -84 162t-166 59zM1106 -25q-219 0 -334 170q-96 -170 -319 -170q-158 0 -263 72q-104 72 -104 205t100 207
q100 73 248 73t250 -71q4 111 -39 180q-57 98 -203 98q-115 0 -262 -53v139q137 45 264 45q240 0 322 -172q106 172 328 172q186 0 296 -126t109 -334v-15h-663q4 -125 80 -207t174 -82t168 52t108 129l123 -74q-125 -238 -383 -238z" />
    <glyph glyph-name="uni04D6" unicode="&#x4d6;" horiz-adv-x="987" 
d="M454 1623q52 -15 78 -15q25 0 79 15q71 20 96 99l143 -47q-17 -48 -63 -98q-93 -102 -256 -101t-242 89q-58 65 -74 110l143 47q24 -79 96 -99zM885 1366v-143h-557v-406h540v-143h-540v-531h557v-143h-709v1366h709z" />
    <glyph glyph-name="uni04D7" unicode="&#x4d7;" horiz-adv-x="985" 
d="M494 1141q138 0 174 123l123 -47q-33 -91 -112 -145t-185 -54t-186 53q-78 54 -111 146l122 47q37 -123 175 -123zM498 739q-92 -1 -163 -63t-87 -158h500q-18 100 -88 160t-162 61zM86 407q0 207 112 335t312 128t309 -155q86 -123 80 -320h-661q2 -129 80 -209t184 -80
t172 56t96 123l123 -68q-127 -241 -391 -241q-168 0 -292 111q-124 112 -124 320z" />
    <glyph glyph-name="uni04D8" unicode="&#x4d8;" horiz-adv-x="1548" 
d="M731 119q197 0 351 120t194 304h-1018q4 -107 59 -203t167 -158t247 -63zM1446 682q0 -299 -202 -503t-503 -204q-170 0 -300 70t-208 176q-131 178 -131 432v33h1188q0 233 -157 396q-158 163 -402 163q-281 0 -461 -256l-112 103q218 296 575 297q305 0 509 -204
t204 -503z" />
    <glyph glyph-name="afii10846" unicode="&#x4d9;" horiz-adv-x="987" 
d="M737 328h-499q16 -98 84 -160t162 -62t166 63q71 63 87 159zM482 870q170 0 294 -112q125 -112 125 -320q0 -207 -113 -335q-112 -128 -312 -128t-312 156q-92 131 -78 320h664q-2 129 -80 209t-188 79q-110 0 -172 -55q-64 -55 -95 -123l-123 68q127 241 390 241z" />
    <glyph glyph-name="uni04DA" unicode="&#x4da;" horiz-adv-x="1548" 
d="M827 1606q0 44 31 74t74 30t74 -31q30 -31 30 -73t-30 -74q-30 -31 -74 -31q-43 0 -74 31t-31 74zM438 1606q0 44 31 74t74 30t73 -31t31 -73q0 -42 -31 -74q-32 -31 -74 -31t-73 31t-31 74zM731 119q197 0 351 120t194 304h-1018q4 -107 59 -203t167 -158t247 -63z
M1446 682q0 -299 -202 -503t-503 -204q-170 0 -300 70t-208 176q-131 178 -131 432v33h1188q0 233 -157 396q-158 163 -402 163q-281 0 -461 -256l-112 103q218 296 575 297q305 0 509 -204t204 -503z" />
    <glyph glyph-name="uni04DB" unicode="&#x4db;" horiz-adv-x="987" 
d="M571 1126q0 41 31 72t72 31q42 0 72 -31t30 -72q0 -42 -31 -72t-71 -30t-72 30q-31 30 -31 72zM215 1126q0 41 31 72q32 31 72 31t71 -31t31 -72q0 -42 -31 -72t-72 -30t-71 30t-31 72zM737 328h-499q16 -98 84 -160t162 -62t166 63q71 63 87 159zM482 870
q170 0 294 -112q125 -112 125 -320q0 -207 -113 -335q-112 -128 -312 -128t-312 156q-92 131 -78 320h664q-2 129 -80 209t-188 79q-110 0 -172 -55q-64 -55 -95 -123l-123 68q127 241 390 241z" />
    <glyph glyph-name="uni04DC" unicode="&#x4dc;" horiz-adv-x="1658" 
d="M920 1606q0 44 30 74t74 30q43 0 74 -31q30 -31 30 -73t-30 -74q-30 -31 -74 -31q-43 0 -74 31q-30 31 -30 74zM530 1606q0 44 31 74t74 30t74 -31t31 -73t-32 -74q-30 -31 -73 -31t-74 31t-31 74zM754 1366h151v-586l520 586h189l-574 -637l590 -729h-192l-500 625
l-33 -37v-588h-151v588l-33 37l-500 -625h-192l589 729l-573 637h188l521 -586v586z" />
    <glyph glyph-name="uni04DD" unicode="&#x4dd;" horiz-adv-x="1220" 
d="M686 1126q0 41 31 72t71 31t72 -31q31 -31 31 -72q0 -42 -31 -72t-72 -30q-42 0 -72 30t-30 72zM330 1126q0 41 30 72q31 31 72 31t72 -31t31 -72q0 -42 -31 -72t-72 -30q-42 0 -72 30t-30 72zM537 850h147v-348l320 348h172l-369 -393l405 -457h-184l-315 358l-29 -28
v-330h-147v330l-29 28l-315 -358h-185l406 457l-369 393h172l320 -348v348z" />
    <glyph glyph-name="uni04DE" unicode="&#x4de;" horiz-adv-x="1179" 
d="M684 1606q0 44 31 74t73 30t74 -31q31 -31 31 -73t-31 -74q-31 -31 -74 -31q-44 0 -74 31t-30 74zM295 1606q0 44 31 74q32 30 74 30t73 -31t31 -73t-31 -74q-31 -31 -74 -31t-73 31t-31 74zM596 1389q184 -1 290 -97t105 -252q0 -100 -52 -175t-136 -113
q133 -31 204 -127t70 -226q0 -213 -170 -333q-131 -90 -314 -90t-306 94t-185 233l148 66q41 -115 135 -183t218 -68t208 58q111 78 111 219q0 268 -365 269h-123v143h123q135 -1 207 65t72 160t-58 154t-182 59q-172 0 -274 -147l-117 92q133 199 391 199z" />
    <glyph glyph-name="uni04DF" unicode="&#x4df;" horiz-adv-x="864" 
d="M526 1126q0 41 31 72t72 31t71 -31t31 -72q0 -42 -31 -72q-32 -30 -72 -30t-71 30t-31 72zM170 1126q0 41 31 72t71 31t72 -31q31 -31 31 -72q0 -42 -31 -72t-72 -30q-42 0 -72 30t-30 72zM442 870q129 0 202 -61t73 -170t-96 -168q61 -14 98 -55q59 -63 59 -156
q0 -137 -100 -211t-244 -74t-235 72q-70 51 -113 146l127 53q23 -57 78 -98t137 -42q201 0 203 152q0 127 -191 127h-86v135h72q156 0 156 101q0 120 -146 118q-127 0 -186 -106l-103 84q104 153 295 153z" />
    <glyph glyph-name="uni04E2" unicode="&#x4e2;" horiz-adv-x="1454" 
d="M410 1501v131h655v-131h-655zM1126 0v1042l-950 -1103v1427h152v-1047l950 1104v-1423h-152z" />
    <glyph glyph-name="uni04E3" unicode="&#x4e3;" horiz-adv-x="1007" 
d="M195 1051v123h618v-123h-618zM139 850h148v-561l581 626v-915h-147v567l-582 -626v909z" />
    <glyph glyph-name="uni04E4" unicode="&#x4e4;" horiz-adv-x="1454" 
d="M827 1606q0 44 31 74t74 30t74 -31q30 -31 30 -73t-30 -74q-30 -31 -74 -31q-43 0 -74 31t-31 74zM438 1606q0 44 31 74t74 30t73 -31t31 -73q0 -42 -31 -74q-32 -31 -74 -31t-73 31t-31 74zM1126 0v1042l-950 -1103v1427h152v-1047l950 1104v-1423h-152z" />
    <glyph glyph-name="uni04E5" unicode="&#x4e5;" horiz-adv-x="1007" 
d="M580 1126q0 41 30 72q31 31 72 31t72 -31q30 -31 30 -72q0 -42 -30 -72t-72 -30t-72 30t-30 72zM223 1126q0 41 31 72t72 31q42 0 72 -31t30 -72q0 -42 -31 -72t-71 -30t-72 30q-31 30 -31 72zM139 850h148v-561l581 626v-915h-147v567l-582 -626v909z" />
    <glyph glyph-name="uni04E6" unicode="&#x4e6;" horiz-adv-x="1626" 
d="M903 1606q0 44 31 74t74 30q44 0 74 -31t30 -73t-31 -74q-31 -31 -73 -31t-74 31q-31 31 -31 74zM514 1606q0 44 31 74t73 30t74 -31q31 -31 31 -73t-31 -74q-31 -31 -74 -31q-44 0 -74 31t-30 74zM813 1245q-231 0 -393 -164q-162 -163 -162 -399t162 -400t393 -163
q231 0 393 164q162 163 162 399t-162 400t-393 163zM813 -25q-299 0 -505 203t-206 505t207 504t504 202t504 -202t207 -504t-206 -505t-505 -203z" />
    <glyph glyph-name="uni04E7" unicode="&#x4e7;" horiz-adv-x="1073" 
d="M612 1126q0 41 31 72t72 31t71 -31t31 -72q0 -42 -31 -72q-32 -30 -72 -30t-71 30t-31 72zM256 1126q0 41 31 72t71 31t72 -31q31 -31 31 -72q0 -42 -31 -72t-72 -30q-42 0 -72 30t-30 72zM537 739q-125 0 -212 -85t-87 -232q0 -148 88 -232t211 -84t211 84t88 233
t-87 233t-212 83zM537 -25q-195 0 -323 127t-128 321q0 195 128 321t323 126t323 -127t127 -321q1 -194 -127 -320q-128 -127 -323 -127z" />
    <glyph glyph-name="uni04E8" unicode="&#x4e8;" horiz-adv-x="1622" 
d="M811 119q211 -1 372 143t181 373h-1106q20 -229 181 -373t372 -143zM811 1245q-190 0 -350 -125t-197 -342h1094q-37 217 -197 342t-350 125zM811 -25q-297 0 -503 203t-206 505t206 504t503 202t503 -202t206 -504t-206 -505t-503 -203z" />
    <glyph glyph-name="uni04E9" unicode="&#x4e9;" horiz-adv-x="1073" 
d="M537 106q113 0 197 73t97 190h-589q10 -117 96 -190t199 -73zM537 739q-103 0 -187 -63t-104 -176h581q-20 113 -103 176t-187 63zM537 -25q-195 0 -323 127t-128 321q0 195 128 321t323 126t323 -127t127 -321q1 -194 -127 -320q-128 -127 -323 -127z" />
    <glyph glyph-name="uni04EA" unicode="&#x4ea;" horiz-adv-x="1622" 
d="M903 1606q0 44 31 74t74 30q44 0 74 -31t30 -73t-31 -74q-31 -31 -73 -31t-74 31q-31 31 -31 74zM514 1606q0 44 31 74t73 30t74 -31q31 -31 31 -73t-31 -74q-31 -31 -74 -31q-44 0 -74 31t-30 74zM811 119q211 -1 372 143t181 373h-1106q20 -229 181 -373t372 -143z
M811 1245q-190 0 -350 -125t-197 -342h1094q-37 217 -197 342t-350 125zM811 -25q-297 0 -503 203t-206 505t206 504t503 202t503 -202t206 -504t-206 -505t-503 -203z" />
    <glyph glyph-name="uni04EB" unicode="&#x4eb;" horiz-adv-x="1073" 
d="M612 1126q0 41 31 72t72 31t71 -31t31 -72q0 -42 -31 -72q-32 -30 -72 -30t-71 30t-31 72zM256 1126q0 41 31 72t71 31t72 -31q31 -31 31 -72q0 -42 -31 -72t-72 -30q-42 0 -72 30t-30 72zM537 106q113 0 197 73t97 190h-589q10 -117 96 -190t199 -73zM537 739
q-103 0 -187 -63t-104 -176h581q-20 113 -103 176t-187 63zM537 -25q-195 0 -323 127t-128 321q0 195 128 321t323 126t323 -127t127 -321q1 -194 -127 -320q-128 -127 -323 -127z" />
    <glyph glyph-name="uni04EE" unicode="&#x4ee;" horiz-adv-x="1163" 
d="M276 1501v131h656v-131h-656zM16 1366h185l426 -805l356 805h164l-617 -1366h-163l174 381z" />
    <glyph glyph-name="uni04EF" unicode="&#x4ef;" horiz-adv-x="942" 
d="M162 1051v123h618v-123h-618zM137 -471l271 551l-392 770h168l301 -608l277 608h164l-625 -1321h-164z" />
    <glyph glyph-name="uni04F0" unicode="&#x4f0;" horiz-adv-x="1163" 
d="M694 1606q0 44 31 74t74 30t73 -31t31 -73q0 -42 -31 -74q-32 -31 -74 -31t-73 31t-31 74zM305 1606q0 44 31 74t74 30q44 0 74 -31t30 -73t-31 -74q-31 -31 -73 -31t-74 31q-31 31 -31 74zM16 1366h185l426 -805l356 805h164l-617 -1366h-163l174 381z" />
    <glyph glyph-name="uni04F1" unicode="&#x4f1;" horiz-adv-x="942" 
d="M567 1126q0 41 31 72t72 31q42 0 72 -31t30 -72q0 -42 -31 -72t-71 -30t-72 30q-31 30 -31 72zM211 1126q0 41 31 72q32 31 72 31t71 -31t31 -72q0 -42 -31 -72t-72 -30t-71 30t-31 72zM137 -471l271 551l-392 770h168l301 -608l277 608h164l-625 -1321h-164z" />
    <glyph glyph-name="uni04F2" unicode="&#x4f2;" horiz-adv-x="1163" 
d="M897 1806l143 -82l-301 -249l-88 53zM590 1806l143 -82l-301 -249l-88 53zM16 1366h185l426 -805l356 805h164l-617 -1366h-163l174 381z" />
    <glyph glyph-name="uni04F3" unicode="&#x4f3;" horiz-adv-x="942" 
d="M745 1364l144 -66l-277 -278l-84 47zM471 1364l147 -66l-280 -278l-84 47zM137 -471l271 551l-392 770h168l301 -608l277 608h164l-625 -1321h-164z" />
    <glyph glyph-name="uni04F4" unicode="&#x4f4;" horiz-adv-x="1208" 
d="M684 1606q0 44 31 74t73 30t74 -31q31 -31 31 -73t-31 -74q-31 -31 -74 -31q-44 0 -74 31t-30 74zM295 1606q0 44 31 74q32 30 74 30t73 -31t31 -73t-31 -74q-31 -31 -74 -31t-73 31t-31 74zM881 0v586q-190 -14 -283 -15q-244 0 -338 74q-125 96 -125 318v403h152v-383
q0 -166 82 -225q57 -43 207 -43t305 14v637h151v-1366h-151z" />
    <glyph glyph-name="uni04F5" unicode="&#x4f5;" horiz-adv-x="880" 
d="M506 1126q0 41 31 72t71 31t72 -31q31 -31 31 -72q0 -42 -31 -72t-72 -30q-42 0 -72 30t-30 72zM150 1126q0 41 30 72q31 31 72 31t72 -31q30 -31 30 -72q0 -42 -30 -72t-72 -30t-72 30t-30 72zM594 0v334q-121 -18 -201 -19q-139 1 -209 63t-69 208v264h147v-244
q0 -70 19 -100q29 -55 124 -55t189 18v381h147v-850h-147z" />
    <glyph glyph-name="uni04F8" unicode="&#x4f8;" horiz-adv-x="1454" 
d="M817 1606q0 44 31 74t74 30q44 0 74 -31t30 -73t-31 -74q-31 -31 -73 -31t-74 31q-31 31 -31 74zM428 1606q0 44 31 74t73 30t74 -31q31 -31 31 -73t-31 -74q-31 -31 -74 -31q-44 0 -74 31t-30 74zM1126 1366h152v-1366h-152v1366zM504 143q325 0 323 271q0 147 -110 207
q-63 35 -230 34h-159v-512h176zM176 0v1366h152v-567h184q471 0 471 -385q0 -194 -120 -304t-322 -110h-365z" />
    <glyph glyph-name="uni04F9" unicode="&#x4f9;" horiz-adv-x="1150" 
d="M651 1126q0 41 31 72t72 31q42 0 72 -31t30 -72q0 -42 -31 -72t-71 -30t-72 30q-31 30 -31 72zM295 1126q0 41 31 72q32 31 72 31t71 -31t31 -72q0 -42 -31 -72t-72 -30t-71 30t-31 72zM864 0v850h148v-850h-148zM287 131h137q92 0 131 23q55 38 55 110t-53 105
q-37 25 -131 24h-139v-262zM139 0v850h148v-326h151q176 0 258 -84q66 -66 66 -182t-76 -186q-76 -72 -250 -72h-297z" />
    <glyph glyph-name="uni1E9E" unicode="&#x1e9e;" horiz-adv-x="1181" 
d="M176 0v983q0 186 120 296t284 110q164 1 251 -57t131 -145t42 -167l-293 -250q139 -23 233 -94q135 -106 135 -275q0 -209 -196 -333q-129 -80 -328 -93v144q150 12 242 69q127 78 127 210t-131 212q-90 53 -238 64v123l291 262q-41 186 -254 186q-125 0 -195 -76
t-69 -215v-954h-152z" />
    <glyph glyph-name="uni2010" unicode="&#x2010;" horiz-adv-x="655" 
d="M102 360v152h451v-152h-451z" />
    <glyph glyph-name="uni2011" unicode="&#x2011;" horiz-adv-x="655" 
d="M102 360v152h451v-152h-451z" />
    <glyph glyph-name="figuredash" unicode="&#x2012;" horiz-adv-x="1187" 
d="M143 629v131h901v-131h-901z" />
    <glyph glyph-name="endash" unicode="&#x2013;" horiz-adv-x="1187" 
d="M143 371v131h901v-131h-901z" />
    <glyph glyph-name="emdash" unicode="&#x2014;" horiz-adv-x="1638" 
d="M143 371v131h1352v-131h-1352z" />
    <glyph glyph-name="afii00208" unicode="&#x2015;" horiz-adv-x="1638" 
d="M143 371v131h1352v-131h-1352z" />
    <glyph glyph-name="quoteleft" unicode="&#x2018;" horiz-adv-x="540" 
d="M422 1366l-170 -473l-133 49l207 463z" />
    <glyph glyph-name="quoteright" unicode="&#x2019;" horiz-adv-x="540" 
d="M119 942l166 473l137 -49l-207 -463z" />
    <glyph glyph-name="quotesinglbase" unicode="&#x201a;" horiz-adv-x="630" 
d="M119 -272l166 473l137 -49l-207 -463z" />
    <glyph glyph-name="quotedblleft" unicode="&#x201c;" horiz-adv-x="839" 
d="M721 1366l-166 -473l-137 49l207 463zM422 1366l-170 -473l-133 49l207 463z" />
    <glyph glyph-name="quotedblright" unicode="&#x201d;" horiz-adv-x="839" 
d="M418 942l170 473l133 -49l-207 -463zM119 942l166 473l137 -49l-207 -463z" />
    <glyph glyph-name="quotedblbase" unicode="&#x201e;" horiz-adv-x="929" 
d="M418 -272l170 473l133 -49l-207 -463zM119 -272l166 473l137 -49l-207 -463z" />
    <glyph glyph-name="dagger" unicode="&#x2020;" horiz-adv-x="1163" 
d="M508 1030v463h147v-463h303v-139h-303v-1239h-147v1239h-303v139h303z" />
    <glyph glyph-name="daggerdbl" unicode="&#x2021;" horiz-adv-x="1163" 
d="M508 1030v463h147v-463h303v-139h-303v-567h303v-140h-303v-544h-147v544h-303v140h303v567h-303v139h303z" />
    <glyph glyph-name="bullet" unicode="&#x2022;" horiz-adv-x="2048" 
d="M737 696q0 119 84 203t203 84t203 -84t84 -203q0 -118 -84 -202t-203 -84t-203 84t-84 202z" />
    <glyph glyph-name="ellipsis" unicode="&#x2026;" horiz-adv-x="1527" 
d="M1169 82q0 41 31 72q31 30 72 30q42 0 72 -30t30 -72q0 -41 -31 -72q-31 -30 -71 -30t-72 30q-31 30 -31 72zM662 82q0 41 30 72q31 30 72 30t72 -30q30 -30 30 -72q0 -41 -30 -72q-30 -30 -72 -30q-41 0 -72 30q-30 31 -30 72zM154 82q0 41 30 72q31 30 72 30t72 -30
q30 -30 30 -72q0 -41 -30 -72q-30 -30 -72 -30q-41 0 -72 30q-30 31 -30 72z" />
    <glyph glyph-name="perthousand" unicode="&#x2030;" horiz-adv-x="2170" 
d="M1632 283q0 -77 51 -131t124 -54t123 54t50 131q0 76 -50 130t-123 54t-124 -54t-51 -130zM1806 580q125 0 211 -86t86 -211t-86 -211t-211 -86t-211 86t-86 211t86 211t211 86zM1091 98q73 0 123 54t50 131q0 76 -50 130t-124 54q-72 0 -123 -54t-51 -130q0 -77 50 -131
q52 -54 125 -54zM1090 580q124 0 210 -86t86 -211t-86 -211t-210 -86t-211 86q-86 86 -86 211t86 211t211 86zM289 20l796 1373l80 -45l-796 -1375zM366 897q72 0 122 54t51 130q-1 76 -51 130q-50 55 -122 55t-124 -54t-52 -131q0 -76 52 -130t124 -54zM365 1378
q125 0 211 -86t86 -211t-86 -211t-212 -86q-124 0 -210 86t-86 211t86 211t211 86z" />
    <glyph glyph-name="guilsinglleft" unicode="&#x2039;" horiz-adv-x="577" 
d="M229 434l246 -299l-94 -74l-307 373l307 385l94 -76z" />
    <glyph glyph-name="guilsinglright" unicode="&#x203a;" horiz-adv-x="577" 
d="M348 446l-246 299l95 74l307 -373l-307 -385l-95 76z" />
    <glyph glyph-name="fraction" unicode="&#x2044;" horiz-adv-x="258" 
d="M-307 20l794 1373l78 -45l-794 -1375z" />
    <glyph glyph-name="uni2080" unicode="&#x2080;" horiz-adv-x="716" 
d="M358 737q-84 0 -139 -86q-55 -85 -55 -239t57 -243t137 -89t138 88q57 88 57 244q1 156 -55 240t-140 85zM358 -14q-129 0 -217 123q-84 113 -84 299t85 305t216 119t216 -120q85 -118 85 -304t-84 -299q-88 -123 -217 -123z" />
    <glyph glyph-name="uni2081" unicode="&#x2081;" horiz-adv-x="716" 
d="M340 0v725h-160l49 94h217v-819h-106z" />
    <glyph glyph-name="uni2082" unicode="&#x2082;" horiz-adv-x="716" 
d="M608 0h-542l299 346q72 84 94 119q45 66 45 126t-42 103t-124 43t-123 -69q-25 -43 -25 -99h-102q6 111 70 187t184 76t195 -68q73 -68 73 -162t-65 -188q-31 -45 -113 -138l-158 -182h334v-94z" />
    <glyph glyph-name="uni2083" unicode="&#x2083;" horiz-adv-x="716" 
d="M338 831q132 -1 187 -69q56 -68 57 -150q0 -133 -107 -182q119 -45 119 -199q0 -104 -71 -175q-71 -70 -177 -70q-188 1 -248 141q-16 41 -20 96h102q2 -45 29 -82q45 -61 118 -61t117 44t43 112q0 98 -79 133q-39 18 -95 14v94q53 -4 95 17q68 35 67 116q0 53 -33 90
q-32 37 -100 37t-98 -38t-35 -93h-103q4 76 39 131q61 94 193 94z" />
    <glyph glyph-name="uni2084" unicode="&#x2084;" horiz-adv-x="716" 
d="M449 227v336l-236 -336h236zM551 227h100v-94h-100v-133h-102v133h-420l522 731v-637z" />
    <glyph glyph-name="uni2085" unicode="&#x2085;" horiz-adv-x="716" 
d="M608 819v-94h-274l-45 -166q33 4 51 4q127 0 201 -79q73 -78 73 -208t-93 -210t-209 -80t-195 63q-47 37 -72 84l80 62q20 -39 53 -66q57 -49 134 -49t137 58q59 58 59 140t-57 137q-57 54 -141 54t-163 -57l119 407h342z" />
    <glyph glyph-name="uni2086" unicode="&#x2086;" horiz-adv-x="716" 
d="M357 80q89 0 138 56q48 56 48 131q-1 75 -55 127t-132 52t-130 -52t-52 -127t47 -131t136 -56zM649 264q0 -122 -81 -200t-207 -78q-125 0 -209 79t-84 184t67 204l279 393l86 -64l-189 -252q29 10 64 11q123 0 199 -78t75 -199z" />
    <glyph glyph-name="uni2087" unicode="&#x2087;" horiz-adv-x="716" 
d="M82 725v94h614l-546 -839l-84 57l454 688h-438z" />
    <glyph glyph-name="uni2088" unicode="&#x2088;" horiz-adv-x="716" 
d="M358 379q-68 0 -110 -43t-43 -108q0 -64 43 -106q42 -42 110 -42t111 42t43 106t-43 108t-111 43zM358 469q59 0 97 39q37 39 37 98t-38 95t-96 36t-95 -36q-38 -36 -38 -95t37 -98t96 -39zM125 606q0 94 62 160t171 66t171 -66q63 -66 63 -174t-98 -166
q125 -53 124 -201q0 -102 -70 -171q-70 -68 -190 -68t-190 68t-70 171q0 148 125 201q-98 59 -98 180z" />
    <glyph glyph-name="uni2089" unicode="&#x2089;" horiz-adv-x="716" 
d="M359 737q-89 0 -137 -56t-48 -131t54 -127t132 -52t130 52t52 127t-46 131q-48 56 -137 56zM649 568q0 -106 -67 -203l-279 -394l-86 64l189 252q-29 -10 -64 -11q-123 0 -199 78q-75 78 -75 199t80 200q81 79 207 79t210 -80q84 -78 84 -184z" />
    <glyph glyph-name="Euro" unicode="&#x20ac;" horiz-adv-x="1163" 
d="M709 119q205 0 372 157v-188q-167 -113 -399 -113q-232 1 -382 143t-179 353h-137l53 135h69q-10 84 3 160h-125l53 135h88q43 205 197 346t374 141t385 -114l-67 -137q-129 109 -309 108q-220 0 -337 -174q-58 -83 -79 -170h653l-53 -135h-625q-12 -80 -2 -160h576
l-54 -135h-499q31 -156 143 -254t281 -98z" />
    <glyph glyph-name="uni20B4" unicode="&#x20b4;" horiz-adv-x="1163" 
d="M625 1389q143 0 229 -73q86 -74 86 -192t-100 -223h190v-115h-282l-183 -180h465v-114h-569q-92 -86 -92 -205q0 -70 53 -119t149 -49q202 0 299 229l140 -61q-41 -113 -121 -189q-125 -123 -326 -123q-152 0 -241 68q-109 86 -109 218t80 231h-158v114h250l182 180h-432
v115h537q117 102 116 195q0 61 -47 105t-143 44q-154 0 -274 -149l-121 80q167 213 422 213z" />
    <glyph glyph-name="uni20B6" unicode="&#x20b6;" horiz-adv-x="1163" 
d="M442 1223v-486h125q154 0 230 80q59 66 59 168t-57 160q-76 78 -244 78h-113zM539 1366q248 0 358 -110q111 -110 111 -276q0 -165 -103 -263q-117 -115 -330 -115h-133v-180h336v-115h-336v-307h-151v307h-156v115h156v180h-156v135h156v629h248z" />
    <glyph glyph-name="uni20B6" unicode="&#x20cf;" horiz-adv-x="1163" 
d="M442 1223v-486h125q154 0 230 80q59 66 59 168t-57 160q-76 78 -244 78h-113zM539 1366q248 0 358 -110q111 -110 111 -276q0 -165 -103 -263q-117 -115 -330 -115h-133v-180h336v-115h-336v-307h-151v307h-156v115h156v180h-156v135h156v629h248z" />
    <glyph glyph-name="uni20B6" unicode="&#x20ce;" horiz-adv-x="1163" 
d="M442 1223v-486h125q154 0 230 80q59 66 59 168t-57 160q-76 78 -244 78h-113zM539 1366q248 0 358 -110q111 -110 111 -276q0 -165 -103 -263q-117 -115 -330 -115h-133v-180h336v-115h-336v-307h-151v307h-156v115h156v180h-156v135h156v629h248z" />
    <glyph glyph-name="uni20B6" unicode="&#x20cd;" horiz-adv-x="1163" 
d="M442 1223v-486h125q154 0 230 80q59 66 59 168t-57 160q-76 78 -244 78h-113zM539 1366q248 0 358 -110q111 -110 111 -276q0 -165 -103 -263q-117 -115 -330 -115h-133v-180h336v-115h-336v-307h-151v307h-156v115h156v180h-156v135h156v629h248z" />
    <glyph glyph-name="uni20B6" unicode="&#x20cc;" horiz-adv-x="1163" 
d="M442 1223v-486h125q154 0 230 80q59 66 59 168t-57 160q-76 78 -244 78h-113zM539 1366q248 0 358 -110q111 -110 111 -276q0 -165 -103 -263q-117 -115 -330 -115h-133v-180h336v-115h-336v-307h-151v307h-156v115h156v180h-156v135h156v629h248z" />
    <glyph glyph-name="uni20B6" unicode="&#x20cb;" horiz-adv-x="1163" 
d="M442 1223v-486h125q154 0 230 80q59 66 59 168t-57 160q-76 78 -244 78h-113zM539 1366q248 0 358 -110q111 -110 111 -276q0 -165 -103 -263q-117 -115 -330 -115h-133v-180h336v-115h-336v-307h-151v307h-156v115h156v180h-156v135h156v629h248z" />
    <glyph glyph-name="uni20B6" unicode="&#x20ca;" horiz-adv-x="1163" 
d="M442 1223v-486h125q154 0 230 80q59 66 59 168t-57 160q-76 78 -244 78h-113zM539 1366q248 0 358 -110q111 -110 111 -276q0 -165 -103 -263q-117 -115 -330 -115h-133v-180h336v-115h-336v-307h-151v307h-156v115h156v180h-156v135h156v629h248z" />
    <glyph glyph-name="uni20B6" unicode="&#x20c9;" horiz-adv-x="1163" 
d="M442 1223v-486h125q154 0 230 80q59 66 59 168t-57 160q-76 78 -244 78h-113zM539 1366q248 0 358 -110q111 -110 111 -276q0 -165 -103 -263q-117 -115 -330 -115h-133v-180h336v-115h-336v-307h-151v307h-156v115h156v180h-156v135h156v629h248z" />
    <glyph glyph-name="uni20B6" unicode="&#x20c8;" horiz-adv-x="1163" 
d="M442 1223v-486h125q154 0 230 80q59 66 59 168t-57 160q-76 78 -244 78h-113zM539 1366q248 0 358 -110q111 -110 111 -276q0 -165 -103 -263q-117 -115 -330 -115h-133v-180h336v-115h-336v-307h-151v307h-156v115h156v180h-156v135h156v629h248z" />
    <glyph glyph-name="uni20B6" unicode="&#x20c7;" horiz-adv-x="1163" 
d="M442 1223v-486h125q154 0 230 80q59 66 59 168t-57 160q-76 78 -244 78h-113zM539 1366q248 0 358 -110q111 -110 111 -276q0 -165 -103 -263q-117 -115 -330 -115h-133v-180h336v-115h-336v-307h-151v307h-156v115h156v180h-156v135h156v629h248z" />
    <glyph glyph-name="uni20B6" unicode="&#x20c6;" horiz-adv-x="1163" 
d="M442 1223v-486h125q154 0 230 80q59 66 59 168t-57 160q-76 78 -244 78h-113zM539 1366q248 0 358 -110q111 -110 111 -276q0 -165 -103 -263q-117 -115 -330 -115h-133v-180h336v-115h-336v-307h-151v307h-156v115h156v180h-156v135h156v629h248z" />
    <glyph glyph-name="uni20B6" unicode="&#x20c5;" horiz-adv-x="1163" 
d="M442 1223v-486h125q154 0 230 80q59 66 59 168t-57 160q-76 78 -244 78h-113zM539 1366q248 0 358 -110q111 -110 111 -276q0 -165 -103 -263q-117 -115 -330 -115h-133v-180h336v-115h-336v-307h-151v307h-156v115h156v180h-156v135h156v629h248z" />
    <glyph glyph-name="uni20B6" unicode="&#x20c4;" horiz-adv-x="1163" 
d="M442 1223v-486h125q154 0 230 80q59 66 59 168t-57 160q-76 78 -244 78h-113zM539 1366q248 0 358 -110q111 -110 111 -276q0 -165 -103 -263q-117 -115 -330 -115h-133v-180h336v-115h-336v-307h-151v307h-156v115h156v180h-156v135h156v629h248z" />
    <glyph glyph-name="uni20B6" unicode="&#x20c3;" horiz-adv-x="1163" 
d="M442 1223v-486h125q154 0 230 80q59 66 59 168t-57 160q-76 78 -244 78h-113zM539 1366q248 0 358 -110q111 -110 111 -276q0 -165 -103 -263q-117 -115 -330 -115h-133v-180h336v-115h-336v-307h-151v307h-156v115h156v180h-156v135h156v629h248z" />
    <glyph glyph-name="uni20B6" unicode="&#x20c2;" horiz-adv-x="1163" 
d="M442 1223v-486h125q154 0 230 80q59 66 59 168t-57 160q-76 78 -244 78h-113zM539 1366q248 0 358 -110q111 -110 111 -276q0 -165 -103 -263q-117 -115 -330 -115h-133v-180h336v-115h-336v-307h-151v307h-156v115h156v180h-156v135h156v629h248z" />
    <glyph glyph-name="uni20B6" unicode="&#x20c1;" horiz-adv-x="1163" 
d="M442 1223v-486h125q154 0 230 80q59 66 59 168t-57 160q-76 78 -244 78h-113zM539 1366q248 0 358 -110q111 -110 111 -276q0 -165 -103 -263q-117 -115 -330 -115h-133v-180h336v-115h-336v-307h-151v307h-156v115h156v180h-156v135h156v629h248z" />
    <glyph glyph-name="uni20B6" unicode="&#x20c0;" horiz-adv-x="1163" 
d="M442 1223v-486h125q154 0 230 80q59 66 59 168t-57 160q-76 78 -244 78h-113zM539 1366q248 0 358 -110q111 -110 111 -276q0 -165 -103 -263q-117 -115 -330 -115h-133v-180h336v-115h-336v-307h-151v307h-156v115h156v180h-156v135h156v629h248z" />
    <glyph glyph-name="uni20B6" unicode="&#x20bf;" horiz-adv-x="1163" 
d="M442 1223v-486h125q154 0 230 80q59 66 59 168t-57 160q-76 78 -244 78h-113zM539 1366q248 0 358 -110q111 -110 111 -276q0 -165 -103 -263q-117 -115 -330 -115h-133v-180h336v-115h-336v-307h-151v307h-156v115h156v180h-156v135h156v629h248z" />
    <glyph glyph-name="uni20B6" unicode="&#x20be;" horiz-adv-x="1163" 
d="M442 1223v-486h125q154 0 230 80q59 66 59 168t-57 160q-76 78 -244 78h-113zM539 1366q248 0 358 -110q111 -110 111 -276q0 -165 -103 -263q-117 -115 -330 -115h-133v-180h336v-115h-336v-307h-151v307h-156v115h156v180h-156v135h156v629h248z" />
    <glyph glyph-name="uni20B6" unicode="&#x20bd;" horiz-adv-x="1163" 
d="M442 1223v-486h125q154 0 230 80q59 66 59 168t-57 160q-76 78 -244 78h-113zM539 1366q248 0 358 -110q111 -110 111 -276q0 -165 -103 -263q-117 -115 -330 -115h-133v-180h336v-115h-336v-307h-151v307h-156v115h156v180h-156v135h156v629h248z" />
    <glyph glyph-name="uni20B6" unicode="&#x20bc;" horiz-adv-x="1163" 
d="M442 1223v-486h125q154 0 230 80q59 66 59 168t-57 160q-76 78 -244 78h-113zM539 1366q248 0 358 -110q111 -110 111 -276q0 -165 -103 -263q-117 -115 -330 -115h-133v-180h336v-115h-336v-307h-151v307h-156v115h156v180h-156v135h156v629h248z" />
    <glyph glyph-name="uni20B6" unicode="&#x20bb;" horiz-adv-x="1163" 
d="M442 1223v-486h125q154 0 230 80q59 66 59 168t-57 160q-76 78 -244 78h-113zM539 1366q248 0 358 -110q111 -110 111 -276q0 -165 -103 -263q-117 -115 -330 -115h-133v-180h336v-115h-336v-307h-151v307h-156v115h156v180h-156v135h156v629h248z" />
    <glyph glyph-name="uni20B6" unicode="&#x20ba;" horiz-adv-x="1163" 
d="M442 1223v-486h125q154 0 230 80q59 66 59 168t-57 160q-76 78 -244 78h-113zM539 1366q248 0 358 -110q111 -110 111 -276q0 -165 -103 -263q-117 -115 -330 -115h-133v-180h336v-115h-336v-307h-151v307h-156v115h156v180h-156v135h156v629h248z" />
    <glyph glyph-name="uni20B6" unicode="&#x20b9;" horiz-adv-x="1163" 
d="M442 1223v-486h125q154 0 230 80q59 66 59 168t-57 160q-76 78 -244 78h-113zM539 1366q248 0 358 -110q111 -110 111 -276q0 -165 -103 -263q-117 -115 -330 -115h-133v-180h336v-115h-336v-307h-151v307h-156v115h156v180h-156v135h156v629h248z" />
    <glyph glyph-name="uni20B6" unicode="&#x20b7;" horiz-adv-x="1163" 
d="M442 1223v-486h125q154 0 230 80q59 66 59 168t-57 160q-76 78 -244 78h-113zM539 1366q248 0 358 -110q111 -110 111 -276q0 -165 -103 -263q-117 -115 -330 -115h-133v-180h336v-115h-336v-307h-151v307h-156v115h156v180h-156v135h156v629h248z" />
    <glyph glyph-name="uni20B8" unicode="&#x20b8;" horiz-adv-x="1163" 
d="M989 1243h-815v123h815v-123zM989 997h-332v-997h-151v997h-332v144h815v-144z" />
    <glyph glyph-name="afii61352" unicode="&#x2116;" horiz-adv-x="2088" 
d="M1475 465v143h512v-143h-512zM1732 885q72 0 122 54t51 130q-1 76 -51 130t-122 54t-124 -54t-52 -130t52 -130t124 -54zM1731 1366q125 0 211 -86t86 -211t-86 -211t-211 -86t-211 86t-86 211t86 211t211 86zM328 0h-152v1423l954 -1083v1026h152v-1427l-954 1083v-1022
z" />
    <glyph glyph-name="uni2117" unicode="&#x2117;" horiz-adv-x="1515" 
d="M758 1270q-112 0 -224 -45t-194 -125t-128 -193t-46 -229t46 -228t128 -192t195 -125t223 -45t224 45q112 45 194 125t128 193t46 229t-46 228q-92 226 -323 317q-112 45 -223 45zM758 1384q306 0 506 -212t200 -493t-200 -493t-506 -212q-307 0 -507 212t-200 494
t200 492q200 212 507 212zM649 965v-246h45q96 0 132 33t36 89t-30 90t-142 34h-41zM539 1063h151q164 -1 223 -61t59 -160t-60 -160t-199 -61h-64v-324h-110v766z" />
    <glyph glyph-name="trademark" unicode="&#x2122;" horiz-adv-x="1478" 
d="M647 588h-94l133 827l293 -645l301 645l125 -827h-94l-72 526l-260 -565l-256 565zM479 1272h-184v-684h-102v684h-185v94h471v-94z" />
    <glyph glyph-name="partialdiff" unicode="&#x2202;" horiz-adv-x="1073" 
d="M238 427q0 -149 90 -235t215 -86t209 100t84 236q0 138 -80 230t-214 92t-219 -94t-85 -243zM987 536q0 -232 -84 -364q-125 -197 -366 -197q-201 1 -326 133t-125 328t121 327q121 132 306 132t284 -98h4q-63 201 -254 321q-160 103 -377 119l35 141q370 -35 587 -285
q67 -77 103 -147q92 -178 92 -410z" />
    <glyph glyph-name="product" unicode="&#x220f;" horiz-adv-x="1429" 
d="M74 1401v135h1282v-135h-160v-1778h160v-135h-479v135h167v1778h-659v-1778h166v-135h-477v135h159v1778h-159z" />
    <glyph glyph-name="summation" unicode="&#x2211;" horiz-adv-x="1404" 
d="M66 1536h1175v-440h-151v305h-824l488 -846l-496 -932h848v301h151v-436h-1191v94l516 975l-516 885v94z" />
    <glyph glyph-name="minus" unicode="&#x2212;" 
d="M68 614v136h888v-136h-888z" />
    <glyph glyph-name="uni2215" unicode="&#x2215;" horiz-adv-x="1212" 
d="M0 -348l1053 1902l118 -61l-1052 -1899z" />
    <glyph glyph-name="uni2219" unicode="&#x2219;" horiz-adv-x="409" 
d="M74 696q0 53 39 92t92 39t92 -39t39 -92t-39 -92t-92 -39t-92 39t-39 92z" />
    <glyph glyph-name="radical" unicode="&#x221a;" horiz-adv-x="1368" 
d="M1368 1694v-135h-407l-441 -1559h-182l-168 614h-170v136h289l143 -549h4l402 1493h530z" />
    <glyph glyph-name="infinity" unicode="&#x221e;" horiz-adv-x="1368" 
d="M372 514q73 0 136 56t102 126q-39 76 -105 129q-67 53 -143 53t-123 -52q-49 -54 -49 -136t54 -129t128 -47zM1006 514q70 0 120 50t52 129q0 79 -50 133t-126 53q-77 -1 -140 -57t-104 -126q42 -78 110 -130t138 -52zM39 696q0 138 87 226q88 88 208 88t206 -62
t142 -153q53 87 139 151t211 64t211 -88t86 -226t-86 -226q-86 -87 -210 -87q-124 1 -210 65t-135 150q-53 -86 -140 -151t-211 -65t-211 89q-87 88 -87 225z" />
    <glyph glyph-name="integral" unicode="&#x222b;" 
d="M698 1405q-54 0 -83 -31q-28 -31 -27 -178v-1368q0 -66 -1 -98t-15 -80q-45 -162 -238 -162q-70 0 -137 23l32 131q43 -23 97 -23t83 31q28 31 27 178v1368q0 66 1 98t15 80q13 49 40 82q68 80 198 80q69 0 137 -23l-32 -131q-43 23 -97 23z" />
    <glyph glyph-name="approxequal" unicode="&#x2248;" 
d="M723 520q122 0 190 139l91 -53q-39 -90 -103 -149q-80 -80 -196 -80q-71 -1 -217 67t-199 68q-114 0 -178 -147l-91 53q47 100 108 169t158 69t240 -68t197 -68zM723 860q122 0 190 139l91 -53q-39 -90 -103 -149q-80 -80 -196 -80q-71 -1 -217 67t-199 68
q-114 0 -178 -147l-91 53q47 100 108 169t158 69t240 -68t197 -68z" />
    <glyph glyph-name="notequal" unicode="&#x2260;" 
d="M68 786v136h491l113 233h121l-111 -233h274v-136h-340l-86 -180h426v-135h-491l-111 -233h-123l113 233h-276v135h340l88 180h-428z" />
    <glyph glyph-name="lessequal" unicode="&#x2264;" 
d="M956 113h-888v135h888v-135zM225 772l731 -326v-139l-888 402v127l888 401v-139z" />
    <glyph glyph-name="greaterequal" unicode="&#x2265;" 
d="M956 113h-888v135h888v-135zM799 772l-731 326v139l888 -401v-127l-888 -402v139z" />
    <glyph glyph-name="dotmath" unicode="&#x22c5;" horiz-adv-x="409" 
d="M74 696q0 53 39 92t92 39t92 -39t39 -92t-39 -92t-92 -39t-92 39t-39 92z" />
    <glyph glyph-name="lozenge" unicode="&#x25ca;" horiz-adv-x="1392" 
d="M1044 684l-360 498l-360 -498l360 -498zM152 684l532 737l533 -737l-533 -737z" />
    <glyph glyph-name="openbullet" unicode="&#x25e6;" horiz-adv-x="1009" 
d="M324 1087q0 -88 56 -138t124 -50t124 50t56 138q0 89 -56 139t-124 50t-124 -50t-56 -139zM221 1087q0 121 81 202t202 81t202 -81q80 -81 80 -202t-80 -201t-202 -81q-121 1 -202 81t-81 201z" />
    <glyph glyph-name="uniF400" unicode="&#xf400;" horiz-adv-x="4" 
d="M-381 1364l152 -70l-275 -276l-92 49z" />
    <glyph glyph-name="uniF401" unicode="&#xf401;" horiz-adv-x="4" 
d="M-483 1806l143 -92l-313 -239l-88 65z" />
    <glyph glyph-name="uniF406" unicode="&#xf406;" 
d="M512 1608q78 0 123 34t59 80h135q-14 -80 -63 -137q-94 -109 -254 -109t-254 109q-49 57 -63 137h135q14 -46 59 -80t123 -34z" />
    <glyph glyph-name="uniF407" unicode="&#xf407;" 
d="M541 -106l143 -62l-213 -262l-102 53z" />
    <glyph glyph-name="uniF408" unicode="&#xf408;" 
d="M512 1632l-180 -155l-107 84l287 243l287 -243l-107 -84z" />
    <glyph glyph-name="uniF409" unicode="&#xf409;" 
d="M344 -430l115 328l131 -50l-144 -319z" />
    <glyph glyph-name="uniF40A" unicode="&#xf40a;" 
d="M389 1065l107 328l131 -50l-144 -319z" />
    <glyph glyph-name="uniF40B" unicode="&#xf40b;" 
d="M399 1606q0 49 32 81q32 31 81 31t81 -32t32 -80q0 -49 -32 -81t-81 -32t-81 32t-32 81z" />
    <glyph glyph-name="uniF40C" unicode="&#xf40c;" 
d="M426 1677q0 -35 27 -61t59 -25q32 0 60 26q26 27 26 61t-27 60t-59 26t-60 -26q-26 -26 -26 -61zM332 1675q0 74 53 127t127 53t127 -53t53 -127t-53 -127t-127 -53t-127 53t-53 127z" />
    <glyph glyph-name="uniF40D" unicode="&#xf40d;" 
d="M378 1591q-32 0 -59 -26q-27 -31 -34 -64l-90 74q20 53 68 100q47 47 111 47t148 -43t119 -43t61 26t39 62l88 -71q-18 -49 -53 -84q-61 -63 -143 -64q-47 0 -135 43t-120 43z" />
    <glyph glyph-name="uniF40E" unicode="&#xf40e;" 
d="M545 -184q0 -82 106 -82q54 -1 99 26l-17 -120q-57 -29 -129 -29t-131 48t-59 124t43 130t104 87h127q-143 -93 -143 -184z" />
    <glyph glyph-name="uniF4C6" unicode="&#xf4c6;" horiz-adv-x="1208" 
d="M881 1366h151v-1542q0 -162 -66 -228t-182 -67q-66 0 -112 18v148q39 -19 93 -19t85 29t31 115v766q-190 -14 -283 -15q-244 0 -338 74q-125 96 -125 318v403h152v-383q0 -166 82 -225q57 -43 207 -43t305 14v637z" />
    <glyph glyph-name="uniF4C7" unicode="&#xf4c7;" horiz-adv-x="880" 
d="M594 850h147v-997q0 -57 -2 -89q-6 -98 -66 -167q-60 -68 -184 -68q-55 0 -104 18v144q143 -50 190 26q18 31 19 123v494q-121 -18 -201 -19q-139 1 -209 63t-69 208v264h147v-244q0 -70 19 -100q29 -55 124 -55t189 18v381z" />
    <glyph glyph-name="uniF4CC" unicode="&#xf4cc;" horiz-adv-x="1163" 
d="M750 1806l143 -92l-313 -239l-88 65zM16 1366h185l426 -805l356 805h164l-617 -1366h-163l174 381z" />
    <glyph glyph-name="uniF4CD" unicode="&#xf4cd;" horiz-adv-x="942" 
d="M598 1364l152 -70l-275 -276l-92 49zM137 -471l271 551l-392 770h168l301 -608l277 608h164l-625 -1321h-164z" />
    <glyph glyph-name="dollar.fitted" unicode="&#xf5f5;" horiz-adv-x="905" 
d="M246 1040q0 -130 168 -198v399q-80 -11 -124 -69t-44 -132zM717 393q0 158 -180 230v-496q82 23 131 99t49 167zM872 396q0 -148 -90 -268t-245 -144v-191h-123v182q-154 5 -255 105t-134 248l147 41q16 -106 84 -176t158 -74v561q-148 59 -234 140t-86 220q0 140 92 236
t228 108v179h123v-179q85 -8 161 -61t125 -147l-121 -80q-65 129 -165 145v-455q162 -63 239 -143q96 -99 96 -247z" />
    <glyph glyph-name="Euro.fitted" unicode="&#xf5f6;" horiz-adv-x="1202" 
d="M762 119q205 0 373 157v-188q-167 -113 -399 -113q-232 1 -382 143t-180 353h-137l53 135h70q-10 84 2 160h-125l53 135h88q43 205 197 346t375 141t385 -114l-68 -137q-129 109 -309 108q-80 1 -149 -25q-114 -42 -188 -149q-54 -78 -79 -170h653l-53 -135h-625
q-12 -80 -2 -160h576l-53 -135h-500q32 -156 144 -254t280 -98z" />
    <glyph glyph-name="cent.fitted" unicode="&#xf5f7;" horiz-adv-x="784" 
d="M176 700q0 -148 90 -239q56 -56 140 -74v619q-82 -10 -142 -70q-88 -88 -88 -236zM528 1341v-198q119 -14 215 -80v-176q-92 111 -215 125v-627q127 14 222 129v-176q-98 -72 -222 -86v-223h-122v227q-156 22 -269 132t-113 306t128 324q100 100 254 121v202h122z" />
    <glyph glyph-name="sterling.fitted" unicode="&#xf5f8;" horiz-adv-x="1077" 
d="M958 938h-149v20q0 144 -70 214t-177 70t-177 -68t-70 -177q-1 -95 55 -193q8 -15 27 -52q18 -37 27 -54l29 -57h258v-115h-207q62 -159 -37 -317l121 -45q112 -43 158 -43t90 43t67 98l125 -74q-36 -86 -110 -148t-164 -63q-90 0 -185 37l-80 31q-102 39 -158 39
q-57 0 -103 -36t-62 -75l-117 80q49 74 109 124t155 50q97 147 31 299h-229v115h176l-41 76q-90 166 -90 284q0 166 108 275q109 108 287 108t281 -102q123 -119 122 -326v-18z" />
    <glyph glyph-name="yen.fitted" unicode="&#xf5f9;" horiz-adv-x="1118" 
d="M1038 786h-288l-105 -180h393v-114h-405v-492h-152v492h-399v114h387l-104 180h-283v115h217l-268 465h178l348 -610l352 610h178l-272 -465h223v-115z" />
    <glyph glyph-name="florin.fitted" unicode="&#xf5fa;" horiz-adv-x="985" 
d="M92 -348q-37 0 -86 8l29 131q29 -4 51 -4q121 0 183 61t98 261l112 618h-147l18 123h152l67 367q29 159 99 229t190 70q70 0 131 -21l-26 -137q-115 50 -185 -10q-41 -41 -65 -172l-62 -326h217l-18 -123h-221l-125 -674q-35 -211 -127 -305q-98 -96 -285 -96z" />
    <glyph glyph-name="uni20B4.fitted" unicode="&#xf5fb;" horiz-adv-x="976" 
d="M530 1389q144 0 230 -73q86 -74 86 -192t-101 -223h191v-115h-283l-182 -180h465v-114h-569q-92 -86 -93 -205q0 -70 54 -119t149 -49q202 0 299 229l139 -61q-41 -113 -120 -189q-125 -123 -326 -123q-152 0 -242 68q-109 86 -108 233q0 117 80 216h-158v114h250
l182 180h-432v115h537q117 102 116 195q0 61 -47 105t-143 44q-155 0 -275 -149l-120 80q167 213 421 213z" />
    <glyph glyph-name="uni20B6.fitted" unicode="&#xf5fc;" horiz-adv-x="927" 
d="M344 1223v-486h125q154 0 229 80q60 66 60 168t-58 160q-76 78 -243 78h-113zM440 1366q248 0 358 -110t111 -276q0 -165 -102 -263q-117 -115 -330 -115h-133v-180h336v-115h-336v-307h-151v307h-156v115h156v180h-156v135h156v629h247z" />
    <glyph glyph-name="uni20B8.fitted" unicode="&#xf5fd;" horiz-adv-x="835" 
d="M825 1243h-815v123h815v-123zM825 997h-331v-997h-152v997h-332v144h815v-144z" />
    <glyph glyph-name="uniF639" unicode="&#xf639;" horiz-adv-x="1085" 
d="M543 1249q-141 1 -239 -155t-97 -412q0 -256 97 -412q96 -156 238 -156t239 156t98 412t-97 412t-239 155zM543 -25q-209 0 -348 202t-140 505t139 505t349 202t348 -202t139 -505t-139 -505t-348 -202z" />
    <glyph glyph-name="uniF63A" unicode="&#xf63a;" horiz-adv-x="983" 
d="M930 0h-883l498 575q127 150 160 199q75 110 75 218t-75 183q-76 75 -197 74q-147 0 -227 -121q-43 -66 -45 -161h-152q8 174 102 282q122 139 314 139t312 -115q120 -116 120 -292q0 -137 -109 -293q-55 -76 -186 -227l-285 -322h578v-139z" />
    <glyph glyph-name="uniF63B" unicode="&#xf63b;" horiz-adv-x="935" 
d="M471 1389q181 0 283 -109t102 -260q0 -215 -176 -303q52 -19 102 -69q95 -95 95 -271t-120 -289t-300 -113q-121 1 -225 57t-156 179q-27 66 -31 143h152q10 -84 49 -137q70 -102 197 -102t205 81t77 195q0 168 -135 230q-68 33 -156 28v135q88 -6 156 29q115 59 115 203
q1 100 -57 167t-175 67t-171 -70t-60 -152h-152q6 109 64 201q102 160 317 160z" />
    <glyph glyph-name="uniF63C" unicode="&#xf63c;" horiz-adv-x="1064" 
d="M702 397v604l-432 -604h432zM854 397h168v-139h-168v-258h-152v258h-700l852 1184v-1045z" />
    <glyph glyph-name="uniF63D" unicode="&#xf63d;" horiz-adv-x="1003" 
d="M940 1366v-139h-438l-88 -295q35 8 86 8q202 0 326 -135t124 -347t-144 -347t-336 -135t-323 106q-74 63 -118 139l121 86q31 -61 92 -110q100 -82 232 -82t228 102q96 103 96 249t-94 240q-96 94 -233 95q-137 0 -272 -94l198 659h543z" />
    <glyph glyph-name="uniF63E" unicode="&#xf63e;" horiz-adv-x="1015" 
d="M502 756q-138 0 -228 -90t-90 -228t90 -230q90 -93 229 -93q140 0 230 93t90 231q0 137 -91 227t-230 90zM532 895q195 0 319 -129t124 -328q0 -198 -132 -330t-337 -133q-152 0 -264 73q-210 137 -209 392q0 156 112 314l465 645l115 -86l-313 -436q57 18 120 18z" />
    <glyph glyph-name="uniF63F" unicode="&#xf63f;" horiz-adv-x="1081" 
d="M74 1227v139h1003l-913 -1399l-119 80l776 1180h-747z" />
    <glyph glyph-name="uniF640" unicode="&#xf640;" horiz-adv-x="950" 
d="M475 115q119 1 193 75t74 190t-76 188q-74 72 -191 73q-117 0 -191 -73q-74 -72 -75 -188t73 -190t193 -75zM475 772q100 0 167 68t67 172t-69 172q-69 66 -165 66t-165 -68q-68 -66 -68 -170t66 -172t167 -68zM893 377q0 -170 -110 -286q-111 -116 -309 -116t-308 116
t-109 286q0 242 207 334q-166 96 -166 299q0 156 100 268t277 111q177 0 277 -112t100 -267q0 -203 -166 -299q207 -92 207 -334z" />
    <glyph glyph-name="uniF641" unicode="&#xf641;" horiz-adv-x="1015" 
d="M513 1249q-140 0 -230 -93t-90 -231q0 -137 91 -227t230 -90t228 90t89 228t-89 230q-89 93 -229 93zM483 469q-195 0 -319 129t-123 328q0 198 132 330t337 133q152 0 264 -73q210 -137 209 -392q0 -158 -113 -314l-464 -643l-115 84l313 436q-59 -18 -121 -18z" />
    <glyph glyph-name="uniF6BA" unicode="&#xf6ba;" horiz-adv-x="655" 
d="M102 618v152h451v-152h-451z" />
    <glyph glyph-name="uniF6BB" unicode="&#xf6bb;" horiz-adv-x="1187" 
d="M143 629v131h901v-131h-901z" />
    <glyph glyph-name="uniF6BC" unicode="&#xf6bc;" horiz-adv-x="1638" 
d="M143 629v131h1352v-131h-1352z" />
    <glyph glyph-name="uniF6C3" unicode="&#xf6c3;" 
d="M348 -430l115 328l131 -50l-143 -319z" />
    <glyph glyph-name="uniF6C9" unicode="&#xf6c9;" 
d="M680 1806l143 -92l-313 -239l-88 65z" />
    <glyph glyph-name="uniF6CA" unicode="&#xf6ca;" 
d="M512 1649l180 155l107 -84l-287 -243l-287 243l107 84z" />
    <glyph glyph-name="uniF6CB" unicode="&#xf6cb;" 
d="M602 1606q0 44 31 74t74 30t73 -31t31 -73q0 -42 -31 -74q-32 -31 -74 -31t-73 31t-31 74zM213 1606q0 44 31 74q32 30 74 30t73 -31t31 -73t-31 -74q-31 -31 -74 -31t-73 31t-31 74z" />
    <glyph glyph-name="uniF6CE" unicode="&#xf6ce;" 
d="M514 1475l-313 239l143 92l258 -266z" />
    <glyph glyph-name="uniF6CF" unicode="&#xf6cf;" 
d="M827 1806l144 -82l-301 -249l-88 53zM520 1806l144 -82l-302 -249l-88 53z" />
    <glyph glyph-name="uniF6D0" unicode="&#xf6d0;" 
d="M184 1501v131h656v-131h-656z" />
    <glyph glyph-name="uniF6D1" unicode="&#xf6d1;" 
d="M506 1608q20 0 36 3q73 13 103 43q29 30 41 68l143 -47q-17 -49 -63 -99q-92 -101 -254 -100q-163 1 -244 89q-57 63 -73 110l143 47q24 -79 106 -102q42 -12 62 -12z" />
    <glyph glyph-name="uniF6D4" unicode="&#xf6d4;" 
d="M512 1141q137 0 174 123l123 -47q-33 -91 -112 -145t-185 -54t-185 54t-112 145l123 47q37 -123 174 -123z" />
    <glyph glyph-name="uniF6DC" unicode="&#xf6dc;" horiz-adv-x="468" 
d="M233 0v1223h-229l80 143h301v-1366h-152z" />
    <glyph glyph-name="uniF6DE" unicode="&#xf6de;" horiz-adv-x="1228" 
d="M106 371v131h1014v-131h-1014z" />
    <glyph glyph-name="nbspace" horiz-adv-x="477" 
 />
    <glyph glyph-name="hyphenminus" horiz-adv-x="655" 
d="M102 360v152h451v-152h-451z" />
    <glyph glyph-name="dotlessi1" horiz-adv-x="425" 
d="M139 850h148v-850h-148v850z" />
    </font>
</defs>
</svg>
