<?xml version="1.0" standalone="no"?>
<!DOCTYPE svg PUBLIC "-//W3C//DTD SVG 1.1//EN" "http://www.w3.org/Graphics/SVG/1.1/DTD/svg11.dtd" >
<svg xmlns="http://www.w3.org/2000/svg" xmlns:xlink="http://www.w3.org/1999/xlink" version="1.1">
<metadata>
Created by FontForge 20170731 at Tue Jan 27 12:39:43 2015
 By Aleksey,,,
Copyright (c) 1995 ParaGraph Intl., (c) 1998 ParaType Inc., ParaType Ltd. All rights reserved.
</metadata>
<defs>
<font id="FuturaPT-Bold" horiz-adv-x="1024" >
  <font-face 
    font-family="FuturaPT-Bold"
    font-weight="700"
    font-stretch="normal"
    units-per-em="2048"
    panose-1="2 11 9 2 2 2 4 2 2 3"
    ascent="1563"
    descent="-485"
    x-height="915"
    cap-height="1366"
    bbox="-801 -532 2644 2005"
    underline-thickness="102"
    underline-position="-306"
    unicode-range="U+0020-FB02"
  />
<missing-glyph horiz-adv-x="477" 
 />
    <glyph glyph-name="afii10017.var.accented" unicode="&#x410;`" horiz-adv-x="1454" 
d="M836 1903l206 -150l-315 -278l-152 112zM580 500h303l-154 442zM1061 0l-84 229h-496l-92 -229h-375l525 1366h387l514 -1366h-379z" />
    <glyph glyph-name="afii10022.var.accented" unicode="&#x415;`" horiz-adv-x="1001" 
d="M608 1903l207 -150l-315 -278l-152 112zM920 1366v-301h-422v-227h399v-301h-399v-236h422v-301h-777v1366h777z" />
    <glyph glyph-name="afii10026.var.accented" unicode="&#x418;`" horiz-adv-x="1517" 
d="M866 1903l207 -150l-315 -278l-152 112zM143 1366h357v-860l512 860h362v-1366h-356v860l-512 -860h-363v1366z" />
    <glyph glyph-name="afii10032.var.accented" unicode="&#x41e;`" horiz-adv-x="1671" 
d="M946 1903l207 -150l-315 -278l-152 112zM832 1053q-164 1 -273 -107t-109 -264t112 -262q110 -106 276 -107q166 0 274 109q108 108 109 262q-1 154 -113 262t-276 107zM1589 682q0 -303 -214 -508q-213 -205 -539 -205t-540 205t-214 508q0 141 54 276t161 236
q213 203 539 203t538 -203q106 -100 160 -236t55 -276z" />
    <glyph glyph-name="afii10037.var.accented" unicode="&#x423;`" horiz-adv-x="1275" 
d="M745 1903l207 -150l-315 -278l-152 112zM0 1366h397l260 -608l228 608h379l-615 -1366h-375l191 383z" />
    <glyph glyph-name="afii10045.var.accented" unicode="&#x42b;`" horiz-adv-x="1800" 
d="M1008 1903l206 -150l-315 -278l-151 112zM637 559h-137v-285h137q113 0 152 39t38 105q0 141 -190 141zM1188 418q0 -418 -537 -418h-508v1366h357v-532h172q279 0 407 -127q109 -106 109 -289zM1300 0v1366h357v-1366h-357z" />
    <glyph glyph-name="afii10047.var.accented" unicode="&#x42d;`" horiz-adv-x="1265" 
d="M639 1903l207 -150l-316 -278l-151 112zM457 285q151 -1 241 75t115 199h-520v275h508q-23 110 -108 180t-236 69q-209 0 -355 -159v370q203 100 402 101q305 0 492 -195q188 -194 188 -514t-205 -530q-180 -186 -487 -187q-126 0 -214 28t-176 75v354q141 -141 355 -141
z" />
    <glyph glyph-name="afii10048.var.accented" unicode="&#x42e;`" horiz-adv-x="2224" 
d="M1221 1903l206 -150l-315 -278l-151 112zM1394 1053q-157 0 -268 -111q-110 -112 -110 -264t110 -258t266 -106t268 110t112 262t-110 260t-268 107zM498 838h176q44 238 232 398t478 161q330 0 539 -201q103 -96 161 -230t58 -280t-58 -282t-161 -234
q-209 -201 -521 -201t-505 173q-192 173 -223 421h-176v-563h-355v1366h355v-528z" />
    <glyph glyph-name="afii10049.var.accented" unicode="&#x42f;`" horiz-adv-x="1265" 
d="M741 1903l207 -150l-315 -278l-152 112zM465 903q0 -164 201 -164h100v328h-100q-102 0 -152 -45t-49 -119zM596 1366h526v-1366h-356v465h-35l-293 -465h-409l381 514q-119 20 -203 107q-107 109 -107 299t113 309q129 137 383 137z" />
    <glyph glyph-name="afii10023.var.accented" unicode="&#x401;`" horiz-adv-x="1001" 
d="M717 1698q0 59 41 99t98 40t98 -40t41 -99q0 -60 -41 -100t-98 -40t-98 41q-41 40 -41 99zM61 1698q0 59 41 99q40 40 98 40t99 -40t41 -99q0 -60 -41 -100t-98 -40t-99 40q-41 41 -41 100zM565 1903l156 -117l-295 -279l-100 80zM920 1366v-301h-422v-227h399v-301h-399
v-236h422v-301h-777v1366h777z" />
    <glyph glyph-name="afii10065.var.accented" unicode="&#x430;`" horiz-adv-x="1261" 
d="M743 1493l207 -150l-315 -278l-152 113zM622 668q-83 0 -147 -62q-63 -62 -63 -149q0 -89 64 -149t148 -60q83 0 145 62t62 150t-63 148t-146 60zM821 915h328v-915h-328v100q-93 -131 -285 -131q-192 1 -326 143t-134 353t135 346t319 135t291 -119v88z" />
    <glyph glyph-name="afii10070.var.accented" unicode="&#x435;`" horiz-adv-x="1159" 
d="M694 1493l207 -150l-315 -278l-152 113zM595 733q-85 0 -134 -49q-41 -45 -49 -98h370q-14 59 -58 103t-129 44zM594 199q122 0 164 86h313q-31 -111 -110 -189q-131 -127 -372 -127q-241 -1 -378 137t-137 354t137 349t365 133t368 -132q139 -132 139 -378v-35h-682
q-1 -96 51 -147t142 -51z" />
    <glyph glyph-name="afii10074.var.accented" unicode="&#x438;`" horiz-adv-x="1200" 
d="M711 1493l207 -150l-316 -278l-151 113zM113 915h327v-471l363 471h284v-915h-327v483l-359 -483h-288v915z" />
    <glyph glyph-name="afii10080.var.accented" unicode="&#x43e;`" horiz-adv-x="1251" 
d="M741 1493l207 -150l-315 -278l-152 113zM1176 459q0 -199 -148 -345t-402 -145q-254 -1 -402 145t-148 345t148 343t400 144t402 -144t150 -343zM626 668q-82 0 -146 -60t-64 -145q0 -87 62 -149t148 -62t147 60q63 60 63 146t-64 148t-146 62z" />
    <glyph glyph-name="afii10085.var.accented" unicode="&#x443;`" horiz-adv-x="1236" 
d="M731 1493l207 -150l-315 -278l-152 113zM135 -469l307 594l-442 790h381l244 -469l237 469h375l-735 -1384h-367z" />
    <glyph glyph-name="afii10093.var.accented" unicode="&#x44b;`" horiz-adv-x="1519" 
d="M872 1493l207 -150l-315 -278l-152 113zM563 213q111 0 111 93t-115 91h-119v-184h123zM440 610h224q160 0 244 -81t83 -221q0 -140 -84 -224t-243 -84h-551v915h327v-305zM1079 0v915h328v-915h-328z" />
    <glyph glyph-name="afii10095.var.accented" unicode="&#x44d;`" horiz-adv-x="974" 
d="M520 1493l207 -150l-315 -278l-152 113zM401 944q229 0 363 -130t135 -358q0 -228 -136 -358q-136 -129 -374 -129q-150 1 -295 62v274q100 -88 246 -88q199 0 235 139h-352v213h352q-51 133 -229 131q-144 0 -252 -100v270q135 74 307 74z" />
    <glyph glyph-name="afii10096.var.accented" unicode="&#x44e;`" horiz-adv-x="1667" 
d="M950 1493l207 -150l-315 -278l-152 113zM440 606h97q47 144 179 242t324 98q252 0 410 -151q141 -141 141 -339t-141 -335q-152 -152 -412 -152t-395 140q-90 94 -115 239h-88v-348h-327v915h327v-309zM1045 668q-91 0 -152 -62t-61 -146t60 -146t148 -62t148 60t61 146
q-1 86 -57 148t-147 62z" />
    <glyph glyph-name="afii10097.var.accented" unicode="&#x44f;`" horiz-adv-x="1069" 
d="M647 1493l207 -150l-315 -278l-152 113zM399 596q0 -106 127 -104h103v210h-99q-131 0 -131 -106zM80 602q0 131 86 222t307 91h483v-915h-327v291h-27l-201 -291h-344l254 319q-95 18 -163 85t-68 198z" />
    <glyph glyph-name="afii10071.var.accented" unicode="&#x451;`" horiz-adv-x="1159" 
d="M80 1284q0 59 42 101t101 42t101 -42t43 -101q0 -59 -42 -101q-41 -42 -101 -42t-102 42t-42 101zM760 1284q0 59 42 101t101 42t101 -42t43 -101q0 -59 -42 -101q-41 -42 -101 -42t-102 42t-42 101zM602 1493l154 -117l-291 -278l-98 80zM595 733q-85 0 -134 -49
q-41 -45 -49 -98h370q-14 59 -58 103t-129 44zM594 199q122 0 164 86h313q-31 -111 -110 -189q-131 -127 -372 -127q-241 -1 -378 137t-137 354t137 349t365 133t368 -132q139 -132 139 -378v-35h-682q-1 -96 51 -147t142 -51z" />
    <glyph glyph-name="fi" unicode="fi" horiz-adv-x="1196" 
d="M776 915h328v-915h-328v915zM694 647h-229v-647h-328v647h-114v268h114v113q0 238 128 362t358 126q104 0 204 -32q277 -89 277 -399v-47h-328v31q0 82 -41 123t-113 41t-114 -46q-43 -46 -43 -143v-129h229v-268z" />
    <glyph glyph-name="fl" unicode="fl" horiz-adv-x="1216" 
d="M776 1032q0 201 -153 201q-72 0 -115 -47t-43 -142v-129h229v-268h-229v-647h-328v647h-114v268h114v121q0 227 129 353q130 127 360 127t363 -136q71 -74 93 -158t22 -198v-1024h-328v1032z" />
    <glyph glyph-name=".notdef" horiz-adv-x="477" 
 />
    <glyph glyph-name=".null" horiz-adv-x="0" 
 />
    <glyph glyph-name="nonmarkingreturn" horiz-adv-x="681" 
 />
    <glyph glyph-name="space" unicode=" " horiz-adv-x="477" 
 />
    <glyph glyph-name="exclam" unicode="!" horiz-adv-x="698" 
d="M350 -39q-86 -1 -149 63t-64 150t63 150t150 63q86 0 148 -62q62 -63 63 -151q-1 -88 -63 -150t-148 -63zM518 465h-340v901h340v-901z" />
    <glyph glyph-name="quotedbl" unicode="&#x22;" horiz-adv-x="845" 
d="M762 1366l-49 -549h-197l-49 549h295zM379 1366l-51 -549h-195l-49 549h295z" />
    <glyph glyph-name="numbersign" unicode="#" horiz-adv-x="1228" 
d="M700 612l27 170h-174l-27 -170h174zM973 612h207l-35 -239h-209l-59 -373h-275l62 373h-175l-59 -373h-270l61 373h-209l37 239h207l29 170h-207l37 238h207l55 346h270l-57 -346h174l55 346h273l-56 -346h205l-37 -238h-205z" />
    <glyph glyph-name="dollar" unicode="$" horiz-adv-x="1228" 
d="M592 281q86 0 128 42t42 90q0 47 -35 73t-98 46l-121 41q-158 53 -225 127q-88 90 -88 252t99 272t253 138v225h205v-225q150 -8 309 -105l-135 -262q-114 88 -214 88q-100 1 -135 -31t-35 -72t29 -69q35 -31 95 -51l106 -37q160 -53 238 -129q102 -100 102 -250
q0 -188 -115 -309q-92 -94 -245 -133v-231h-205v221q-117 2 -229 48t-201 118l147 274q155 -151 328 -151z" />
    <glyph glyph-name="percent" unicode="%" horiz-adv-x="1832" 
d="M1765 320q0 -136 -96 -236t-278 -100t-287 108q-86 92 -86 227t84 226q96 109 284 109t284 -100q95 -98 95 -234zM1546 322q0 68 -45 109q-45 42 -111 42t-109 -46q-42 -46 -42 -112q0 -65 47 -107q48 -42 108 -42t107 43q45 45 45 113zM596 1048q0 68 -46 110t-112 42
t-108 -46t-41 -112q0 -66 47 -107q47 -42 107 -42t108 43q45 45 45 112zM432 0l791 1366h178l-793 -1366h-176zM815 1047q-1 -135 -97 -235t-278 -101q-182 0 -286 108q-86 92 -86 227t84 226q96 108 284 108t284 -99t95 -234z" />
    <glyph glyph-name="ampersand" unicode="&#x26;" horiz-adv-x="1548" 
d="M725 868q125 67 125 167q0 56 -36 88t-83 32t-81 -31t-34 -76q0 -76 109 -180zM449 412q-1 -56 41 -94t126 -38t177 60l-215 231q-129 -74 -129 -159zM82 354q0 281 326 396q-45 54 -86 120t-41 156q-1 141 111 256t314 115q202 1 314 -109t113 -248q0 -138 -95 -231
q-70 -70 -159 -107l172 -180q98 91 178 195l201 -195q-82 -104 -187 -198l305 -324h-442l-119 125q-213 -156 -445 -156t-349 115q-111 106 -111 270z" />
    <glyph glyph-name="quotesingle" unicode="'" horiz-adv-x="460" 
d="M379 1366l-51 -549h-195l-49 549h295z" />
    <glyph glyph-name="parenleft" unicode="(" horiz-adv-x="724" 
d="M420 543q0 -445 209 -805l-232 -123q-127 184 -193 436q-66 253 -66 521q-1 494 259 921l232 -123q-209 -382 -209 -827z" />
    <glyph glyph-name="parenright" unicode=")" horiz-adv-x="724" 
d="M305 544q0 446 -209 826l232 123q124 -203 192 -427t68 -494t-66 -521q-66 -252 -194 -436l-232 123q209 360 209 806z" />
    <glyph glyph-name="asterisk" unicode="*" horiz-adv-x="1325" 
d="M358 1354l211 -90l-20 229h225l-20 -229l213 90l69 -211l-225 -53l152 -175l-181 -131l-120 195l-119 -195l-181 131l152 172l-225 54z" />
    <glyph glyph-name="plus" unicode="+" 
d="M68 573v246h311v314h266v-314h311v-246h-311v-313h-266v313h-311z" />
    <glyph glyph-name="comma" unicode="," horiz-adv-x="851" 
d="M-18 -305l256 647h307l-352 -647h-211z" />
    <glyph glyph-name="hyphen" unicode="-" horiz-adv-x="722" 
d="M102 414v272h519v-272h-519z" />
    <glyph glyph-name="period" unicode="." horiz-adv-x="620" 
d="M311 -39q-86 -1 -149 63t-64 150q0 86 64 150t149 63q87 0 149 -62q62 -63 62 -151t-62 -150t-149 -63z" />
    <glyph glyph-name="slash" unicode="/" horiz-adv-x="1376" 
d="M-61 -385l1046 1878h268l-1048 -1878h-266z" />
    <glyph glyph-name="zero" unicode="0" horiz-adv-x="1228" 
d="M1194 683q0 -359 -203 -558q-158 -156 -377 -156t-376 156q-203 199 -203 558t203 558q158 156 376 156t377 -156q203 -199 203 -558zM614 1079q-61 0 -111 -44t-83 -149q-33 -106 -33 -202t32 -204t83 -154t112 -45q62 0 112 45t83 150q33 106 33 202t-34 205t-84 153
t-110 43z" />
    <glyph glyph-name="one" unicode="1" horiz-adv-x="1228" 
d="M479 0v1065h-194v301h549v-1366h-355z" />
    <glyph glyph-name="two" unicode="2" horiz-adv-x="1228" 
d="M606 1094q-70 0 -114 -56t-48 -168h-366q2 230 150 378t390 148t379 -136q137 -138 137 -348t-202 -398l-230 -213h447v-301h-1096l346 362q355 372 355 552t-148 180z" />
    <glyph glyph-name="three" unicode="3" horiz-adv-x="1228" 
d="M795 454q-1 70 -51 112t-134 42q-35 0 -59 -8v240q90 -12 140 30t50 102t-36 97q-37 37 -101 37t-104 -39q-41 -39 -41 -117h-330q10 190 133 314q126 133 352 133t343 -116t116 -269q0 -94 -40 -167t-105 -106q100 -37 160 -123t59 -202q0 -178 -121 -299
q-144 -145 -396 -145t-403 141q-150 137 -170 356h363q4 -86 54 -138q50 -53 137 -53t143 60q41 47 41 118z" />
    <glyph glyph-name="four" unicode="4" horiz-adv-x="1228" 
d="M684 530v557l-322 -557h322zM1012 1366v-836h166v-272h-166v-258h-328v258h-661v227l526 881h463z" />
    <glyph glyph-name="five" unicode="5" horiz-adv-x="1228" 
d="M516 266q115 0 173 62q59 62 59 149q0 86 -71 149q-71 62 -225 62t-268 -57l119 735h711v-301h-473l-25 -152q63 10 111 11q229 0 360 -136q125 -126 125 -328t-140 -346t-412 -145q-271 0 -466 123l53 332q171 -158 369 -158z" />
    <glyph glyph-name="six" unicode="6" horiz-adv-x="1228" 
d="M606 250q94 0 158 63q63 63 63 151q-1 88 -65 149q-64 63 -154 63t-156 -60t-67 -147q0 -86 59 -150q68 -69 162 -69zM752 944q178 0 308 -130t130 -336t-141 -347q-162 -162 -443 -162t-442 166q-125 129 -125 320q0 242 203 510l305 401h403l-389 -465q96 43 191 43z
" />
    <glyph glyph-name="seven" unicode="7" horiz-adv-x="1228" 
d="M172 1065v301h1120l-782 -1366h-391l622 1065h-569z" />
    <glyph glyph-name="eight" unicode="8" horiz-adv-x="1228" 
d="M778 416q0 68 -49 114t-113 45q-64 0 -116 -47q-49 -48 -49 -114t48 -114q47 -48 115 -48t116 48t48 116zM610 1159q-62 0 -104 -46t-41 -101q0 -56 43 -102t105 -46q63 0 107 44t44 106t-46 104t-108 41zM206 631q56 55 159 88q-74 29 -123 78q-92 93 -92 231t112 244
q134 125 362 125t355 -131q100 -100 100 -240q0 -231 -223 -307q102 -31 176 -105q104 -102 104 -245t-110 -254q-146 -145 -412 -145t-409 143q-113 113 -113 259q0 147 114 259z" />
    <glyph glyph-name="nine" unicode="9" horiz-adv-x="1228" 
d="M624 1116q-91 0 -158 -66t-67 -154q0 -87 66 -148q66 -62 158 -62q91 0 159 60t68 150t-66 155q-69 65 -160 65zM485 418q-186 0 -318 130t-132 332t137 345q168 172 446 172t441 -162q135 -139 135 -338q0 -233 -207 -502l-305 -395h-401l387 461q-80 -43 -183 -43z" />
    <glyph glyph-name="colon" unicode=":" horiz-adv-x="620" 
d="M311 -31q-86 -1 -149 63t-64 150q0 86 64 150t149 63q87 0 149 -62q62 -63 62 -151t-62 -150t-149 -63zM311 520q-86 0 -149 64t-64 149q0 85 64 149t149 64q87 0 149 -62t62 -150t-62 -152q-62 -62 -149 -62z" />
    <glyph glyph-name="semicolon" unicode=";" horiz-adv-x="804" 
d="M379 520q-85 0 -149 64t-64 149t63 149t149 64t149 -62t63 -150t-62 -152q-62 -62 -149 -62zM-18 -305l256 647h307l-352 -647h-211z" />
    <glyph glyph-name="less" unicode="&#x3c;" 
d="M68 797l888 450v-262l-608 -301l608 -303v-262l-888 454v224z" />
    <glyph glyph-name="equal" unicode="=" 
d="M68 403v232h888v-232h-888zM68 758v231h888v-231h-888z" />
    <glyph glyph-name="greater" unicode="&#x3e;" 
d="M956 571l-888 -452v264l608 301l-608 301v262l888 -452v-224z" />
    <glyph glyph-name="question" unicode="?" horiz-adv-x="1120" 
d="M553 -31q-85 -1 -149 63t-64 150t63 150t149 63q86 0 150 -62q62 -63 62 -151t-62 -150t-149 -63zM711 473h-334v332q37 -10 69 -10q125 0 193 67q47 46 47 110t-35 101t-95 37t-91 -35q-37 -37 -37 -102h-360q8 176 132 300t346 124t357 -127q135 -126 135 -286
t-94 -266t-233 -136v-109z" />
    <glyph glyph-name="at" unicode="@" horiz-adv-x="1501" 
d="M773 838q-54 0 -103 -50q-66 -61 -66 -144t38 -122t94 -39t106 49q66 70 66 150t-44 123q-37 33 -91 33zM1061 537q0 -72 45 -72q30 0 68 33q38 34 69 120t31 171t-35 169t-93 140t-154 92q-96 35 -195 35q-229 0 -390 -161q-161 -162 -161 -404t170 -396
q139 -125 383 -125q180 0 368 62l41 -164q-199 -61 -415 -62q-311 0 -508 183q-102 94 -160 229q-57 135 -57 285t58 284q118 271 392 378t538 4q130 -50 222 -148q156 -166 156 -398t-146 -384q-90 -92 -190 -93q-47 0 -94 28t-66 83q-92 -129 -254 -129q-111 0 -186 74
q-102 97 -102 255t112 285q110 117 242 117t202 -98l15 78l182 -2l-76 -388q-12 -57 -12 -81z" />
    <glyph glyph-name="A" unicode="A" horiz-adv-x="1454" 
d="M580 500h303l-154 442zM1061 0l-84 229h-496l-92 -229h-375l525 1366h387l514 -1366h-379z" />
    <glyph glyph-name="B" unicode="B" horiz-adv-x="1265" 
d="M498 563v-287h80q172 0 219 56q29 33 29 92t-40 99t-215 40h-73zM563 827q168 -1 168 133t-168 134h-65v-267h65zM713 0h-570v1366h529q203 0 293 -99t90 -263q0 -90 -39 -168q-41 -76 -111 -107q115 -12 187 -82q92 -88 92 -253t-101 -265q-124 -129 -370 -129z" />
    <glyph glyph-name="C" unicode="C" horiz-adv-x="1206" 
d="M817 -31q-319 0 -528 205q-98 98 -153 230q-54 132 -54 270t56 272q56 133 151 230q209 213 516 213q147 0 319 -70v-424q-121 150 -309 149q-145 0 -246 -90q-119 -110 -119 -276t106 -265q105 -99 271 -99t297 143v-420q-186 -68 -307 -68z" />
    <glyph glyph-name="D" unicode="D" horiz-adv-x="1423" 
d="M584 1065h-86v-764h71q199 0 301 99t103 280q0 385 -389 385zM639 0h-496v1366h465q348 0 540 -185t193 -491q0 -456 -403 -632q-135 -58 -299 -58z" />
    <glyph glyph-name="E" unicode="E" horiz-adv-x="1001" 
d="M920 1366v-301h-422v-227h399v-301h-399v-236h422v-301h-777v1366h777z" />
    <glyph glyph-name="F" unicode="F" horiz-adv-x="993" 
d="M926 1366v-301h-428v-227h389v-301h-389v-537h-355v1366h783z" />
    <glyph glyph-name="G" unicode="G" horiz-adv-x="1585" 
d="M799 498v276h704q0 -211 -50 -357t-169 -257q-184 -172 -496 -172t-508 200q-198 200 -198 503q0 304 203 505t532 201q217 0 373 -95t240 -278l-338 -139q-33 81 -107 143q-73 62 -197 62t-219 -95q-119 -119 -119 -306t104 -297t240 -109q136 0 208 59t88 156h-291z
" />
    <glyph glyph-name="H" unicode="H" horiz-adv-x="1509" 
d="M498 1366v-510h512v510h356v-1366h-356v553h-512v-553h-355v1366h355z" />
    <glyph glyph-name="I" unicode="I" horiz-adv-x="641" 
d="M143 1366h355v-1366h-355v1366z" />
    <glyph glyph-name="J" unicode="J" horiz-adv-x="958" 
d="M362 274q99 0 99 160v932h354v-940q1 -110 -21 -182t-96 -146q-129 -129 -340 -129t-344 201l232 238q8 -74 44 -104t72 -30z" />
    <glyph glyph-name="K" unicode="K" horiz-adv-x="1433" 
d="M498 1366v-563l434 563h438l-543 -647l592 -719h-458l-463 592v-592h-355v1366h355z" />
    <glyph glyph-name="L" unicode="L" horiz-adv-x="962" 
d="M143 1366h355v-1065h426v-301h-781v1366z" />
    <glyph glyph-name="M" unicode="M" horiz-adv-x="1873" 
d="M434 0h-352l231 1366h351l276 -729l293 729h354l205 -1366h-354l-101 786l-329 -786h-142l-315 786z" />
    <glyph glyph-name="N" unicode="N" horiz-adv-x="1648" 
d="M498 0h-355v1366h355l653 -836v836h354v-1366h-354l-653 836v-836z" />
    <glyph glyph-name="O" unicode="O" horiz-adv-x="1671" 
d="M832 1053q-164 1 -273 -107t-109 -264t112 -262q110 -106 276 -107q166 0 274 109q108 108 109 262q-1 154 -113 262t-276 107zM1589 682q0 -303 -214 -508q-213 -205 -539 -205t-540 205t-214 508q0 141 54 276t161 236q213 203 539 203t538 -203q106 -100 160 -236
t55 -276z" />
    <glyph glyph-name="P" unicode="P" horiz-adv-x="1226" 
d="M811 907q0 172 -193 172h-120v-340h118q102 0 148 41t47 127zM721 453h-223v-453h-355v1366h566q219 0 346 -123t127 -338t-121 -333t-340 -119z" />
    <glyph glyph-name="Q" unicode="Q" horiz-adv-x="1671" 
d="M834 1053q-162 0 -272 -114q-110 -115 -110 -269t106 -255t273 -102q53 0 111 15l-217 217l334 43l94 -103q63 90 64 201q0 63 -30 133t-82 122t-127 82t-144 30zM844 -31q-360 0 -570 226q-193 205 -192 493q0 144 56 276t155 226q213 207 541 207q152 0 294 -52
t248 -153q211 -203 211 -514q0 -145 -50 -264t-130 -197l235 -242l-325 -49l-115 131q-162 -88 -358 -88z" />
    <glyph glyph-name="R" unicode="R" horiz-adv-x="1284" 
d="M498 1092v-338h67q115 0 166 50t51 121t-47 113q-53 53 -170 54h-67zM143 1366h553q217 0 334 -120t117 -304t-109 -289q-76 -72 -188 -94l428 -559h-440l-340 524v-524h-355v1366z" />
    <glyph glyph-name="S" unicode="S" horiz-adv-x="1169" 
d="M719 402q0 50 -36 81t-179 74l-92 29q-137 43 -197 110q-78 84 -78 242q0 205 127 332t343 127t427 -111l-141 -276q-117 92 -234 92q-75 0 -113 -38t-38 -76t24 -68t113 -56l109 -33q172 -53 254 -141t82 -237q0 -215 -134 -349t-395 -134t-479 153l151 287
q147 -139 314 -140q94 0 137 47q35 35 35 85z" />
    <glyph glyph-name="T" unicode="T" horiz-adv-x="964" 
d="M950 1065h-291v-1065h-354v1065h-291v301h936v-301z" />
    <glyph glyph-name="U" unicode="U" horiz-adv-x="1476" 
d="M143 1366h355v-809q0 -143 69 -211q70 -66 168 -66t164 60q37 33 56 83t22 80q2 30 2 85v778h354v-784q0 -90 -6 -148t-42 -142q-36 -83 -105 -153q-168 -170 -459 -170t-445 164q-133 145 -133 449v784z" />
    <glyph glyph-name="V" unicode="V" horiz-adv-x="1431" 
d="M0 1366h387l328 -831l332 831h385l-582 -1366h-277z" />
    <glyph glyph-name="W" unicode="W" horiz-adv-x="2076" 
d="M0 1366h371l237 -883l289 883h283l268 -883l258 883h371l-437 -1366h-362l-248 791l-262 -791h-360z" />
    <glyph glyph-name="X" unicode="X" horiz-adv-x="1456" 
d="M0 0l535 729l-439 637h439l202 -354l211 354h436l-444 -637l516 -729h-430l-291 444l-307 -444h-428z" />
    <glyph glyph-name="Y" unicode="Y" horiz-adv-x="1310" 
d="M469 0v655l-494 711h424l258 -373l248 373h430l-510 -711v-655h-356z" />
    <glyph glyph-name="Z" unicode="Z" horiz-adv-x="1292" 
d="M1196 301v-301h-1169l647 1065h-537v301h1129l-643 -1065h573z" />
    <glyph glyph-name="bracketleft" unicode="[" horiz-adv-x="690" 
d="M608 1303h-184v-1496h184v-192h-444v1878h444v-190z" />
    <glyph glyph-name="backslash" unicode="\" horiz-adv-x="1376" 
d="M1438 -385h-267l-1048 1878h268z" />
    <glyph glyph-name="bracketright" unicode="]" horiz-adv-x="690" 
d="M266 1303h-184v190h444v-1878h-444v192h184v1496z" />
    <glyph glyph-name="asciicircum" unicode="^" 
d="M512 1153l-225 -477h-277l328 690h348l330 -690h-279z" />
    <glyph glyph-name="underscore" unicode="_" 
d="M0 -365v271h1024v-271h-1024z" />
    <glyph glyph-name="grave" unicode="`" 
d="M512 1065l-315 278l209 150l258 -315z" />
    <glyph glyph-name="a" unicode="a" horiz-adv-x="1261" 
d="M622 668q-83 0 -147 -62q-63 -62 -63 -149q0 -89 64 -149t148 -60q83 0 145 62t62 150t-63 148t-146 60zM821 915h328v-915h-328v100q-93 -131 -285 -131q-192 1 -326 143t-134 353t135 346t319 135t291 -119v88z" />
    <glyph glyph-name="b" unicode="b" horiz-adv-x="1261" 
d="M644 248q81 0 143 62q63 62 63 148t-62 148t-150 62q-89 0 -148 -64q-60 -64 -60 -150t66 -146t148 -60zM113 1493h327v-666q112 119 290 119t306 -123q150 -141 150 -362t-140 -357t-321 -135q-182 0 -285 131v-100h-327v1493z" />
    <glyph glyph-name="c" unicode="c" horiz-adv-x="878" 
d="M578 -31q-218 1 -360 139t-142 346t146 349t370 141q111 0 213 -51v-275q-84 60 -175 60q-90 0 -154 -64t-64 -155q0 -92 62 -159q62 -66 160 -66q99 0 171 61v-275q-104 -51 -227 -51z" />
    <glyph glyph-name="d" unicode="d" horiz-adv-x="1261" 
d="M618 248q82 0 148 59t66 147t-60 150q-59 64 -148 64q-88 0 -150 -62t-62 -147q0 -87 62 -149t144 -62zM1149 1493v-1493h-328v100q-102 -131 -284 -131q-181 0 -321 135q-140 134 -140 356t149 363q129 123 307 123t289 -119v666h328z" />
    <glyph glyph-name="e" unicode="e" horiz-adv-x="1159" 
d="M595 733q-85 0 -134 -49q-41 -45 -49 -98h370q-14 59 -58 103t-129 44zM594 199q122 0 164 86h313q-31 -111 -110 -189q-131 -127 -372 -127q-241 -1 -378 137t-137 354t137 349t365 133t368 -132q139 -132 139 -378v-35h-682q-1 -96 51 -147t142 -51z" />
    <glyph glyph-name="f" unicode="f" horiz-adv-x="706" 
d="M694 647h-229v-647h-328v647h-114v268h114v154q0 188 84 301q109 145 318 146q80 0 157 -31v-283q-51 31 -107 31t-90 -38t-34 -151v-129h229v-268z" />
    <glyph glyph-name="g" unicode="g" horiz-adv-x="1255" 
d="M831 460q0 86 -62 148t-147 62q-86 0 -148 -64t-62 -148t61 -144q61 -62 149 -62t148 61q61 61 61 147zM815 915h328v-858q0 -123 -24 -211t-101 -168q-144 -147 -408 -147t-424 162q-84 88 -100 190h365q31 -94 153 -94q92 0 152 56t59 165v92q-115 -121 -274 -120
q-213 0 -339 130t-126 340t134 350t316 140t289 -121v94z" />
    <glyph glyph-name="h" unicode="h" horiz-adv-x="1198" 
d="M725 936q178 0 276 -98q55 -56 71 -114t15 -142v-582h-327v463q0 133 -38 175t-111 42t-121 -45t-50 -143v-492h-327v1493h327v-692q107 135 285 135z" />
    <glyph glyph-name="i" unicode="i" horiz-adv-x="550" 
d="M92 1296q0 76 54 130t130 54t130 -54t55 -130q0 -76 -54 -130q-55 -54 -131 -54t-130 54t-54 130zM113 915h327v-915h-327v915z" />
    <glyph glyph-name="j" unicode="j" horiz-adv-x="550" 
d="M92 1296q0 76 54 130t130 54t130 -54t55 -130q0 -76 -54 -130q-55 -54 -131 -54t-130 54t-54 130zM113 915h327v-1384h-327v1384z" />
    <glyph glyph-name="k" unicode="k" horiz-adv-x="1230" 
d="M113 1493h327v-907l310 329h444l-432 -421l467 -494h-455l-334 375v-375h-327v1493z" />
    <glyph glyph-name="l" unicode="l" horiz-adv-x="550" 
d="M113 1493h327v-1493h-327v1493z" />
    <glyph glyph-name="m" unicode="m" horiz-adv-x="1787" 
d="M588 686q-146 0 -148 -233v-453h-327v915h327v-110q104 127 275 127q215 0 303 -172q96 172 315 172q340 0 340 -336v-596h-327v453q0 151 -42 189t-95 38q-54 0 -93 -37q-59 -57 -59 -174v-469h-328v453q0 153 -39 193t-102 40z" />
    <glyph glyph-name="n" unicode="n" horiz-adv-x="1198" 
d="M113 0v915h327v-114q102 135 282 135t279 -98q53 -52 69 -110t17 -146v-582h-327v463q0 135 -39 176t-110 41t-121 -46t-50 -142v-492h-327z" />
    <glyph glyph-name="o" unicode="o" horiz-adv-x="1251" 
d="M1176 459q0 -199 -148 -345t-402 -145q-254 -1 -402 145t-148 345t148 343t400 144t402 -144t150 -343zM626 668q-82 0 -146 -60t-64 -145q0 -87 62 -149t148 -62t147 60q63 60 63 146t-64 148t-146 62z" />
    <glyph glyph-name="p" unicode="p" horiz-adv-x="1261" 
d="M642 668q-87 0 -149 -62q-63 -62 -63 -148t62 -148t150 -62q87 0 147 62q61 62 61 148t-64 148q-57 62 -144 62zM440 -469h-327v1384h327v-100q104 131 289 131t321 -136t136 -353t-148 -361q-129 -127 -306 -127t-292 119v-557z" />
    <glyph glyph-name="q" unicode="q" horiz-adv-x="1261" 
d="M620 668q-88 0 -148 -62t-60 -148t60 -148t148 -62t149 62q62 62 62 148t-62 148t-149 62zM821 -469v557q-115 -119 -291 -119t-307 127q-147 146 -147 362t136 352t322 136t287 -131v100h328v-1384h-328z" />
    <glyph glyph-name="r" unicode="r" horiz-adv-x="837" 
d="M654 649q-86 0 -140 -49q-74 -68 -74 -209v-391h-327v915h327v-149q86 164 299 164l66 -4v-310q-65 33 -151 33z" />
    <glyph glyph-name="s" unicode="s" horiz-adv-x="909" 
d="M430 213q100 0 100 68q0 27 -16 42t-86 31l-86 21q-219 50 -219 237q0 133 86 224q106 111 328 110q152 0 292 -59l-110 -209q-97 45 -157 45q-120 0 -120 -64q0 -35 39 -51q16 -6 51 -13t58 -13l59 -17q205 -58 205 -254q0 -139 -92 -227q-115 -114 -324 -114t-383 106
l117 227q122 -90 258 -90z" />
    <glyph glyph-name="t" unicode="t" horiz-adv-x="671" 
d="M662 647h-187v-647h-328v647h-104v268h104v302h328v-302h187v-268z" />
    <glyph glyph-name="u" unicode="u" horiz-adv-x="1208" 
d="M440 403q0 -169 164 -167q76 0 120 42t44 125v512h328v-571q0 -156 -88 -246q-125 -129 -406 -129t-403 131q-86 90 -86 244v571h327v-512z" />
    <glyph glyph-name="v" unicode="v" horiz-adv-x="1173" 
d="M0 915h367l219 -469l223 469h365l-478 -915h-223z" />
    <glyph glyph-name="w" unicode="w" horiz-adv-x="1841" 
d="M0 915h367l217 -483l231 483h201l231 -497l230 497h364l-479 -915h-221l-230 504l-219 -504h-221z" />
    <glyph glyph-name="x" unicode="x" horiz-adv-x="1335" 
d="M0 0l457 498l-371 417h426l158 -188l161 188h424l-378 -417l458 -498h-434l-233 272l-234 -272h-434z" />
    <glyph glyph-name="y" unicode="y" horiz-adv-x="1236" 
d="M135 -469l307 594l-442 790h381l244 -469l237 469h375l-735 -1384h-367z" />
    <glyph glyph-name="z" unicode="z" horiz-adv-x="1058" 
d="M973 268v-268h-932l432 647h-369v268h914l-428 -647h383z" />
    <glyph glyph-name="braceleft" unicode="{" 
d="M825 1487v-234h-41q-104 0 -132 -25t-29 -91v-322q0 -105 -28 -161t-95 -97q68 -41 96 -96t27 -162v-328q1 -65 29 -91t132 -25h41v-234h-39l-147 -6q-80 0 -136 23q-56 22 -84 50t-43 74t-18 76q-2 29 -2 74v403q0 123 -112 140v225q113 14 112 139v377q0 45 2 74t18 76
q15 46 43 74t84 50t136 23l147 -6h39z" />
    <glyph glyph-name="bar" unicode="|" 
d="M379 -512v2048h266v-2048h-266z" />
    <glyph glyph-name="braceright" unicode="}" 
d="M244 -379v234h41q104 -1 133 25t28 91v328q0 105 28 161t95 97q-67 41 -95 97t-28 161v322q0 65 -28 91t-133 25h-41v234h39l147 6q141 0 201 -57t71 -121q11 -63 11 -119v-377q0 -125 112 -139v-225q-113 -16 -112 -140v-403q0 -136 -38 -188q-54 -77 -117 -93
q-62 -16 -128 -16l-147 6h-39z" />
    <glyph glyph-name="asciitilde" unicode="~" 
d="M711 680q97 0 149 104l152 -88l-11 -22q-43 -98 -117 -175t-186 -77q-49 0 -172 39l-71 24q-111 39 -150 39q-92 0 -147 -125l-146 97l17 34q66 137 108 179q72 72 180 71q68 0 189 -43l74 -26q80 -31 131 -31z" />
    <glyph glyph-name="uni00A0" unicode="&#xa0;" horiz-adv-x="477" 
 />
    <glyph glyph-name="exclamdown" unicode="&#xa1;" horiz-adv-x="698" 
d="M350 508q-86 0 -149 63t-63 149t62 150q64 64 150 64t148 -62t63 -151q-1 -89 -63 -151t-148 -62zM180 -471v901h340v-901h-340z" />
    <glyph glyph-name="cent" unicode="&#xa2;" horiz-adv-x="1228" 
d="M680 1352h192v-187q55 -4 107 -30v-295q-70 70 -163 70q-94 0 -158 -66q-64 -64 -64 -161t66 -157t157 -61q92 0 162 70v-295q-55 -27 -107 -29v-191h-192v179q-174 25 -293 143q-137 141 -137 349t145 349q111 111 285 138v174z" />
    <glyph glyph-name="sterling" unicode="&#xa3;" horiz-adv-x="1228" 
d="M63 516v197h148q-49 115 -49 217q0 190 138 325t390 135t376 -124q124 -125 124 -338q0 -37 -2 -51h-357q2 16 3 49q0 94 -48 140t-118 46t-118 -53t-48 -141t51 -205h313v-197h-256q8 -57 8 -106t-16 -109l96 -29q136 -41 186 -41t74 26t23 65h221q-4 -174 -115 -277
q-80 -74 -189 -74t-236 41l-78 25q-98 31 -188 31t-120 -68h-235q27 143 105 224t186 98q12 37 12 89t-25 105h-256z" />
    <glyph glyph-name="currency" unicode="&#xa4;" horiz-adv-x="1366" 
d="M961 772q0 117 -80 199t-197 82t-198 -81q-80 -81 -80 -198t82 -199q82 -81 196 -81q115 0 196 80t81 198zM162 768q0 153 92 287l-215 213l145 145l213 -213q133 90 283 90t285 -88l211 209l143 -143l-209 -209q94 -127 94 -283t-90 -282l211 -211l-141 -146l-211 211
q-131 -92 -289 -92t-289 90l-211 -209l-143 144l211 211q-90 123 -90 276z" />
    <glyph glyph-name="yen" unicode="&#xa5;" horiz-adv-x="1228" 
d="M92 674v215h205l-289 477h404l204 -393l197 393h410l-301 -477h215v-215h-351l-12 -19v-108h363v-213h-363v-334h-336v334h-346v213h346v108l-12 19h-334z" />
    <glyph glyph-name="brokenbar" unicode="&#xa6;" 
d="M379 -512v842h266v-842h-266zM379 694v842h266v-842h-266z" />
    <glyph glyph-name="section" unicode="&#xa7;" horiz-adv-x="1228" 
d="M768 566q0 56 -40 102t-104 45q-64 0 -109 -44q-44 -45 -44 -103t42 -104t105 -46t113 51q37 43 37 99zM1014 -23q0 -143 -92 -241q-110 -121 -304 -121q-194 -1 -305 109t-110 292h286v-14q1 -80 39 -115t92 -35t90 36q36 34 36 96t-42 98q-42 37 -200 90t-228 125
q-100 101 -100 243t58 221t141 122q-70 45 -109 103t-39 157q0 160 95 255q96 95 284 95t305 -92t117 -291h-287q0 82 -37 117t-87 35q-49 0 -81 -32t-32 -84t47 -87t158 -82l82 -35q276 -119 276 -348q0 -106 -49 -198t-160 -144q156 -88 156 -275z" />
    <glyph glyph-name="dieresis" unicode="&#xa8;" 
d="M280 1427q72 0 124 -53t52 -123t-52 -125q-53 -55 -126 -55t-124 56t-52 122q0 66 54 125q53 53 124 53zM744 1427q70 0 124 -53t54 -123t-54 -125t-126 -55q-73 0 -124 56t-51 122t54 125q53 53 123 53z" />
    <glyph glyph-name="copyright" unicode="&#xa9;" horiz-adv-x="1556" 
d="M778 1268q-219 0 -381 -152q-186 -176 -186 -434t186 -434q162 -152 381 -152t381 152q186 176 187 434q0 258 -187 434q-162 152 -381 152zM1489 684q0 -135 -55 -271t-158 -239q-205 -205 -498 -205t-497 205q-101 102 -157 238t-56 272q0 135 55 270t158 238
q205 205 497 205t498 -205q102 -102 158 -238t55 -270zM825 883q-82 1 -142 -55t-60 -145t55 -146q56 -57 156 -57t192 100v-285q-78 -43 -192 -43q-222 0 -346 127t-124 297t124 302q122 132 327 132q96 0 211 -45v-293q-72 111 -201 111z" />
    <glyph glyph-name="ordfeminine" unicode="&#xaa;" horiz-adv-x="737" 
d="M367 952q49 0 86 36t37 91t-40 88t-85 33t-83 -34t-38 -87t37 -90t86 -37zM57 547v155h621v-155h-621zM485 1348h193v-543h-193v61q-55 -78 -167 -78t-194 79q-81 79 -81 208t81 210q82 81 192 81t169 -72v54z" />
    <glyph glyph-name="guillemotleft" unicode="&#xab;" horiz-adv-x="1087" 
d="M549 786l-227 -319l233 -315l-186 -132l-312 447l312 444zM999 786l-227 -319l234 -315l-187 -132l-311 447l311 444z" />
    <glyph glyph-name="logicalnot" unicode="&#xac;" 
d="M956 0h-266v307h-622v240h888v-547z" />
    <glyph glyph-name="uni00AD" unicode="&#xad;" horiz-adv-x="722" 
d="M102 414v272h519v-272h-519z" />
    <glyph glyph-name="registered" unicode="&#xae;" horiz-adv-x="1579" 
d="M707 903v-158h14q109 0 108 80q0 78 -108 78h-14zM707 307h-240v776h324q125 -1 199 -69t75 -180q0 -74 -38 -132t-101 -79l-8 -5l243 -311h-305l-149 230v-230zM790 96q242 0 410 172t168 417t-167 414t-409 169t-412 -170q-169 -170 -169 -414t169 -416t410 -172z
M68 685q0 294 212 503t511 209t509 -208t209 -504q-2 -296 -212 -506q-211 -210 -507 -210t-509 211t-213 505z" />
    <glyph glyph-name="macron" unicode="&#xaf;" 
d="M106 1104v201h812v-201h-812z" />
    <glyph glyph-name="degree" unicode="&#xb0;" 
d="M365 1055q0 -61 42 -103t105 -41q63 0 105 41q42 40 42 102t-42 103t-105 41t-105 -41t-42 -102zM512 743q-131 1 -223 93t-92 220t93 219t222 91t222 -89t93 -219t-92 -222t-223 -93z" />
    <glyph glyph-name="plusminus" unicode="&#xb1;" 
d="M68 102v246h888v-246h-888zM68 731v246h311v313h266v-313h311v-246h-311v-315h-266v315h-311z" />
    <glyph glyph-name="twosuperior" unicode="&#xb2;" horiz-adv-x="765" 
d="M698 735v-174h-630l198 219q115 128 160 194t45 126q1 60 -23 87q-24 25 -59 25t-63 -28t-29 -92h-217q6 135 91 220t224 85t216 -79t77 -206q0 -88 -38 -156t-124 -145l-86 -76h258z" />
    <glyph glyph-name="threesuperior" unicode="&#xb3;" horiz-adv-x="765" 
d="M393 1407q129 1 193 -65t65 -171q0 -105 -82 -155q51 -16 90 -68t39 -146t-76 -170t-224 -77q-146 0 -232 82t-98 203h208q4 -47 35 -78t80 -31t77 30t28 76q0 47 -31 75t-74 28q-4 0 -47 -6v139q66 -4 92 21q26 24 27 62q0 38 -23 61q-18 23 -57 23t-61 -28
q-22 -27 -23 -63h-190q7 111 81 185t203 73z" />
    <glyph glyph-name="acute" unicode="&#xb4;" 
d="M621 1493l206 -150l-315 -278l-152 113z" />
    <glyph glyph-name="mu" unicode="&#xb5;" horiz-adv-x="1196" 
d="M440 506q0 -266 157 -264q60 0 99 39q59 59 60 233v401h327v-915h-327v115q-20 -55 -62 -93t-96 -38q-108 0 -158 120v-575h-327v1386h327v-409z" />
    <glyph glyph-name="mu" unicode="&#x3bc;" horiz-adv-x="1196" 
d="M440 506q0 -266 157 -264q60 0 99 39q59 59 60 233v401h327v-915h-327v115q-20 -55 -62 -93t-96 -38q-108 0 -158 120v-575h-327v1386h327v-409z" />
    <glyph glyph-name="paragraph" unicode="&#xb6;" horiz-adv-x="1366" 
d="M674 -195h-234v846h-20q-172 0 -279 111q-86 90 -86 246t101 252q115 106 372 106h689v-217h-148v-1344h-233v1344h-162v-1344z" />
    <glyph glyph-name="periodcentered" unicode="&#xb7;" horiz-adv-x="507" 
d="M254 979q100 0 177 -74t77 -180t-75 -181t-178 -75t-179 73q-76 74 -76 182t77 182t177 73z" />
    <glyph glyph-name="cedilla" unicode="&#xb8;" 
d="M590 -94l217 -90l-254 -299l-172 82z" />
    <glyph glyph-name="onesuperior" unicode="&#xb9;" horiz-adv-x="452" 
d="M180 547v647h-112v172h317v-819h-205z" />
    <glyph glyph-name="ordmasculine" unicode="&#xba;" horiz-adv-x="727" 
d="M364 1200q-48 0 -85 -33t-37 -89t36 -90t83 -34t85 33t39 90q0 57 -36 90q-37 33 -85 33zM53 547v155h621v-155h-621zM684 1079q0 -121 -84 -206t-237 -85q-152 0 -236 84t-84 204t85 205t236 85t236 -86q84 -80 84 -201z" />
    <glyph glyph-name="guillemotright" unicode="&#xbb;" horiz-adv-x="1087" 
d="M528 152l234 315l-227 319l180 125l311 -444l-311 -447zM78 152l233 315l-227 319l180 125l311 -444l-311 -447z" />
    <glyph glyph-name="onequarter" unicode="&#xbc;" horiz-adv-x="1587" 
d="M1247 313v316l-172 -316h172zM1440 819v-506h96v-157h-96v-156h-193v156h-381v129l305 534h269zM180 547v647h-112v172h317v-819h-205zM246 0l790 1366h178l-792 -1366h-176z" />
    <glyph glyph-name="onehalf" unicode="&#xbd;" horiz-adv-x="1609" 
d="M1542 174v-174h-631l199 219q115 127 145 174q59 87 59 147t-22 86q-24 26 -59 26t-63 -30q-28 -28 -29 -92h-217q6 134 91 220t224 86t216 -79t77 -206q0 -88 -38 -156t-124 -145l-86 -76h258zM180 547v647h-112v172h317v-819h-205zM213 0l791 1366h178l-793 -1366h-176
z" />
    <glyph glyph-name="threequarters" unicode="&#xbe;" horiz-adv-x="1820" 
d="M1642 819v-506h97v-157h-97v-156h-192v156h-381v129l305 534h268zM1450 313v316l-172 -316h172zM393 1407q129 1 193 -65t65 -171q0 -105 -82 -155q49 -14 89 -66t40 -146q0 -95 -76 -172t-224 -77q-146 0 -232 82t-98 203h208q4 -47 35 -78t80 -31t77 32t28 76
q0 45 -29 73t-66 28t-57 -6v139q70 0 94 23q24 22 25 60q0 38 -23 61q-18 23 -57 23t-61 -28q-22 -27 -23 -63h-190q7 111 81 185t203 73zM483 0l791 1366h178l-793 -1366h-176z" />
    <glyph glyph-name="questiondown" unicode="&#xbf;" horiz-adv-x="1120" 
d="M567 934q85 0 149 -64t64 -149t-63 -149t-149 -64t-149 62t-63 150t62 152q62 62 149 62zM410 436h333v-352q-27 10 -71 10q-130 0 -184 -55t-54 -119t35 -96q35 -33 94 -33t94 39t35 98h361q-13 -201 -143 -312q-130 -112 -354 -112t-349 121t-125 281t94 264
q94 106 234 137v129z" />
    <glyph glyph-name="Agrave" unicode="&#xc0;" horiz-adv-x="1454" 
d="M727 1475l-315 278l209 150l258 -316zM580 500h303l-154 442zM1061 0l-84 229h-496l-92 -229h-375l525 1366h387l514 -1366h-379z" />
    <glyph glyph-name="Aacute" unicode="&#xc1;" horiz-adv-x="1454" 
d="M836 1903l206 -150l-315 -278l-152 112zM580 500h303l-154 442zM1061 0l-84 229h-496l-92 -229h-375l525 1366h387l514 -1366h-379z" />
    <glyph glyph-name="Acircumflex" unicode="&#xc2;" horiz-adv-x="1454" 
d="M463 1475l-139 157l401 301l405 -301l-145 -157l-260 200zM580 500h303l-154 442zM1061 0l-84 229h-496l-92 -229h-375l525 1366h387l514 -1366h-379z" />
    <glyph glyph-name="Atilde" unicode="&#xc3;" horiz-adv-x="1454" 
d="M854 1481q-53 0 -119 30l-61 31q-49 25 -74 25q-57 0 -78 -86l-160 94q67 195 226 197q55 0 123 -29l59 -27q68 -31 88 -30q49 0 76 90l158 -95q-80 -200 -238 -200zM580 500h303l-154 442zM1061 0l-84 229h-496l-92 -229h-375l525 1366h387l514 -1366h-379z" />
    <glyph glyph-name="Adieresis" unicode="&#xc4;" horiz-adv-x="1454" 
d="M495 1837q71 0 123 -53t54 -123q0 -70 -53 -125t-126 -55t-124 56t-52 122q0 66 54 125q53 53 124 53zM960 1837q70 0 123 -53t53 -123t-52 -125q-54 -55 -127 -55t-123 56t-52 122q0 66 54 125q54 53 124 53zM580 500h303l-154 442zM1061 0l-84 229h-496l-92 -229h-375
l525 1366h387l514 -1366h-379z" />
    <glyph glyph-name="Aring" unicode="&#xc5;" horiz-adv-x="1454" 
d="M727 1776q-57 0 -83 -26t-26 -56q0 -31 26 -57q26 -25 83 -25t83 25t26 57t-26 56q-26 26 -83 26zM1008 1693q0 -83 -54 -137q-76 -76 -228 -76t-226 76q-54 52 -54 136t54 137q76 76 228 76t226 -76q54 -53 54 -136zM580 500h303l-154 442zM1061 0l-84 229h-496
l-92 -229h-375l525 1366h387l514 -1366h-379z" />
    <glyph glyph-name="AE" unicode="&#xc6;" horiz-adv-x="1892" 
d="M571 510h299l-145 403zM1055 0l-88 240h-494l-86 -240h-373l527 1366h835l109 -301h-449l84 -227h449l112 -301h-450l90 -236h446l111 -301h-823z" />
    <glyph glyph-name="Ccedilla" unicode="&#xc7;" horiz-adv-x="1206" 
d="M741 -94l230 -90l-238 -299l-188 82zM817 -31q-319 0 -528 205q-98 98 -153 230q-54 132 -54 270t56 272q56 133 151 230q209 213 516 213q147 0 319 -70v-424q-121 150 -309 149q-145 0 -246 -90q-119 -110 -119 -276t106 -265q105 -99 271 -99t297 143v-420
q-186 -68 -307 -68z" />
    <glyph glyph-name="Egrave" unicode="&#xc8;" horiz-adv-x="1001" 
d="M573 1475l-315 278l209 150l258 -316zM920 1366v-301h-422v-227h399v-301h-399v-236h422v-301h-777v1366h777z" />
    <glyph glyph-name="Eacute" unicode="&#xc9;" horiz-adv-x="1001" 
d="M590 1903l207 -150l-316 -278l-151 112zM920 1366v-301h-422v-227h399v-301h-399v-236h422v-301h-777v1366h777z" />
    <glyph glyph-name="Ecircumflex" unicode="&#xca;" horiz-adv-x="1001" 
d="M268 1475l-139 157l401 301l406 -301l-145 -157l-261 200zM920 1366v-301h-422v-227h399v-301h-399v-236h422v-301h-777v1366h777z" />
    <glyph glyph-name="Edieresis" unicode="&#xcb;" horiz-adv-x="1001" 
d="M300 1837q71 0 124 -53t53 -123t-53 -125t-126 -55t-124 56t-51 122t53 125q53 53 124 53zM765 1837q71 0 124 -53t53 -123t-53 -125t-126 -55t-124 56t-51 122t53 125q53 53 124 53zM920 1366v-301h-422v-227h399v-301h-399v-236h422v-301h-777v1366h777z" />
    <glyph glyph-name="Igrave" unicode="&#xcc;" horiz-adv-x="641" 
d="M348 1475l-315 278l209 150l258 -316zM143 1366h355v-1366h-355v1366z" />
    <glyph glyph-name="Iacute" unicode="&#xcd;" horiz-adv-x="641" 
d="M416 1903l207 -150l-316 -278l-151 112zM143 1366h355v-1366h-355v1366z" />
    <glyph glyph-name="Icircumflex" unicode="&#xce;" horiz-adv-x="641" 
d="M57 1475l-139 157l401 301l406 -301l-145 -157l-261 200zM143 1366h355v-1366h-355v1366z" />
    <glyph glyph-name="Idieresis" unicode="&#xcf;" horiz-adv-x="641" 
d="M89 1837q71 0 124 -53t53 -123t-53 -125t-126 -55t-124 56t-51 122t53 125q53 53 124 53zM554 1837q71 0 124 -53t53 -123t-53 -125t-126 -55t-124 56t-51 122t53 125q53 53 124 53zM143 1366h355v-1366h-355v1366z" />
    <glyph glyph-name="Eth" unicode="&#xd0;" horiz-adv-x="1509" 
d="M670 1065h-86v-213h241v-246h-241v-305h71q199 0 301 99t103 280q0 385 -389 385zM725 0h-496v606h-188v246h188v514h465q348 0 540 -185t193 -491q0 -456 -403 -632q-135 -58 -299 -58z" />
    <glyph glyph-name="Ntilde" unicode="&#xd1;" horiz-adv-x="1648" 
d="M696 1567q-57 0 -78 -86l-159 94q67 195 225 197q55 0 123 -29l59 -27q68 -31 88 -30q49 0 76 90l158 -95q-80 -200 -238 -200q-53 0 -119 30l-61 31q-49 25 -74 25zM498 0h-355v1366h355l653 -836v836h354v-1366h-354l-653 836v-836z" />
    <glyph glyph-name="Ograve" unicode="&#xd2;" horiz-adv-x="1671" 
d="M838 1475l-316 278l209 150l258 -316zM832 1053q-164 1 -273 -107t-109 -264t112 -262q110 -106 276 -107q166 0 274 109q108 108 109 262q-1 154 -113 262t-276 107zM1589 682q0 -303 -214 -508q-213 -205 -539 -205t-540 205t-214 508q0 141 54 276t161 236
q213 203 539 203t538 -203q106 -100 160 -236t55 -276z" />
    <glyph glyph-name="Oacute" unicode="&#xd3;" horiz-adv-x="1671" 
d="M946 1903l207 -150l-315 -278l-152 112zM832 1053q-164 1 -273 -107t-109 -264t112 -262q110 -106 276 -107q166 0 274 109q108 108 109 262q-1 154 -113 262t-276 107zM1589 682q0 -303 -214 -508q-213 -205 -539 -205t-540 205t-214 508q0 141 54 276t161 236
q213 203 539 203t538 -203q106 -100 160 -236t55 -276z" />
    <glyph glyph-name="Ocircumflex" unicode="&#xd4;" horiz-adv-x="1671" 
d="M573 1475l-139 157l402 301l405 -301l-145 -157l-260 200zM832 1053q-164 1 -273 -107t-109 -264t112 -262q110 -106 276 -107q166 0 274 109q108 108 109 262q-1 154 -113 262t-276 107zM1589 682q0 -303 -214 -508q-213 -205 -539 -205t-540 205t-214 508q0 141 54 276
t161 236q213 203 539 203t538 -203q106 -100 160 -236t55 -276z" />
    <glyph glyph-name="Otilde" unicode="&#xd5;" horiz-adv-x="1671" 
d="M711 1567q-57 0 -78 -86l-160 94q67 195 225 197q55 0 123 -29l60 -27q68 -31 88 -30q48 0 75 90l158 -95q-80 -200 -237 -200q-53 0 -119 30l-62 31q-49 25 -73 25zM832 1053q-164 1 -273 -107t-109 -264t112 -262q110 -106 276 -107q166 0 274 109q108 108 109 262
q-1 154 -113 262t-276 107zM1589 682q0 -303 -214 -508q-213 -205 -539 -205t-540 205t-214 508q0 141 54 276t161 236q213 203 539 203t538 -203q106 -100 160 -236t55 -276z" />
    <glyph glyph-name="Odieresis" unicode="&#xd6;" horiz-adv-x="1671" 
d="M605 1837q71 0 124 -53t53 -123t-53 -125t-126 -55t-124 56t-51 122t53 125q53 53 124 53zM1070 1837q71 0 124 -53t53 -123t-53 -125t-126 -55t-124 56t-51 122t53 125q53 53 124 53zM832 1053q-164 1 -273 -107t-109 -264t112 -262q110 -106 276 -107q166 0 274 109
q108 108 109 262q-1 154 -113 262t-276 107zM1589 682q0 -303 -214 -508q-213 -205 -539 -205t-540 205t-214 508q0 141 54 276t161 236q213 203 539 203t538 -203q106 -100 160 -236t55 -276z" />
    <glyph glyph-name="multiply" unicode="&#xd7;" 
d="M252 258l-172 174l250 250l-252 252l188 188l252 -252l250 252l174 -174l-250 -252l252 -252l-188 -188l-252 252z" />
    <glyph glyph-name="Oslash" unicode="&#xd8;" horiz-adv-x="1695" 
d="M850 313q166 0 274 109t109 260q0 100 -45 174l-502 -502q74 -41 164 -41zM848 1053q-168 0 -277 -109t-108 -268q0 -92 43 -168l506 504q-72 41 -164 41zM848 -31q-229 0 -424 115l-180 -180l-183 172l179 176q-145 184 -146 428q0 309 215 513t539 204q233 0 424 -115
l180 180l182 -172l-178 -176q145 -193 146 -430q0 -303 -212 -509t-542 -206z" />
    <glyph glyph-name="Ugrave" unicode="&#xd9;" horiz-adv-x="1476" 
d="M737 1475l-315 278l209 150l258 -316zM143 1366h355v-809q0 -143 69 -211q70 -66 168 -66t164 60q37 33 56 83t22 80q2 30 2 85v778h354v-784q0 -90 -6 -148t-42 -142q-36 -83 -105 -153q-168 -170 -459 -170t-445 164q-133 145 -133 449v784z" />
    <glyph glyph-name="Uacute" unicode="&#xda;" horiz-adv-x="1476" 
d="M846 1903l207 -150l-316 -278l-151 112zM143 1366h355v-809q0 -143 69 -211q70 -66 168 -66t164 60q37 33 56 83t22 80q2 30 2 85v778h354v-784q0 -90 -6 -148t-42 -142q-36 -83 -105 -153q-168 -170 -459 -170t-445 164q-133 145 -133 449v784z" />
    <glyph glyph-name="Ucircumflex" unicode="&#xdb;" horiz-adv-x="1476" 
d="M473 1475l-139 157l401 301l406 -301l-146 -157l-260 200zM143 1366h355v-809q0 -143 69 -211q70 -66 168 -66t164 60q37 33 56 83t22 80q2 30 2 85v778h354v-784q0 -90 -6 -148t-42 -142q-36 -83 -105 -153q-168 -170 -459 -170t-445 164q-133 145 -133 449v784z" />
    <glyph glyph-name="Udieresis" unicode="&#xdc;" horiz-adv-x="1476" 
d="M505 1837q71 0 124 -53t53 -123t-53 -125t-126 -55t-124 56t-51 122t53 125q53 53 124 53zM970 1837q71 0 124 -53t53 -123t-53 -125t-126 -55t-124 56t-51 122t53 125q53 53 124 53zM143 1366h355v-809q0 -143 69 -211q70 -66 168 -66t164 60q37 33 56 83t22 80
q2 30 2 85v778h354v-784q0 -90 -6 -148t-42 -142q-36 -83 -105 -153q-168 -170 -459 -170t-445 164q-133 145 -133 449v784z" />
    <glyph glyph-name="Yacute" unicode="&#xdd;" horiz-adv-x="1310" 
d="M764 1903l207 -150l-316 -278l-151 112zM469 0v655l-494 711h424l258 -373l248 373h430l-510 -711v-655h-356z" />
    <glyph glyph-name="Thorn" unicode="&#xde;" horiz-adv-x="1226" 
d="M811 723q0 172 -193 172h-120v-340h118q102 0 148 41t47 127zM721 268h-223v-268h-355v1366h355v-184h211q219 0 346 -123t127 -338t-121 -334t-340 -119z" />
    <glyph glyph-name="germandbls" unicode="&#xdf;" horiz-adv-x="1208" 
d="M440 0h-327v1085q0 203 116 316q117 113 340 113t349 -121q106 -106 106 -293t-158 -271q92 -29 156 -96q111 -113 111 -289q1 -238 -147 -364t-449 -107v275q115 0 177 62t62 152t-64 158t-175 64v260h22q72 0 113 38t41 106t-35 108q-35 39 -97 39q-61 0 -101 -39
t-40 -125v-1071z" />
    <glyph glyph-name="agrave" unicode="&#xe0;" horiz-adv-x="1261" 
d="M717 1065l-316 278l209 150l258 -315zM622 668q-83 0 -147 -62q-63 -62 -63 -149q0 -89 64 -149t148 -60q83 0 145 62t62 150t-63 148t-146 60zM821 915h328v-915h-328v100q-93 -131 -285 -131q-192 1 -326 143t-134 353t135 346t319 135t291 -119v88z" />
    <glyph glyph-name="aacute" unicode="&#xe1;" horiz-adv-x="1261" 
d="M754 1493l207 -150l-316 -278l-151 113zM622 668q-83 0 -147 -62q-63 -62 -63 -149q0 -89 64 -149t148 -60q83 0 145 62t62 150t-63 148t-146 60zM821 915h328v-915h-328v100q-93 -131 -285 -131q-192 1 -326 143t-134 353t135 346t319 135t291 -119v88z" />
    <glyph glyph-name="acircumflex" unicode="&#xe2;" horiz-adv-x="1261" 
d="M401 1065l-139 158l402 301l405 -301l-145 -158l-260 201zM622 668q-83 0 -147 -62q-63 -62 -63 -149q0 -89 64 -149t148 -60q83 0 145 62t62 150t-63 148t-146 60zM821 915h328v-915h-328v100q-93 -131 -285 -131q-192 1 -326 143t-134 353t135 346t319 135t291 -119v88
z" />
    <glyph glyph-name="atilde" unicode="&#xe3;" horiz-adv-x="1261" 
d="M797 1276q48 0 75 90l158 -94q-81 -201 -237 -201q-53 0 -119 31l-62 31q-49 25 -73 24q-57 0 -78 -86l-160 94q68 197 225 197q55 0 123 -29l60 -26q68 -31 88 -31zM622 668q-83 0 -147 -62q-63 -62 -63 -149q0 -89 64 -149t148 -60q83 0 145 62t62 150t-63 148t-146 60
zM821 915h328v-915h-328v100q-93 -131 -285 -131q-192 1 -326 143t-134 353t135 346t319 135t291 -119v88z" />
    <glyph glyph-name="adieresis" unicode="&#xe4;" horiz-adv-x="1261" 
d="M433 1427q71 0 124 -53t53 -123t-53 -125t-126 -55t-124 56t-51 122t53 125q53 53 124 53zM898 1427q71 0 124 -53t53 -123t-53 -125t-126 -55t-124 56t-51 122t53 125q53 53 124 53zM622 668q-83 0 -147 -62q-63 -62 -63 -149q0 -89 64 -149t148 -60q83 0 145 62t62 150
t-63 148t-146 60zM821 915h328v-915h-328v100q-93 -131 -285 -131q-192 1 -326 143t-134 353t135 346t319 135t291 -119v88z" />
    <glyph glyph-name="aring" unicode="&#xe5;" horiz-adv-x="1261" 
d="M666 1366q-56 0 -82 -26t-26 -56t25 -56q26 -26 83 -26q56 0 82 26t26 56t-26 56t-82 26zM946 1283q0 -83 -53 -136q-75 -76 -227 -76t-228 76q-53 53 -53 136t53 136q76 76 228 76t227 -76q53 -53 53 -136zM622 668q-83 0 -147 -62q-63 -62 -63 -149q0 -89 64 -149
t148 -60q83 0 145 62t62 150t-63 148t-146 60zM821 915h328v-915h-328v100q-93 -131 -285 -131q-192 1 -326 143t-134 353t135 346t319 135t291 -119v88z" />
    <glyph glyph-name="ae" unicode="&#xe6;" horiz-adv-x="1757" 
d="M541 389q-150 0 -150 -98q0 -43 40 -72q41 -29 103 -29t114 27t52 74t-46 73t-113 25zM1193 741q-75 0 -123 -44t-66 -105h376q-12 59 -62 104t-125 45zM1185 948q232 0 364 -132t132 -384v-26h-686q1 -96 57 -152t161 -57q105 0 141 86h313q-45 -143 -163 -229t-284 -85
q-297 0 -389 178q-65 -84 -165 -129t-211 -45q-195 0 -301 107q-78 78 -78 192t80 195q104 104 303 104q127 0 233 -47v23q0 164 -219 166q-121 0 -254 -51v243q152 43 273 43q237 0 339 -162q122 162 354 162z" />
    <glyph glyph-name="ccedilla" unicode="&#xe7;" horiz-adv-x="878" 
d="M508 -94l217 -90l-254 -299l-172 82zM578 -31q-218 1 -360 139t-142 346t146 349t370 141q111 0 213 -51v-275q-84 60 -175 60q-90 0 -154 -64t-64 -155q0 -92 62 -159q62 -66 160 -66q99 0 171 61v-275q-104 -51 -227 -51z" />
    <glyph glyph-name="egrave" unicode="&#xe8;" horiz-adv-x="1159" 
d="M625 1065l-316 278l209 150l258 -315zM595 733q-85 0 -134 -49q-41 -45 -49 -98h370q-14 59 -58 103t-129 44zM594 199q122 0 164 86h313q-31 -111 -110 -189q-131 -127 -372 -127q-241 -1 -378 137t-137 354t137 349t365 133t368 -132q139 -132 139 -378v-35h-682
q-1 -96 51 -147t142 -51z" />
    <glyph glyph-name="eacute" unicode="&#xe9;" horiz-adv-x="1159" 
d="M702 1493l207 -150l-315 -278l-152 113zM595 733q-85 0 -134 -49q-41 -45 -49 -98h370q-14 59 -58 103t-129 44zM594 199q122 0 164 86h313q-31 -111 -110 -189q-131 -127 -372 -127q-241 -1 -378 137t-137 354t137 349t365 133t368 -132q139 -132 139 -378v-35h-682
q-1 -96 51 -147t142 -51z" />
    <glyph glyph-name="ecircumflex" unicode="&#xea;" horiz-adv-x="1159" 
d="M322 1065l-140 158l402 301l405 -301l-145 -158l-260 201zM595 733q-85 0 -134 -49q-41 -45 -49 -98h370q-14 59 -58 103t-129 44zM594 199q122 0 164 86h313q-31 -111 -110 -189q-131 -127 -372 -127q-241 -1 -378 137t-137 354t137 349t365 133t368 -132
q139 -132 139 -378v-35h-682q-1 -96 51 -147t142 -51z" />
    <glyph glyph-name="edieresis" unicode="&#xeb;" horiz-adv-x="1159" 
d="M353 1427q71 0 124 -53t53 -123t-53 -125t-126 -55t-124 56t-51 122t53 125q53 53 124 53zM818 1427q71 0 124 -53t53 -123t-53 -125t-126 -55t-124 56t-51 122t53 125q53 53 124 53zM595 733q-85 0 -134 -49q-41 -45 -49 -98h370q-14 59 -58 103t-129 44zM594 199
q122 0 164 86h313q-31 -111 -110 -189q-131 -127 -372 -127q-241 -1 -378 137t-137 354t137 349t365 133t368 -132q139 -132 139 -378v-35h-682q-1 -96 51 -147t142 -51z" />
    <glyph glyph-name="igrave" unicode="&#xec;" horiz-adv-x="546" 
d="M276 1065l-315 278l209 150l258 -315zM109 915h327v-915h-327v915z" />
    <glyph glyph-name="iacute" unicode="&#xed;" horiz-adv-x="546" 
d="M389 1493l207 -150l-315 -278l-152 113zM109 915h327v-915h-327v915z" />
    <glyph glyph-name="icircumflex" unicode="&#xee;" horiz-adv-x="546" 
d="M12 1065l-139 158l401 301l406 -301l-145 -158l-261 201zM109 915h327v-915h-327v915z" />
    <glyph glyph-name="idieresis" unicode="&#xef;" horiz-adv-x="546" 
d="M40 1427q71 0 124 -53t53 -123t-53 -125t-126 -55t-124 56t-51 122t53 125q53 53 124 53zM505 1427q71 0 124 -53t53 -123t-53 -125t-126 -55t-124 56t-51 122t53 125q53 53 124 53zM109 915h327v-915h-327v915z" />
    <glyph glyph-name="eth" unicode="&#xf0;" horiz-adv-x="1208" 
d="M604 662q-84 0 -137 -52q-66 -59 -66 -155q-1 -95 59 -151t144 -56t137 51q66 59 66 155t-66 156q-53 52 -137 52zM1147 604q0 -332 -164 -495q-137 -139 -384 -139t-392 146t-145 353t140 337t355 130q158 0 283 -98q-12 118 -74 194t-143 113l-406 -197l-82 156
l291 131q-106 25 -266 25l61 227q279 0 471 -96l322 149l84 -156l-238 -108q150 -108 218 -272t69 -400z" />
    <glyph glyph-name="ntilde" unicode="&#xf1;" horiz-adv-x="1198" 
d="M461 1362q55 0 123 -29l59 -26q68 -31 88 -31q49 0 76 90l158 -94q-81 -201 -238 -201q-53 0 -119 31l-61 31q-49 25 -74 24q-57 0 -78 -86l-159 94q68 197 225 197zM113 0v915h327v-114q102 135 282 135t279 -98q53 -52 69 -110t17 -146v-582h-327v463q0 135 -39 176
t-110 41t-121 -46t-50 -142v-492h-327z" />
    <glyph glyph-name="ograve" unicode="&#xf2;" horiz-adv-x="1251" 
d="M645 1065l-315 278l209 150l258 -315zM1176 459q0 -199 -148 -345t-402 -145q-254 -1 -402 145t-148 345t148 343t400 144t402 -144t150 -343zM626 668q-82 0 -146 -60t-64 -145q0 -87 62 -149t148 -62t147 60q63 60 63 146t-64 148t-146 62z" />
    <glyph glyph-name="oacute" unicode="&#xf3;" horiz-adv-x="1251" 
d="M723 1493l207 -150l-316 -278l-151 113zM1176 459q0 -199 -148 -345t-402 -145q-254 -1 -402 145t-148 345t148 343t400 144t402 -144t150 -343zM626 668q-82 0 -146 -60t-64 -145q0 -87 62 -149t148 -62t147 60q63 60 63 146t-64 148t-146 62z" />
    <glyph glyph-name="ocircumflex" unicode="&#xf4;" horiz-adv-x="1251" 
d="M369 1065l-140 158l402 301l405 -301l-145 -158l-260 201zM1176 459q0 -199 -148 -345t-402 -145q-254 -1 -402 145t-148 345t148 343t400 144t402 -144t150 -343zM626 668q-82 0 -146 -60t-64 -145q0 -87 62 -149t148 -62t147 60q63 60 63 146t-64 148t-146 62z" />
    <glyph glyph-name="otilde" unicode="&#xf5;" horiz-adv-x="1251" 
d="M475 1362q55 0 123 -29l59 -26q68 -31 88 -31q49 0 76 90l158 -94q-81 -201 -238 -201q-53 0 -118 31l-62 31q-49 25 -74 24q-57 0 -77 -86l-160 94q68 197 225 197zM1176 459q0 -199 -148 -345t-402 -145q-254 -1 -402 145t-148 345t148 343t400 144t402 -144t150 -343z
M626 668q-82 0 -146 -60t-64 -145q0 -87 62 -149t148 -62t147 60q63 60 63 146t-64 148t-146 62z" />
    <glyph glyph-name="odieresis" unicode="&#xf6;" horiz-adv-x="1251" 
d="M400 1427q71 0 124 -53q54 -53 54 -123t-54 -125t-126 -55q-73 0 -124 56t-51 122t53 125q53 53 124 53zM865 1427q71 0 124 -53t53 -123t-53 -125t-126 -55t-124 56t-51 122t53 125q53 53 124 53zM1176 459q0 -199 -148 -345t-402 -145q-254 -1 -402 145t-148 345
t148 343t400 144t402 -144t150 -343zM626 668q-82 0 -146 -60t-64 -145q0 -87 62 -149t148 -62t147 60q63 60 63 146t-64 148t-146 62z" />
    <glyph glyph-name="divide" unicode="&#xf7;" 
d="M358 348q0 64 44 108t108 44t109 -44t45 -108t-46 -107q-46 -44 -110 -44q-66 0 -108 44t-42 107zM68 573v246h888v-246h-888zM358 1044q0 64 44 108t108 44t109 -44t45 -108t-46 -107q-46 -44 -110 -44q-66 0 -108 44t-42 107z" />
    <glyph glyph-name="oslash" unicode="&#xf8;" horiz-adv-x="1228" 
d="M1167 454q1 -194 -147 -340t-404 -145q-174 0 -307 74l-147 -147l-109 102l140 139q-125 135 -125 328t148 337t400 144q172 0 306 -76l145 144l109 -105l-138 -135q129 -126 129 -320zM805 549l-273 -273q37 -25 86 -24q86 0 148 61q61 61 61 146q1 53 -22 90zM618 668
q-86 0 -148 -60t-62 -145q-1 -45 26 -94l275 274q-43 25 -91 25z" />
    <glyph glyph-name="ugrave" unicode="&#xf9;" horiz-adv-x="1208" 
d="M606 1065l-315 278l209 150l258 -315zM440 403q0 -169 164 -167q76 0 120 42t44 125v512h328v-571q0 -156 -88 -246q-125 -129 -406 -129t-403 131q-86 90 -86 244v571h327v-512z" />
    <glyph glyph-name="uacute" unicode="&#xfa;" horiz-adv-x="1208" 
d="M715 1493l207 -150l-316 -278l-151 113zM440 403q0 -169 164 -167q76 0 120 42t44 125v512h328v-571q0 -156 -88 -246q-125 -129 -406 -129t-403 131q-86 90 -86 244v571h327v-512z" />
    <glyph glyph-name="ucircumflex" unicode="&#xfb;" horiz-adv-x="1208" 
d="M342 1065l-139 158l401 301l406 -301l-146 -158l-260 201zM440 403q0 -169 164 -167q76 0 120 42t44 125v512h328v-571q0 -156 -88 -246q-125 -129 -406 -129t-403 131q-86 90 -86 244v571h327v-512z" />
    <glyph glyph-name="udieresis" unicode="&#xfc;" horiz-adv-x="1208" 
d="M374 1427q71 0 124 -53t53 -123t-53 -125t-126 -55t-124 56t-51 122t53 125q53 53 124 53zM839 1427q71 0 124 -53t53 -123t-53 -125t-126 -55t-124 56t-51 122t53 125q53 53 124 53zM440 403q0 -169 164 -167q76 0 120 42t44 125v512h328v-571q0 -156 -88 -246
q-125 -129 -406 -129t-403 131q-86 90 -86 244v571h327v-512z" />
    <glyph glyph-name="yacute" unicode="&#xfd;" horiz-adv-x="1236" 
d="M731 1493l207 -150l-315 -278l-152 113zM135 -469l307 594l-442 790h381l244 -469l237 469h375l-735 -1384h-367z" />
    <glyph glyph-name="thorn" unicode="&#xfe;" horiz-adv-x="1261" 
d="M642 668q-87 0 -149 -62q-63 -62 -63 -148t62 -148t150 -62q87 0 147 62q61 62 61 148t-64 148q-57 62 -144 62zM440 -469h-327v1962h327v-678q104 131 289 131t321 -136t136 -353t-148 -361q-129 -127 -306 -127t-292 119v-557z" />
    <glyph glyph-name="ydieresis" unicode="&#xff;" horiz-adv-x="1236" 
d="M390 1427q71 0 124 -53t53 -123t-53 -125t-126 -55t-124 56t-51 122t53 125q53 53 124 53zM855 1427q71 0 124 -53t53 -123t-53 -125t-126 -55t-124 56t-51 122t53 125q53 53 124 53zM135 -469l307 594l-442 790h381l244 -469l237 469h375l-735 -1384h-367z" />
    <glyph glyph-name="Amacron" unicode="&#x100;" horiz-adv-x="1454" 
d="M342 1534v201h770v-201h-770zM580 500h303l-154 442zM1061 0l-84 229h-496l-92 -229h-375l525 1366h387l514 -1366h-379z" />
    <glyph glyph-name="amacron" unicode="&#x101;" horiz-adv-x="1261" 
d="M240 1104v201h811v-201h-811zM622 668q-83 0 -147 -62q-63 -62 -63 -149q0 -89 64 -149t148 -60q83 0 145 62t62 150t-63 148t-146 60zM821 915h328v-915h-328v100q-93 -131 -285 -131q-192 1 -326 143t-134 353t135 346t319 135t291 -119v88z" />
    <glyph glyph-name="Abreve" unicode="&#x102;" horiz-adv-x="1454" 
d="M725 1481q-174 0 -264 90t-92 225h211q6 -53 44 -87t101 -34t101 34t44 87h211q-2 -135 -92 -225t-264 -90zM580 500h303l-154 442zM1061 0l-84 229h-496l-92 -229h-375l525 1366h387l514 -1366h-379z" />
    <glyph glyph-name="abreve" unicode="&#x103;" horiz-adv-x="1261" 
d="M645 1071q-174 0 -264 90t-92 225h211q6 -52 44 -86t101 -34t101 34t45 86h210q-2 -135 -92 -225t-264 -90zM622 668q-83 0 -147 -62q-63 -62 -63 -149q0 -89 64 -149t148 -60q83 0 145 62t62 150t-63 148t-146 60zM821 915h328v-915h-328v100q-93 -131 -285 -131
q-192 1 -326 143t-134 353t135 346t319 135t291 -119v88z" />
    <glyph glyph-name="Aogonek" unicode="&#x104;" horiz-adv-x="1454" 
d="M582 508h295l-148 434zM1104 -156q0 -63 82 -63q44 0 92 37l-45 -176q-67 -37 -149 -37t-130 50t-49 119q0 69 43 126q39 57 113 100l-88 238h-490l-94 -238h-375l525 1366h387l514 -1366h-217q-119 -78 -119 -156z" />
    <glyph glyph-name="aogonek" unicode="&#x105;" horiz-adv-x="1261" 
d="M621 668q-85 0 -147 -60t-62 -149q0 -87 61 -149t147 -62t147 62q62 62 62 148t-61 148t-147 62zM819 915h328v-915h-82q-55 -36 -87 -66t-32 -68t23 -61t65 -23t94 38l-43 -174q-53 -35 -143 -35t-135 50t-45 113t41 124t112 102h-96v109q-103 -139 -289 -139t-325 145
q-129 131 -129 347t134 350t315 134t294 -119v88z" />
    <glyph glyph-name="Cacute" unicode="&#x106;" horiz-adv-x="1206" 
d="M907 1903l207 -150l-315 -278l-152 112zM817 -31q-319 0 -528 205q-98 98 -153 230q-54 132 -54 270t56 272q56 133 151 230q209 213 516 213q147 0 319 -70v-424q-121 150 -309 149q-145 0 -246 -90q-119 -110 -119 -276t106 -265q105 -99 271 -99t297 143v-420
q-186 -68 -307 -68z" />
    <glyph glyph-name="cacute" unicode="&#x107;" horiz-adv-x="878" 
d="M682 1493l207 -150l-316 -278l-151 113zM578 -31q-218 1 -360 139t-142 346t146 349t370 141q111 0 213 -51v-275q-84 60 -175 60q-90 0 -154 -64t-64 -155q0 -92 62 -159q62 -66 160 -66q99 0 171 61v-275q-104 -51 -227 -51z" />
    <glyph glyph-name="Ccircumflex" unicode="&#x108;" horiz-adv-x="1206" 
d="M555 1475l-139 157l401 301l406 -301l-146 -157l-260 200zM817 -31q-319 0 -528 205q-98 98 -153 230q-54 132 -54 270t56 272q56 133 151 230q209 213 516 213q147 0 319 -70v-424q-121 150 -309 149q-145 0 -246 -90q-119 -110 -119 -276t106 -265q105 -99 271 -99
t297 143v-420q-186 -68 -307 -68z" />
    <glyph glyph-name="ccircumflex" unicode="&#x109;" horiz-adv-x="878" 
d="M309 1065l-139 158l401 301l406 -301l-146 -158l-260 201zM578 -31q-218 1 -360 139t-142 346t146 349t370 141q111 0 213 -51v-275q-84 60 -175 60q-90 0 -154 -64t-64 -155q0 -92 62 -159q62 -66 160 -66q99 0 171 61v-275q-104 -51 -227 -51z" />
    <glyph glyph-name="Cdotaccent" unicode="&#x10a;" horiz-adv-x="1206" 
d="M767 1481q-75 0 -132 53q-55 55 -55 133t54 132t132 54t132 -54t54 -133t-55 -132t-130 -53zM817 -31q-319 0 -528 205q-98 98 -153 230q-54 132 -54 270t56 272q56 133 151 230q209 213 516 213q147 0 319 -70v-424q-121 150 -309 149q-145 0 -246 -90
q-119 -110 -119 -276t106 -265q105 -99 271 -99t297 143v-420q-186 -68 -307 -68z" />
    <glyph glyph-name="cdotaccent" unicode="&#x10b;" horiz-adv-x="878" 
d="M532 1444q78 0 132 -54t55 -134t-55 -132q-56 -53 -131 -53t-132 53q-55 55 -55 133q0 79 54 133t132 54zM578 -31q-218 1 -360 139t-142 346t146 349t370 141q111 0 213 -51v-275q-84 60 -175 60q-90 0 -154 -64t-64 -155q0 -92 62 -159q62 -66 160 -66q99 0 171 61
v-275q-104 -51 -227 -51z" />
    <glyph glyph-name="Ccaron" unicode="&#x10c;" horiz-adv-x="1206" 
d="M797 1475l-402 301l140 157l262 -200l260 200l145 -157zM817 -31q-319 0 -528 205q-98 98 -153 230q-54 132 -54 270t56 272q56 133 151 230q209 213 516 213q147 0 319 -70v-424q-121 150 -309 149q-145 0 -246 -90q-119 -110 -119 -276t106 -265q105 -99 271 -99
t297 143v-420q-186 -68 -307 -68z" />
    <glyph glyph-name="ccaron" unicode="&#x10d;" horiz-adv-x="878" 
d="M571 1065l-401 301l139 158l262 -201l260 201l146 -158zM578 -31q-218 1 -360 139t-142 346t146 349t370 141q111 0 213 -51v-275q-84 60 -175 60q-90 0 -154 -64t-64 -155q0 -92 62 -159q62 -66 160 -66q99 0 171 61v-275q-104 -51 -227 -51z" />
    <glyph glyph-name="Dcaron" unicode="&#x10e;" horiz-adv-x="1423" 
d="M633 1475l-402 301l140 157l262 -200l260 200l145 -157zM584 1065h-86v-764h71q199 0 301 99t103 280q0 385 -389 385zM639 0h-496v1366h465q348 0 540 -185t193 -491q0 -456 -403 -632q-135 -58 -299 -58z" />
    <glyph glyph-name="dcaron" unicode="&#x10f;" horiz-adv-x="1581" 
d="M1225 1004l110 430l307 -54l-212 -413zM618 248q82 0 148 59t66 147t-60 150q-59 64 -148 64q-88 0 -150 -62t-62 -147q0 -87 62 -149t144 -62zM1149 1493v-1493h-328v100q-102 -131 -284 -131q-181 0 -321 135q-140 134 -140 356t149 363q129 123 307 123t289 -119v666
h328z" />
    <glyph glyph-name="Dcroat" unicode="&#x110;" horiz-adv-x="1509" 
d="M670 1065h-86v-213h241v-246h-241v-305h71q199 0 301 99t103 280q0 385 -389 385zM725 0h-496v606h-188v246h188v514h465q348 0 540 -185t193 -491q0 -456 -403 -632q-135 -58 -299 -58z" />
    <glyph glyph-name="dcroat" unicode="&#x111;" horiz-adv-x="1257" 
d="M616 248q86 0 150 58t64 148t-59 151q-59 63 -149 63t-150 -60t-60 -147q0 -85 59 -149t145 -64zM1147 1493v-195h168v-221h-168v-1077h-328v100q-99 -131 -283 -131t-322 134q-138 135 -138 357t147 363q131 123 311 123t285 -119v250h-336v221h336v195h328z" />
    <glyph glyph-name="Emacron" unicode="&#x112;" horiz-adv-x="1001" 
d="M147 1534v201h771v-201h-771zM920 1366v-301h-422v-227h399v-301h-399v-236h422v-301h-777v1366h777z" />
    <glyph glyph-name="emacron" unicode="&#x113;" horiz-adv-x="1159" 
d="M180 1104v201h811v-201h-811zM595 733q-85 0 -134 -49q-41 -45 -49 -98h370q-14 59 -58 103t-129 44zM594 199q122 0 164 86h313q-31 -111 -110 -189q-131 -127 -372 -127q-241 -1 -378 137t-137 354t137 349t365 133t368 -132q139 -132 139 -378v-35h-682
q-1 -96 51 -147t142 -51z" />
    <glyph glyph-name="Edotaccent" unicode="&#x116;" horiz-adv-x="1001" 
d="M532 1853q78 0 132 -54t55 -133t-55 -132t-131 -53t-132 53q-55 55 -55 133t54 132t132 54zM920 1366v-301h-422v-227h399v-301h-399v-236h422v-301h-777v1366h777z" />
    <glyph glyph-name="edotaccent" unicode="&#x117;" horiz-adv-x="1159" 
d="M587 1071q-75 0 -132 53q-55 55 -55 133q0 79 54 133t132 54t132 -54t54 -134t-55 -132q-55 -53 -130 -53zM595 733q-85 0 -134 -49q-41 -45 -49 -98h370q-14 59 -58 103t-129 44zM594 199q122 0 164 86h313q-31 -111 -110 -189q-131 -127 -372 -127q-241 -1 -378 137
t-137 354t137 349t365 133t368 -132q139 -132 139 -378v-35h-682q-1 -96 51 -147t142 -51z" />
    <glyph glyph-name="Eogonek" unicode="&#x118;" horiz-adv-x="1001" 
d="M719 -156q1 -63 83 -63q44 0 91 37l-45 -176q-66 -37 -148 -37t-132 50q-48 50 -48 119t43 126q39 57 113 100h-533v1366h777v-301h-422v-227h399v-301h-399v-236h422v-301h-82q-119 -78 -119 -156z" />
    <glyph glyph-name="eogonek" unicode="&#x119;" horiz-adv-x="1159" 
d="M594 733q-86 0 -130 -45t-52 -102h370q-14 59 -58 103t-130 44zM1083 432v-35h-682q1 -100 55 -150t128 -50q74 1 116 27t58 59h313q-29 -115 -110 -193q-43 -41 -121 -82q-86 -55 -101 -69q-39 -35 -39 -73t23 -61t65 -23t95 38l-43 -174q-53 -35 -143 -35
q-89 0 -135 52q-46 53 -46 111t33 111t78 84q-16 -2 -52 -2q-233 0 -374 148q-127 137 -127 349t137 345t365 133t368 -132q139 -132 139 -378z" />
    <glyph glyph-name="Ecaron" unicode="&#x11a;" horiz-adv-x="1001" 
d="M530 1475l-401 301l139 157l262 -200l261 200l145 -157zM920 1366v-301h-422v-227h399v-301h-399v-236h422v-301h-777v1366h777z" />
    <glyph glyph-name="ecaron" unicode="&#x11b;" horiz-adv-x="1159" 
d="M584 1065l-402 301l140 158l262 -201l260 201l145 -158zM595 733q-85 0 -134 -49q-41 -45 -49 -98h370q-14 59 -58 103t-129 44zM594 199q122 0 164 86h313q-31 -111 -110 -189q-131 -127 -372 -127q-241 -1 -378 137t-137 354t137 349t365 133t368 -132
q139 -132 139 -378v-35h-682q-1 -96 51 -147t142 -51z" />
    <glyph glyph-name="Gcircumflex" unicode="&#x11c;" horiz-adv-x="1585" 
d="M555 1475l-139 157l401 301l406 -301l-146 -157l-260 200zM799 498v276h704q0 -211 -50 -357t-169 -257q-184 -172 -496 -172t-508 200q-198 200 -198 503q0 304 203 505t532 201q217 0 373 -95t240 -278l-338 -139q-33 81 -107 143q-73 62 -197 62t-219 -95
q-119 -119 -119 -306t104 -297t240 -109q136 0 208 59t88 156h-291z" />
    <glyph glyph-name="gcircumflex" unicode="&#x11d;" horiz-adv-x="1255" 
d="M399 1065l-139 158l402 301l405 -301l-145 -158l-260 201zM831 460q0 86 -62 148t-147 62q-86 0 -148 -64t-62 -148t61 -144q61 -62 149 -62t148 61q61 61 61 147zM815 915h328v-858q0 -123 -24 -211t-101 -168q-144 -147 -408 -147t-424 162q-84 88 -100 190h365
q31 -94 153 -94q92 0 152 56t59 165v92q-115 -121 -274 -120q-213 0 -339 130t-126 340t134 350t316 140t289 -121v94z" />
    <glyph glyph-name="Gbreve" unicode="&#x11e;" horiz-adv-x="1585" 
d="M809 1481q-174 0 -264 90t-92 225h211q6 -53 44 -87t101 -34t101 34t44 87h211q-2 -135 -92 -225t-264 -90zM799 498v276h704q0 -211 -50 -357t-169 -257q-184 -172 -496 -172t-508 200q-198 200 -198 503q0 304 203 505t532 201q217 0 373 -95t240 -278l-338 -139
q-33 81 -107 143q-73 62 -197 62t-219 -95q-119 -119 -119 -306t104 -297t240 -109q136 0 208 59t88 156h-291z" />
    <glyph glyph-name="gbreve" unicode="&#x11f;" horiz-adv-x="1255" 
d="M614 1071q-174 0 -264 90t-92 225h211q6 -52 44 -86t101 -34q64 0 102 34t44 86h211q-2 -135 -92 -225q-91 -90 -265 -90zM831 460q0 86 -62 148t-147 62q-86 0 -148 -64t-62 -148t61 -144q61 -62 149 -62t148 61q61 61 61 147zM815 915h328v-858q0 -123 -24 -211
t-101 -168q-144 -147 -408 -147t-424 162q-84 88 -100 190h365q31 -94 153 -94q92 0 152 56t59 165v92q-115 -121 -274 -120q-213 0 -339 130t-126 340t134 350t316 140t289 -121v94z" />
    <glyph glyph-name="Gdotaccent" unicode="&#x120;" horiz-adv-x="1585" 
d="M816 1481q-75 0 -132 53q-55 55 -55 133t54 132t132 54t132 -54t54 -133t-55 -132t-130 -53zM799 498v276h704q0 -211 -50 -357t-169 -257q-184 -172 -496 -172t-508 200q-198 200 -198 503q0 304 203 505t532 201q217 0 373 -95t240 -278l-338 -139q-33 81 -107 143
q-73 62 -197 62t-219 -95q-119 -119 -119 -306t104 -297t240 -109q136 0 208 59t88 156h-291z" />
    <glyph glyph-name="gdotaccent" unicode="&#x121;" horiz-adv-x="1255" 
d="M614 1444q78 0 132 -54t54 -134t-54 -132q-56 -53 -131 -53t-132 53q-55 55 -55 133q0 79 54 133t132 54zM831 460q0 86 -62 148t-147 62q-86 0 -148 -64t-62 -148t61 -144q61 -62 149 -62t148 61q61 61 61 147zM815 915h328v-858q0 -123 -24 -211t-101 -168
q-144 -147 -408 -147t-424 162q-84 88 -100 190h365q31 -94 153 -94q92 0 152 56t59 165v92q-115 -121 -274 -120q-213 0 -339 130t-126 340t134 350t316 140t289 -121v94z" />
    <glyph glyph-name="Gcommaaccent" unicode="&#x122;" horiz-adv-x="1585" 
d="M553 -508l106 406l308 -33l-209 -397zM799 498v276h704q0 -211 -50 -357t-169 -257q-184 -172 -496 -172t-508 200q-198 200 -198 503q0 304 203 505t532 201q217 0 373 -95t240 -278l-338 -139q-33 81 -107 143q-73 62 -197 62t-219 -95q-119 -119 -119 -306t104 -297
t240 -109q136 0 208 59t88 156h-291z" />
    <glyph glyph-name="gcommaaccent" unicode="&#x123;" horiz-adv-x="1255" 
d="M840 1430l-107 -386l-307 33l209 377zM831 460q0 86 -62 148t-147 62q-86 0 -148 -64t-62 -148t61 -144q61 -62 149 -62t148 61q61 61 61 147zM815 915h328v-858q0 -123 -24 -211t-101 -168q-144 -147 -408 -147t-424 162q-84 88 -100 190h365q31 -94 153 -94
q92 0 152 56t59 165v92q-115 -121 -274 -120q-213 0 -339 130t-126 340t134 350t316 140t289 -121v94z" />
    <glyph glyph-name="Hcircumflex" unicode="&#x124;" horiz-adv-x="1509" 
d="M489 1475l-139 157l402 301l405 -301l-145 -157l-260 200zM498 1366v-510h512v510h356v-1366h-356v553h-512v-553h-355v1366h355z" />
    <glyph glyph-name="hcircumflex" unicode="&#x125;" horiz-adv-x="1198" 
d="M23 1516l-140 157l402 301l405 -301l-145 -157l-260 200zM725 936q178 0 276 -98q55 -56 71 -114t15 -142v-582h-327v463q0 133 -38 175t-111 42t-121 -45t-50 -143v-492h-327v1493h327v-692q107 135 285 135z" />
    <glyph glyph-name="Hbar" unicode="&#x126;" horiz-adv-x="1509" 
d="M1010 1018h-512v-162h512v162zM498 1366v-109h512v109h356v-109h115v-239h-115v-1018h-356v553h-512v-553h-355v1018h-114v239h114v109h355z" />
    <glyph glyph-name="hbar" unicode="&#x127;" horiz-adv-x="1273" 
d="M1163 582v-582h-327v463q0 133 -38 175t-111 42t-122 -45t-49 -143v-492h-328v1077h-168v221h168v195h328v-195h336v-221h-336v-276q107 135 285 135t276 -98q55 -56 71 -114t15 -142z" />
    <glyph glyph-name="Imacron" unicode="&#x12a;" horiz-adv-x="641" 
d="M-63 1534v201h770v-201h-770zM143 1366h355v-1366h-355v1366z" />
    <glyph glyph-name="imacron" unicode="&#x12b;" horiz-adv-x="546" 
d="M-129 1104v201h811v-201h-811zM109 915h327v-915h-327v915z" />
    <glyph glyph-name="Iogonek" unicode="&#x12e;" horiz-adv-x="641" 
d="M379 -156q1 -63 83 -63q44 0 91 37l-45 -176q-66 -37 -148 -37t-132 50q-48 50 -48 119t43 126q39 57 113 100h-193v1366h355v-1366q-119 -78 -119 -156z" />
    <glyph glyph-name="iogonek" unicode="&#x12f;" horiz-adv-x="546" 
d="M275 1104q-73 0 -128 51t-55 127t53 131t128 55t129 -52t54 -128t-54 -130t-127 -54zM317 -139q0 -33 23 -56q24 -23 66 -23t94 38l-45 -174q-61 -35 -145 -35t-132 51q-48 52 -47 112q0 60 41 122t113 104h-176v915h327v-915q-119 -73 -119 -139z" />
    <glyph glyph-name="Idotaccent" unicode="&#x130;" horiz-adv-x="641" 
d="M323 1481q-75 0 -133 53q-55 55 -55 133t54 132q55 54 133 54t132 -54t54 -133t-55 -132t-130 -53zM143 1366h355v-1366h-355v1366z" />
    <glyph glyph-name="dotlessi" unicode="&#x131;" horiz-adv-x="546" 
d="M109 915h327v-915h-327v915z" />
    <glyph glyph-name="Jcircumflex" unicode="&#x134;" horiz-adv-x="958" 
d="M350 1475l-139 157l401 301l406 -301l-146 -157l-260 200zM362 274q99 0 99 160v932h354v-940q1 -110 -21 -182t-96 -146q-129 -129 -340 -129t-344 201l232 238q8 -74 44 -104t72 -30z" />
    <glyph glyph-name="jcircumflex" unicode="&#x135;" horiz-adv-x="546" 
d="M12 1065l-139 158l401 301l406 -301l-145 -158l-261 201zM109 915h327v-1384h-327v1384z" />
    <glyph glyph-name="Kcommaaccent" unicode="&#x136;" horiz-adv-x="1433" 
d="M471 -508l107 406l307 -33l-209 -397zM498 1366v-563l434 563h438l-543 -647l592 -719h-458l-463 592v-592h-355v1366h355z" />
    <glyph glyph-name="kcommaaccent" unicode="&#x137;" horiz-adv-x="1230" 
d="M389 -487l107 385l307 -33l-209 -377zM113 1493h327v-907l310 329h444l-432 -421l467 -494h-455l-334 375v-375h-327v1493z" />
    <glyph glyph-name="Lacute" unicode="&#x139;" horiz-adv-x="962" 
d="M487 1903l207 -150l-315 -278l-152 112zM143 1366h355v-1065h426v-301h-781v1366z" />
    <glyph glyph-name="lacute" unicode="&#x13a;" horiz-adv-x="550" 
d="M385 2005l207 -150l-316 -278l-151 113zM113 1493h327v-1493h-327v1493z" />
    <glyph glyph-name="Lcommaaccent" unicode="&#x13b;" horiz-adv-x="962" 
d="M307 -508l107 406l307 -33l-209 -397zM143 1366h355v-1065h426v-301h-781v1366z" />
    <glyph glyph-name="lcommaaccent" unicode="&#x13c;" horiz-adv-x="550" 
d="M72 -487l106 385l307 -33l-209 -377zM113 1493h327v-1493h-327v1493z" />
    <glyph glyph-name="Lcaron" unicode="&#x13d;" horiz-adv-x="962" 
d="M590 963l110 430l308 -54l-213 -413zM143 1366h355v-1065h426v-301h-781v1366z" />
    <glyph glyph-name="lcaron" unicode="&#x13e;" horiz-adv-x="864" 
d="M508 1004l110 430l308 -54l-213 -413zM113 1493h327v-1493h-327v1493z" />
    <glyph glyph-name="Ldot" unicode="&#x13f;" horiz-adv-x="962" 
d="M802 541q-75 0 -132 53q-56 55 -56 133t54 132t133 54q78 0 132 -54t54 -133t-55 -132t-130 -53zM143 1366h355v-1065h426v-301h-781v1366z" />
    <glyph glyph-name="ldot" unicode="&#x140;" horiz-adv-x="923" 
d="M737 934q78 0 132 -54q55 -54 55 -133t-56 -133t-130 -53q-75 0 -132 53q-55 55 -55 133q0 79 54 133t132 54zM113 1493h327v-1493h-327v1493z" />
    <glyph glyph-name="Lslash" unicode="&#x141;" horiz-adv-x="1015" 
d="M197 1366h354v-455l209 133v-282l-209 -133v-328h426v-301h-780v500l-177 -113v283l177 112v584z" />
    <glyph glyph-name="lslash" unicode="&#x142;" horiz-adv-x="716" 
d="M205 1493h327v-436l164 110v-241l-164 -111v-815h-327v678l-164 -111v242l164 111v573z" />
    <glyph glyph-name="Nacute" unicode="&#x143;" horiz-adv-x="1648" 
d="M932 1903l207 -150l-316 -278l-151 112zM498 0h-355v1366h355l653 -836v836h354v-1366h-354l-653 836v-836z" />
    <glyph glyph-name="nacute" unicode="&#x144;" horiz-adv-x="1198" 
d="M743 1493l207 -150l-315 -278l-152 113zM113 0v915h327v-114q102 135 282 135t279 -98q53 -52 69 -110t17 -146v-582h-327v463q0 135 -39 176t-110 41t-121 -46t-50 -142v-492h-327z" />
    <glyph glyph-name="Ncommaaccent" unicode="&#x145;" horiz-adv-x="1648" 
d="M573 -508l107 406l307 -33l-209 -397zM498 0h-355v1366h355l653 -836v836h354v-1366h-354l-653 836v-836z" />
    <glyph glyph-name="ncommaaccent" unicode="&#x146;" horiz-adv-x="1198" 
d="M369 -487l106 385l307 -33l-209 -377zM113 0v915h327v-114q102 135 282 135t279 -98q53 -52 69 -110t17 -146v-582h-327v463q0 135 -39 176t-110 41t-121 -46t-50 -142v-492h-327z" />
    <glyph glyph-name="Ncaron" unicode="&#x147;" horiz-adv-x="1648" 
d="M821 1475l-401 301l139 157l262 -200l260 200l146 -157zM498 0h-355v1366h355l653 -836v836h354v-1366h-354l-653 836v-836z" />
    <glyph glyph-name="ncaron" unicode="&#x148;" horiz-adv-x="1198" 
d="M623 1065l-402 301l139 158l263 -201l260 201l145 -158zM113 0v915h327v-114q102 135 282 135t279 -98q53 -52 69 -110t17 -146v-582h-327v463q0 135 -39 176t-110 41t-121 -46t-50 -142v-492h-327z" />
    <glyph glyph-name="Omacron" unicode="&#x14c;" horiz-adv-x="1671" 
d="M453 1534v201h770v-201h-770zM832 1053q-164 1 -273 -107t-109 -264t112 -262q110 -106 276 -107q166 0 274 109q108 108 109 262q-1 154 -113 262t-276 107zM1589 682q0 -303 -214 -508q-213 -205 -539 -205t-540 205t-214 508q0 141 54 276t161 236q213 203 539 203
t538 -203q106 -100 160 -236t55 -276z" />
    <glyph glyph-name="omacron" unicode="&#x14d;" horiz-adv-x="1251" 
d="M227 1104v201h811v-201h-811zM1176 459q0 -199 -148 -345t-402 -145q-254 -1 -402 145t-148 345t148 343t400 144t402 -144t150 -343zM626 668q-82 0 -146 -60t-64 -145q0 -87 62 -149t148 -62t147 60q63 60 63 146t-64 148t-146 62z" />
    <glyph glyph-name="Obreve" unicode="&#x14e;" horiz-adv-x="1671" 
d="M836 1481q-174 0 -264 90t-93 225h211q6 -53 44 -87t102 -34t101 34q38 34 44 87h211q-2 -135 -92 -225t-264 -90zM832 1053q-164 1 -273 -107t-109 -264t112 -262q110 -106 276 -107q166 0 274 109q108 108 109 262q-1 154 -113 262t-276 107zM1589 682
q0 -303 -214 -508q-213 -205 -539 -205t-540 205t-214 508q0 141 54 276t161 236q213 203 539 203t538 -203q106 -100 160 -236t55 -276z" />
    <glyph glyph-name="obreve" unicode="&#x14f;" horiz-adv-x="1251" 
d="M633 1071q-174 0 -264 90t-93 225h211q6 -52 44 -86q37 -34 101 -34t102 34t44 86h211q-2 -135 -92 -225t-264 -90zM1176 459q0 -199 -148 -345t-402 -145q-254 -1 -402 145t-148 345t148 343t400 144t402 -144t150 -343zM626 668q-82 0 -146 -60t-64 -145q0 -87 62 -149
t148 -62t147 60q63 60 63 146t-64 148t-146 62z" />
    <glyph glyph-name="Ohungarumlaut" unicode="&#x150;" horiz-adv-x="1671" 
d="M1128 1903l172 -150l-280 -278l-113 112zM774 1903l170 -150l-280 -278l-111 112zM832 1053q-164 1 -273 -107t-109 -264t112 -262q110 -106 276 -107q166 0 274 109q108 108 109 262q-1 154 -113 262t-276 107zM1589 682q0 -303 -214 -508q-213 -205 -539 -205t-540 205
t-214 508q0 141 54 276t161 236q213 203 539 203t538 -203q106 -100 160 -236t55 -276z" />
    <glyph glyph-name="ohungarumlaut" unicode="&#x151;" horiz-adv-x="1251" 
d="M924 1493l172 -150l-281 -278l-113 113zM569 1493l170 -150l-280 -278l-111 113zM1176 459q0 -199 -148 -345t-402 -145q-254 -1 -402 145t-148 345t148 343t400 144t402 -144t150 -343zM626 668q-82 0 -146 -60t-64 -145q0 -87 62 -149t148 -62t147 60q63 60 63 146
t-64 148t-146 62z" />
    <glyph glyph-name="OE" unicode="&#x152;" horiz-adv-x="2072" 
d="M831 1053q-155 0 -267 -108q-112 -107 -112 -261t110 -262t268 -109q158 1 268 109q108 108 108 260t-110 261q-110 110 -265 110zM809 1397q238 0 414 -174v143h768v-303h-412v-225h385v-301h-385v-236h412v-301h-768v152q-166 -183 -426 -183q-305 0 -510 207t-205 503
t208 507t519 211z" />
    <glyph glyph-name="oe" unicode="&#x153;" horiz-adv-x="1892" 
d="M611 664q-77 0 -138 -60t-61 -148t57 -146t136 -58t141 56t63 148q-1 92 -61 150t-137 58zM1330 737q-75 1 -124 -39t-67 -110h377q-16 63 -64 106t-122 43zM602 -31q-248 1 -388 139t-140 348t141 350t378 140t380 -141q47 55 137 97t205 42q238 0 368 -133
q53 -53 83 -126t37 -121t14 -136l2 -27h-689q4 -41 22 -87t40 -68q44 -45 152 -45t143 86h313q-35 -162 -180 -248q-119 -70 -293 -70q-245 0 -354 160q-78 -84 -163 -122t-208 -38z" />
    <glyph glyph-name="Racute" unicode="&#x154;" horiz-adv-x="1284" 
d="M702 1903l207 -150l-315 -278l-152 112zM498 1092v-338h67q115 0 166 50t51 121t-47 113q-53 53 -170 54h-67zM143 1366h553q217 0 334 -120t117 -304t-109 -289q-76 -72 -188 -94l428 -559h-440l-340 524v-524h-355v1366z" />
    <glyph glyph-name="racute" unicode="&#x155;" horiz-adv-x="837" 
d="M559 1493l207 -150l-315 -278l-152 113zM654 649q-86 0 -140 -49q-74 -68 -74 -209v-391h-327v915h327v-149q86 164 299 164l66 -4v-310q-65 33 -151 33z" />
    <glyph glyph-name="Rcommaaccent" unicode="&#x156;" horiz-adv-x="1284" 
d="M430 -508l107 406l307 -33l-209 -397zM498 1092v-338h67q115 0 166 50t51 121t-47 113q-53 53 -170 54h-67zM143 1366h553q217 0 334 -120t117 -304t-109 -289q-76 -72 -188 -94l428 -559h-440l-340 524v-524h-355v1366z" />
    <glyph glyph-name="rcommaaccent" unicode="&#x157;" horiz-adv-x="837" 
d="M225 -487l107 385l307 -33l-209 -377zM654 649q-86 0 -140 -49q-74 -68 -74 -209v-391h-327v915h327v-149q86 164 299 164l66 -4v-310q-65 33 -151 33z" />
    <glyph glyph-name="Rcaron" unicode="&#x158;" horiz-adv-x="1284" 
d="M612 1475l-401 301l139 157l262 -200l260 200l146 -157zM498 1092v-338h67q115 0 166 50t51 121t-47 113q-53 53 -170 54h-67zM143 1366h553q217 0 334 -120t117 -304t-109 -289q-76 -72 -188 -94l428 -559h-440l-340 524v-524h-355v1366z" />
    <glyph glyph-name="rcaron" unicode="&#x159;" horiz-adv-x="837" 
d="M440 1065l-401 301l139 158l262 -201l260 201l146 -158zM654 649q-86 0 -140 -49q-74 -68 -74 -209v-391h-327v915h327v-149q86 164 299 164l66 -4v-310q-65 33 -151 33z" />
    <glyph glyph-name="Sacute" unicode="&#x15a;" horiz-adv-x="1169" 
d="M713 1903l207 -150l-316 -278l-151 112zM719 402q0 50 -36 81t-179 74l-92 29q-137 43 -197 110q-78 84 -78 242q0 205 127 332t343 127t427 -111l-141 -276q-117 92 -234 92q-75 0 -113 -38t-38 -76t24 -68t113 -56l109 -33q172 -53 254 -141t82 -237q0 -215 -134 -349
t-395 -134t-479 153l151 287q147 -139 314 -140q94 0 137 47q35 35 35 85z" />
    <glyph glyph-name="sacute" unicode="&#x15b;" horiz-adv-x="909" 
d="M569 1493l207 -150l-315 -278l-152 113zM430 213q100 0 100 68q0 27 -16 42t-86 31l-86 21q-219 50 -219 237q0 133 86 224q106 111 328 110q152 0 292 -59l-110 -209q-97 45 -157 45q-120 0 -120 -64q0 -35 39 -51q16 -6 51 -13t58 -13l59 -17q205 -58 205 -254
q0 -139 -92 -227q-115 -114 -324 -114t-383 106l117 227q122 -90 258 -90z" />
    <glyph glyph-name="Scircumflex" unicode="&#x15c;" horiz-adv-x="1169" 
d="M350 1475l-139 157l401 301l406 -301l-146 -157l-260 200zM719 402q0 50 -36 81t-179 74l-92 29q-137 43 -197 110q-78 84 -78 242q0 205 127 332t343 127t427 -111l-141 -276q-117 92 -234 92q-75 0 -113 -38t-38 -76t24 -68t113 -56l109 -33q172 -53 254 -141t82 -237
q0 -215 -134 -349t-395 -134t-479 153l151 287q147 -139 314 -140q94 0 137 47q35 35 35 85z" />
    <glyph glyph-name="scircumflex" unicode="&#x15d;" horiz-adv-x="909" 
d="M268 1065l-139 158l401 301l406 -301l-145 -158l-261 201zM430 213q100 0 100 68q0 27 -16 42t-86 31l-86 21q-219 50 -219 237q0 133 86 224q106 111 328 110q152 0 292 -59l-110 -209q-97 45 -157 45q-120 0 -120 -64q0 -35 39 -51q16 -6 51 -13t58 -13l59 -17
q205 -58 205 -254q0 -139 -92 -227q-115 -114 -324 -114t-383 106l117 227q122 -90 258 -90z" />
    <glyph glyph-name="Scedilla" unicode="&#x15e;" horiz-adv-x="1169" 
d="M537 -94l229 -90l-238 -299l-188 82zM719 402q0 50 -36 81t-179 74l-92 29q-137 43 -197 110q-78 84 -78 242q0 205 127 332t343 127t427 -111l-141 -276q-117 92 -234 92q-75 0 -113 -38t-38 -76t24 -68t113 -56l109 -33q172 -53 254 -141t82 -237q0 -215 -134 -349
t-395 -134t-479 153l151 287q147 -139 314 -140q94 0 137 47q35 35 35 85z" />
    <glyph glyph-name="scedilla" unicode="&#x15f;" horiz-adv-x="909" 
d="M426 -94l217 -90l-254 -299l-172 82zM430 213q100 0 100 68q0 27 -16 42t-86 31l-86 21q-219 50 -219 237q0 133 86 224q106 111 328 110q152 0 292 -59l-110 -209q-97 45 -157 45q-120 0 -120 -64q0 -35 39 -51q16 -6 51 -13t58 -13l59 -17q205 -58 205 -254
q0 -139 -92 -227q-115 -114 -324 -114t-383 106l117 227q122 -90 258 -90z" />
    <glyph glyph-name="Scaron" unicode="&#x160;" horiz-adv-x="1169" 
d="M612 1475l-401 301l139 157l262 -200l260 200l146 -157zM719 402q0 50 -36 81t-179 74l-92 29q-137 43 -197 110q-78 84 -78 242q0 205 127 332t343 127t427 -111l-141 -276q-117 92 -234 92q-75 0 -113 -38t-38 -76t24 -68t113 -56l109 -33q172 -53 254 -141t82 -237
q0 -215 -134 -349t-395 -134t-479 153l151 287q147 -139 314 -140q94 0 137 47q35 35 35 85z" />
    <glyph glyph-name="scaron" unicode="&#x161;" horiz-adv-x="909" 
d="M530 1065l-401 301l139 158l262 -201l261 201l145 -158zM430 213q100 0 100 68q0 27 -16 42t-86 31l-86 21q-219 50 -219 237q0 133 86 224q106 111 328 110q152 0 292 -59l-110 -209q-97 45 -157 45q-120 0 -120 -64q0 -35 39 -51q16 -6 51 -13t58 -13l59 -17
q205 -58 205 -254q0 -139 -92 -227q-115 -114 -324 -114t-383 106l117 227q122 -90 258 -90z" />
    <glyph glyph-name="Tcedilla" unicode="&#x162;" horiz-adv-x="964" 
d="M434 -94l230 -90l-238 -299l-188 82zM950 1065h-291v-1065h-354v1065h-291v301h936v-301z" />
    <glyph glyph-name="tcedilla" unicode="&#x163;" horiz-adv-x="671" 
d="M262 -94l217 -90l-254 -299l-172 82zM662 647h-187v-647h-328v647h-104v268h104v302h328v-302h187v-268z" />
    <glyph glyph-name="Tcaron" unicode="&#x164;" horiz-adv-x="964" 
d="M481 1475l-401 301l139 157l262 -200l260 200l146 -157zM659 1065v-1065h-354v1065h-291v301h936v-301h-291z" />
    <glyph glyph-name="tcaron" unicode="&#x165;" horiz-adv-x="905" 
d="M549 1004l110 430l308 -54l-213 -413zM662 647h-187v-647h-328v647h-104v268h104v302h328v-302h187v-268z" />
    <glyph glyph-name="Utilde" unicode="&#x168;" horiz-adv-x="1476" 
d="M610 1567q-57 0 -78 -86l-159 94q67 195 225 197q55 0 123 -29l59 -27q68 -31 88 -30q49 0 76 90l158 -95q-80 -200 -238 -200q-53 0 -119 30l-61 31q-49 25 -74 25zM143 1366h355v-809q0 -143 69 -211q70 -66 168 -66t164 60q37 33 56 83t22 80q2 30 2 85v778h354v-784
q0 -90 -6 -148t-42 -142q-36 -83 -105 -153q-168 -170 -459 -170t-445 164q-133 145 -133 449v784z" />
    <glyph glyph-name="utilde" unicode="&#x169;" horiz-adv-x="1208" 
d="M733 1071q-53 0 -119 31l-61 31q-49 25 -74 24q-57 0 -78 -86l-159 94q68 197 225 197q55 0 123 -29l59 -26q68 -31 88 -31q49 0 76 90l158 -94q-81 -201 -238 -201zM440 403q0 -169 164 -167q76 0 120 42t44 125v512h328v-571q0 -156 -88 -246q-125 -129 -406 -129
t-403 131q-86 90 -86 244v571h327v-512z" />
    <glyph glyph-name="Umacron" unicode="&#x16a;" horiz-adv-x="1476" 
d="M352 1534v201h770v-201h-770zM143 1366h355v-809q0 -143 69 -211q70 -66 168 -66t164 60q37 33 56 83t22 80q2 30 2 85v778h354v-784q0 -90 -6 -148t-42 -142q-36 -83 -105 -153q-168 -170 -459 -170t-445 164q-133 145 -133 449v784z" />
    <glyph glyph-name="umacron" unicode="&#x16b;" horiz-adv-x="1208" 
d="M201 1104v201h811v-201h-811zM440 403q0 -169 164 -167q76 0 120 42t44 125v512h328v-571q0 -156 -88 -246q-125 -129 -406 -129t-403 131q-86 90 -86 244v571h327v-512z" />
    <glyph glyph-name="Ubreve" unicode="&#x16c;" horiz-adv-x="1476" 
d="M738 1481q-174 0 -265 90q-90 90 -92 225h211q6 -53 44 -87t101 -34t101 34t45 87h211q-2 -135 -92 -225t-264 -90zM143 1366h355v-809q0 -143 69 -211q70 -66 168 -66t164 60q37 33 56 83t22 80q2 30 2 85v778h354v-784q0 -90 -6 -148t-42 -142q-36 -83 -105 -153
q-168 -170 -459 -170t-445 164q-133 145 -133 449v784z" />
    <glyph glyph-name="ubreve" unicode="&#x16d;" horiz-adv-x="1208" 
d="M604 1071q-174 0 -264 90t-92 225h211q6 -52 44 -86t101 -34q64 0 102 34t44 86h211q-3 -135 -93 -225t-264 -90zM440 403q0 -169 164 -167q76 0 120 42t44 125v512h328v-571q0 -156 -88 -246q-125 -129 -406 -129t-403 131q-86 90 -86 244v571h327v-512z" />
    <glyph glyph-name="Uring" unicode="&#x16e;" horiz-adv-x="1476" 
d="M737 1776q-57 0 -83 -26t-25 -56q-1 -31 25 -57q26 -25 83 -25t83 25t26 57t-26 56q-26 26 -83 26zM1018 1693q0 -83 -53 -137q-76 -76 -228 -76t-227 76q-53 52 -53 136t53 137q76 76 228 76t227 -76q53 -53 53 -136zM143 1366h355v-809q0 -143 69 -211q70 -66 168 -66
t164 60q37 33 56 83t22 80q2 30 2 85v778h354v-784q0 -90 -6 -148t-42 -142q-36 -83 -105 -153q-168 -170 -459 -170t-445 164q-133 145 -133 449v784z" />
    <glyph glyph-name="uring" unicode="&#x16f;" horiz-adv-x="1208" 
d="M606 1366q-56 0 -82 -26t-26 -56t26 -56t82 -26t82 26t27 56q0 30 -26 56t-83 26zM887 1283q0 -83 -53 -136q-76 -76 -228 -76t-227 76q-53 53 -53 136t53 136q75 76 227 76t228 -76q53 -53 53 -136zM440 403q0 -169 164 -167q76 0 120 42t44 125v512h328v-571
q0 -156 -88 -246q-125 -129 -406 -129t-403 131q-86 90 -86 244v571h327v-512z" />
    <glyph glyph-name="Uhungarumlaut" unicode="&#x170;" horiz-adv-x="1476" 
d="M1028 1903l172 -150l-280 -278l-113 112zM674 1903l170 -150l-281 -278l-110 112zM143 1366h355v-809q0 -143 69 -211q70 -66 168 -66t164 60q37 33 56 83t22 80q2 30 2 85v778h354v-784q0 -90 -6 -148t-42 -142q-36 -83 -105 -153q-168 -170 -459 -170t-445 164
q-133 145 -133 449v784z" />
    <glyph glyph-name="uhungarumlaut" unicode="&#x171;" horiz-adv-x="1208" 
d="M823 1493l172 -150l-280 -278l-113 113zM469 1493l170 -150l-281 -278l-110 113zM440 403q0 -169 164 -167q76 0 120 42t44 125v512h328v-571q0 -156 -88 -246q-125 -129 -406 -129t-403 131q-86 90 -86 244v571h327v-512z" />
    <glyph glyph-name="Uogonek" unicode="&#x172;" horiz-adv-x="1476" 
d="M886 -56q-50 -42 -50 -102t82 -61q44 0 92 37l-45 -176q-66 -37 -149 -37t-136 57q-43 43 -43 112t33 113t80 84q-322 0 -474 162q-133 145 -133 449v784h355v-809q0 -143 68 -210t167 -67q100 0 165 59q65 58 78 164q3 32 3 85v778h354v-827q0 -199 -72 -308t-244 -201
q-81 -44 -131 -86z" />
    <glyph glyph-name="uogonek" unicode="&#x173;" horiz-adv-x="1208" 
d="M440 403q0 -169 164 -167q76 0 120 42t44 125v512h328v-542q0 -89 -16 -149q-36 -132 -207 -211q-89 -41 -131 -73t-42 -72t23 -63t65 -23t95 38l-43 -174q-53 -35 -143 -35q-89 0 -135 52q-46 53 -46 111t33 111t78 84q-18 -2 -56 -2q-248 0 -372 133q-86 92 -86 244
v571h327v-512z" />
    <glyph glyph-name="Ydieresis" unicode="&#x178;" horiz-adv-x="1310" 
d="M423 1837q71 0 124 -53t53 -123t-53 -125t-126 -55t-124 56t-51 122t53 125q53 53 124 53zM888 1837q71 0 124 -53t53 -123t-53 -125t-126 -55t-124 56t-51 122t53 125q53 53 124 53zM469 0v655l-494 711h424l258 -373l248 373h430l-510 -711v-655h-356z" />
    <glyph glyph-name="Zacute" unicode="&#x179;" horiz-adv-x="1292" 
d="M764 1903l207 -150l-316 -278l-151 112zM1196 301v-301h-1169l647 1065h-537v301h1129l-643 -1065h573z" />
    <glyph glyph-name="zacute" unicode="&#x17a;" horiz-adv-x="1058" 
d="M651 1493l207 -150l-315 -278l-152 113zM973 268v-268h-932l432 647h-369v268h914l-428 -647h383z" />
    <glyph glyph-name="Zdotaccent" unicode="&#x17b;" horiz-adv-x="1292" 
d="M687 1481q-75 0 -132 53q-55 55 -55 133t54 132t132 54t132 -54t54 -133t-55 -132t-130 -53zM1196 301v-301h-1169l647 1065h-537v301h1129l-643 -1065h573z" />
    <glyph glyph-name="zdotaccent" unicode="&#x17c;" horiz-adv-x="1058" 
d="M554 1071q-75 0 -132 53q-55 55 -55 133q0 79 54 133t132 54t132 -54t54 -134t-55 -132q-55 -53 -130 -53zM973 268v-268h-932l432 647h-369v268h914l-428 -647h383z" />
    <glyph glyph-name="Zcaron" unicode="&#x17d;" horiz-adv-x="1292" 
d="M684 1475l-401 301l139 157l262 -200l260 200l146 -157zM1196 301v-301h-1169l647 1065h-537v301h1129l-643 -1065h573z" />
    <glyph glyph-name="zcaron" unicode="&#x17e;" horiz-adv-x="1058" 
d="M551 1065l-401 301l139 158l262 -201l260 201l145 -158zM973 268v-268h-932l432 647h-369v268h914l-428 -647h383z" />
    <glyph glyph-name="uni018F" unicode="&#x18f;" horiz-adv-x="1572" 
d="M1122 532h-671q14 -104 92 -177t225 -73t242 74q87 70 112 176zM776 1397q324 0 520 -200q196 -201 195 -515q0 -314 -195 -514t-515 -199q-320 0 -496 181q-203 207 -203 575v37h1051q-19 117 -111 208t-258 91q-90 0 -167 -42t-116 -110l-366 72q80 193 255 305
t406 111z" />
    <glyph glyph-name="florin" unicode="&#x192;" horiz-adv-x="1228" 
d="M979 1516q119 0 219 -52l-53 -284q-55 45 -121 45t-100 -37q-29 -35 -50 -139l-24 -134h199l-37 -196h-199l-94 -526q-57 -317 -184 -447t-383 -131q-96 0 -177 18l54 299q51 -18 131 -18t131 45q63 55 102 272l88 488h-155l32 196h160l43 228q35 176 119 262
q109 111 299 111z" />
    <glyph glyph-name="uni01CF" unicode="&#x1cf;" horiz-adv-x="641" 
d="M319 1475l-401 301l139 157l262 -200l261 200l145 -157zM143 1366h355v-1366h-355v1366z" />
    <glyph glyph-name="uni01D0" unicode="&#x1d0;" horiz-adv-x="546" 
d="M270 1065l-401 301l139 158l262 -201l260 201l146 -158zM109 915h327v-915h-327v915z" />
    <glyph glyph-name="uni01DD" unicode="&#x1dd;" horiz-adv-x="1159" 
d="M564 178q85 0 130 47t51 121h-370q6 -70 55 -119t134 -49zM549 713q-119 0 -172 -95l-279 58q55 125 174 194q117 72 287 72q254 0 389 -139t135 -353t-137 -348q-138 -134 -366 -133q-228 0 -367 131t-139 373v55h682q-6 88 -64 136t-143 49z" />
    <glyph glyph-name="Gcaron" unicode="&#x1e6;" horiz-adv-x="1585" 
d="M827 1475l-401 301l139 157l262 -200l260 200l146 -157zM799 498v276h704q0 -211 -50 -357t-169 -257q-184 -172 -496 -172t-508 200q-198 200 -198 503q0 304 203 505t532 201q217 0 373 -95t240 -278l-338 -139q-33 81 -107 143q-73 62 -197 62t-219 -95
q-119 -119 -119 -306t104 -297t240 -109q136 0 208 59t88 156h-291z" />
    <glyph glyph-name="gcaron" unicode="&#x1e7;" horiz-adv-x="1255" 
d="M633 1065l-402 301l140 158l262 -201l260 201l145 -158zM831 460q0 86 -62 148t-147 62q-86 0 -148 -64t-62 -148t61 -144q61 -62 149 -62t148 61q61 61 61 147zM815 915h328v-858q0 -123 -24 -211t-101 -168q-144 -147 -408 -147t-424 162q-84 88 -100 190h365
q31 -94 153 -94q92 0 152 56t59 165v92q-115 -121 -274 -120q-213 0 -339 130t-126 340t134 350t316 140t289 -121v94z" />
    <glyph glyph-name="AEacute" unicode="&#x1fc;" horiz-adv-x="1892" 
d="M1055 1903l207 -150l-316 -278l-151 112zM571 510h299l-145 403zM1055 0l-88 240h-494l-86 -240h-373l527 1366h835l109 -301h-449l84 -227h449l112 -301h-450l90 -236h446l111 -301h-823z" />
    <glyph glyph-name="aeacute" unicode="&#x1fd;" horiz-adv-x="1757" 
d="M987 1493l207 -150l-315 -278l-152 113zM541 389q-150 0 -150 -98q0 -43 40 -72q41 -29 103 -29t114 27t52 74t-46 73t-113 25zM1193 741q-75 0 -123 -44t-66 -105h376q-12 59 -62 104t-125 45zM1185 948q232 0 364 -132t132 -384v-26h-686q1 -96 57 -152t161 -57
q105 0 141 86h313q-45 -143 -163 -229t-284 -85q-297 0 -389 178q-65 -84 -165 -129t-211 -45q-195 0 -301 107q-78 78 -78 192t80 195q104 104 303 104q127 0 233 -47v23q0 164 -219 166q-121 0 -254 -51v243q152 43 273 43q237 0 339 -162q122 162 354 162z" />
    <glyph glyph-name="Scommaaccent" unicode="&#x218;" horiz-adv-x="1169" 
d="M348 -508l107 406l307 -33l-209 -397zM719 402q0 50 -36 81t-179 74l-92 29q-137 43 -197 110q-78 84 -78 242q0 205 127 332t343 127t427 -111l-141 -276q-117 92 -234 92q-75 0 -113 -38t-38 -76t24 -68t113 -56l109 -33q172 -53 254 -141t82 -237q0 -215 -134 -349
t-395 -134t-479 153l151 287q147 -139 314 -140q94 0 137 47q35 35 35 85z" />
    <glyph glyph-name="scommaaccent" unicode="&#x219;" horiz-adv-x="909" 
d="M225 -487l107 385l307 -33l-209 -377zM430 213q100 0 100 68q0 27 -16 42t-86 31l-86 21q-219 50 -219 237q0 133 86 224q106 111 328 110q152 0 292 -59l-110 -209q-97 45 -157 45q-120 0 -120 -64q0 -35 39 -51q16 -6 51 -13t58 -13l59 -17q205 -58 205 -254
q0 -139 -92 -227q-115 -114 -324 -114t-383 106l117 227q122 -90 258 -90z" />
    <glyph glyph-name="Tcommaaccent" unicode="&#x21a;" horiz-adv-x="964" 
d="M225 -508l107 406l307 -33l-209 -397zM950 1065h-291v-1065h-354v1065h-291v301h936v-301z" />
    <glyph glyph-name="tcommaaccent" unicode="&#x21b;" horiz-adv-x="671" 
d="M53 -487l107 385l307 -33l-209 -377zM662 647h-187v-647h-328v647h-104v268h104v302h328v-302h187v-268z" />
    <glyph glyph-name="uni0228" unicode="&#x228;" horiz-adv-x="1001" 
d="M485 -94l230 -90l-238 -299l-188 82zM920 1366v-301h-422v-227h399v-301h-399v-236h422v-301h-777v1366h777z" />
    <glyph glyph-name="uni0229" unicode="&#x229;" horiz-adv-x="1159" 
d="M569 -94l217 -90l-254 -299l-172 82zM595 733q-85 0 -134 -49q-41 -45 -49 -98h370q-14 59 -58 103t-129 44zM594 199q122 0 164 86h313q-31 -111 -110 -189q-131 -127 -372 -127q-241 -1 -378 137t-137 354t137 349t365 133t368 -132q139 -132 139 -378v-35h-682
q-1 -96 51 -147t142 -51z" />
    <glyph glyph-name="uni0237" unicode="&#x237;" horiz-adv-x="546" 
d="M109 915h327v-1384h-327v1384z" />
    <glyph glyph-name="uni0259" unicode="&#x259;" horiz-adv-x="1159" 
d="M564 178q85 0 130 47t51 121h-370q6 -70 55 -119t134 -49zM549 713q-119 0 -172 -95l-279 58q55 125 174 194q117 72 287 72q254 0 389 -139t135 -353t-137 -348q-138 -134 -366 -133q-228 0 -367 131t-139 373v55h682q-6 88 -64 136t-143 49z" />
    <glyph glyph-name="afii57929" unicode="&#x2bc;" 
d="M303 1004l111 430l307 -54l-213 -413z" />
    <glyph glyph-name="circumflex" unicode="&#x2c6;" 
d="M248 1065l-139 158l401 301l405 -301l-145 -158l-260 201z" />
    <glyph glyph-name="caron" unicode="&#x2c7;" 
d="M510 1065l-401 301l139 158l262 -201l260 201l145 -158z" />
    <glyph glyph-name="uni02C9" unicode="&#x2c9;" 
d="M106 1104v201h812v-201h-812z" />
    <glyph glyph-name="breve" unicode="&#x2d8;" 
d="M512 1071q-174 0 -264 90t-92 225h211q6 -52 44 -86t101 -34t101 34t44 86h211q-2 -135 -92 -225t-264 -90z" />
    <glyph glyph-name="dotaccent" unicode="&#x2d9;" 
d="M513 1071q-75 0 -132 53q-55 55 -55 133q0 79 54 133t132 54t132 -54t54 -134t-55 -132q-55 -53 -130 -53z" />
    <glyph glyph-name="ring" unicode="&#x2da;" 
d="M512 1366q-56 0 -82 -26t-26 -56t25 -56q26 -26 83 -26q56 0 82 26t27 56q0 30 -26 56t-83 26zM793 1283q0 -83 -54 -136q-75 -76 -227 -76t-227 76q-53 53 -53 136t53 136q75 76 227 76t227 -76q54 -53 54 -136z" />
    <glyph glyph-name="ogonek" unicode="&#x2db;" 
d="M546 -395q-82 0 -131 52q-48 52 -48 115q0 62 44 126t111 102h152q-55 -36 -87 -68t-32 -69t23 -60q22 -23 66 -23t95 38l-45 -176q-66 -37 -148 -37z" />
    <glyph glyph-name="tilde" unicode="&#x2dc;" 
d="M373 1362q55 0 123 -29l59 -26q68 -31 88 -31q49 0 76 90l158 -94q-81 -201 -238 -201q-53 0 -119 31l-61 31q-49 25 -74 24q-57 0 -78 -86l-160 94q68 197 226 197z" />
    <glyph glyph-name="hungarumlaut" unicode="&#x2dd;" 
d="M803 1493l172 -150l-281 -278l-112 113zM449 1493l169 -150l-280 -278l-111 113z" />
    <glyph glyph-name="acutecomb" unicode="&#x301;" horiz-adv-x="4" 
d="M-459 1493l207 -150l-315 -278l-152 113z" />
    <glyph glyph-name="uni0394" unicode="&#x394;" horiz-adv-x="1366" 
d="M680 1040l-266 -798h532zM1331 0h-1298l502 1366h288z" />
    <glyph glyph-name="uni0394" unicode="&#x2206;" horiz-adv-x="1366" 
d="M680 1040l-266 -798h532zM1331 0h-1298l502 1366h288z" />
    <glyph glyph-name="uni03A9" unicode="&#x3a9;" horiz-adv-x="1366" 
d="M756 0v213q125 53 200 188q72 135 72 320q0 238 -133 356q-92 82 -213 82t-213 -82q-133 -119 -133 -356q0 -184 72 -320q76 -135 200 -188v-213h-551v240h277q-74 39 -139 108q-137 147 -137 416t178 452t446 183t446 -183q178 -184 178 -452t-137 -416
q-66 -70 -139 -108h277v-240h-551z" />
    <glyph glyph-name="uni03A9" unicode="&#x2126;" horiz-adv-x="1366" 
d="M756 0v213q125 53 200 188q72 135 72 320q0 238 -133 356q-92 82 -213 82t-213 -82q-133 -119 -133 -356q0 -184 72 -320q76 -135 200 -188v-213h-551v240h277q-74 39 -139 108q-137 147 -137 416t178 452t446 183t446 -183q178 -184 178 -452t-137 -416
q-66 -70 -139 -108h277v-240h-551z" />
    <glyph glyph-name="pi" unicode="&#x3c0;" horiz-adv-x="1398" 
d="M561 0h-328v657h-155v258h1243v-258h-156v-657h-327v657h-277v-657z" />
    <glyph glyph-name="afii10023" unicode="&#x401;" horiz-adv-x="1001" 
d="M156 1632q0 68 48 116t116 48t115 -48q48 -48 48 -116t-48 -116t-116 -48q-67 0 -115 48t-48 116zM582 1632q0 68 48 116t116 48t115 -48q48 -48 48 -116t-48 -116t-116 -48q-67 0 -115 48t-48 116zM920 1366v-301h-422v-227h399v-301h-399v-236h422v-301h-777v1366h777z
" />
    <glyph glyph-name="afii10051" unicode="&#x402;" horiz-adv-x="1503" 
d="M1049 406q0 139 -181 141q-90 0 -184 -47v-500h-356v1065h-308v301h1100v-301h-436v-270q134 47 284 47t259 -62q190 -106 190 -357t-166 -360q-117 -76 -319 -75q-43 0 -117 12v270q43 -12 90 -12q144 0 144 148z" />
    <glyph glyph-name="afii10052" unicode="&#x403;" horiz-adv-x="1009" 
d="M641 1903l207 -150l-316 -278l-151 112zM942 1366v-301h-444v-1065h-355v1366h799z" />
    <glyph glyph-name="afii10053" unicode="&#x404;" horiz-adv-x="1265" 
d="M772 -31q-301 0 -485 187q-205 210 -205 530t187 514t493 195q199 0 401 -101v-370q-143 159 -354 159q-152 1 -237 -69t-107 -180h508v-275h-518q25 -123 112 -199q92 -76 242 -75q213 0 354 141v-354q-88 -47 -176 -75t-215 -28z" />
    <glyph glyph-name="afii10054" unicode="&#x405;" horiz-adv-x="1169" 
d="M719 402q0 50 -36 81t-179 74l-92 29q-137 43 -197 110q-78 84 -78 242q0 205 127 332t343 127t427 -111l-141 -276q-117 92 -234 92q-75 0 -113 -38t-38 -76t24 -68t113 -56l109 -33q172 -53 254 -141t82 -237q0 -215 -134 -349t-395 -134t-479 153l151 287
q147 -139 314 -140q94 0 137 47q35 35 35 85z" />
    <glyph glyph-name="afii10055" unicode="&#x406;" horiz-adv-x="641" 
d="M143 1366h355v-1366h-355v1366z" />
    <glyph glyph-name="afii10056" unicode="&#x407;" horiz-adv-x="729" 
d="M182 1837q55 0 104 -42q50 -42 50 -124t-60 -133q-39 -33 -94 -33t-104 42t-49 124t49 124t104 42zM547 1837q55 0 104 -42t49 -124t-49 -124t-104 -42t-104 42t-50 124q0 82 60 133q39 33 94 33zM186 1366h355v-1366h-355v1366z" />
    <glyph glyph-name="afii10057" unicode="&#x408;" horiz-adv-x="958" 
d="M362 274q99 0 99 160v932h354v-940q1 -110 -21 -182t-96 -146q-129 -129 -340 -129t-344 201l232 238q8 -74 44 -104t72 -30z" />
    <glyph glyph-name="afii10058" unicode="&#x409;" horiz-adv-x="2088" 
d="M1647 418q0 141 -191 141h-137v-285h137q113 0 152 39t39 105zM2007 418q0 -418 -537 -418h-507v1067h-334v-498q0 -328 -144 -471q-121 -117 -319 -116q-82 0 -162 18v328q127 -41 200 25q73 67 72 259v754h1043v-532h172q279 0 407 -127q109 -109 109 -289z" />
    <glyph glyph-name="afii10059" unicode="&#x40a;" horiz-adv-x="2109" 
d="M1339 274h138q113 0 151 39t39 116q0 77 -41 115t-149 38h-138v-308zM1339 856h172q279 0 408 -127q109 -106 109 -299t-105 -299q-129 -131 -432 -131h-508v553h-485v-553h-355v1366h355v-510h485v510h356v-510z" />
    <glyph glyph-name="afii10060" unicode="&#x40b;" horiz-adv-x="1576" 
d="M328 0v1065h-308v301h1100v-301h-436v-240q131 27 293 27q404 0 484 -224q24 -65 27 -102t3 -98v-428h-356v344q0 113 -46 163t-198 50q-90 0 -207 -18v-539h-356z" />
    <glyph glyph-name="afii10061" unicode="&#x40c;" horiz-adv-x="1421" 
d="M805 1903l207 -150l-316 -278l-151 112zM498 1366v-563l434 563h438l-543 -647l592 -719h-458l-463 592v-592h-355v1366h355z" />
    <glyph glyph-name="afii10062" unicode="&#x40e;" horiz-adv-x="1275" 
d="M1083 1743q-91 -252 -428 -252t-428 252l238 90q41 -129 191 -129t190 129zM0 1366h397l260 -608l228 608h379l-615 -1366h-375l191 383z" />
    <glyph glyph-name="afii10145" unicode="&#x40f;" horiz-adv-x="1470" 
d="M143 0v1366h357v-1067h471v1067h356v-1366h-432v-340h-320v340h-432z" />
    <glyph glyph-name="afii10017" unicode="&#x410;" horiz-adv-x="1454" 
d="M580 500h303l-154 442zM1061 0l-84 229h-496l-92 -229h-375l525 1366h387l514 -1366h-379z" />
    <glyph glyph-name="afii10018" unicode="&#x411;" horiz-adv-x="1257" 
d="M500 276h123q113 0 153 44t39 104q0 134 -192 135h-123v-283zM143 0v1366h889v-301h-532v-236h139q305 0 432 -133q105 -112 105 -286t-119 -292t-430 -118h-484z" />
    <glyph glyph-name="afii10019" unicode="&#x412;" horiz-adv-x="1265" 
d="M498 563v-287h80q172 0 219 56q29 33 29 92t-40 99t-215 40h-73zM563 827q168 -1 168 133t-168 134h-65v-267h65zM713 0h-570v1366h529q203 0 293 -99t90 -263q0 -90 -39 -168q-41 -76 -111 -107q115 -12 187 -82q92 -88 92 -253t-101 -265q-124 -129 -370 -129z" />
    <glyph glyph-name="afii10020" unicode="&#x413;" horiz-adv-x="1009" 
d="M942 1366v-301h-444v-1065h-355v1366h799z" />
    <glyph glyph-name="afii10021" unicode="&#x414;" horiz-adv-x="1521" 
d="M629 1092v-322q0 -170 -34 -290t-118 -206h484v818h-332zM285 1366h1032v-1092h164v-581h-320v307h-831v-307h-320v581q90 14 159 85t93 177t23 269v561z" />
    <glyph glyph-name="afii10022" unicode="&#x415;" horiz-adv-x="1001" 
d="M920 1366v-301h-422v-227h399v-301h-399v-236h422v-301h-777v1366h777z" />
    <glyph glyph-name="afii10024" unicode="&#x416;" horiz-adv-x="1986" 
d="M817 0v600l-368 -600h-447l498 696l-457 670h410l364 -594v594h352v-594l365 594h410l-457 -670l498 -696h-447l-369 600v-600h-352z" />
    <glyph glyph-name="afii10025" unicode="&#x417;" horiz-adv-x="1222" 
d="M477 827q248 0 248 147q0 54 -51 91t-133 37q-137 0 -273 -113l-137 260q215 148 466 148t378 -123q102 -96 102 -258q0 -113 -54 -191t-132 -114v-6q90 -29 151 -87q98 -94 99 -229q0 -209 -170 -326q-135 -94 -385 -94q-330 0 -555 203l180 258q139 -160 328 -160
q94 0 153 37q60 37 60 105t-62 108q-49 33 -168 33h-133v274h88z" />
    <glyph glyph-name="afii10026" unicode="&#x418;" horiz-adv-x="1517" 
d="M143 1366h357v-860l512 860h362v-1366h-356v860l-512 -860h-363v1366z" />
    <glyph glyph-name="afii10027" unicode="&#x419;" horiz-adv-x="1517" 
d="M1178 1743q-91 -252 -429 -252t-427 252l237 90q41 -129 191 -129t190 129zM143 1366h357v-860l512 860h362v-1366h-356v860l-512 -860h-363v1366z" />
    <glyph glyph-name="afii10028" unicode="&#x41a;" horiz-adv-x="1421" 
d="M498 1366v-563l434 563h438l-543 -647l592 -719h-458l-463 592v-592h-355v1366h355z" />
    <glyph glyph-name="afii10029" unicode="&#x41b;" horiz-adv-x="1472" 
d="M276 1366h1053v-1366h-356v1067h-344v-498q0 -328 -144 -471q-121 -117 -319 -116q-82 0 -162 18v328q127 -41 200 25q73 67 72 259v754z" />
    <glyph glyph-name="afii10030" unicode="&#x41c;" horiz-adv-x="1873" 
d="M434 0h-352l231 1366h351l276 -729l293 729h354l205 -1366h-354l-101 786l-329 -786h-142l-315 786z" />
    <glyph glyph-name="afii10031" unicode="&#x41d;" horiz-adv-x="1509" 
d="M498 1366v-510h512v510h356v-1366h-356v553h-512v-553h-355v1366h355z" />
    <glyph glyph-name="afii10032" unicode="&#x41e;" horiz-adv-x="1671" 
d="M832 1053q-164 1 -273 -107t-109 -264t112 -262q110 -106 276 -107q166 0 274 109q108 108 109 262q-1 154 -113 262t-276 107zM1589 682q0 -303 -214 -508q-213 -205 -539 -205t-540 205t-214 508q0 141 54 276t161 236q213 203 539 203t538 -203q106 -100 160 -236
t55 -276z" />
    <glyph glyph-name="afii10033" unicode="&#x41f;" horiz-adv-x="1486" 
d="M1343 0h-356v1063h-489v-1063h-355v1366h1200v-1366z" />
    <glyph glyph-name="afii10034" unicode="&#x420;" horiz-adv-x="1226" 
d="M811 907q0 172 -193 172h-120v-340h118q102 0 148 41t47 127zM721 453h-223v-453h-355v1366h566q219 0 346 -123t127 -338t-121 -333t-340 -119z" />
    <glyph glyph-name="afii10035" unicode="&#x421;" horiz-adv-x="1206" 
d="M817 -31q-319 0 -528 205q-98 98 -153 230q-54 132 -54 270t56 272q56 133 151 230q209 213 516 213q150 0 319 -70v-424q-121 150 -309 149q-145 0 -246 -90q-119 -110 -119 -276t106 -265q105 -99 271 -99t297 143v-420q-186 -68 -307 -68z" />
    <glyph glyph-name="afii10036" unicode="&#x422;" horiz-adv-x="964" 
d="M950 1065h-291v-1065h-354v1065h-291v301h936v-301z" />
    <glyph glyph-name="afii10037" unicode="&#x423;" horiz-adv-x="1275" 
d="M0 1366h397l260 -608l228 608h379l-615 -1366h-375l191 383z" />
    <glyph glyph-name="afii10038" unicode="&#x424;" horiz-adv-x="1781" 
d="M739 1010h-16q-135 0 -210 -68t-75 -202t74 -205t209 -70h18v545zM1042 1010v-545h19q135 1 209 71t74 204t-76 202q-74 68 -209 68h-17zM713 0v190q-326 0 -486 156q-145 145 -145 393q0 249 154 397t477 148v199h356v-199q322 0 476 -148q155 -148 155 -397t-153 -399
t-478 -150v-190h-356z" />
    <glyph glyph-name="afii10039" unicode="&#x425;" horiz-adv-x="1456" 
d="M0 0l535 729l-439 637h439l202 -354l211 354h436l-444 -637l516 -729h-430l-291 444l-307 -444h-428z" />
    <glyph glyph-name="afii10040" unicode="&#x426;" horiz-adv-x="1529" 
d="M143 0v1366h357v-1067h471v1067h356v-1067h172v-606h-319v307h-1037z" />
    <glyph glyph-name="afii10041" unicode="&#x427;" horiz-adv-x="1351" 
d="M852 0v537q-135 -20 -285 -21q-265 0 -373 102t-108 324v424h356v-371q0 -100 42 -142t159 -42t209 14v541h356v-1366h-356z" />
    <glyph glyph-name="afii10042" unicode="&#x428;" horiz-adv-x="2043" 
d="M143 0v1366h357v-1067h344v1067h356v-1067h344v1067h357v-1366h-1758z" />
    <glyph glyph-name="afii10043" unicode="&#x429;" horiz-adv-x="2123" 
d="M1774 0h-1631v1366h357v-1067h344v1067h356v-1067h344v1067h357v-1067h192v-606h-319v307z" />
    <glyph glyph-name="afii10044" unicode="&#x42a;" horiz-adv-x="1427" 
d="M985 418q0 141 -190 141h-138v-285h138q113 0 151 39t39 105zM1346 418q0 -418 -537 -418h-508v1067h-281v299h637v-532h172q279 0 408 -127q109 -109 109 -289z" />
    <glyph glyph-name="afii10045" unicode="&#x42b;" horiz-adv-x="1800" 
d="M637 559h-137v-285h137q113 0 152 39t38 105q0 141 -190 141zM1188 418q0 -418 -537 -418h-508v1366h357v-532h172q279 0 407 -127q109 -106 109 -289zM1300 0v1366h357v-1366h-357z" />
    <glyph glyph-name="afii10046" unicode="&#x42c;" horiz-adv-x="1269" 
d="M637 559h-137v-285h137q113 0 152 39t38 105q0 141 -190 141zM1188 418q0 -418 -537 -418h-508v1366h357v-532h172q279 0 407 -127q109 -109 109 -289z" />
    <glyph glyph-name="afii10047" unicode="&#x42d;" horiz-adv-x="1265" 
d="M457 285q151 -1 241 75t115 199h-520v275h508q-23 110 -108 180t-236 69q-209 0 -355 -159v370q203 100 402 101q305 0 492 -195q188 -194 188 -514t-205 -530q-180 -186 -487 -187q-126 0 -214 28t-176 75v354q141 -141 355 -141z" />
    <glyph glyph-name="afii10048" unicode="&#x42e;" horiz-adv-x="2224" 
d="M1394 1053q-157 0 -268 -111q-110 -112 -110 -264t110 -258t266 -106t268 110t112 262t-110 260t-268 107zM498 838h176q44 238 232 398t478 161q330 0 539 -201q103 -96 161 -230t58 -280t-58 -282t-161 -234q-209 -201 -521 -201t-505 173q-192 173 -223 421h-176v-563
h-355v1366h355v-528z" />
    <glyph glyph-name="afii10049" unicode="&#x42f;" horiz-adv-x="1265" 
d="M465 903q0 -164 201 -164h100v328h-100q-102 0 -152 -45t-49 -119zM596 1366h526v-1366h-356v465h-35l-293 -465h-409l381 514q-119 20 -203 107q-107 109 -107 299t113 309q129 137 383 137z" />
    <glyph glyph-name="afii10065" unicode="&#x430;" horiz-adv-x="1261" 
d="M622 668q-83 0 -147 -62q-63 -62 -63 -149q0 -89 64 -149t148 -60q83 0 145 62t62 150t-63 148t-146 60zM821 915h328v-915h-328v100q-93 -131 -285 -131q-192 1 -326 143t-134 353t135 346t319 135t291 -119v88z" />
    <glyph glyph-name="afii10066" unicode="&#x431;" horiz-adv-x="1253" 
d="M626 672q-81 0 -146 -58q-64 -58 -64 -151q0 -95 64 -153t148 -58t146 60q64 60 64 152t-66 150t-146 58zM696 942q214 0 348 -125t134 -341t-146 -362t-402 -145q-256 0 -406 153q-149 153 -148 474q0 412 196 616q68 68 153 107t220 65l60 13q109 20 139 51
q27 31 26 68h285q-14 -106 -82 -196t-190 -134q-45 -16 -212 -62t-227 -108q-72 -78 -82 -199h15q106 125 319 125z" />
    <glyph glyph-name="afii10067" unicode="&#x432;" horiz-adv-x="1083" 
d="M586 381h-146v-182h146q51 0 80 26q27 27 26 66q0 90 -106 90zM672 637q0 80 -111 80h-121v-166h123q109 0 109 86zM739 0h-626v915h561q295 0 297 -225q0 -153 -140 -213v-4q80 -16 139 -69q58 -53 58 -158q0 -106 -70 -176t-219 -70z" />
    <glyph glyph-name="afii10068" unicode="&#x433;" horiz-adv-x="784" 
d="M113 0v915h643v-268h-316v-647h-327z" />
    <glyph glyph-name="afii10069" unicode="&#x434;" horiz-adv-x="1220" 
d="M518 530q0 -209 -112 -301h331v457h-219v-156zM215 915h842v-686h133v-495h-287v266h-608v-266h-287v495q76 6 125 56q82 80 82 262v368z" />
    <glyph glyph-name="afii10070" unicode="&#x435;" horiz-adv-x="1159" 
d="M595 733q-85 0 -134 -49q-41 -45 -49 -98h370q-14 59 -58 103t-129 44zM594 199q122 0 164 86h313q-31 -111 -110 -189q-131 -127 -372 -127q-241 -1 -378 137t-137 354t137 349t365 133t368 -132q139 -132 139 -378v-35h-682q-1 -96 51 -147t142 -51z" />
    <glyph glyph-name="afii10072" unicode="&#x436;" horiz-adv-x="1675" 
d="M676 0v397l-273 -397h-401l373 477l-318 438h373l246 -383v383h323v-383l246 383h373l-318 -438l373 -477h-401l-273 397v-397h-323z" />
    <glyph glyph-name="afii10073" unicode="&#x437;" horiz-adv-x="950" 
d="M467 946q213 0 315 -102q66 -66 66 -162q0 -143 -137 -205v-4q76 -12 129 -65t53 -156t-84 -182q-102 -100 -342 -100t-430 118l121 227q125 -98 262 -98t137 78q0 65 -143 65h-113v213h92q146 0 146 68t-127 69t-234 -77l-108 213q184 100 397 100z" />
    <glyph glyph-name="afii10074" unicode="&#x438;" horiz-adv-x="1200" 
d="M113 915h327v-471l363 471h284v-915h-327v483l-359 -483h-288v915z" />
    <glyph glyph-name="afii10075" unicode="&#x439;" horiz-adv-x="1200" 
d="M600 1257q121 0 158 127l219 -77q-33 -123 -131 -185t-246 -61q-148 -1 -246 61t-131 185l219 77q37 -127 158 -127zM113 915h327v-471l363 471h284v-915h-327v483l-359 -483h-288v915z" />
    <glyph glyph-name="afii10076" unicode="&#x43a;" horiz-adv-x="1165" 
d="M113 0v915h327v-374l277 374h411l-378 -430l413 -485h-424l-299 406v-406h-327z" />
    <glyph glyph-name="afii10077" unicode="&#x43b;" horiz-adv-x="1179" 
d="M1067 915v-915h-328v647h-233v-262q0 -209 -91 -303t-263 -94q-63 0 -132 12v238q86 -10 128 34t42 148v495h877z" />
    <glyph glyph-name="afii10078" unicode="&#x43c;" horiz-adv-x="1392" 
d="M41 0l145 915h285l225 -495l226 495h284l146 -915h-308l-73 477l-215 -477h-119l-215 477l-74 -477h-307z" />
    <glyph glyph-name="afii10079" unicode="&#x43d;" horiz-adv-x="1185" 
d="M113 0v915h327v-309h305v309h328v-915h-328v348h-305v-348h-327z" />
    <glyph glyph-name="afii10080" unicode="&#x43e;" horiz-adv-x="1251" 
d="M1176 459q0 -199 -148 -345t-402 -145q-254 -1 -402 145t-148 345t148 343t400 144t402 -144t150 -343zM626 668q-82 0 -146 -60t-64 -145q0 -87 62 -149t148 -62t147 60q63 60 63 146t-64 148t-146 62z" />
    <glyph glyph-name="afii10081" unicode="&#x43f;" horiz-adv-x="1173" 
d="M113 0v915h948v-915h-328v657h-293v-657h-327z" />
    <glyph glyph-name="afii10082" unicode="&#x440;" horiz-adv-x="1261" 
d="M642 668q-87 0 -149 -62q-63 -62 -63 -148t62 -148t150 -62q87 0 147 62q61 62 61 148t-64 148q-57 62 -144 62zM440 -469h-327v1384h327v-100q104 131 289 131t321 -136t136 -353t-148 -361q-129 -127 -306 -127t-292 119v-557z" />
    <glyph glyph-name="afii10083" unicode="&#x441;" horiz-adv-x="878" 
d="M578 -31q-218 1 -360 139t-142 346t146 349t370 141q111 0 213 -51v-275q-84 60 -175 60q-90 0 -154 -64t-64 -155q0 -92 62 -159q62 -66 160 -66q99 0 171 61v-275q-104 -51 -227 -51z" />
    <glyph glyph-name="afii10084" unicode="&#x442;" horiz-adv-x="843" 
d="M258 0v647h-238v268h803v-268h-237v-647h-328z" />
    <glyph glyph-name="afii10085" unicode="&#x443;" horiz-adv-x="1236" 
d="M135 -469l307 594l-442 790h381l244 -469l237 469h375l-735 -1384h-367z" />
    <glyph glyph-name="afii10086" unicode="&#x444;" horiz-adv-x="1523" 
d="M621 694h-7q-96 0 -160 -62t-63 -178q0 -116 72 -180q57 -53 153 -53h5v473zM903 694v-473h4q96 0 161 58q65 57 65 175q1 118 -63 179t-161 61h-6zM926 -469h-328v455h-6q-250 0 -383 132t-133 344t139 340t377 128h6v436h328v-436h6q238 0 377 -128t139 -340t-133 -344
t-383 -132h-6v-455z" />
    <glyph glyph-name="afii10087" unicode="&#x445;" horiz-adv-x="1335" 
d="M0 0l457 498l-371 417h426l158 -188l161 188h424l-378 -417l458 -498h-434l-233 272l-234 -272h-434z" />
    <glyph glyph-name="afii10088" unicode="&#x446;" horiz-adv-x="1220" 
d="M113 0v915h327v-657h281v657h328v-657h151v-524h-287v266h-800z" />
    <glyph glyph-name="afii10089" unicode="&#x447;" horiz-adv-x="1101" 
d="M662 0v299q-90 -23 -201 -23q-205 0 -290 86t-85 265v288h315v-266q0 -77 32 -103t107 -26t122 15v380h327v-915h-327z" />
    <glyph glyph-name="afii10090" unicode="&#x448;" horiz-adv-x="1699" 
d="M113 0v915h327v-657h246v657h328v-657h246v657h327v-915h-1474z" />
    <glyph glyph-name="afii10091" unicode="&#x449;" horiz-adv-x="1781" 
d="M1477 0h-1364v915h327v-657h248v657h328v-657h248v657h327v-657h172v-524h-286v266z" />
    <glyph glyph-name="afii10092" unicode="&#x44a;" horiz-adv-x="1193" 
d="M584 213h123q108 0 108 93t-113 91h-118v-184zM584 610h229q164 0 247 -81t83 -220t-84 -224t-246 -85h-557v647h-236v268h564v-305z" />
    <glyph glyph-name="afii10093" unicode="&#x44b;" horiz-adv-x="1519" 
d="M563 213q111 0 111 93t-115 91h-119v-184h123zM440 610h224q160 0 244 -81t83 -221q0 -140 -84 -224t-243 -84h-551v915h327v-305zM1079 0v915h328v-915h-328z" />
    <glyph glyph-name="afii10094" unicode="&#x44c;" horiz-adv-x="1050" 
d="M563 213q109 0 109 93t-113 91h-119v-184h123zM440 610h230q162 0 246 -81t84 -221t-84 -224t-246 -84h-557v915h327v-305z" />
    <glyph glyph-name="afii10095" unicode="&#x44d;" horiz-adv-x="974" 
d="M401 944q229 0 363 -130t135 -358q0 -228 -136 -358q-136 -129 -374 -129q-150 1 -295 62v274q100 -88 246 -88q199 0 235 139h-352v213h352q-51 133 -229 131q-144 0 -252 -100v270q135 74 307 74z" />
    <glyph glyph-name="afii10096" unicode="&#x44e;" horiz-adv-x="1667" 
d="M440 606h97q47 144 179 242t324 98q252 0 410 -151q141 -141 141 -339t-141 -335q-152 -152 -412 -152t-395 140q-90 94 -115 239h-88v-348h-327v915h327v-309zM1045 668q-91 0 -152 -62t-61 -146t60 -146t148 -62t148 60t61 146q-1 86 -57 148t-147 62z" />
    <glyph glyph-name="afii10097" unicode="&#x44f;" horiz-adv-x="1069" 
d="M399 596q0 -106 127 -104h103v210h-99q-131 0 -131 -106zM80 602q0 131 86 222t307 91h483v-915h-327v291h-27l-201 -291h-344l254 319q-95 18 -163 85t-68 198z" />
    <glyph glyph-name="afii10071" unicode="&#x451;" horiz-adv-x="1159" 
d="M625 1257q0 72 50 122q50 51 122 51t122 -50t50 -123q0 -71 -50 -121t-122 -50t-122 49q-50 50 -50 122zM190 1257q0 72 50 122q50 51 122 51t122 -50t50 -123q0 -71 -50 -121t-122 -50t-122 49q-50 50 -50 122zM595 733q-85 0 -134 -49q-41 -45 -49 -98h370
q-14 59 -58 103t-129 44zM594 199q122 0 164 86h313q-31 -111 -110 -189q-131 -127 -372 -127q-241 -1 -378 137t-137 354t137 349t365 133t368 -132q139 -132 139 -378v-35h-682q-1 -96 51 -147t142 -51z" />
    <glyph glyph-name="afii10099" unicode="&#x452;" horiz-adv-x="1198" 
d="M725 854q178 0 276 -98q55 -56 71 -114t15 -142v-623q-1 -178 -85 -263t-254 -85q-72 0 -181 22v254q134 -32 175 51q18 33 18 57v468q0 133 -38 175t-111 42t-121 -45t-50 -143v-410h-327v995h-168v222h168v276h327v-276h336v-222h-336v-276q107 135 285 135z" />
    <glyph glyph-name="afii10100" unicode="&#x453;" horiz-adv-x="784" 
d="M549 1493l207 -150l-316 -278l-151 113zM113 0v915h643v-268h-316v-647h-327z" />
    <glyph glyph-name="afii10101" unicode="&#x454;" horiz-adv-x="974" 
d="M76 450q0 226 135 361q137 133 362 133q170 0 308 -74v-270q-102 102 -252 100q-179 0 -230 -131h353v-213h-353q36 -139 236 -139q146 0 246 88v-274q-145 -61 -295 -62q-238 0 -374 127q-136 128 -136 354z" />
    <glyph glyph-name="afii10102" unicode="&#x455;" horiz-adv-x="909" 
d="M430 213q100 0 100 68q0 27 -16 42t-86 31l-86 21q-219 50 -219 237q0 133 86 224q106 111 328 110q152 0 292 -59l-110 -209q-97 45 -157 45q-120 0 -120 -64q0 -35 39 -51q16 -6 51 -13t58 -13l59 -17q205 -58 205 -254q0 -139 -92 -227q-115 -114 -324 -114t-383 106
l117 227q122 -90 258 -90z" />
    <glyph glyph-name="afii10103" unicode="&#x456;" horiz-adv-x="550" 
d="M92 1296q0 76 54 130t130 54t130 -54t55 -130q0 -76 -54 -130q-55 -54 -131 -54t-130 54t-54 130zM113 915h327v-915h-327v915z" />
    <glyph glyph-name="afii10104" unicode="&#x457;" horiz-adv-x="716" 
d="M176 1479q55 0 104 -42q50 -42 50 -124t-60 -133q-39 -33 -94 -33t-104 42t-49 124t49 124t104 42zM541 1479q55 0 104 -42t49 -124t-49 -124t-104 -42t-105 42t-49 124q-1 82 49 124t105 42zM197 915h323v-915h-323v915z" />
    <glyph glyph-name="afii10105" unicode="&#x458;" horiz-adv-x="550" 
d="M92 1296q0 76 54 130t130 54t130 -54t55 -130q0 -76 -54 -130q-55 -54 -131 -54t-130 54t-54 130zM113 915h327v-1384h-327v1384z" />
    <glyph glyph-name="afii10106" unicode="&#x459;" horiz-adv-x="1669" 
d="M1057 397v-184h125q110 0 108 94q0 92 -112 90h-121zM506 385q0 -397 -346 -397q-74 0 -140 12v238q82 -12 126 34t44 148v495h867v-305h231q160 0 245 -81t85 -220t-85 -224t-245 -85h-549v647h-233v-262z" />
    <glyph glyph-name="afii10107" unicode="&#x45a;" horiz-adv-x="1675" 
d="M1065 397v-184h123q110 0 108 94q0 92 -112 90h-119zM1065 610h229q162 0 246 -81t84 -221t-84 -224t-246 -84h-557v397h-297v-397h-327v915h327v-305h297v305h328v-305z" />
    <glyph glyph-name="afii10108" unicode="&#x45b;" horiz-adv-x="1198" 
d="M725 854q178 0 276 -98q55 -56 71 -114t15 -142v-500h-327v381q0 133 -38 175t-111 42t-121 -45t-50 -143v-410h-327v995h-168v222h168v276h327v-276h336v-222h-336v-276q107 135 285 135z" />
    <glyph glyph-name="afii10109" unicode="&#x45c;" horiz-adv-x="1165" 
d="M692 1493l207 -150l-315 -278l-152 113zM113 0v915h327v-374l277 374h411l-378 -430l413 -485h-424l-299 406v-406h-327z" />
    <glyph glyph-name="afii10110" unicode="&#x45e;" horiz-adv-x="1236" 
d="M635 1061q-147 -1 -245 61t-132 185l219 77q37 -127 158 -127t158 127l219 -77q-34 -123 -132 -185t-245 -61zM135 -469l307 594l-442 790h381l244 -469l237 469h375l-735 -1384h-367z" />
    <glyph glyph-name="afii10193" unicode="&#x45f;" horiz-adv-x="1159" 
d="M113 0v915h327v-657h279v657h328v-915h-324v-287h-287v287h-323z" />
    <glyph glyph-name="afii10146" unicode="&#x462;" horiz-adv-x="1419" 
d="M977 418q0 141 -191 141h-137v-285h137q113 0 152 39t39 105zM801 0h-508v1014h-273v235h273v234h356v-234h391v-235h-391v-180h172q279 0 408 -127q109 -109 108 -289q0 -418 -536 -418z" />
    <glyph glyph-name="afii10194" unicode="&#x463;" horiz-adv-x="1193" 
d="M811 311q0 94 -115 92h-121v-188h125q57 0 84 27t27 69zM575 735v-117h234q164 0 249 -82t85 -222q0 -142 -86 -228t-248 -86h-561v735h-228v193h228v438h327v-438h345v-193h-345z" />
    <glyph glyph-name="afii10147" unicode="&#x472;" horiz-adv-x="1671" 
d="M1589 682q0 -303 -214 -508q-213 -205 -539 -205t-540 205t-214 508q0 141 54 276t161 236q213 203 539 203t538 -203q106 -100 160 -236t55 -276zM828 297q142 -1 240 79q99 80 128 195h-725q31 -109 109 -180q106 -94 248 -94zM839 1069q-133 0 -227 -70t-125 -170h693
q-37 100 -122 170t-219 70z" />
    <glyph glyph-name="afii10195" unicode="&#x473;" horiz-adv-x="1267" 
d="M1192 465q0 -201 -150 -349t-407 -147q-256 0 -416 154q-143 141 -143 342t152 347t407 146q257 0 407 -146t150 -347zM636 246q79 0 134 49q52 51 66 106h-404q16 -67 70 -111t134 -44zM629 686q-88 0 -137 -49q-42 -37 -56 -92h393q-18 57 -65 99t-135 42z" />
    <glyph glyph-name="afii10148" unicode="&#x474;" horiz-adv-x="1431" 
d="M0 1366h387l328 -831l332 831h385l-582 -1366h-277z" />
    <glyph glyph-name="afii10196" unicode="&#x475;" horiz-adv-x="1173" 
d="M0 915h367l219 -469l223 469h365l-478 -915h-223z" />
    <glyph glyph-name="afii10050" unicode="&#x490;" horiz-adv-x="1003" 
d="M143 0v1366h519v272h301v-573h-465v-1065h-355z" />
    <glyph glyph-name="afii10098" unicode="&#x491;" horiz-adv-x="888" 
d="M113 915h432v287h293v-555h-398v-647h-327v915z" />
    <glyph glyph-name="uni0492" unicode="&#x492;" horiz-adv-x="1105" 
d="M1024 1366v-301h-444v-270h335v-271h-335v-524h-355v524h-205v271h205v571h799z" />
    <glyph glyph-name="uni0493" unicode="&#x493;" horiz-adv-x="890" 
d="M180 0v305h-160v203h160v407h662v-268h-334v-139h207v-203h-207v-305h-328z" />
    <glyph glyph-name="uni0494" unicode="&#x494;" horiz-adv-x="1298" 
d="M862 406q0 139 -180 141q-90 0 -184 -47v-500h-355v1366h832v-301h-477v-270q134 47 284 47t258 -62q190 -106 190 -357t-165 -360q-117 -76 -320 -75q-43 0 -116 12v270q43 -12 90 -12q143 0 143 148z" />
    <glyph glyph-name="uni0495" unicode="&#x495;" horiz-adv-x="1028" 
d="M659 41q0 121 -49 164t-149 43h-21v-248h-327v915h661v-268h-334v-164h33q274 0 390 -111q116 -112 116 -322t-117 -333q-125 -137 -383 -143v238q180 9 180 229z" />
    <glyph glyph-name="uni0496" unicode="&#x496;" horiz-adv-x="1994" 
d="M817 0v600l-368 -600h-447l498 696l-457 670h410l364 -594v594h352v-594l365 594h410l-457 -670l305 -397h182v-606h-319v307h-109l-377 600v-600h-352z" />
    <glyph glyph-name="uni0497" unicode="&#x497;" horiz-adv-x="1660" 
d="M635 0v397l-260 -397h-398l357 477l-305 438h372l234 -383v383h323v-383l246 383h373l-317 -438l182 -219h190v-524h-286v266h-107l-281 397v-397h-323z" />
    <glyph glyph-name="uni0498" unicode="&#x498;" horiz-adv-x="1222" 
d="M597 1399q251 0 378 -123q102 -96 102 -258q0 -204 -186 -313q90 -29 151 -87q98 -88 98 -246t-113 -268q-114 -110 -284 -133v-311h-319v322q-205 20 -393 186l180 258q147 -160 328 -160q94 0 153 38q60 38 60 108q1 141 -230 141h-133v274h88q248 0 248 146
q0 57 -51 94t-133 37q-137 0 -273 -113l-137 260q215 148 466 148z" />
    <glyph glyph-name="uni0499" unicode="&#x499;" horiz-adv-x="950" 
d="M467 948q213 0 315 -102q66 -66 66 -157t-39 -137t-98 -79q80 -14 131 -66t51 -157q0 -104 -83 -184t-214 -89v-264h-287v264q-150 23 -272 107l121 227q125 -98 262 -98t137 78q0 37 -37 55q-35 14 -106 14h-113v213h92q146 0 146 69t-127 70t-234 -77l-108 213
q184 100 397 100z" />
    <glyph glyph-name="uni049A" unicode="&#x49a;" horiz-adv-x="1413" 
d="M498 1366v-563l434 563h438l-543 -647l363 -420h192v-606h-319v307h-90l-475 592v-592h-355v1366h355z" />
    <glyph glyph-name="uni049B" unicode="&#x49b;" horiz-adv-x="1183" 
d="M113 0v915h327v-374l277 374h411l-370 -423l209 -234h188v-524h-287v266h-112l-316 406v-406h-327z" />
    <glyph glyph-name="uni049C" unicode="&#x49c;" horiz-adv-x="1650" 
d="M143 1366h355v-543h102v289h227v-289l383 543h414l-491 -647l516 -719h-430l-392 612v-286h-227v286h-102v-612h-355v1366z" />
    <glyph glyph-name="uni049D" unicode="&#x49d;" horiz-adv-x="1333" 
d="M113 0v915h327v-354h74v199h199v-219l229 374h365l-316 -440l322 -475h-365l-235 406v-248h-199v219h-74v-377h-327z" />
    <glyph glyph-name="uni04A0" unicode="&#x4a0;" horiz-adv-x="1628" 
d="M705 1366v-563l434 563h438l-543 -647l592 -719h-459l-462 592v-592h-355v1065h-330v301h685z" />
    <glyph glyph-name="uni04A1" unicode="&#x4a1;" horiz-adv-x="1310" 
d="M258 0v657h-248v258h576v-374l278 374h410l-379 -430l414 -485h-422l-301 406v-406h-328z" />
    <glyph glyph-name="uni04A2" unicode="&#x4a2;" horiz-adv-x="1568" 
d="M498 1366v-510h512v510h356v-1067h172v-606h-319v307h-209v553h-512v-553h-355v1366h355z" />
    <glyph glyph-name="uni04A3" unicode="&#x4a3;" horiz-adv-x="1245" 
d="M113 0v915h327v-309h305v309h328v-657h152v-524h-287v266h-193v348h-305v-348h-327z" />
    <glyph glyph-name="uni04A4" unicode="&#x4a4;" horiz-adv-x="1787" 
d="M498 1366v-510h512v510h729v-301h-375v-1065h-354v553h-512v-553h-355v1366h355z" />
    <glyph glyph-name="uni04A5" unicode="&#x4a5;" horiz-adv-x="1386" 
d="M113 0v915h327v-309h305v309h613v-268h-285v-647h-328v348h-305v-348h-327z" />
    <glyph glyph-name="uni04AA" unicode="&#x4aa;" horiz-adv-x="1208" 
d="M985 -340h-319v317q-236 20 -394 179q-190 186 -190 499t209 527t516 213q150 0 319 -70v-424q-121 150 -307 150q-145 1 -256 -99t-110 -278q1 -76 31 -151t81 -122q102 -93 266 -93t295 143v-420q-61 -31 -141 -43v-328z" />
    <glyph glyph-name="uni04AB" unicode="&#x4ab;" horiz-adv-x="878" 
d="M688 -287h-287v285q-119 20 -202 104q-123 123 -123 341q0 217 146 359t370 142q111 0 213 -51v-275q-84 60 -175 60q-90 0 -154 -64t-64 -155q0 -92 62 -159q62 -66 160 -66q99 0 171 61v-275q-53 -29 -117 -36v-271z" />
    <glyph glyph-name="uni04AE" unicode="&#x4ae;" horiz-adv-x="1310" 
d="M469 0v655l-494 711h424l258 -373l248 373h430l-510 -711v-655h-356z" />
    <glyph glyph-name="uni04AF" unicode="&#x4af;" horiz-adv-x="1058" 
d="M694 -469h-327v553l-367 831h336l203 -499l186 499h334l-365 -827v-557z" />
    <glyph glyph-name="uni04B0" unicode="&#x4b0;" horiz-adv-x="1310" 
d="M469 0v338h-369v262h369v55l-494 711h424l258 -373l248 373h430l-510 -711v-55h369v-262h-369v-338h-356z" />
    <glyph glyph-name="uni04B1" unicode="&#x4b1;" horiz-adv-x="1058" 
d="M694 43h277v-203h-277v-309h-327v309h-277v203h277v61l-367 811h336l203 -499l186 499h334l-365 -811v-61z" />
    <glyph glyph-name="uni04B2" unicode="&#x4b2;" horiz-adv-x="1464" 
d="M1444 299v-606h-320v307h-98l-291 444l-307 -444h-428l535 729l-439 637h439l202 -354l211 354h436l-444 -637l305 -430h199z" />
    <glyph glyph-name="uni04B3" unicode="&#x4b3;" horiz-adv-x="1333" 
d="M1305 258v-524h-287v266h-117l-233 272l-236 -272h-432l457 498l-371 417h426l158 -188l161 188h424l-378 -417l223 -240h205z" />
    <glyph glyph-name="uni04B6" unicode="&#x4b6;" horiz-adv-x="1411" 
d="M1061 0h-209v537q-135 -20 -285 -21q-265 0 -373 102t-108 324v424h356v-371q0 -100 42 -142t159 -42t209 14v541h356v-1067h172v-606h-319v307z" />
    <glyph glyph-name="uni04B7" unicode="&#x4b7;" horiz-adv-x="1163" 
d="M856 0h-192v299q-96 -23 -197 -23q-207 0 -294 88t-87 263v288h315v-266q0 -77 32 -103t107 -26t124 15v380h327v-657h152v-524h-287v266z" />
    <glyph glyph-name="uni04B8" unicode="&#x4b8;" horiz-adv-x="1454" 
d="M954 0v545q-61 -16 -127 -17v-270h-229v262q-287 -10 -420 137q-40 45 -62 103t-26 101q-4 42 -4 106v397h356v-338q0 -121 42 -164t114 -47v297h229v-297q68 -4 127 12v539h357v-1366h-357z" />
    <glyph glyph-name="uni04B9" unicode="&#x4b9;" horiz-adv-x="1212" 
d="M772 0v326q-49 -12 -84 -17v-172h-188v150h-11q-227 0 -315 86t-88 229v313h307v-278q0 -71 27 -97t74 -26h6v246h188v-246q45 0 84 16v385h328v-915h-328z" />
    <glyph glyph-name="uni04BA" unicode="&#x4ba;" horiz-adv-x="1392" 
d="M500 1366v-541q131 27 293 27q295 0 413 -115q47 -45 71 -109t27 -102q3 -37 3 -98v-428h-357v344q0 113 -46 163t-197 50q-90 0 -207 -18v-539h-357v1366h357z" />
    <glyph glyph-name="uni04BB" unicode="&#x4bb;" horiz-adv-x="1198" 
d="M725 936q178 0 276 -98q55 -56 71 -114t15 -142v-582h-327v463q0 133 -38 175t-111 42t-121 -45t-50 -143v-492h-327v1493h327v-692q107 135 285 135z" />
    <glyph glyph-name="uni04C0" unicode="&#x4c0;" horiz-adv-x="641" 
d="M143 1366h355v-1366h-355v1366z" />
    <glyph glyph-name="uni04C1" unicode="&#x4c1;" horiz-adv-x="1986" 
d="M1366 1743q-91 -252 -428 -252t-428 252l238 90q41 -129 190 -129t190 129zM817 0v600l-368 -600h-447l498 696l-457 670h410l364 -594v594h352v-594l365 594h410l-457 -670l498 -696h-447l-369 600v-600h-352z" />
    <glyph glyph-name="uni04C2" unicode="&#x4c2;" horiz-adv-x="1675" 
d="M864 1061q-148 -1 -245 61q-98 62 -132 185l220 77q37 -127 157 -127q121 0 158 127l219 -77q-33 -123 -131 -185t-246 -61zM676 0v397l-273 -397h-401l373 477l-318 438h373l246 -383v383h323v-383l246 383h373l-318 -438l373 -477h-401l-273 397v-397h-323z" />
    <glyph glyph-name="uni04C3" unicode="&#x4c3;" horiz-adv-x="1318" 
d="M924 412q0 149 -211 149q-109 0 -215 -45v-516h-355v1366h355v-563l397 563h414l-424 -541q86 -6 174 -42q241 -99 241 -347q0 -209 -118 -323q-152 -147 -482 -111v272q32 -12 88 -12t96 40t40 110z" />
    <glyph glyph-name="uni04C4" unicode="&#x4c4;" horiz-adv-x="1052" 
d="M684 45q0 109 -54 161t-167 52h-23v-258h-327v915h327v-389l244 389h358l-329 -454q109 -18 182 -92q109 -109 109 -317t-121 -340t-379 -138v238q180 9 180 233z" />
    <glyph glyph-name="uni04C7" unicode="&#x4c7;" horiz-adv-x="1509" 
d="M498 1366v-508h512v508h356v-1505q0 -252 -183 -311q-56 -17 -93 -19t-120 -2t-151 20v234q29 -12 83 -12q54 -1 80 27q28 28 28 98v655h-512v-551h-355v1366h355z" />
    <glyph glyph-name="uni04C8" unicode="&#x4c8;" horiz-adv-x="1185" 
d="M113 0v915h327v-309h305v309h328v-1060q0 -174 -83 -250t-253 -76q-98 0 -180 16v232q29 -13 81 -13t80 30t27 114v440h-305v-348h-327z" />
    <glyph glyph-name="uni04D0" unicode="&#x4d0;" horiz-adv-x="1454" 
d="M1153 1743q-91 -252 -428 -252t-428 252l238 90q41 -129 190 -129t190 129zM580 500h303l-154 442zM1061 0l-84 229h-496l-92 -229h-375l525 1366h387l514 -1366h-379z" />
    <glyph glyph-name="uni04D1" unicode="&#x4d1;" horiz-adv-x="1261" 
d="M635 1061q-147 -1 -245 61t-132 185l219 77q37 -127 158 -127t158 127l219 -77q-34 -123 -132 -185t-245 -61zM622 668q-83 0 -147 -62q-63 -62 -63 -149q0 -89 64 -149t148 -60q83 0 145 62t62 150t-63 148t-146 60zM821 915h328v-915h-328v100q-93 -131 -285 -131
q-192 1 -326 143t-134 353t135 346t319 135t291 -119v88z" />
    <glyph glyph-name="uni04D2" unicode="&#x4d2;" horiz-adv-x="1454" 
d="M495 1837q71 0 123 -53t54 -123q0 -70 -53 -125t-126 -55t-124 56t-52 122q0 66 54 125q53 53 124 53zM960 1837q70 0 123 -53t53 -123t-52 -125q-54 -55 -127 -55t-123 56t-52 122q0 66 54 125q54 53 124 53zM580 500h303l-154 442zM1061 0l-84 229h-496l-92 -229h-375
l525 1366h387l514 -1366h-379z" />
    <glyph glyph-name="uni04D3" unicode="&#x4d3;" horiz-adv-x="1261" 
d="M402 1427q70 0 124 -53t54 -123t-54 -125t-126 -55q-73 0 -124 56t-51 122t54 125q53 53 123 53zM867 1427q71 0 124 -53t53 -123t-53 -125t-126 -55t-124 56t-51 122t53 125q53 53 124 53zM622 668q-83 0 -147 -62q-63 -62 -63 -149q0 -89 64 -149t148 -60q83 0 145 62
t62 150t-63 148t-146 60zM821 915h328v-915h-328v100q-93 -131 -285 -131q-192 1 -326 143t-134 353t135 346t319 135t291 -119v88z" />
    <glyph glyph-name="uni04D4" unicode="&#x4d4;" horiz-adv-x="1892" 
d="M571 510h299l-145 403zM1055 0l-88 240h-494l-86 -240h-373l527 1366h835l109 -301h-449l84 -227h449l112 -301h-450l90 -236h446l111 -301h-823z" />
    <glyph glyph-name="uni04D5" unicode="&#x4d5;" horiz-adv-x="1757" 
d="M541 389q-150 0 -150 -98q0 -43 40 -72q41 -29 103 -29t114 27t52 74t-46 73t-113 25zM1193 741q-75 0 -123 -44t-66 -105h376q-12 59 -62 104t-125 45zM1185 948q232 0 364 -132t132 -384v-26h-686q1 -96 57 -152t161 -57q105 0 141 86h313q-45 -143 -163 -229t-284 -85
q-297 0 -389 178q-65 -84 -165 -129t-211 -45q-195 0 -301 107q-78 78 -78 192t80 195q104 104 303 104q127 0 233 -47v23q0 164 -219 166q-121 0 -254 -51v243q152 43 273 43q237 0 339 -162q122 162 354 162z" />
    <glyph glyph-name="uni04D6" unicode="&#x4d6;" horiz-adv-x="1001" 
d="M930 1743q-91 -252 -428 -252t-428 252l237 90q41 -129 190 -129q150 0 191 129zM920 1366v-301h-422v-227h399v-301h-399v-236h422v-301h-777v1366h777z" />
    <glyph glyph-name="uni04D7" unicode="&#x4d7;" horiz-adv-x="1159" 
d="M614 1257q121 0 158 127l219 -77q-33 -123 -131 -185t-246 -61q-148 -1 -245 61q-98 62 -131 185l219 77q36 -127 157 -127zM595 733q-85 0 -134 -49q-41 -45 -49 -98h370q-14 59 -58 103t-129 44zM594 199q122 0 164 86h313q-31 -111 -110 -189q-131 -127 -372 -127
q-241 -1 -378 137t-137 354t137 349t365 133t368 -132q139 -132 139 -378v-35h-682q-1 -96 51 -147t142 -51z" />
    <glyph glyph-name="uni04D8" unicode="&#x4d8;" horiz-adv-x="1572" 
d="M1122 532h-671q14 -104 92 -177t225 -73t242 74q87 70 112 176zM776 1397q324 0 520 -200q196 -201 195 -515q0 -314 -195 -514t-515 -199q-320 0 -496 181q-203 207 -203 575v37h1051q-19 117 -111 208t-258 91q-90 0 -167 -42t-116 -110l-366 72q80 193 255 305
t406 111z" />
    <glyph glyph-name="afii10846" unicode="&#x4d9;" horiz-adv-x="1159" 
d="M564 178q85 0 130 47t51 121h-370q6 -70 55 -119t134 -49zM549 713q-119 0 -172 -95l-279 58q55 125 174 194q117 72 287 72q254 0 389 -139t135 -353t-137 -348q-138 -134 -366 -133q-228 0 -367 131t-139 373v55h682q-6 88 -64 136t-143 49z" />
    <glyph glyph-name="uni04DA" unicode="&#x4da;" horiz-adv-x="1572" 
d="M546 1837q71 0 124 -53t53 -123t-53 -125t-126 -55t-124 56t-51 122t53 125q53 53 124 53zM1011 1837q71 0 124 -53t53 -123t-53 -125t-126 -55t-124 56t-51 122t53 125q53 53 124 53zM1122 532h-671q14 -104 92 -177t225 -73t242 74q87 70 112 176zM776 1397
q324 0 520 -200q196 -201 195 -515q0 -314 -195 -514t-515 -199q-320 0 -496 181q-203 207 -203 575v37h1051q-19 117 -111 208t-258 91q-90 0 -167 -42t-116 -110l-366 72q80 193 255 305t406 111z" />
    <glyph glyph-name="uni04DB" unicode="&#x4db;" horiz-adv-x="1159" 
d="M355 1427q71 0 124 -53t53 -123t-53 -125t-126 -55t-124 56t-51 122t53 125q53 53 124 53zM820 1427q71 0 124 -53t53 -123t-53 -125t-126 -55t-124 56t-51 122t53 125q53 53 124 53zM564 178q85 0 130 47t51 121h-370q6 -70 55 -119t134 -49zM549 713q-119 0 -172 -95
l-279 58q55 125 174 194q117 72 287 72q254 0 389 -139t135 -353t-137 -348q-138 -134 -366 -133q-228 0 -367 131t-139 373v55h682q-6 88 -64 136t-143 49z" />
    <glyph glyph-name="uni04DC" unicode="&#x4dc;" horiz-adv-x="1986" 
d="M761 1837q71 0 124 -53t53 -123t-53 -125t-126 -55t-124 56t-51 122t53 125q53 53 124 53zM1226 1837q71 0 124 -53t53 -123t-53 -125t-126 -55t-124 56t-51 122t53 125q53 53 124 53zM817 0v600l-368 -600h-447l498 696l-457 670h410l364 -594v594h352v-594l365 594h410
l-457 -670l498 -696h-447l-369 600v-600h-352z" />
    <glyph glyph-name="uni04DD" unicode="&#x4dd;" horiz-adv-x="1675" 
d="M609 1427q71 0 124 -53t53 -123t-53 -125t-126 -55t-124 56t-51 122t53 125q53 53 124 53zM1074 1427q71 0 124 -53t53 -123t-53 -125t-126 -55t-124 56t-51 122t53 125q53 53 124 53zM676 0v397l-273 -397h-401l373 477l-318 438h373l246 -383v383h323v-383l246 383h373
l-318 -438l373 -477h-401l-273 397v-397h-323z" />
    <glyph glyph-name="uni04DE" unicode="&#x4de;" horiz-adv-x="1222" 
d="M378 1837q71 0 124 -53t53 -123t-53 -125t-126 -55t-124 56t-51 122t53 125q53 53 124 53zM843 1837q71 0 124 -53t53 -123t-53 -125t-126 -55t-124 56t-51 122t53 125q53 53 124 53zM477 827q248 0 248 147q0 54 -51 91t-133 37q-137 0 -273 -113l-137 260
q215 148 466 148t378 -123q102 -96 102 -258q0 -113 -54 -191t-132 -114v-6q90 -29 151 -87q98 -94 99 -229q0 -209 -170 -326q-135 -94 -385 -94q-330 0 -555 203l180 258q139 -160 328 -160q94 0 153 37q60 37 60 105t-62 108q-49 33 -168 33h-133v274h88z" />
    <glyph glyph-name="uni04DF" unicode="&#x4df;" horiz-adv-x="950" 
d="M247 1427q71 0 124 -53t53 -123t-53 -125t-126 -55t-124 56t-51 122t53 125q53 53 124 53zM712 1427q71 0 124 -53t53 -123t-53 -125t-126 -55t-124 56t-51 122t53 125q53 53 124 53zM467 946q213 0 315 -102q66 -66 66 -162q0 -143 -137 -205v-4q76 -12 129 -65t53 -156
t-84 -182q-102 -100 -342 -100t-430 118l121 227q125 -98 262 -98t137 78q0 65 -143 65h-113v213h92q146 0 146 68t-127 69t-234 -77l-108 213q184 100 397 100z" />
    <glyph glyph-name="uni04E2" unicode="&#x4e2;" horiz-adv-x="1517" 
d="M373 1534v201h770v-201h-770zM143 1366h357v-860l512 860h362v-1366h-356v860l-512 -860h-363v1366z" />
    <glyph glyph-name="uni04E3" unicode="&#x4e3;" horiz-adv-x="1200" 
d="M188 1104v201h811v-201h-811zM113 915h327v-471l363 471h284v-915h-327v483l-359 -483h-288v915z" />
    <glyph glyph-name="uni04E4" unicode="&#x4e4;" horiz-adv-x="1517" 
d="M525 1837q71 0 124 -53t53 -123t-53 -125t-126 -55t-124 56t-51 122t53 125q53 53 124 53zM990 1837q71 0 124 -53t53 -123t-53 -125t-126 -55t-124 56t-51 122t53 125q53 53 124 53zM143 1366h357v-860l512 860h362v-1366h-356v860l-512 -860h-363v1366z" />
    <glyph glyph-name="uni04E5" unicode="&#x4e5;" horiz-adv-x="1200" 
d="M370 1427q71 0 124 -53t53 -123t-53 -125t-126 -55t-124 56t-51 122t53 125q53 53 124 53zM835 1427q71 0 123 -53t54 -123q0 -70 -53 -125t-126 -55t-124 56t-52 122q0 66 54 125q53 53 124 53zM113 915h327v-471l363 471h284v-915h-327v483l-359 -483h-288v915z" />
    <glyph glyph-name="uni04E6" unicode="&#x4e6;" horiz-adv-x="1671" 
d="M605 1837q71 0 124 -53t53 -123t-53 -125t-126 -55t-124 56t-51 122t53 125q53 53 124 53zM1070 1837q71 0 124 -53t53 -123t-53 -125t-126 -55t-124 56t-51 122t53 125q53 53 124 53zM832 1053q-164 1 -273 -107t-109 -264t112 -262q110 -106 276 -107q166 0 274 109
q108 108 109 262q-1 154 -113 262t-276 107zM1589 682q0 -303 -214 -508q-213 -205 -539 -205t-540 205t-214 508q0 141 54 276t161 236q213 203 539 203t538 -203q106 -100 160 -236t55 -276z" />
    <glyph glyph-name="uni04E7" unicode="&#x4e7;" horiz-adv-x="1251" 
d="M400 1427q71 0 124 -53q54 -53 54 -123t-54 -125t-126 -55q-73 0 -124 56t-51 122t53 125q53 53 124 53zM865 1427q71 0 124 -53t53 -123t-53 -125t-126 -55t-124 56t-51 122t53 125q53 53 124 53zM1176 459q0 -199 -148 -345t-402 -145q-254 -1 -402 145t-148 345
t148 343t400 144t402 -144t150 -343zM626 668q-82 0 -146 -60t-64 -145q0 -87 62 -149t148 -62t147 60q63 60 63 146t-64 148t-146 62z" />
    <glyph glyph-name="uni04E8" unicode="&#x4e8;" horiz-adv-x="1671" 
d="M1589 682q0 -303 -214 -508q-213 -205 -539 -205t-540 205t-214 508q0 141 54 276t161 236q213 203 539 203t538 -203q106 -100 160 -236t55 -276zM828 297q142 -1 240 79q99 80 128 195h-725q31 -109 109 -180q106 -94 248 -94zM839 1069q-133 0 -227 -70t-125 -170h693
q-37 100 -122 170t-219 70z" />
    <glyph glyph-name="uni04E9" unicode="&#x4e9;" horiz-adv-x="1267" 
d="M1192 465q0 -201 -150 -349t-407 -147q-256 0 -416 154q-143 141 -143 342t152 347t407 146q257 0 407 -146t150 -347zM636 246q79 0 134 49q52 51 66 106h-404q16 -67 70 -111t134 -44zM629 686q-88 0 -137 -49q-42 -37 -56 -92h393q-18 57 -65 99t-135 42z" />
    <glyph glyph-name="uni04EA" unicode="&#x4ea;" horiz-adv-x="1671" 
d="M605 1837q71 0 124 -53t53 -123t-53 -125t-126 -55t-124 56t-51 122t53 125q53 53 124 53zM1070 1837q71 0 124 -53t53 -123t-53 -125t-126 -55t-124 56t-51 122t53 125q53 53 124 53zM1589 682q0 -303 -214 -508q-213 -205 -539 -205t-540 205t-214 508q0 141 54 276
t161 236q213 203 539 203t538 -203q106 -100 160 -236t55 -276zM828 297q142 -1 240 79q99 80 128 195h-725q31 -109 109 -180q106 -94 248 -94zM839 1069q-133 0 -227 -70t-125 -170h693q-37 100 -122 170t-219 70z" />
    <glyph glyph-name="uni04EB" unicode="&#x4eb;" horiz-adv-x="1267" 
d="M400 1427q71 0 124 -53q54 -53 54 -123t-54 -125t-126 -55q-73 0 -124 56t-51 122t53 125q53 53 124 53zM865 1427q71 0 124 -53t53 -123t-53 -125t-126 -55t-124 56t-51 122t53 125q53 53 124 53zM1192 465q0 -201 -150 -349t-407 -147q-256 0 -416 154
q-143 141 -143 342t152 347t407 146q257 0 407 -146t150 -347zM636 246q79 0 134 49q52 51 66 106h-404q16 -67 70 -111t134 -44zM629 686q-88 0 -137 -49q-42 -37 -56 -92h393q-18 57 -65 99t-135 42z" />
    <glyph glyph-name="uni04EE" unicode="&#x4ee;" horiz-adv-x="1275" 
d="M252 1534v201h770v-201h-770zM0 1366h397l260 -608l228 608h379l-615 -1366h-375l191 383z" />
    <glyph glyph-name="uni04EF" unicode="&#x4ef;" horiz-adv-x="1236" 
d="M217 1104v201h811v-201h-811zM135 -469l307 594l-442 790h381l244 -469l237 469h375l-735 -1384h-367z" />
    <glyph glyph-name="uni04F0" unicode="&#x4f0;" horiz-adv-x="1275" 
d="M404 1837q70 0 124 -53t54 -123t-54 -125t-126 -55q-74 0 -124 56t-51 122q0 66 54 125q53 53 123 53zM869 1837q71 0 124 -53t53 -123t-52 -125q-54 -55 -127 -55t-124 56t-51 122t53 125q53 53 124 53zM0 1366h397l260 -608l228 608h379l-615 -1366h-375l191 383z" />
    <glyph glyph-name="uni04F1" unicode="&#x4f1;" horiz-adv-x="1236" 
d="M390 1427q71 0 124 -53t53 -123t-53 -125t-126 -55t-124 56t-51 122t53 125q53 53 124 53zM855 1427q71 0 124 -53t53 -123t-53 -125t-126 -55t-124 56t-51 122t53 125q53 53 124 53zM135 -469l307 594l-442 790h381l244 -469l237 469h375l-735 -1384h-367z" />
    <glyph glyph-name="uni04F2" unicode="&#x4f2;" horiz-adv-x="1275" 
d="M928 1903l172 -150l-281 -278l-112 112zM573 1903l170 -150l-280 -278l-111 112zM0 1366h397l260 -608l228 608h379l-615 -1366h-375l191 383z" />
    <glyph glyph-name="uni04F3" unicode="&#x4f3;" horiz-adv-x="1236" 
d="M905 1493l172 -150l-280 -278l-113 113zM551 1493l170 -150l-281 -278l-110 113zM135 -469l307 594l-442 790h381l244 -469l237 469h375l-735 -1384h-367z" />
    <glyph glyph-name="uni04F4" unicode="&#x4f4;" horiz-adv-x="1351" 
d="M402 1837q70 0 124 -53t54 -123t-54 -125t-126 -55q-73 0 -124 56t-51 122t54 125q53 53 123 53zM867 1837q71 0 124 -53t53 -123t-53 -125t-126 -55t-124 56t-51 122t53 125q53 53 124 53zM852 0v537q-135 -20 -285 -21q-265 0 -373 102t-108 324v424h356v-371
q0 -100 42 -142t159 -42t209 14v541h356v-1366h-356z" />
    <glyph glyph-name="uni04F5" unicode="&#x4f5;" horiz-adv-x="1101" 
d="M320 1427q70 0 124 -53t54 -123t-54 -125t-126 -55q-74 0 -124 56t-51 122q0 66 54 125q53 53 123 53zM786 1427q70 0 123 -53t53 -123t-52 -125q-54 -55 -127 -55t-124 56t-51 122t54 125q54 53 124 53zM662 0v299q-90 -23 -201 -23q-205 0 -290 86t-85 265v288h315
v-266q0 -77 32 -103t107 -26t122 15v380h327v-915h-327z" />
    <glyph glyph-name="uni04F8" unicode="&#x4f8;" horiz-adv-x="1800" 
d="M667 1837q71 0 123 -53t54 -123q0 -70 -53 -125t-126 -55t-124 56t-52 122q0 66 54 125q53 53 124 53zM1132 1837q70 0 123 -53t53 -123t-52 -125q-54 -55 -127 -55t-123 56t-52 122q0 66 54 125q54 53 124 53zM637 559h-137v-285h137q113 0 152 39t38 105
q0 141 -190 141zM1188 418q0 -418 -537 -418h-508v1366h357v-532h172q279 0 407 -127q109 -106 109 -289zM1300 0v1366h357v-1366h-357z" />
    <glyph glyph-name="uni04F9" unicode="&#x4f9;" horiz-adv-x="1519" 
d="M532 1427q70 0 123 -53t53 -123t-52 -125q-54 -55 -127 -55t-123 56t-52 122q0 66 54 125q54 53 124 53zM996 1427q71 0 124 -53q54 -53 54 -123t-54 -125t-126 -55q-73 0 -124 56t-51 122t53 125q53 53 124 53zM563 213q111 0 111 93t-115 91h-119v-184h123zM440 610
h224q160 0 244 -81t83 -221q0 -140 -84 -224t-243 -84h-551v915h327v-305zM1079 0v915h328v-915h-328z" />
    <glyph glyph-name="uni1E9E" unicode="&#x1e9e;" horiz-adv-x="1280" 
d="M498 961v-961h-355v864q0 246 133 389q135 143 363 144q188 0 307 -82q158 -109 178 -303l-190 -240q112 -38 188 -120t74 -208q-2 -199 -149 -340q-127 -119 -441 -131v277q86 4 146 41q86 53 86 148t-70 137t-162 47v141l162 215q0 68 -37 107q-37 38 -97 38t-98 -40
t-38 -123z" />
    <glyph glyph-name="uni2010" unicode="&#x2010;" horiz-adv-x="722" 
d="M102 414v272h519v-272h-519z" />
    <glyph glyph-name="uni2011" unicode="&#x2011;" horiz-adv-x="722" 
d="M102 414v272h519v-272h-519z" />
    <glyph glyph-name="figuredash" unicode="&#x2012;" horiz-adv-x="1175" 
d="M143 563v271h889v-271h-889z" />
    <glyph glyph-name="endash" unicode="&#x2013;" horiz-adv-x="1175" 
d="M143 408v270h889v-270h-889z" />
    <glyph glyph-name="emdash" unicode="&#x2014;" horiz-adv-x="1857" 
d="M143 408v270h1571v-270h-1571z" />
    <glyph glyph-name="afii00208" unicode="&#x2015;" horiz-adv-x="1857" 
d="M143 408v270h1571v-270h-1571z" />
    <glyph glyph-name="quoteleft" unicode="&#x2018;" horiz-adv-x="706" 
d="M639 1366l-236 -602h-307l332 602h211z" />
    <glyph glyph-name="quoteright" unicode="&#x2019;" horiz-adv-x="917" 
d="M68 764l235 602h309l-333 -602h-211z" />
    <glyph glyph-name="quotesinglbase" unicode="&#x201a;" horiz-adv-x="940" 
d="M68 -305l258 647h309l-356 -647h-211z" />
    <glyph glyph-name="quotedblleft" unicode="&#x201c;" horiz-adv-x="1171" 
d="M639 1366l-236 -602h-307l332 602h211zM1104 1366l-236 -602h-309l334 602h211z" />
    <glyph glyph-name="quotedblright" unicode="&#x201d;" horiz-adv-x="1382" 
d="M532 764l236 602h307l-332 -602h-211zM68 764l235 602h309l-333 -602h-211z" />
    <glyph glyph-name="quotedblbase" unicode="&#x201e;" horiz-adv-x="1398" 
d="M68 -305l251 647h308l-348 -647h-211zM532 -305l252 647h308l-349 -647h-211z" />
    <glyph glyph-name="dagger" unicode="&#x2020;" horiz-adv-x="1228" 
d="M463 1087v406h301v-406h321v-260h-321v-1212h-301v1212h-320v260h320z" />
    <glyph glyph-name="daggerdbl" unicode="&#x2021;" horiz-adv-x="1228" 
d="M465 1087v406h301v-406h317v-260h-317v-442h317v-260h-317v-510h-301v510h-320v260h320v442h-320v260h320z" />
    <glyph glyph-name="bullet" unicode="&#x2022;" horiz-adv-x="2048" 
d="M741 692q0 123 84 207t198 84t199 -85t85 -203q1 -118 -87 -202q-88 -83 -196 -83t-196 80q-87 80 -87 202z" />
    <glyph glyph-name="ellipsis" unicode="&#x2026;" horiz-adv-x="1861" 
d="M1550 387q86 0 150 -63q64 -64 63 -150q0 -86 -63 -149q-64 -63 -150 -63t-148 62t-63 150q1 88 63 150t148 63zM930 387q86 0 149 -63q63 -64 63 -150t-62 -149q-64 -63 -150 -63t-148 62t-63 150q1 88 63 150t148 63zM309 387q85 0 149 -63q64 -64 64 -150t-63 -149
t-149 -63t-149 62q-62 62 -63 150q0 88 62 150t149 63z" />
    <glyph glyph-name="perthousand" unicode="&#x2030;" horiz-adv-x="2711" 
d="M2644 320q0 -136 -96 -236t-279 -100q-182 0 -287 108q-86 92 -86 227t84 226q96 109 284 109t284 -100q96 -98 96 -234zM2425 322q1 68 -45 109q-46 42 -112 42t-108 -46t-42 -112q0 -65 47 -107t107 -42t108 43q45 45 45 113zM1765 320q0 -136 -96 -236t-278 -100
t-287 108q-86 92 -86 227t84 226q96 109 284 109t284 -100q95 -98 95 -234zM1546 322q0 68 -45 109q-45 42 -111 42t-109 -46q-42 -46 -42 -112q0 -65 47 -107q48 -42 108 -42t107 43q45 45 45 113zM596 1048q0 68 -46 110t-112 42t-108 -46t-41 -112q0 -66 47 -107
q47 -42 107 -42t108 43q45 45 45 112zM432 0l791 1366h178l-793 -1366h-176zM815 1047q-1 -135 -97 -235t-278 -101q-182 0 -286 108q-86 92 -86 227t84 226q96 108 284 108t284 -99t95 -234z" />
    <glyph glyph-name="guilsinglleft" unicode="&#x2039;" horiz-adv-x="636" 
d="M549 786l-227 -319l233 -315l-186 -132l-312 447l312 444z" />
    <glyph glyph-name="guilsinglright" unicode="&#x203a;" horiz-adv-x="636" 
d="M78 152l233 315l-227 319l180 125l311 -444l-311 -447z" />
    <glyph glyph-name="fraction" unicode="&#x2044;" horiz-adv-x="559" 
d="M-205 0l791 1366h178l-793 -1366h-176z" />
    <glyph glyph-name="Euro" unicode="&#x20ac;" horiz-adv-x="1228" 
d="M762 -31q-268 0 -430 125t-213 346h-160l74 185h61q-4 47 0 102h-135l74 184h88q53 219 231 351t451 133q213 0 373 -90l-119 -299q-123 78 -257 78t-212 -46q-82 -43 -111 -127h549l-74 -184h-512q-6 -45 2 -102h469l-73 -185h-351q33 -76 113 -118t197 -41
q192 -1 317 108v-342q-154 -78 -352 -78z" />
    <glyph glyph-name="uni20B4" unicode="&#x20b4;" horiz-adv-x="1228" 
d="M526 324q0 -88 164 -87t307 76l142 -241q-238 -115 -537 -115q-214 0 -332 75t-118 216q0 76 49 139h-119v213h264l135 127h-399v215h569q33 33 33 75t-33 68q-39 27 -106 27q-121 0 -242 -92l-137 260q219 117 491 117q205 0 310 -78t104 -213q0 -98 -59 -164h139v-215
h-309l-135 -127h444v-213h-598q-27 -27 -27 -63z" />
    <glyph glyph-name="uni20B6" unicode="&#x20b6;" horiz-adv-x="1228" 
d="M651 1079h-121v-331h119q195 0 195 166t-193 165zM176 1366h565q225 0 349 -115t124 -319t-122 -318q-122 -113 -338 -112h-224v-115h381v-213h-381v-174h-354v174h-168v213h168v115h-168v246h168v618z" />
    <glyph glyph-name="uni20B6" unicode="&#x20cf;" horiz-adv-x="1228" 
d="M651 1079h-121v-331h119q195 0 195 166t-193 165zM176 1366h565q225 0 349 -115t124 -319t-122 -318q-122 -113 -338 -112h-224v-115h381v-213h-381v-174h-354v174h-168v213h168v115h-168v246h168v618z" />
    <glyph glyph-name="uni20B6" unicode="&#x20ce;" horiz-adv-x="1228" 
d="M651 1079h-121v-331h119q195 0 195 166t-193 165zM176 1366h565q225 0 349 -115t124 -319t-122 -318q-122 -113 -338 -112h-224v-115h381v-213h-381v-174h-354v174h-168v213h168v115h-168v246h168v618z" />
    <glyph glyph-name="uni20B6" unicode="&#x20cd;" horiz-adv-x="1228" 
d="M651 1079h-121v-331h119q195 0 195 166t-193 165zM176 1366h565q225 0 349 -115t124 -319t-122 -318q-122 -113 -338 -112h-224v-115h381v-213h-381v-174h-354v174h-168v213h168v115h-168v246h168v618z" />
    <glyph glyph-name="uni20B6" unicode="&#x20cc;" horiz-adv-x="1228" 
d="M651 1079h-121v-331h119q195 0 195 166t-193 165zM176 1366h565q225 0 349 -115t124 -319t-122 -318q-122 -113 -338 -112h-224v-115h381v-213h-381v-174h-354v174h-168v213h168v115h-168v246h168v618z" />
    <glyph glyph-name="uni20B6" unicode="&#x20cb;" horiz-adv-x="1228" 
d="M651 1079h-121v-331h119q195 0 195 166t-193 165zM176 1366h565q225 0 349 -115t124 -319t-122 -318q-122 -113 -338 -112h-224v-115h381v-213h-381v-174h-354v174h-168v213h168v115h-168v246h168v618z" />
    <glyph glyph-name="uni20B6" unicode="&#x20ca;" horiz-adv-x="1228" 
d="M651 1079h-121v-331h119q195 0 195 166t-193 165zM176 1366h565q225 0 349 -115t124 -319t-122 -318q-122 -113 -338 -112h-224v-115h381v-213h-381v-174h-354v174h-168v213h168v115h-168v246h168v618z" />
    <glyph glyph-name="uni20B6" unicode="&#x20c9;" horiz-adv-x="1228" 
d="M651 1079h-121v-331h119q195 0 195 166t-193 165zM176 1366h565q225 0 349 -115t124 -319t-122 -318q-122 -113 -338 -112h-224v-115h381v-213h-381v-174h-354v174h-168v213h168v115h-168v246h168v618z" />
    <glyph glyph-name="uni20B6" unicode="&#x20c8;" horiz-adv-x="1228" 
d="M651 1079h-121v-331h119q195 0 195 166t-193 165zM176 1366h565q225 0 349 -115t124 -319t-122 -318q-122 -113 -338 -112h-224v-115h381v-213h-381v-174h-354v174h-168v213h168v115h-168v246h168v618z" />
    <glyph glyph-name="uni20B6" unicode="&#x20c7;" horiz-adv-x="1228" 
d="M651 1079h-121v-331h119q195 0 195 166t-193 165zM176 1366h565q225 0 349 -115t124 -319t-122 -318q-122 -113 -338 -112h-224v-115h381v-213h-381v-174h-354v174h-168v213h168v115h-168v246h168v618z" />
    <glyph glyph-name="uni20B6" unicode="&#x20c6;" horiz-adv-x="1228" 
d="M651 1079h-121v-331h119q195 0 195 166t-193 165zM176 1366h565q225 0 349 -115t124 -319t-122 -318q-122 -113 -338 -112h-224v-115h381v-213h-381v-174h-354v174h-168v213h168v115h-168v246h168v618z" />
    <glyph glyph-name="uni20B6" unicode="&#x20c5;" horiz-adv-x="1228" 
d="M651 1079h-121v-331h119q195 0 195 166t-193 165zM176 1366h565q225 0 349 -115t124 -319t-122 -318q-122 -113 -338 -112h-224v-115h381v-213h-381v-174h-354v174h-168v213h168v115h-168v246h168v618z" />
    <glyph glyph-name="uni20B6" unicode="&#x20c4;" horiz-adv-x="1228" 
d="M651 1079h-121v-331h119q195 0 195 166t-193 165zM176 1366h565q225 0 349 -115t124 -319t-122 -318q-122 -113 -338 -112h-224v-115h381v-213h-381v-174h-354v174h-168v213h168v115h-168v246h168v618z" />
    <glyph glyph-name="uni20B6" unicode="&#x20c3;" horiz-adv-x="1228" 
d="M651 1079h-121v-331h119q195 0 195 166t-193 165zM176 1366h565q225 0 349 -115t124 -319t-122 -318q-122 -113 -338 -112h-224v-115h381v-213h-381v-174h-354v174h-168v213h168v115h-168v246h168v618z" />
    <glyph glyph-name="uni20B6" unicode="&#x20c2;" horiz-adv-x="1228" 
d="M651 1079h-121v-331h119q195 0 195 166t-193 165zM176 1366h565q225 0 349 -115t124 -319t-122 -318q-122 -113 -338 -112h-224v-115h381v-213h-381v-174h-354v174h-168v213h168v115h-168v246h168v618z" />
    <glyph glyph-name="uni20B6" unicode="&#x20c1;" horiz-adv-x="1228" 
d="M651 1079h-121v-331h119q195 0 195 166t-193 165zM176 1366h565q225 0 349 -115t124 -319t-122 -318q-122 -113 -338 -112h-224v-115h381v-213h-381v-174h-354v174h-168v213h168v115h-168v246h168v618z" />
    <glyph glyph-name="uni20B6" unicode="&#x20c0;" horiz-adv-x="1228" 
d="M651 1079h-121v-331h119q195 0 195 166t-193 165zM176 1366h565q225 0 349 -115t124 -319t-122 -318q-122 -113 -338 -112h-224v-115h381v-213h-381v-174h-354v174h-168v213h168v115h-168v246h168v618z" />
    <glyph glyph-name="uni20B6" unicode="&#x20bf;" horiz-adv-x="1228" 
d="M651 1079h-121v-331h119q195 0 195 166t-193 165zM176 1366h565q225 0 349 -115t124 -319t-122 -318q-122 -113 -338 -112h-224v-115h381v-213h-381v-174h-354v174h-168v213h168v115h-168v246h168v618z" />
    <glyph glyph-name="uni20B6" unicode="&#x20be;" horiz-adv-x="1228" 
d="M651 1079h-121v-331h119q195 0 195 166t-193 165zM176 1366h565q225 0 349 -115t124 -319t-122 -318q-122 -113 -338 -112h-224v-115h381v-213h-381v-174h-354v174h-168v213h168v115h-168v246h168v618z" />
    <glyph glyph-name="uni20B6" unicode="&#x20bd;" horiz-adv-x="1228" 
d="M651 1079h-121v-331h119q195 0 195 166t-193 165zM176 1366h565q225 0 349 -115t124 -319t-122 -318q-122 -113 -338 -112h-224v-115h381v-213h-381v-174h-354v174h-168v213h168v115h-168v246h168v618z" />
    <glyph glyph-name="uni20B6" unicode="&#x20bc;" horiz-adv-x="1228" 
d="M651 1079h-121v-331h119q195 0 195 166t-193 165zM176 1366h565q225 0 349 -115t124 -319t-122 -318q-122 -113 -338 -112h-224v-115h381v-213h-381v-174h-354v174h-168v213h168v115h-168v246h168v618z" />
    <glyph glyph-name="uni20B6" unicode="&#x20bb;" horiz-adv-x="1228" 
d="M651 1079h-121v-331h119q195 0 195 166t-193 165zM176 1366h565q225 0 349 -115t124 -319t-122 -318q-122 -113 -338 -112h-224v-115h381v-213h-381v-174h-354v174h-168v213h168v115h-168v246h168v618z" />
    <glyph glyph-name="uni20B6" unicode="&#x20ba;" horiz-adv-x="1228" 
d="M651 1079h-121v-331h119q195 0 195 166t-193 165zM176 1366h565q225 0 349 -115t124 -319t-122 -318q-122 -113 -338 -112h-224v-115h381v-213h-381v-174h-354v174h-168v213h168v115h-168v246h168v618z" />
    <glyph glyph-name="uni20B6" unicode="&#x20b9;" horiz-adv-x="1228" 
d="M651 1079h-121v-331h119q195 0 195 166t-193 165zM176 1366h565q225 0 349 -115t124 -319t-122 -318q-122 -113 -338 -112h-224v-115h381v-213h-381v-174h-354v174h-168v213h168v115h-168v246h168v618z" />
    <glyph glyph-name="uni20B6" unicode="&#x20b7;" horiz-adv-x="1228" 
d="M651 1079h-121v-331h119q195 0 195 166t-193 165zM176 1366h565q225 0 349 -115t124 -319t-122 -318q-122 -113 -338 -112h-224v-115h381v-213h-381v-174h-354v174h-168v213h168v115h-168v246h168v618z" />
    <glyph glyph-name="uni20B8" unicode="&#x20b8;" horiz-adv-x="1228" 
d="M1083 1147h-938v219h938v-219zM1083 778h-295v-778h-354v778h-289v281h938v-281z" />
    <glyph glyph-name="afii61352" unicode="&#x2116;" horiz-adv-x="2381" 
d="M1980 1180q-62 0 -102 -36q-39 -36 -39 -102t38 -103q38 -38 100 -38q63 0 101 38q38 39 38 103t-37 101t-99 37zM1667 393v195h621v-195h-621zM1979 719q-169 0 -266 95t-97 229q0 135 96 229t264 94t266 -94t97 -228q1 -134 -95 -230q-96 -95 -265 -95zM498 0h-355
v1366h355l653 -836v836h354v-1366h-354l-653 836v-836z" />
    <glyph glyph-name="uni2117" unicode="&#x2117;" horiz-adv-x="1579" 
d="M1395 682q0 246 -170 416t-409 170q-238 0 -408 -170t-170 -416t170 -416t408 -170t409 170q170 170 170 416zM1538 683q0 -138 -55 -272q-114 -278 -392 -387t-553 1t-388 385t0 545q114 278 391 387t552 0q275 -108 389 -386q56 -134 56 -273zM811 745q109 0 109 79
t-109 79h-14v-158h14zM557 1083h303q152 -1 224 -71t71 -188q0 -118 -71 -188t-222 -71h-65v-258h-240v776z" />
    <glyph glyph-name="trademark" unicode="&#x2122;" horiz-adv-x="1591" 
d="M791 588h-211l129 778h211l147 -399l158 399h211l114 -778h-211l-53 422l-174 -422h-94l-166 422zM541 1184h-166v-596h-211v596h-164v182h541v-182z" />
    <glyph glyph-name="partialdiff" unicode="&#x2202;" horiz-adv-x="1148" 
d="M352 450q0 -98 64 -161q64 -64 152 -64q89 0 153 63q63 63 63 165t-63 157q-63 56 -151 56t-154 -59q-64 -59 -64 -157zM1079 563q0 -281 -155 -446q-134 -141 -354 -141t-357 130q-143 140 -143 342t137 334q119 117 281 117t268 -82q-134 315 -578 344l35 225
q174 -12 343 -71t293 -176t177 -275t53 -301z" />
    <glyph glyph-name="product" unicode="&#x220f;" horiz-adv-x="1501" 
d="M82 1290v246h1337v-246h-168v-1556h168v-246h-600v246h150v1556h-434v-1556h145v-246h-598v246h170v1556h-170z" />
    <glyph glyph-name="summation" unicode="&#x2211;" horiz-adv-x="1366" 
d="M43 1536h1227v-506h-240l-26 260h-646l512 -743l-512 -813h664l16 266h250v-512h-1245v266l498 793l-498 723v266z" />
    <glyph glyph-name="minus" unicode="&#x2212;" 
d="M68 573v246h888v-246h-888z" />
    <glyph glyph-name="uni2215" unicode="&#x2215;" horiz-adv-x="1376" 
d="M-61 -385l1046 1878h268l-1048 -1878h-266z" />
    <glyph glyph-name="uni2219" unicode="&#x2219;" horiz-adv-x="507" 
d="M254 979q100 0 177 -74t77 -180t-75 -181t-178 -75t-179 73q-76 74 -76 182t77 182t177 73z" />
    <glyph glyph-name="radical" unicode="&#x221a;" horiz-adv-x="1366" 
d="M1366 1694v-240h-367l-337 -1454h-353l-116 555h-193v238h414l37 -172q26 -165 26 -273v-26h23l2 38q4 80 31 252t55 303l180 779h598z" />
    <glyph glyph-name="infinity" unicode="&#x221e;" horiz-adv-x="1366" 
d="M411 791q-42 0 -73 -27q-29 -29 -29 -69q0 -39 27 -67t72 -28q75 0 143 94q-20 33 -59 65t-81 32zM1057 696q0 38 -31 66q-31 29 -73 29t-81 -32t-59 -65q69 -94 141 -94q47 0 75 29t28 67zM995 1028q141 0 239 -90t97 -240q1 -150 -93 -244t-239 -94q-181 0 -309 162
q-136 -160 -321 -162q-147 0 -241 94t-93 237q0 142 94 241q96 96 238 96q179 0 309 -160q137 160 319 160z" />
    <glyph glyph-name="integral" unicode="&#x222b;" 
d="M766 1298q-117 0 -117 -145v-1102q0 -195 -8 -260q-12 -133 -97 -218t-265 -85q-90 0 -185 20l49 238q55 -20 111 -20t89 30q32 30 32 115v1102q0 235 20 321t72 142q92 100 274 100q82 0 189 -20l-49 -238q-61 20 -115 20z" />
    <glyph glyph-name="approxequal" unicode="&#x2248;" 
d="M326 662q57 0 166 -39l86 -31q90 -33 141 -33t83 30t58 77l150 -88l-13 -27q-109 -248 -297 -248q-65 0 -159 33l-66 24q-117 45 -168 46q-90 0 -147 -125l-146 96l15 31q61 133 106 176q82 78 191 78zM307 821q-90 0 -147 -125l-146 97l15 30q61 133 106 176
q82 78 191 78q57 0 166 -39l86 -30q90 -33 141 -33t83 30t58 76l150 -88l-13 -26q-109 -248 -297 -248q-65 0 -159 33l-66 24q-117 45 -168 45z" />
    <glyph glyph-name="notequal" unicode="&#x2260;" 
d="M70 965h467l112 221h209l-110 -221h208v-238h-317l-70 -137h387v-240h-493l-101 -194h-208l96 194h-180v240h288l70 137h-358v238z" />
    <glyph glyph-name="lessequal" unicode="&#x2264;" 
d="M68 240h888v-240h-888v240zM68 946l888 424v-248l-608 -288l608 -289v-248l-888 426v223z" />
    <glyph glyph-name="greaterequal" unicode="&#x2265;" 
d="M956 0h-888v240h888v-240zM956 723l-888 -426v248l608 289l-608 288v248l888 -424v-223z" />
    <glyph glyph-name="dotmath" unicode="&#x22c5;" horiz-adv-x="507" 
d="M254 979q100 0 177 -74t77 -180t-75 -181t-178 -75t-179 73q-76 74 -76 182t77 182t177 73z" />
    <glyph glyph-name="lozenge" unicode="&#x25ca;" horiz-adv-x="1677" 
d="M903 684l-221 303l-219 -303l219 -303zM152 684l530 735l532 -735l-532 -737z" />
    <glyph glyph-name="openbullet" unicode="&#x25e6;" 
d="M365 1055q0 -61 42 -103t105 -41q63 0 105 41q42 40 42 102t-42 103t-105 41t-105 -41t-42 -102zM512 743q-131 1 -223 93t-92 220t93 219t222 91t222 -89t93 -219t-92 -222t-223 -93z" />
    <glyph glyph-name="uniF400" unicode="&#xf400;" horiz-adv-x="4" 
d="M-459 1493l207 -150l-315 -278l-152 113z" />
    <glyph glyph-name="uniF401" unicode="&#xf401;" horiz-adv-x="4" 
d="M-541 1903l207 -150l-315 -278l-152 112z" />
    <glyph glyph-name="uniF406" unicode="&#xf406;" 
d="M512 1481q-174 0 -264 90t-92 225h211q6 -53 44 -87t101 -34t101 34t44 87h211q-2 -135 -92 -225t-264 -90z" />
    <glyph glyph-name="uniF407" unicode="&#xf407;" 
d="M578 -94l229 -90l-238 -299l-188 82z" />
    <glyph glyph-name="uniF408" unicode="&#xf408;" 
d="M248 1475l-139 157l401 301l405 -301l-145 -157l-260 200z" />
    <glyph glyph-name="uniF409" unicode="&#xf409;" 
d="M307 -508l107 406l307 -33l-209 -397z" />
    <glyph glyph-name="uniF40A" unicode="&#xf40a;" 
d="M303 963l111 430l307 -54l-213 -413z" />
    <glyph glyph-name="uniF40B" unicode="&#xf40b;" 
d="M513 1481q-75 0 -132 53q-55 55 -55 133t54 132t132 54t132 -54t54 -133t-55 -132t-130 -53z" />
    <glyph glyph-name="uniF40C" unicode="&#xf40c;" 
d="M512 1776q-56 0 -82 -26t-26 -56q0 -31 25 -57q26 -25 83 -25q56 0 82 25t26 57t-25 56q-26 26 -83 26zM793 1693q0 -83 -54 -137q-75 -76 -227 -76t-227 76q-53 52 -53 136t53 137q75 76 227 76t227 -76q54 -53 54 -136z" />
    <glyph glyph-name="uniF40D" unicode="&#xf40d;" 
d="M639 1481q-53 0 -119 30l-61 31q-49 25 -74 25q-57 0 -78 -86l-160 94q67 195 226 197q55 0 123 -29l59 -27q68 -31 88 -30q49 0 76 90l158 -95q-80 -200 -238 -200z" />
    <glyph glyph-name="uniF40E" unicode="&#xf40e;" 
d="M546 -395q-82 0 -131 52q-48 52 -48 115q0 62 44 126t111 102h152q-55 -36 -87 -68t-32 -69t23 -60q22 -23 66 -23t95 38l-45 -176q-66 -37 -148 -37z" />
    <glyph glyph-name="uniF4C6" unicode="&#xf4c6;" horiz-adv-x="1351" 
d="M852 1366h356v-1505q0 -178 -85 -255t-267 -77q-127 0 -194 20v234q29 -12 82 -12q52 -1 80 27t28 98v641q-135 -20 -285 -21q-265 0 -373 102t-108 324v424h356v-371q0 -100 42 -142t159 -42t209 14v541z" />
    <glyph glyph-name="uniF4C7" unicode="&#xf4c7;" horiz-adv-x="1101" 
d="M662 915h327v-1060q0 -174 -82 -250t-258 -76q-94 0 -176 16v232q25 -13 79 -13t82 30t28 114v391q-90 -23 -197 -23q-207 0 -293 86t-86 265v288h315v-266q0 -77 32 -103t108 -26t121 15v380z" />
    <glyph glyph-name="uniF4CC" unicode="&#xf4cc;" horiz-adv-x="1275" 
d="M745 1903l207 -150l-315 -278l-152 112zM0 1366h397l260 -608l228 608h379l-615 -1366h-375l191 383z" />
    <glyph glyph-name="uniF4CD" unicode="&#xf4cd;" horiz-adv-x="1236" 
d="M731 1493l207 -150l-315 -278l-152 113zM135 -469l307 594l-442 790h381l244 -469l237 469h375l-735 -1384h-367z" />
    <glyph glyph-name="dollar.fitted" unicode="&#xf5f5;" horiz-adv-x="1064" 
d="M676 413q0 47 -35 73t-98 46l-121 41q-158 53 -225 127q-88 90 -88 252t99 272t253 138v225h205v-225q150 -8 309 -105l-135 -262q-114 88 -214 88q-100 1 -135 -31t-35 -72t29 -69q35 -31 95 -51l106 -37q160 -53 238 -129q102 -100 102 -250q0 -188 -115 -309
q-92 -94 -245 -133v-231h-205v221q-117 2 -229 48t-201 118l147 274q155 -151 328 -151q86 0 128 42t42 90z" />
    <glyph glyph-name="Euro.fitted" unicode="&#xf5f6;" horiz-adv-x="1323" 
d="M842 -31q-268 0 -430 125t-213 346h-160l74 185h61q-4 47 0 102h-135l74 184h88q53 219 231 351t451 133q213 0 372 -90l-118 -299q-123 78 -257 78t-212 -46q-82 -43 -111 -127h549l-74 -184h-512q-6 -45 2 -102h469l-73 -185h-351q33 -76 113 -118t197 -41
q192 -1 317 108v-342q-154 -78 -352 -78z" />
    <glyph glyph-name="cent.fitted" unicode="&#xf5f7;" horiz-adv-x="819" 
d="M455 1352h192v-187q55 -4 107 -30v-295q-70 70 -163 70t-158 -66q-65 -64 -65 -161t66 -157t158 -61q92 0 162 70v-295q-55 -27 -107 -29v-191h-192v179q-174 25 -293 143q-137 141 -137 349t145 349q111 111 285 138v174z" />
    <glyph glyph-name="sterling.fitted" unicode="&#xf5f8;" horiz-adv-x="1277" 
d="M76 516v197h147q-49 115 -49 217q0 190 138 325t390 135t376 -124q124 -125 124 -338q0 -37 -2 -51h-356q2 16 2 49q0 94 -48 140t-118 46t-118 -53t-48 -141t51 -205h314v-197h-256q8 -57 8 -106t-17 -109l97 -29q137 -41 186 -41t73 26t23 65h221q-4 -174 -114 -277
q-80 -74 -190 -74t-236 41l-78 25q-98 31 -188 31t-119 -68h-236q27 143 105 224t186 98q32 100 -12 194h-256z" />
    <glyph glyph-name="yen.fitted" unicode="&#xf5f9;" horiz-adv-x="1300" 
d="M127 674v215h205l-289 477h403l205 -393l197 393h409l-301 -477h215v-215h-350l-12 -19v-108h362v-213h-362v-334h-336v334h-346v213h346v108l-12 19h-334z" />
    <glyph glyph-name="florin.fitted" unicode="&#xf5fa;" horiz-adv-x="1265" 
d="M1024 1516q119 0 219 -52l-53 -284q-58 45 -122 45t-99 -37q-29 -35 -49 -139l-25 -134h199l-37 -196h-199l-94 -526q-57 -317 -184 -447t-383 -131q-96 0 -177 18l54 299q52 -18 132 -18t130 45q63 55 102 272l88 488h-155l32 196h160l43 228q35 176 119 262
q109 111 299 111z" />
    <glyph glyph-name="uni20B4.fitted" unicode="&#xf5fb;" horiz-adv-x="1167" 
d="M567 -43q-215 0 -333 75t-117 216q0 76 49 139h-119v213h264l135 127h-399v215h569q33 33 33 75t-33 68q-39 27 -106 27q-121 0 -242 -92l-137 260q219 117 492 117q205 0 309 -78t104 -213q0 -98 -59 -164h139v-215h-309l-135 -127h444v-213h-598q-27 -27 -26 -63
q0 -88 164 -87t307 76l141 -241q-238 -115 -537 -115z" />
    <glyph glyph-name="uni20B6.fitted" unicode="&#xf5fc;" horiz-adv-x="1288" 
d="M692 1079h-121v-331h119q195 0 195 166t-193 165zM217 1366h565q226 0 350 -115t124 -319t-124 -318q-122 -113 -337 -112h-224v-115h381v-213h-381v-174h-354v174h-168v213h168v115h-168v246h168v618z" />
    <glyph glyph-name="uni20B8.fitted" unicode="&#xf5fd;" horiz-adv-x="1015" 
d="M977 1147h-938v219h938v-219zM977 778h-295v-778h-354v778h-289v281h938v-281z" />
    <glyph glyph-name="numbersign.fitted" unicode="&#xf5ff;" horiz-adv-x="1302" 
d="M725 612l27 170h-174l-27 -170h174zM997 612h207l-35 -239h-208l-60 -373h-274l61 373h-174l-59 -373h-271l62 373h-209l37 239h207l28 170h-207l37 238h207l55 346h271l-58 -346h174l56 346h272l-55 -346h205l-37 -238h-205z" />
    <glyph glyph-name="uniF639" unicode="&#xf639;" horiz-adv-x="1277" 
d="M1219 683q0 -359 -203 -558q-158 -156 -377 -156t-377 156q-203 199 -203 558t203 558q158 156 377 156t377 -156q203 -199 203 -558zM444 885q-61 -194 -2 -399q60 -205 195 -205t197 197t0 399t-196 202q-133 0 -194 -194z" />
    <glyph glyph-name="uniF63A" unicode="&#xf63a;" horiz-adv-x="1218" 
d="M606 1094q-70 0 -114 -56t-48 -168h-366q2 230 150 378t390 148t379 -136q137 -138 137 -348t-202 -398l-230 -213h447v-301h-1096l346 362q355 372 355 552t-148 180z" />
    <glyph glyph-name="uniF63B" unicode="&#xf63b;" horiz-adv-x="1193" 
d="M782 454q0 70 -50 112t-134 42q-35 0 -59 -8v240q90 -12 140 30t50 102t-37 97t-100 37t-104 -39t-42 -117h-329q10 190 133 314q127 133 352 133t342 -116t117 -269q0 -94 -40 -167t-106 -106q99 -37 159 -123t61 -202q0 -178 -121 -299q-144 -145 -396 -145t-403 141
q-150 137 -170 356h363q4 -86 54 -138q50 -53 137 -53t135 54t48 124z" />
    <glyph glyph-name="uniF63C" unicode="&#xf63c;" horiz-adv-x="1232" 
d="M686 530v557l-321 -557h321zM1014 1366v-836h166v-272h-166v-258h-328v258h-661v227l526 881h463z" />
    <glyph glyph-name="uniF63D" unicode="&#xf63d;" horiz-adv-x="1132" 
d="M477 266q115 0 173 62t58 149q0 86 -70 149q-70 62 -224 62t-269 -57l119 735h711v-301h-473l-25 -152q63 10 111 11q229 0 360 -136q125 -126 125 -328q-1 -202 -141 -346t-411 -145q-271 0 -466 123l54 332q171 -158 368 -158z" />
    <glyph glyph-name="uniF63E" unicode="&#xf63e;" horiz-adv-x="1245" 
d="M614 250q94 0 158 63t64 151t-65 149q-65 63 -155 63t-156 -60t-67 -147t63 -153t158 -66zM760 944q178 0 308 -130t130 -336t-141 -347q-163 -162 -443 -162t-442 166q-125 129 -125 320q0 242 203 510l305 401h403l-389 -465q96 43 191 43z" />
    <glyph glyph-name="uniF63F" unicode="&#xf63f;" horiz-adv-x="1257" 
d="M123 1065v301h1120l-782 -1366h-391l622 1065h-569z" />
    <glyph glyph-name="uniF640" unicode="&#xf640;" horiz-adv-x="1161" 
d="M743 416q-1 68 -49 114t-112 45q-64 0 -117 -47q-49 -48 -49 -114t48 -114t116 -48t116 48t47 116zM576 1159q-62 0 -104 -46t-42 -101q0 -56 43 -102t105 -46t107 44q44 44 44 106t-46 104q-45 42 -107 41zM170 631q56 55 160 88q-74 29 -123 78q-92 93 -92 231t112 244
q135 125 363 125t354 -131q100 -100 100 -240q0 -231 -223 -307q102 -31 176 -105q105 -102 105 -245t-111 -254q-145 -145 -411 -145t-410 143q-113 113 -113 259q-1 147 113 259z" />
    <glyph glyph-name="uniF641" unicode="&#xf641;" horiz-adv-x="1253" 
d="M636 1116q-91 0 -158 -66q-66 -66 -66 -154q0 -87 66 -148q66 -62 157 -62q92 0 160 60q67 60 67 150t-65 155q-70 65 -161 65zM498 418q-186 0 -318 130t-133 332q0 202 137 345q168 172 446 172t441 -162q135 -139 135 -338q0 -233 -207 -502l-305 -395h-401l387 461
q-80 -43 -182 -43z" />
    <glyph glyph-name="uniF6BA" unicode="&#xf6ba;" horiz-adv-x="722" 
d="M102 561v273h519v-273h-519z" />
    <glyph glyph-name="uniF6BB" unicode="&#xf6bb;" horiz-adv-x="1175" 
d="M143 563v271h889v-271h-889z" />
    <glyph glyph-name="uniF6BC" unicode="&#xf6bc;" horiz-adv-x="1857" 
d="M143 563v271h1571v-271h-1571z" />
    <glyph glyph-name="uniF6C3" unicode="&#xf6c3;" 
d="M307 -487l107 385l307 -33l-209 -377z" />
    <glyph glyph-name="uniF6C9" unicode="&#xf6c9;" 
d="M621 1903l206 -150l-315 -278l-152 112z" />
    <glyph glyph-name="uniF6CA" unicode="&#xf6ca;" 
d="M510 1475l-401 301l139 157l262 -200l260 200l145 -157z" />
    <glyph glyph-name="uniF6CB" unicode="&#xf6cb;" 
d="M280 1837q72 0 124 -53t52 -123t-52 -125q-53 -55 -126 -55t-124 56t-52 122q0 66 54 125q53 53 124 53zM744 1837q70 0 124 -53t54 -123t-54 -125t-126 -55q-73 0 -124 56t-51 122t54 125q53 53 123 53z" />
    <glyph glyph-name="uniF6CE" unicode="&#xf6ce;" 
d="M512 1475l-315 278l209 150l258 -316z" />
    <glyph glyph-name="uniF6CF" unicode="&#xf6cf;" 
d="M803 1903l172 -150l-281 -278l-112 112zM449 1903l169 -150l-280 -278l-111 112z" />
    <glyph glyph-name="uniF6D0" unicode="&#xf6d0;" 
d="M127 1534v201h770v-201h-770z" />
    <glyph glyph-name="uniF6D1" unicode="&#xf6d1;" 
d="M940 1743q-91 -252 -428 -252t-428 252l238 90q41 -129 190 -129t190 129z" />
    <glyph glyph-name="uniF6D4" unicode="&#xf6d4;" 
d="M512 1257q121 0 158 127l219 -77q-33 -123 -131 -185t-246 -61q-148 -1 -246 61t-131 185l219 77q37 -127 158 -127z" />
    <glyph glyph-name="uniF6DC" unicode="&#xf6dc;" horiz-adv-x="673" 
d="M233 0v1065h-194v301h549v-1366h-355z" />
    <glyph glyph-name="uniF6DE" unicode="&#xf6de;" horiz-adv-x="1392" 
d="M106 408v270h1180v-270h-1180z" />
    <glyph glyph-name="nbspace" horiz-adv-x="477" 
 />
    <glyph glyph-name="hyphenminus" horiz-adv-x="722" 
d="M102 414v272h519v-272h-519z" />
    <glyph glyph-name="dotlessi1" horiz-adv-x="546" 
d="M109 915h327v-915h-327v915z" />
    </font>
</defs>
</svg>
